  0
SECTION
  2
HEADER
  9
$ACADVER
  1
AC1018
  9
$ACADMAINTVER
 70
    76
  9
$DWGCODEPAGE
  3
ANSI_1252
  9
$AUTHOR
  1
ScheitB
  9
$CUSTOMPROPERTYTAG
  1
Manager
  9
$CUSTOMPROPERTY
  1

  9
$CUSTOMPROPERTYTAG
  1
Firma
  9
$CUSTOMPROPERTY
  1

  9
$CUSTOMPROPERTYTAG
  1
Kategorie
  9
$CUSTOMPROPERTY
  1

  9
$CUSTOMPROPERTYTAG
  1
Bauteilnummer
  9
$CUSTOMPROPERTY
  1
ecstb02a
  9
$CUSTOMPROPERTYTAG
  1
Bezeichnung
  9
$CUSTOMPROPERTY
  1

  9
$CUSTOMPROPERTYTAG
  1
Projekt
  9
$CUSTOMPROPERTY
  1

  9
$CUSTOMPROPERTYTAG
  1
Konstrukteur
  9
$CUSTOMPROPERTY
  1
ScheitB
  9
$CUSTOMPROPERTYTAG
  1
Ingenieur
  9
$CUSTOMPROPERTY
  1

  9
$CUSTOMPROPERTYTAG
  1
Bevollmächtigter
  9
$CUSTOMPROPERTY
  1

  9
$CUSTOMPROPERTYTAG
  1
Kostenstelle
  9
$CUSTOMPROPERTY
  1

  9
$CUSTOMPROPERTYTAG
  1
Händler
  9
$CUSTOMPROPERTY
  1

  9
$CUSTOMPROPERTYTAG
  1
Benutzerstatus
  9
$CUSTOMPROPERTY
  1

  9
$CUSTOMPROPERTYTAG
  1
Konstruktionsstatus
  9
$CUSTOMPROPERTY
  1
InBearbeitung
  9
$CUSTOMPROPERTYTAG
  1
Überprüft von
  9
$CUSTOMPROPERTY
  1

  9
$CUSTOMPROPERTYTAG
  1
Konstruktion genehmigt von
  9
$CUSTOMPROPERTY
  1

  9
$CUSTOMPROPERTYTAG
  1
Fertigung genehmigt von
  9
$CUSTOMPROPERTY
  1

  9
$CUSTOMPROPERTYTAG
  1
AmdtFileType
  9
$CUSTOMPROPERTY
  1
84
  9
$INSBASE
 10
0.0
 20
0.0
 30
0.0
  9
$EXTMIN
 10
0.0
 20
0.0
 30
0.0
  9
$EXTMAX
 10
297.0
 20
210.0
 30
0.0
  9
$LIMMIN
 10
0.0
 20
0.0
  9
$LIMMAX
 10
297.0
 20
210.0
  9
$ORTHOMODE
 70
     0
  9
$REGENMODE
 70
     1
  9
$FILLMODE
 70
     1
  9
$QTEXTMODE
 70
     0
  9
$MIRRTEXT
 70
     0
  9
$LTSCALE
 40
1.0
  9
$ATTMODE
 70
     1
  9
$TEXTSIZE
 40
0.2
  9
$TRACEWID
 40
0.05
  9
$TEXTSTYLE
  7
Standard
  9
$CLAYER
  8
0
  9
$CELTYPE
  6
ByLayer
  9
$CECOLOR
 62
   256
  9
$CELTSCALE
 40
1.0
  9
$DISPSILH
 70
     0
  9
$DIMSCALE
 40
1.0
  9
$DIMASZ
 40
1.799999999999999
  9
$DIMEXO
 40
0.0625
  9
$DIMDLI
 40
0.38
  9
$DIMRND
 40
0.0
  9
$DIMDLE
 40
0.0
  9
$DIMEXE
 40
0.18
  9
$DIMTP
 40
0.0
  9
$DIMTM
 40
0.0
  9
$DIMTXT
 40
0.25
  9
$DIMCEN
 40
0.09
  9
$DIMTSZ
 40
0.0
  9
$DIMTOL
 70
     0
  9
$DIMLIM
 70
     0
  9
$DIMTIH
 70
     1
  9
$DIMTOH
 70
     1
  9
$DIMSE1
 70
     0
  9
$DIMSE2
 70
     0
  9
$DIMTAD
 70
     0
  9
$DIMZIN
 70
     0
  9
$DIMBLK
  1

  9
$DIMASO
 70
     1
  9
$DIMSHO
 70
     1
  9
$DIMPOST
  1

  9
$DIMAPOST
  1

  9
$DIMALT
 70
     0
  9
$DIMALTD
 70
     2
  9
$DIMALTF
 40
25.4
  9
$DIMLFAC
 40
1.0
  9
$DIMTOFL
 70
     0
  9
$DIMTVP
 40
0.0
  9
$DIMTIX
 70
     0
  9
$DIMSOXD
 70
     0
  9
$DIMSAH
 70
     0
  9
$DIMBLK1
  1

  9
$DIMBLK2
  1

  9
$DIMSTYLE
  2
Standard
  9
$DIMCLRD
 70
     0
  9
$DIMCLRE
 70
     0
  9
$DIMCLRT
 70
     0
  9
$DIMTFAC
 40
1.0
  9
$DIMGAP
 40
0.09
  9
$DIMJUST
 70
     0
  9
$DIMSD1
 70
     0
  9
$DIMSD2
 70
     0
  9
$DIMTOLJ
 70
     1
  9
$DIMTZIN
 70
     0
  9
$DIMALTZ
 70
     0
  9
$DIMALTTZ
 70
     0
  9
$DIMUPT
 70
     0
  9
$DIMDEC
 70
     4
  9
$DIMTDEC
 70
     4
  9
$DIMALTU
 70
     2
  9
$DIMALTTD
 70
     2
  9
$DIMTXSTY
  7
Standard
  9
$DIMAUNIT
 70
     0
  9
$DIMADEC
 70
     0
  9
$DIMALTRND
 40
0.0
  9
$DIMAZIN
 70
     0
  9
$DIMDSEP
 70
    46
  9
$DIMATFIT
 70
     3
  9
$DIMFRAC
 70
     0
  9
$DIMLDRBLK
  1

  9
$DIMLUNIT
 70
     2
  9
$DIMLWD
 70
    -2
  9
$DIMLWE
 70
    -2
  9
$DIMTMOVE
 70
     0
  9
$LUNITS
 70
     2
  9
$LUPREC
 70
     4
  9
$SKETCHINC
 40
0.1
  9
$FILLETRAD
 40
0.0
  9
$AUNITS
 70
     0
  9
$AUPREC
 70
     0
  9
$MENU
  1
.
  9
$ELEVATION
 40
0.0
  9
$PELEVATION
 40
0.0
  9
$THICKNESS
 40
0.0
  9
$LIMCHECK
 70
     0
  9
$CHAMFERA
 40
0.0
  9
$CHAMFERB
 40
0.0
  9
$CHAMFERC
 40
0.0
  9
$CHAMFERD
 40
0.0
  9
$SKPOLY
 70
     0
  9
$TDCREATE
 40
2454070.355114294
  9
$TDUCREATE
 40
2454070.313447628
  9
$TDUPDATE
 40
2454070.355114294
  9
$TDUUPDATE
 40
2454070.313447628
  9
$TDINDWG
 40
0.0001289468
  9
$TDUSRTIMER
 40
0.0001289468
  9
$USRTIMER
 70
     1
  9
$ANGBASE
 50
0.0
  9
$ANGDIR
 70
     0
  9
$PDMODE
 70
     0
  9
$PDSIZE
 40
0.0
  9
$PLINEWID
 40
0.0
  9
$SPLFRAME
 70
     0
  9
$SPLINETYPE
 70
     6
  9
$SPLINESEGS
 70
     8
  9
$HANDSEED
  5
B85
  9
$SURFTAB1
 70
     6
  9
$SURFTAB2
 70
     6
  9
$SURFTYPE
 70
     6
  9
$SURFU
 70
     6
  9
$SURFV
 70
     6
  9
$UCSBASE
  2

  9
$UCSNAME
  2

  9
$UCSORG
 10
0.0
 20
0.0
 30
0.0
  9
$UCSXDIR
 10
1.0
 20
0.0
 30
0.0
  9
$UCSYDIR
 10
0.0
 20
1.0
 30
0.0
  9
$UCSORTHOREF
  2

  9
$UCSORTHOVIEW
 70
     0
  9
$UCSORGTOP
 10
0.0
 20
0.0
 30
0.0
  9
$UCSORGBOTTOM
 10
0.0
 20
0.0
 30
0.0
  9
$UCSORGLEFT
 10
0.0
 20
0.0
 30
0.0
  9
$UCSORGRIGHT
 10
0.0
 20
0.0
 30
0.0
  9
$UCSORGFRONT
 10
0.0
 20
0.0
 30
0.0
  9
$UCSORGBACK
 10
0.0
 20
0.0
 30
0.0
  9
$PUCSBASE
  2

  9
$PUCSNAME
  2

  9
$PUCSORG
 10
0.0
 20
0.0
 30
0.0
  9
$PUCSXDIR
 10
1.0
 20
0.0
 30
0.0
  9
$PUCSYDIR
 10
0.0
 20
1.0
 30
0.0
  9
$PUCSORTHOREF
  2

  9
$PUCSORTHOVIEW
 70
     0
  9
$PUCSORGTOP
 10
0.0
 20
0.0
 30
0.0
  9
$PUCSORGBOTTOM
 10
0.0
 20
0.0
 30
0.0
  9
$PUCSORGLEFT
 10
0.0
 20
0.0
 30
0.0
  9
$PUCSORGRIGHT
 10
0.0
 20
0.0
 30
0.0
  9
$PUCSORGFRONT
 10
0.0
 20
0.0
 30
0.0
  9
$PUCSORGBACK
 10
0.0
 20
0.0
 30
0.0
  9
$USERI1
 70
     0
  9
$USERI2
 70
     0
  9
$USERI3
 70
     0
  9
$USERI4
 70
     0
  9
$USERI5
 70
     0
  9
$USERR1
 40
0.0
  9
$USERR2
 40
0.0
  9
$USERR3
 40
0.0
  9
$USERR4
 40
0.0
  9
$USERR5
 40
0.0
  9
$WORLDVIEW
 70
     1
  9
$SHADEDGE
 70
     3
  9
$SHADEDIF
 70
    70
  9
$TILEMODE
 70
     1
  9
$MAXACTVP
 70
    64
  9
$PINSBASE
 10
0.0
 20
0.0
 30
0.0
  9
$PLIMCHECK
 70
     0
  9
$PEXTMIN
 10
0.0
 20
0.0
 30
0.0
  9
$PEXTMAX
 10
297.0
 20
210.0
 30
0.0
  9
$PLIMMIN
 10
0.0
 20
0.0
  9
$PLIMMAX
 10
297.0
 20
210.0
  9
$UNITMODE
 70
     0
  9
$VISRETAIN
 70
     1
  9
$PLINEGEN
 70
     0
  9
$PSLTSCALE
 70
     1
  9
$TREEDEPTH
 70
  3020
  9
$CMLSTYLE
  2
Standard
  9
$CMLJUST
 70
     0
  9
$CMLSCALE
 40
1.0
  9
$PROXYGRAPHICS
 70
     1
  9
$MEASUREMENT
 70
     1
  9
$CELWEIGHT
370
    -1
  9
$ENDCAPS
280
     0
  9
$JOINSTYLE
280
     0
  9
$LWDISPLAY
290
     0
  9
$INSUNITS
 70
     0
  9
$HYPERLINKBASE
  1

  9
$STYLESHEET
  1

  9
$XEDIT
290
     1
  9
$CEPSNTYPE
380
     0
  9
$PSTYLEMODE
290
     1
  9
$FINGERPRINTGUID
  2
{1B178911-3D22-4011-B9F4-759BD7E518E3}
  9
$VERSIONGUID
  2
{D0CA0619-7DB3-4A55-A290-80776B9A4347}
  9
$EXTNAMES
290
     1
  9
$PSVPSCALE
 40
0.0
  9
$OLESTARTUP
290
     0
  9
$SORTENTS
280
   127
  9
$INDEXCTL
280
     0
  9
$HIDETEXT
280
     1
  9
$XCLIPFRAME
290
     0
  9
$HALOGAP
280
     0
  9
$OBSCOLOR
 70
   257
  9
$OBSLTYPE
280
     0
  9
$INTERSECTIONDISPLAY
280
     0
  9
$INTERSECTIONCOLOR
 70
   257
  9
$DIMASSOC
280
     1
  9
$PROJECTNAME
  1

  0
ENDSEC
  0
SECTION
  2
CLASSES
  0
CLASS
  1
ACDBDICTIONARYWDFLT
  2
AcDbDictionaryWithDefault
  3
ObjectDBX Classes
 90
        0
 91
        1
280
     0
281
     0
  0
CLASS
  1
TABLESTYLE
  2
AcDbTableStyle
  3
ObjectDBX Classes
 90
     2047
 91
        1
280
     0
281
     0
  0
CLASS
  1
DICTIONARYVAR
  2
AcDbDictionaryVar
  3
ObjectDBX Classes
 90
        0
 91
        1
280
     0
281
     0
  0
ENDSEC
  0
SECTION
  2
TABLES
  0
TABLE
  2
VPORT
  5
8
330
0
100
AcDbSymbolTable
 70
     1
  0
VPORT
  5
13
330
8
100
AcDbSymbolTableRecord
100
AcDbViewportTableRecord
  2
*Active
 70
     0
 10
0.0
 20
0.0
 11
1.0
 21
1.0
 12
148.5
 22
105.0
 13
0.0
 23
0.0
 14
1.0
 24
1.0
 15
0.0
 25
0.0
 16
0.0
 26
0.0
 36
1.0
 17
0.0
 27
0.0
 37
0.0
 40
210.0
 41
1.414285714285714
 42
50.0
 43
0.0
 44
0.0
 50
0.0
 51
0.0
 71
     0
 72
   100
 73
     1
 74
     1
 75
     0
 76
     0
 77
     0
 78
     0
281
     0
 65
     1
110
0.0
120
0.0
130
0.0
111
1.0
121
0.0
131
0.0
112
0.0
122
1.0
132
0.0
 79
     0
146
0.0
  0
ENDTAB
  0
TABLE
  2
LTYPE
  5
5
330
0
100
AcDbSymbolTable
 70
    59
  0
LTYPE
  5
14
330
5
100
AcDbSymbolTableRecord
100
AcDbLinetypeTableRecord
  2
ByBlock
 70
     0
  3

 72
    65
 73
     0
 40
0.0
  0
LTYPE
  5
15
330
5
100
AcDbSymbolTableRecord
100
AcDbLinetypeTableRecord
  2
ByLayer
 70
     0
  3

 72
    65
 73
     0
 40
0.0
  0
LTYPE
  5
16
330
5
100
AcDbSymbolTableRecord
100
AcDbLinetypeTableRecord
  2
Continuous
 70
     0
  3
Solid line
 72
    65
 73
     0
 40
0.0
  0
LTYPE
  5
2C
330
5
100
AcDbSymbolTableRecord
100
AcDbLinetypeTableRecord
  2
Section_View_Lines
 70
     0
  3
Section View Lines
 72
    65
 73
     4
 40
0.8406
 49
0.6614
 74
     0
 49
-0.0827
 74
     0
 49
0.0138
 74
     0
 49
-0.0827
 74
     0
  0
LTYPE
  5
2D
330
5
100
AcDbSymbolTableRecord
100
AcDbLinetypeTableRecord
  2
CHAIN
 70
     0
  3
Chain ____ _ ____ _ ____ _ ____ _ ____ _ ____
 72
    65
 73
     4
 40
0.3543
 49
0.2362
 74
     0
 49
-0.0295
 74
     0
 49
0.0591
 74
     0
 49
-0.0295
 74
     0
  0
LTYPE
  5
2E
330
5
100
AcDbSymbolTableRecord
100
AcDbLinetypeTableRecord
  2
DASH_DOT
 70
     0
  3
Dash dot _._._._._._._._._._._._._._._.
 72
    65
 73
     4
 40
0.37
 49
0.24
 74
     0
 49
-0.06
 74
     0
 49
0.01
 74
     0
 49
-0.06
 74
     0
  0
LTYPE
  5
2F
330
5
100
AcDbSymbolTableRecord
100
AcDbLinetypeTableRecord
  2
DASH_DOUBLE_DOT
 70
     0
  3
Dash Double Dot __ __ . __ __ . __ __ . __ _
 72
    65
 73
     6
 40
0.4398
 49
0.24
 74
     0
 49
-0.06
 74
     0
 49
0.0098
 74
     0
 49
-0.06
 74
     0
 49
0.01
 74
     0
 49
-0.06
 74
     0
  0
LTYPE
  5
30
330
5
100
AcDbSymbolTableRecord
100
AcDbLinetypeTableRecord
  2
DASH_TRIPLE_DOT
 70
     0
  3
Dash Triple-Dot _ . . . _ . . . _ . . . _
 72
    65
 73
     8
 40
0.51
 49
0.24
 74
     0
 49
-0.06
 74
     0
 49
0.01
 74
     0
 49
-0.06
 74
     0
 49
0.01
 74
     0
 49
-0.06
 74
     0
 49
0.01
 74
     0
 49
-0.06
 74
     0
  0
LTYPE
  5
31
330
5
100
AcDbSymbolTableRecord
100
AcDbLinetypeTableRecord
  2
DASHED
 70
     0
  3
Dashed __ __ __ __ __ __ __ __ __ __ __ __ __ _
 72
    65
 73
     2
 40
0.2067
 49
0.1654
 74
     0
 49
-0.0413
 74
     0
  0
LTYPE
  5
32
330
5
100
AcDbSymbolTableRecord
100
AcDbLinetypeTableRecord
  2
DASHED_SPACE
 70
     0
  3
Dashed Space _._._._._._._._._._._._._._._.
 72
    65
 73
     2
 40
0.2067
 49
0.1654
 74
     0
 49
-0.0413
 74
     0
  0
LTYPE
  5
33
330
5
100
AcDbSymbolTableRecord
100
AcDbLinetypeTableRecord
  2
DOTTED
 70
     0
  3
Dotted . . . . . . . . . . . . . . . . . . . . 
 72
    65
 73
     2
 40
0.0482
 49
0.0069
 74
     0
 49
-0.0413
 74
     0
  0
LTYPE
  5
34
330
5
100
AcDbSymbolTableRecord
100
AcDbLinetypeTableRecord
  2
DOUBLE_DASH_CHAIN
 70
     0
  3
Double Dash Chain ___ _ _ ___ _ _ ___ _ _ ___ _
 72
    65
 73
     6
 40
1.240299999999999
 49
0.6614
 74
     0
 49
-0.0827
 74
     0
 49
0.1654
 74
     0
 49
-0.0827
 74
     0
 49
0.1654
 74
     0
 49
-0.0827
 74
     0
  0
LTYPE
  5
35
330
5
100
AcDbSymbolTableRecord
100
AcDbLinetypeTableRecord
  2
DOUBLE_DASH_DOT
 70
     0
  3
Double Dash Dot __ __ . __ __ . __ __ . __ _
 72
    65
 73
     6
 40
0.67
 49
0.24
 74
     0
 49
-0.06
 74
     0
 49
0.24
 74
     0
 49
-0.06
 74
     0
 49
0.01
 74
     0
 49
-0.06
 74
     0
  0
LTYPE
  5
36
330
5
100
AcDbSymbolTableRecord
100
AcDbLinetypeTableRecord
  2
DOUBLE_DASH_DOUBLE_DOT
 70
     0
  3
Double-dash double-dot _ _ . . _ _ . . _
 72
    65
 73
     8
 40
0.7400000000000001
 49
0.24
 74
     0
 49
-0.06
 74
     0
 49
0.24
 74
     0
 49
-0.06
 74
     0
 49
0.01
 74
     0
 49
-0.06
 74
     0
 49
0.01
 74
     0
 49
-0.06
 74
     0
  0
LTYPE
  5
37
330
5
100
AcDbSymbolTableRecord
100
AcDbLinetypeTableRecord
  2
DOUBLE_DASH_TRIPLE_DOT
 70
     0
  3
Double Dash Triple Dot __ __ . . . __ __ . . .
 72
    65
 73
    10
 40
0.8100000000000001
 49
0.24
 74
     0
 49
-0.06
 74
     0
 49
0.24
 74
     0
 49
-0.06
 74
     0
 49
0.01
 74
     0
 49
-0.06
 74
     0
 49
0.01
 74
     0
 49
-0.06
 74
     0
 49
0.01
 74
     0
 49
-0.06
 74
     0
  0
LTYPE
  5
38
330
5
100
AcDbSymbolTableRecord
100
AcDbLinetypeTableRecord
  2
LONG_DASH_DOTTED
 70
     0
  3
Long-Dash Dot ____ . ____ . ____ . ____ . _
 72
    65
 73
     4
 40
0.3001
 49
0.2362
 74
     0
 49
-0.0295
 74
     0
 49
0.0049
 74
     0
 49
-0.0295
 74
     0
  0
LTYPE
  5
39
330
5
100
AcDbSymbolTableRecord
100
AcDbLinetypeTableRecord
  2
LONG_DASH_DOUBLE_DOT
 70
     0
  3
Long Dash Double Dot ____ . . ____ . . ____ . .
 72
    65
 73
     6
 40
0.3345
 49
0.2362
 74
     0
 49
-0.0295
 74
     0
 49
0.0049
 74
     0
 49
-0.0295
 74
     0
 49
0.0049
 74
     0
 49
-0.0295
 74
     0
  0
LTYPE
  5
3A
330
5
100
AcDbSymbolTableRecord
100
AcDbLinetypeTableRecord
  2
LONG_DASH_TRIPLE_DOT
 70
     0
  3
Long Dash Triple Dot ____ ... ____ ... ____
 72
    65
 73
     8
 40
0.75
 49
0.48
 74
     0
 49
-0.06
 74
     0
 49
0.01
 74
     0
 49
-0.06
 74
     0
 49
0.01
 74
     0
 49
-0.06
 74
     0
 49
0.01
 74
     0
 49
-0.06
 74
     0
  0
LTYPE
  5
3B
330
5
100
AcDbSymbolTableRecord
100
AcDbLinetypeTableRecord
  2
BORDER
 70
     0
  3
Border __ __ . __ __ . __ __ . __ __ . __ __ .
 72
    65
 73
     6
 40
44.45
 49
12.7
 74
     0
 49
-6.349999999999999
 74
     0
 49
12.7
 74
     0
 49
-6.349999999999999
 74
     0
 49
0.0
 74
     0
 49
-6.349999999999999
 74
     0
  0
LTYPE
  5
3C
330
5
100
AcDbSymbolTableRecord
100
AcDbLinetypeTableRecord
  2
BORDER2
 70
     0
  3
Border (.5x) __.__.__.__.__.__.__.__.__.__.__.
 72
    65
 73
     6
 40
22.225
 49
6.349999999999999
 74
     0
 49
-3.174999999999999
 74
     0
 49
6.349999999999999
 74
     0
 49
-3.174999999999999
 74
     0
 49
0.0
 74
     0
 49
-3.174999999999999
 74
     0
  0
LTYPE
  5
3D
330
5
100
AcDbSymbolTableRecord
100
AcDbLinetypeTableRecord
  2
BORDERX2
 70
     0
  3
Border (2x) ____  ____  .  ____  ____  .  ___
 72
    65
 73
     6
 40
88.9
 49
25.4
 74
     0
 49
-12.7
 74
     0
 49
25.4
 74
     0
 49
-12.7
 74
     0
 49
0.0
 74
     0
 49
-12.7
 74
     0
  0
LTYPE
  5
3E
330
5
100
AcDbSymbolTableRecord
100
AcDbLinetypeTableRecord
  2
CENTER
 70
     0
  3
Center ____ _ ____ _ ____ _ ____ _ ____ _ ____
 72
    65
 73
     4
 40
50.8
 49
31.75
 74
     0
 49
-6.349999999999999
 74
     0
 49
6.349999999999999
 74
     0
 49
-6.349999999999999
 74
     0
  0
LTYPE
  5
3F
330
5
100
AcDbSymbolTableRecord
100
AcDbLinetypeTableRecord
  2
CENTER2
 70
     0
  3
Center (.5x) ___ _ ___ _ ___ _ ___ _ ___ _ ___
 72
    65
 73
     4
 40
28.575
 49
19.05
 74
     0
 49
-3.174999999999999
 74
     0
 49
3.174999999999999
 74
     0
 49
-3.174999999999999
 74
     0
  0
LTYPE
  5
40
330
5
100
AcDbSymbolTableRecord
100
AcDbLinetypeTableRecord
  2
CENTERX2
 70
     0
  3
Center (2x) ________  __  ________  __  _____
 72
    65
 73
     4
 40
101.6
 49
63.5
 74
     0
 49
-12.7
 74
     0
 49
12.7
 74
     0
 49
-12.7
 74
     0
  0
LTYPE
  5
41
330
5
100
AcDbSymbolTableRecord
100
AcDbLinetypeTableRecord
  2
DASHDOT2
 70
     0
  3
Dash dot (.5x) _._._._._._._._._._._._._._._.
 72
    65
 73
     4
 40
12.7
 49
6.349999999999999
 74
     0
 49
-3.174999999999999
 74
     0
 49
0.0
 74
     0
 49
-3.174999999999999
 74
     0
  0
LTYPE
  5
42
330
5
100
AcDbSymbolTableRecord
100
AcDbLinetypeTableRecord
  2
DASHDOTX2
 70
     0
  3
Dash dot (2x) ____  .  ____  .  ____  .  ___
 72
    65
 73
     4
 40
50.8
 49
25.4
 74
     0
 49
-12.7
 74
     0
 49
0.0
 74
     0
 49
-12.7
 74
     0
  0
LTYPE
  5
43
330
5
100
AcDbSymbolTableRecord
100
AcDbLinetypeTableRecord
  2
DASHED2
 70
     0
  3
Dashed (.5x) _ _ _ _ _ _ _ _ _ _ _ _ _ _ _ _ _
 72
    65
 73
     2
 40
9.524999999999998
 49
6.349999999999999
 74
     0
 49
-3.174999999999999
 74
     0
  0
LTYPE
  5
44
330
5
100
AcDbSymbolTableRecord
100
AcDbLinetypeTableRecord
  2
DASHEDX2
 70
     0
  3
Dashed (2x) ____  ____  ____  ____  ____  ___
 72
    65
 73
     2
 40
38.1
 49
25.4
 74
     0
 49
-12.7
 74
     0
  0
LTYPE
  5
45
330
5
100
AcDbSymbolTableRecord
100
AcDbLinetypeTableRecord
  2
DIVIDE
 70
     0
  3
Divide ____ . . ____ . . ____ . . ____ . . ____
 72
    65
 73
     6
 40
31.75
 49
12.7
 74
     0
 49
-6.349999999999999
 74
     0
 49
0.0
 74
     0
 49
-6.349999999999999
 74
     0
 49
0.0
 74
     0
 49
-6.349999999999999
 74
     0
  0
LTYPE
  5
46
330
5
100
AcDbSymbolTableRecord
100
AcDbLinetypeTableRecord
  2
DIVIDE2
 70
     0
  3
Divide (.5x) __..__..__..__..__..__..__..__.._
 72
    65
 73
     6
 40
15.875
 49
6.349999999999999
 74
     0
 49
-3.174999999999999
 74
     0
 49
0.0
 74
     0
 49
-3.174999999999999
 74
     0
 49
0.0
 74
     0
 49
-3.174999999999999
 74
     0
  0
LTYPE
  5
47
330
5
100
AcDbSymbolTableRecord
100
AcDbLinetypeTableRecord
  2
DIVIDEX2
 70
     0
  3
Divide (2x) ________  .  .  ________  .  .  _
 72
    65
 73
     6
 40
63.49999999999999
 49
25.4
 74
     0
 49
-12.7
 74
     0
 49
0.0
 74
     0
 49
-12.7
 74
     0
 49
0.0
 74
     0
 49
-12.7
 74
     0
  0
LTYPE
  5
48
330
5
100
AcDbSymbolTableRecord
100
AcDbLinetypeTableRecord
  2
DOT
 70
     0
  3
Dot . . . . . . . . . . . . . . . . . . . . . .
 72
    65
 73
     2
 40
6.349999999999999
 49
0.0
 74
     0
 49
-6.349999999999999
 74
     0
  0
LTYPE
  5
49
330
5
100
AcDbSymbolTableRecord
100
AcDbLinetypeTableRecord
  2
DOT2
 70
     0
  3
Dot (.5x) .....................................
 72
    65
 73
     2
 40
3.174999999999999
 49
0.0
 74
     0
 49
-3.174999999999999
 74
     0
  0
LTYPE
  5
4A
330
5
100
AcDbSymbolTableRecord
100
AcDbLinetypeTableRecord
  2
DOTX2
 70
     0
  3
Dot (2x) .  .  .  .  .  .  .  .  .  .  .  .  . 
 72
    65
 73
     2
 40
12.7
 49
0.0
 74
     0
 49
-12.7
 74
     0
  0
LTYPE
  5
4B
330
5
100
AcDbSymbolTableRecord
100
AcDbLinetypeTableRecord
  2
HIDDEN
 70
     0
  3
Hidden __ __ __ __ __ __ __ __ __ __ __ __ __ _
 72
    65
 73
     2
 40
9.524999999999998
 49
6.349999999999999
 74
     0
 49
-3.174999999999999
 74
     0
  0
LTYPE
  5
4C
330
5
100
AcDbSymbolTableRecord
100
AcDbLinetypeTableRecord
  2
HIDDEN2
 70
     0
  3
Hidden (.5x) _ _ _ _ _ _ _ _ _ _ _ _ _ _ _ _ _
 72
    65
 73
     2
 40
4.762499999999999
 49
3.174999999999999
 74
     0
 49
-1.587499999999999
 74
     0
  0
LTYPE
  5
4D
330
5
100
AcDbSymbolTableRecord
100
AcDbLinetypeTableRecord
  2
HIDDENX2
 70
     0
  3
Hidden (2x) ____ ____ ____ ____ ____ ____ ____
 72
    65
 73
     2
 40
19.05
 49
12.7
 74
     0
 49
-6.349999999999999
 74
     0
  0
LTYPE
  5
4E
330
5
100
AcDbSymbolTableRecord
100
AcDbLinetypeTableRecord
  2
PHANTOM
 70
     0
  3
Phantom ______  __  __  ______  __  __  ______
 72
    65
 73
     6
 40
63.5
 49
31.75
 74
     0
 49
-6.349999999999999
 74
     0
 49
6.349999999999999
 74
     0
 49
-6.349999999999999
 74
     0
 49
6.349999999999999
 74
     0
 49
-6.349999999999999
 74
     0
  0
LTYPE
  5
4F
330
5
100
AcDbSymbolTableRecord
100
AcDbLinetypeTableRecord
  2
PHANTOM2
 70
     0
  3
Phantom (.5x) ___ _ _ ___ _ _ ___ _ _ ___ _ _
 72
    65
 73
     6
 40
31.75
 49
15.875
 74
     0
 49
-3.174999999999999
 74
     0
 49
3.174999999999999
 74
     0
 49
-3.174999999999999
 74
     0
 49
3.174999999999999
 74
     0
 49
-3.174999999999999
 74
     0
  0
LTYPE
  5
50
330
5
100
AcDbSymbolTableRecord
100
AcDbLinetypeTableRecord
  2
PHANTOMX2
 70
     0
  3
Phantom (2x) ____________    ____    ____   _
 72
    65
 73
     6
 40
127.0
 49
63.5
 74
     0
 49
-12.7
 74
     0
 49
12.7
 74
     0
 49
-12.7
 74
     0
 49
12.7
 74
     0
 49
-12.7
 74
     0
  0
LTYPE
  5
51
330
5
100
AcDbSymbolTableRecord
100
AcDbLinetypeTableRecord
  2
ACAD_ISO02W100
 70
     0
  3
ISO dash __ __ __ __ __ __ __ __ __ __ __ __ __
 72
    65
 73
     2
 40
15.0
 49
12.0
 74
     0
 49
-3.0
 74
     0
  0
LTYPE
  5
52
330
5
100
AcDbSymbolTableRecord
100
AcDbLinetypeTableRecord
  2
ACAD_ISO03W100
 70
     0
  3
ISO dash space __    __    __    __    __    __
 72
    65
 73
     2
 40
30.0
 49
12.0
 74
     0
 49
-18.0
 74
     0
  0
LTYPE
  5
53
330
5
100
AcDbSymbolTableRecord
100
AcDbLinetypeTableRecord
  2
ACAD_ISO04W100
 70
     0
  3
ISO long-dash dot ____ . ____ . ____ . ____ . _
 72
    65
 73
     4
 40
30.0
 49
24.0
 74
     0
 49
-3.0
 74
     0
 49
0.0
 74
     0
 49
-3.0
 74
     0
  0
LTYPE
  5
54
330
5
100
AcDbSymbolTableRecord
100
AcDbLinetypeTableRecord
  2
ACAD_ISO05W100
 70
     0
  3
ISO long-dash double-dot ____ .. ____ .. ____ .
 72
    65
 73
     6
 40
33.0
 49
24.0
 74
     0
 49
-3.0
 74
     0
 49
0.0
 74
     0
 49
-3.0
 74
     0
 49
0.0
 74
     0
 49
-3.0
 74
     0
  0
LTYPE
  5
55
330
5
100
AcDbSymbolTableRecord
100
AcDbLinetypeTableRecord
  2
ACAD_ISO06W100
 70
     0
  3
ISO long-dash triple-dot ____ ... ____ ... ____
 72
    65
 73
     8
 40
36.0
 49
24.0
 74
     0
 49
-3.0
 74
     0
 49
0.0
 74
     0
 49
-3.0
 74
     0
 49
0.0
 74
     0
 49
-3.0
 74
     0
 49
0.0
 74
     0
 49
-3.0
 74
     0
  0
LTYPE
  5
56
330
5
100
AcDbSymbolTableRecord
100
AcDbLinetypeTableRecord
  2
ACAD_ISO07W100
 70
     0
  3
ISO dot . . . . . . . . . . . . . . . . . . . .
 72
    65
 73
     2
 40
3.0
 49
0.0
 74
     0
 49
-3.0
 74
     0
  0
LTYPE
  5
57
330
5
100
AcDbSymbolTableRecord
100
AcDbLinetypeTableRecord
  2
ACAD_ISO08W100
 70
     0
  3
ISO long-dash short-dash ____ __ ____ __ ____ _
 72
    65
 73
     4
 40
36.0
 49
24.0
 74
     0
 49
-3.0
 74
     0
 49
6.0
 74
     0
 49
-3.0
 74
     0
  0
LTYPE
  5
58
330
5
100
AcDbSymbolTableRecord
100
AcDbLinetypeTableRecord
  2
ACAD_ISO09W100
 70
     0
  3
ISO long-dash double-short-dash ____ __ __ ____
 72
    65
 73
     6
 40
45.0
 49
24.0
 74
     0
 49
-3.0
 74
     0
 49
6.0
 74
     0
 49
-3.0
 74
     0
 49
6.0
 74
     0
 49
-3.0
 74
     0
  0
LTYPE
  5
59
330
5
100
AcDbSymbolTableRecord
100
AcDbLinetypeTableRecord
  2
ACAD_ISO10W100
 70
     0
  3
ISO dash dot __ . __ . __ . __ . __ . __ . __ .
 72
    65
 73
     4
 40
18.0
 49
12.0
 74
     0
 49
-3.0
 74
     0
 49
0.0
 74
     0
 49
-3.0
 74
     0
  0
LTYPE
  5
5A
330
5
100
AcDbSymbolTableRecord
100
AcDbLinetypeTableRecord
  2
ACAD_ISO11W100
 70
     0
  3
ISO double-dash dot __ __ . __ __ . __ __ . __ 
 72
    65
 73
     6
 40
33.0
 49
12.0
 74
     0
 49
-3.0
 74
     0
 49
12.0
 74
     0
 49
-3.0
 74
     0
 49
0.0
 74
     0
 49
-3.0
 74
     0
  0
LTYPE
  5
5B
330
5
100
AcDbSymbolTableRecord
100
AcDbLinetypeTableRecord
  2
ACAD_ISO12W100
 70
     0
  3
ISO dash double-dot __ . . __ . . __ . . __ . .
 72
    65
 73
     6
 40
21.0
 49
12.0
 74
     0
 49
-3.0
 74
     0
 49
0.0
 74
     0
 49
-3.0
 74
     0
 49
0.0
 74
     0
 49
-3.0
 74
     0
  0
LTYPE
  5
5C
330
5
100
AcDbSymbolTableRecord
100
AcDbLinetypeTableRecord
  2
ACAD_ISO13W100
 70
     0
  3
ISO double-dash double-dot __ __ . . __ __ . . 
 72
    65
 73
     8
 40
36.0
 49
12.0
 74
     0
 49
-3.0
 74
     0
 49
12.0
 74
     0
 49
-3.0
 74
     0
 49
0.0
 74
     0
 49
-3.0
 74
     0
 49
0.0
 74
     0
 49
-3.0
 74
     0
  0
LTYPE
  5
5D
330
5
100
AcDbSymbolTableRecord
100
AcDbLinetypeTableRecord
  2
ACAD_ISO14W100
 70
     0
  3
ISO dash triple-dot __ . . . __ . . . __ . . . 
 72
    65
 73
     8
 40
24.0
 49
12.0
 74
     0
 49
-3.0
 74
     0
 49
0.0
 74
     0
 49
-3.0
 74
     0
 49
0.0
 74
     0
 49
-3.0
 74
     0
 49
0.0
 74
     0
 49
-3.0
 74
     0
  0
LTYPE
  5
5E
330
5
100
AcDbSymbolTableRecord
100
AcDbLinetypeTableRecord
  2
ACAD_ISO15W100
 70
     0
  3
ISO double-dash triple-dot __ __ . . . __ __ . 
 72
    65
 73
    10
 40
39.0
 49
12.0
 74
     0
 49
-3.0
 74
     0
 49
12.0
 74
     0
 49
-3.0
 74
     0
 49
0.0
 74
     0
 49
-3.0
 74
     0
 49
0.0
 74
     0
 49
-3.0
 74
     0
 49
0.0
 74
     0
 49
-3.0
 74
     0
  0
LTYPE
  5
61
330
5
100
AcDbSymbolTableRecord
100
AcDbLinetypeTableRecord
  2
FENCELINE1
 70
     0
  3
Fenceline circle ----0-----0----0-----0----0---
 72
    65
 73
     4
 40
36.83
 49
6.349999999999999
 74
     0
 49
-2.54
 74
     4
 75
   133
340
60
 46
2.54
 50
0.0
 44
-2.54
 45
0.0
 49
-2.54
 74
     0
 49
25.4
 74
     0
  0
LTYPE
  5
62
330
5
100
AcDbSymbolTableRecord
100
AcDbLinetypeTableRecord
  2
FENCELINE2
 70
     0
  3
Fenceline square ----[]-----[]----[]-----[]----
 72
    65
 73
     4
 40
36.83
 49
6.349999999999999
 74
     0
 49
-2.54
 74
     4
 75
   132
340
60
 46
2.54
 50
0.0
 44
-2.54
 45
0.0
 49
-2.54
 74
     0
 49
25.4
 74
     0
  0
LTYPE
  5
63
330
5
100
AcDbSymbolTableRecord
100
AcDbLinetypeTableRecord
  2
TRACKS
 70
     0
  3
Tracks -|-|-|-|-|-|-|-|-|-|-|-|-|-|-|-|-|-|-|-|
 72
    65
 73
     2
 40
7.62
 49
3.81
 74
     4
 75
   130
340
60
 46
6.349999999999999
 50
0.0
 44
0.0
 45
0.0
 49
3.81
 74
     0
  0
LTYPE
  5
64
330
5
100
AcDbSymbolTableRecord
100
AcDbLinetypeTableRecord
  2
BATTING
 70
     0
  3
Batting SSSSSSSSSSSSSSSSSSSSSSSSSSSSSSSSSSSSSSS
 72
    65
 73
     4
 40
10.16254
 49
0.00254
 74
     0
 49
-2.54
 74
     4
 75
   134
340
60
 46
2.54
 50
0.0
 44
-2.54
 45
0.0
 49
-5.08
 74
     4
 75
   134
340
60
 46
2.54
 50
180.0
 44
2.54
 45
0.0
 49
-2.54
 74
     0
  0
LTYPE
  5
65
330
5
100
AcDbSymbolTableRecord
100
AcDbLinetypeTableRecord
  2
HOT_WATER_SUPPLY
 70
     0
  3
Hot water supply ---- HW ---- HW ---- HW ----
 72
    65
 73
     3
 40
22.86
 49
12.7
 74
     0
 49
-5.08
 74
     2
 75
     0
340
11
 46
2.54
 50
0.0
 44
-2.54
 45
-1.27
  9
HW
 49
-5.08
 74
     0
  0
LTYPE
  5
66
330
5
100
AcDbSymbolTableRecord
100
AcDbLinetypeTableRecord
  2
GAS_LINE
 70
     0
  3
Gas line ----GAS----GAS----GAS----GAS----GAS---
 72
    65
 73
     3
 40
24.13
 49
12.7
 74
     0
 49
-5.08
 74
     2
 75
     0
340
11
 46
2.54
 50
0.0
 44
-2.54
 45
-1.27
  9
GAS
 49
-6.349999999999999
 74
     0
  0
LTYPE
  5
67
330
5
100
AcDbSymbolTableRecord
100
AcDbLinetypeTableRecord
  2
ZIGZAG
 70
     0
  3
Zig zag /\/\/\/\/\/\/\/\/\/\/\/\/\/\/\/\/\/\/\/
 72
    65
 73
     4
 40
20.32254
 49
0.00254
 74
     0
 49
-5.08
 74
     4
 75
   131
340
60
 46
5.08
 50
0.0
 44
-5.08
 45
0.0
 49
-10.16
 74
     4
 75
   131
340
60
 46
5.08
 50
180.0
 44
5.08
 45
0.0
 49
-5.08
 74
     0
  0
ENDTAB
  0
TABLE
  2
LAYER
  5
2
330
0
100
AcDbSymbolTable
 70
    27
  0
LAYER
  5
10
330
2
100
AcDbSymbolTableRecord
100
AcDbLayerTableRecord
  2
0
 70
     0
 62
     7
  6
Continuous
370
    25
390
F
  0
LAYER
  5
6C
330
2
100
AcDbSymbolTableRecord
100
AcDbLayerTableRecord
  2
Bemaßung (ISO)
 70
     0
 62
     7
  6
Continuous
370
    25
390
F
  0
LAYER
  5
72
330
2
100
AcDbSymbolTableRecord
100
AcDbLayerTableRecord
  2
Mittelpunktmarkierung (ISO)
 70
     0
 62
     7
  6
Continuous
370
    25
390
F
  0
LAYER
  5
73
330
2
100
AcDbSymbolTableRecord
100
AcDbLayerTableRecord
  2
PERMA_ROT
 70
     0
 62
     1
  6
Continuous
370
    25
390
F
  0
LAYER
  5
75
330
2
100
AcDbSymbolTableRecord
100
AcDbLayerTableRecord
  2
Rahmen (ISO)
 70
     0
 62
     7
  6
Continuous
370
    70
390
F
  0
LAYER
  5
78
330
2
100
AcDbSymbolTableRecord
100
AcDbLayerTableRecord
  2
Schraffur (ISO)
 70
     0
 62
     7
  6
Continuous
370
    18
390
F
  0
LAYER
  5
79
330
2
100
AcDbSymbolTableRecord
100
AcDbLayerTableRecord
  2
Sichtbar (ISO)
 70
     0
 62
     7
  6
Continuous
370
    50
390
F
  0
LAYER
  5
7A
330
2
100
AcDbSymbolTableRecord
100
AcDbLayerTableRecord
  2
Sichtbar schmal (ISO)
 70
     0
 62
     7
  6
Continuous
370
    35
390
F
  0
LAYER
  5
7B
330
2
100
AcDbSymbolTableRecord
100
AcDbLayerTableRecord
  2
Skizziergeometrie (ISO)
 70
     0
 62
     7
  6
Continuous
370
    25
390
F
  0
LAYER
  5
7C
330
2
100
AcDbSymbolTableRecord
100
AcDbLayerTableRecord
  2
Symbol (ISO)
 70
     0
 62
     7
  6
Continuous
370
    25
390
F
  0
LAYER
  5
7D
330
2
100
AcDbSymbolTableRecord
100
AcDbLayerTableRecord
  2
Titel (ISO)
 70
     0
 62
     7
  6
Continuous
370
    50
390
F
  0
LAYER
  5
32E
330
2
100
AcDbSymbolTableRecord
100
AcDbLayerTableRecord
  2
Defpoints
 70
     0
 62
     7
  6
Continuous
290
     0
370
    -3
390
F
  0
ENDTAB
  0
TABLE
  2
STYLE
  5
3
330
0
100
AcDbSymbolTable
 70
    12
  0
STYLE
  5
11
330
3
100
AcDbSymbolTableRecord
100
AcDbTextStyleTableRecord
  2
Standard
 70
     0
 40
0.0
 41
1.0
 50
0.0
 71
     0
 42
0.2
  3
isocpeur.ttf
  4

1001
ACAD
1000
ISOCPEUR
1071
      256
  0
STYLE
  5
60
330
3
100
AcDbSymbolTableRecord
100
AcDbTextStyleTableRecord
  2

 70
     1
 40
0.0
 41
1.0
 50
0.0
 71
     0
 42
0.2
  3
ltypeshp.shx
  4

  0
STYLE
  5
81
330
3
100
AcDbSymbolTableRecord
100
AcDbTextStyleTableRecord
  2
Bezeichnungstext (ANSI)
 70
     0
 40
0.0
 41
1.0
 50
0.0
 71
     0
 42
0.2
  3
TAHOMA.TTF
  4

1001
ACAD
1000
Tahoma
1071
      256
  0
STYLE
  5
82
330
3
100
AcDbSymbolTableRecord
100
AcDbTextStyleTableRecord
  2
Bezeichnungstext (DIN)
 70
     0
 40
0.0
 41
1.0
 50
0.0
 71
     0
 42
0.2
  3
isocpeur.ttf
  4

1001
ACAD
1000
ISOCPEUR
1071
      256
  0
STYLE
  5
83
330
3
100
AcDbSymbolTableRecord
100
AcDbTextStyleTableRecord
  2
Bezeichnungstext (ISO)
 70
     0
 40
0.0
 41
1.0
 50
0.0
 71
     0
 42
0.2
  3
TAHOMA.TTF
  4

1001
ACAD
1000
Tahoma
1071
      256
  0
STYLE
  5
84
330
3
100
AcDbSymbolTableRecord
100
AcDbTextStyleTableRecord
  2
Bezeichnungstext (JIS)
 70
     0
 40
0.0
 41
1.0
 50
0.0
 71
     0
 42
0.2
  3
TAHOMA.TTF
  4

1001
ACAD
1000
Tahoma
1071
      256
  0
STYLE
  5
85
330
3
100
AcDbSymbolTableRecord
100
AcDbTextStyleTableRecord
  2
Notiztext (ANSI)
 70
     0
 40
0.0
 41
1.0
 50
0.0
 71
     0
 42
0.2
  3
TAHOMA.TTF
  4

1001
ACAD
1000
Tahoma
1071
      256
  0
STYLE
  5
86
330
3
100
AcDbSymbolTableRecord
100
AcDbTextStyleTableRecord
  2
Notiztext (DIN)
 70
     0
 40
0.0
 41
1.0
 50
0.0
 71
     0
 42
0.2
  3
isocpeur.ttf
  4

1001
ACAD
1000
ISOCPEUR
1071
      256
  0
STYLE
  5
87
330
3
100
AcDbSymbolTableRecord
100
AcDbTextStyleTableRecord
  2
Notiztext (ISO)
 70
     0
 40
0.0
 41
1.0
 50
0.0
 71
     0
 42
0.2
  3
TAHOMA.TTF
  4

1001
ACAD
1000
Tahoma
1071
      256
  0
STYLE
  5
88
330
3
100
AcDbSymbolTableRecord
100
AcDbTextStyleTableRecord
  2
Notiztext (JIS)
 70
     0
 40
0.0
 41
1.0
 50
0.0
 71
     0
 42
0.2
  3
TAHOMA.TTF
  4

1001
ACAD
1000
Tahoma
1071
      256
  0
STYLE
  5
89
330
3
100
AcDbSymbolTableRecord
100
AcDbTextStyleTableRecord
  2
ROMANS
 70
     0
 40
0.0
 41
1.0
 50
0.0
 71
     0
 42
0.2
  3
romans.shx
  4

  0
STYLE
  5
187
330
3
100
AcDbSymbolTableRecord
100
AcDbTextStyleTableRecord
  2
ROMANS-ISOCPEUR
 70
     0
 40
0.0
 41
1.0
 50
0.0
 71
     0
 42
0.2
  3
isocpeur.ttf
  4

1001
ACAD
1000
ISOCPEUR
1071
      256
  0
ENDTAB
  0
TABLE
  2
VIEW
  5
6
330
0
100
AcDbSymbolTable
 70
     0
  0
ENDTAB
  0
TABLE
  2
UCS
  5
7
330
0
100
AcDbSymbolTable
 70
     0
  0
ENDTAB
  0
TABLE
  2
APPID
  5
9
330
0
100
AcDbSymbolTable
 70
     1
  0
APPID
  5
12
330
9
100
AcDbSymbolTableRecord
100
AcDbRegAppTableRecord
  2
ACAD
 70
     0
  0
ENDTAB
  0
TABLE
  2
DIMSTYLE
  5
A
330
0
100
AcDbSymbolTable
 70
    11
100
AcDbDimStyleTable
 71
     2
340
9E
340
2B
  0
DIMSTYLE
105
2B
330
A
100
AcDbSymbolTableRecord
100
AcDbDimStyleTableRecord
  2
Standard
 70
     0
340
11
  0
DIMSTYLE
105
98
330
A
100
AcDbSymbolTableRecord
100
AcDbDimStyleTableRecord
  2
Sonstiges Objekt (DIN)
 70
     0
 41
5.0
 42
0.0
 43
6.0
 44
3.174999999999999
 45
0.00000001
 46
10.0
 77
     1
 78
     8
 79
     2
140
5.25
143
0.03937
146
0.6666666666666666
147
0.8
171
     3
176
   256
177
   256
178
   256
271
     2
272
     2
274
     3
278
    44
284
     8
286
     8
340
82
341
8A
371
    -1
372
    -1
  0
DIMSTYLE
105
99
330
A
100
AcDbSymbolTableRecord
100
AcDbDimStyleTableRecord
  2
Sonstiges Objekt (DIN)$7
 70
     0
 41
5.0
 42
0.0
 43
6.0
 44
3.174999999999999
 45
0.00000001
 46
10.0
 77
     1
 78
     8
 79
     2
140
5.25
143
0.03937
146
0.6666666666666666
147
0.8
171
     3
176
   256
177
   256
178
   256
271
     2
272
     2
274
     3
278
    44
284
     8
286
     8
340
82
341
8A
371
    25
372
    -1
  0
DIMSTYLE
105
9A
330
A
100
AcDbSymbolTableRecord
100
AcDbDimStyleTableRecord
  2
Standard - Methode 2a (DIN)
 70
     0
 41
2.5
 42
0.8
 43
6.0
 44
3.174999999999999
 45
0.00000001
 46
10.0
 77
     1
 78
     8
 79
     2
140
2.5
143
0.03937
146
1.399999999999999
147
0.8
170
     1
171
     3
176
   256
177
   256
178
   256
179
     2
271
     2
272
     2
274
     3
278
    44
284
     8
286
     8
340
86
371
    -1
372
    -1
  0
DIMSTYLE
105
9B
330
A
100
AcDbSymbolTableRecord
100
AcDbDimStyleTableRecord
  2
Standard - Methode 2a (DIN)$7
 70
     0
 41
2.5
 42
0.8
 43
6.0
 44
3.174999999999999
 45
0.00000001
 46
10.0
 77
     1
 78
     8
 79
     2
140
2.5
143
0.03937
146
1.399999999999999
147
0.8
170
     1
171
     3
176
   256
177
   256
178
   256
179
     2
271
     2
272
     2
274
     3
278
    44
284
     8
286
     8
340
86
371
    -1
372
    -1
  0
DIMSTYLE
105
9C
330
A
100
AcDbSymbolTableRecord
100
AcDbDimStyleTableRecord
  2
Standard - Methode 2b (DIN)
 70
     0
 41
2.5
 42
0.0
 43
6.0
 44
3.174999999999999
 45
0.00000001
 46
10.0
 77
     1
 78
     8
 79
     2
140
2.5
143
0.03937
146
1.399999999999999
147
0.8
171
     3
176
   256
177
   256
178
   256
271
     2
272
     2
274
     3
278
    44
284
     8
286
     8
340
86
371
    -1
372
    -1
  0
DIMSTYLE
105
9D
330
A
100
AcDbSymbolTableRecord
100
AcDbDimStyleTableRecord
  2
Standard - Methode 2b (DIN)$7
 70
     0
 41
2.5
 42
0.0
 43
6.0
 44
3.174999999999999
 45
0.00000001
 46
10.0
 77
     1
 78
     8
 79
     2
140
2.5
143
0.03937
146
1.399999999999999
147
0.8
171
     3
176
   256
177
   256
178
   256
271
     2
272
     2
274
     3
278
    44
284
     8
286
     8
340
86
371
    -1
372
    -1
  0
DIMSTYLE
105
9E
102
{ACAD_REACTORS
330
32D
330
3E9
330
4A9
330
584
330
64E
330
730
330
7F0
330
8C2
102
}
330
A
100
AcDbSymbolTableRecord
100
AcDbDimStyleTableRecord
  2
Standard (DIN)
 70
     0
 41
2.5
 42
0.0
 43
6.0
 44
1.0
 45
0.00000001
 46
10.0
 73
     0
 74
     0
 77
     1
 78
     8
 79
     2
140
2.5
143
0.03937
147
0.8
171
     3
176
   256
177
   256
178
   256
271
     2
272
     2
274
     3
340
86
371
    -1
372
    -1
  0
DIMSTYLE
105
9F
330
A
100
AcDbSymbolTableRecord
100
AcDbDimStyleTableRecord
  2
Standard (DIN)$7
 70
     0
 41
2.5
 42
0.0
 43
6.0
 44
1.0
 45
0.00000001
 46
10.0
 73
     0
 74
     0
 77
     1
 78
     8
 79
     2
140
2.5
143
0.03937
147
0.8
171
     3
176
   256
177
   256
178
   256
271
     2
272
     2
274
     3
340
86
371
    -1
372
    -1
  0
DIMSTYLE
105
A0
330
A
100
AcDbSymbolTableRecord
100
AcDbDimStyleTableRecord
  2
Alternativ (ISO)
 70
     0
 41
2.5
340
11
342
A1
  0
DIMSTYLE
105
B2
330
A
100
AcDbSymbolTableRecord
100
AcDbDimStyleTableRecord
  2
Bezug (ISO)
 70
     0
 41
2.5
340
11
342
A1
  0
ENDTAB
  0
TABLE
  2
BLOCK_RECORD
  5
1
330
0
100
AcDbSymbolTable
 70
    22
  0
BLOCK_RECORD
  5
23
330
1
100
AcDbSymbolTableRecord
100
AcDbBlockTableRecord
  2
*Model_Space
340
26
  0
BLOCK_RECORD
  5
1F
330
1
100
AcDbSymbolTableRecord
100
AcDbBlockTableRecord
  2
*Paper_Space
340
22
  0
BLOCK_RECORD
  5
27
330
1
100
AcDbSymbolTableRecord
100
AcDbBlockTableRecord
  2
*Paper_Space0
340
2A
  0
BLOCK_RECORD
  5
8A
330
1
100
AcDbSymbolTableRecord
100
AcDbBlockTableRecord
  2
Filled-1
340
0
  0
BLOCK_RECORD
  5
A1
330
1
100
AcDbSymbolTableRecord
100
AcDbBlockTableRecord
  2
_Closed
340
0
  0
BLOCK_RECORD
  5
A8
330
1
100
AcDbSymbolTableRecord
100
AcDbBlockTableRecord
  2
DatumFilled45
340
0
  0
BLOCK_RECORD
  5
B3
330
1
100
AcDbSymbolTableRecord
100
AcDbBlockTableRecord
  2
Ränder Default Border
340
0
102
{BLKREFS
331
D9
102
}
  0
BLOCK_RECORD
  5
DA
330
1
100
AcDbSymbolTableRecord
100
AcDbBlockTableRecord
  2
Schriftfelder perma_schriftfeld
340
0
102
{BLKREFS
331
1BA
102
}
  0
BLOCK_RECORD
  5
32F
330
1
100
AcDbSymbolTableRecord
100
AcDbBlockTableRecord
  2
*D6
340
0
  0
BLOCK_RECORD
  5
3EA
330
1
100
AcDbSymbolTableRecord
100
AcDbBlockTableRecord
  2
*D7
340
0
  0
BLOCK_RECORD
  5
4AA
330
1
100
AcDbSymbolTableRecord
100
AcDbBlockTableRecord
  2
*D8
340
0
  0
BLOCK_RECORD
  5
585
330
1
100
AcDbSymbolTableRecord
100
AcDbBlockTableRecord
  2
*D9
340
0
  0
BLOCK_RECORD
  5
64F
330
1
100
AcDbSymbolTableRecord
100
AcDbBlockTableRecord
  2
*D10
340
0
  0
BLOCK_RECORD
  5
731
330
1
100
AcDbSymbolTableRecord
100
AcDbBlockTableRecord
  2
*D11
340
0
  0
BLOCK_RECORD
  5
7F1
330
1
100
AcDbSymbolTableRecord
100
AcDbBlockTableRecord
  2
*D12
340
0
  0
BLOCK_RECORD
  5
8C3
330
1
100
AcDbSymbolTableRecord
100
AcDbBlockTableRecord
  2
*D13
340
0
  0
BLOCK_RECORD
  5
B21
330
1
100
AcDbSymbolTableRecord
100
AcDbBlockTableRecord
  2
*D14
340
0
  0
BLOCK_RECORD
  5
B2D
330
1
100
AcDbSymbolTableRecord
100
AcDbBlockTableRecord
  2
*D15
340
0
  0
BLOCK_RECORD
  5
B39
330
1
100
AcDbSymbolTableRecord
100
AcDbBlockTableRecord
  2
*D16
340
0
  0
BLOCK_RECORD
  5
B45
330
1
100
AcDbSymbolTableRecord
100
AcDbBlockTableRecord
  2
*D17
340
0
  0
BLOCK_RECORD
  5
B51
330
1
100
AcDbSymbolTableRecord
100
AcDbBlockTableRecord
  2
*D18
340
0
  0
BLOCK_RECORD
  5
B5E
330
1
100
AcDbSymbolTableRecord
100
AcDbBlockTableRecord
  2
*D19
340
0
  0
BLOCK_RECORD
  5
B6A
330
1
100
AcDbSymbolTableRecord
100
AcDbBlockTableRecord
  2
*D20
340
0
  0
BLOCK_RECORD
  5
B76
330
1
100
AcDbSymbolTableRecord
100
AcDbBlockTableRecord
  2
*D21
340
0
  0
ENDTAB
  0
ENDSEC
  0
SECTION
  2
BLOCKS
  0
BLOCK
  5
24
330
23
100
AcDbEntity
  8
0
100
AcDbBlockBegin
  2
*Model_Space
 70
     0
 10
0.0
 20
0.0
 30
0.0
  3
*Model_Space
  1

  0
ENDBLK
  5
25
330
23
100
AcDbEntity
  8
0
100
AcDbBlockEnd
  0
BLOCK
  5
20
330
1F
100
AcDbEntity
 67
     1
  8
0
100
AcDbBlockBegin
  2
*Paper_Space
 70
     0
 10
0.0
 20
0.0
 30
0.0
  3
*Paper_Space
  1

  0
ENDBLK
  5
21
330
1F
100
AcDbEntity
 67
     1
  8
0
100
AcDbBlockEnd
  0
BLOCK
  5
28
330
27
100
AcDbEntity
 67
     1
  8
0
100
AcDbBlockBegin
  2
*Paper_Space0
 70
     0
 10
0.0
 20
0.0
 30
0.0
  3
*Paper_Space0
  1

  0
ENDBLK
  5
29
330
27
100
AcDbEntity
 67
     1
  8
0
100
AcDbBlockEnd
  0
BLOCK
  5
8B
330
8A
100
AcDbEntity
  8
0
100
AcDbBlockBegin
  2
Filled-1
 70
     0
 10
0.0
 20
0.0
 30
0.0
  3
Filled-1
  1

  0
LINE
  5
8D
330
8A
100
AcDbEntity
  8
0
 62
     0
100
AcDbLine
 10
-1.0
 20
0.0
 30
0.0
 11
0.0
 21
0.0
 31
0.0
  0
POLYLINE
  5
8E
330
8A
100
AcDbEntity
  8
0
 62
     0
100
AcDb2dPolyline
 66
     1
 10
0.0
 20
0.0
 30
0.0
 70
   128
  0
VERTEX
  5
8F
330
8E
100
AcDbEntity
  8
0
 62
     0
100
AcDbVertex
100
AcDb2dVertex
 10
-1.0
 20
-0.1
 30
0.0
  0
VERTEX
  5
90
330
8E
100
AcDbEntity
  8
0
 62
     0
100
AcDbVertex
100
AcDb2dVertex
 10
0.0
 20
0.0
 30
0.0
  0
VERTEX
  5
92
330
8E
100
AcDbEntity
  8
0
 62
     0
100
AcDbVertex
100
AcDb2dVertex
 10
-1.0
 20
0.1
 30
0.0
  0
VERTEX
  5
93
330
8E
100
AcDbEntity
  8
0
 62
     0
100
AcDbVertex
100
AcDb2dVertex
 10
-1.0
 20
-0.1
 30
0.0
  0
SEQEND
  5
91
330
8E
100
AcDbEntity
  8
0
 62
     0
  0
SOLID
  5
94
330
8A
100
AcDbEntity
  8
0
 62
     0
100
AcDbTrace
 10
-1.0
 20
-0.1
 30
0.0
 11
0.0
 21
0.0
 31
0.0
 12
-1.0
 22
0.1
 32
0.0
 13
-1.0
 23
-0.1
 33
0.0
  0
LINE
  5
95
330
8A
100
AcDbEntity
  8
0
 62
     0
100
AcDbLine
 10
-1.0
 20
-0.1
 30
0.0
 11
0.0
 21
0.0
 31
0.0
  0
LINE
  5
96
330
8A
100
AcDbEntity
  8
0
 62
     0
100
AcDbLine
 10
0.0
 20
0.0
 30
0.0
 11
-1.0
 21
0.1
 31
0.0
  0
LINE
  5
97
330
8A
100
AcDbEntity
  8
0
 62
     0
100
AcDbLine
 10
-1.0
 20
0.1
 30
0.0
 11
-1.0
 21
-0.1
 31
0.0
  0
ENDBLK
  5
8C
330
8A
100
AcDbEntity
  8
0
100
AcDbBlockEnd
  0
BLOCK
  5
A6
330
A1
100
AcDbEntity
  8
0
100
AcDbBlockBegin
  2
_Closed
 70
     0
 10
0.0
 20
0.0
 30
0.0
  3
_Closed
  1

  0
LINE
  5
A2
330
A1
100
AcDbEntity
  8
0
  6
ByBlock
 62
     0
370
    -2
100
AcDbLine
 10
-1.0
 20
0.1666666666666666
 30
0.0
 11
0.0
 21
0.0
 31
0.0
  0
LINE
  5
A3
330
A1
100
AcDbEntity
  8
0
  6
ByBlock
 62
     0
370
    -2
100
AcDbLine
 10
0.0
 20
0.0
 30
0.0
 11
-1.0
 21
-0.1666666666666666
 31
0.0
  0
LINE
  5
A4
330
A1
100
AcDbEntity
  8
0
  6
ByBlock
 62
     0
370
    -2
100
AcDbLine
 10
-1.0
 20
0.1666666666666666
 30
0.0
 11
-1.0
 21
-0.1666666666666666
 31
0.0
  0
LINE
  5
A5
330
A1
100
AcDbEntity
  8
0
  6
ByBlock
 62
     0
370
    -2
100
AcDbLine
 10
0.0
 20
0.0
 30
0.0
 11
-1.0
 21
0.0
 31
0.0
  0
ENDBLK
  5
A7
330
A1
100
AcDbEntity
  8
0
100
AcDbBlockEnd
  0
BLOCK
  5
A9
330
A8
100
AcDbEntity
  8
0
100
AcDbBlockBegin
  2
DatumFilled45
 70
     0
 10
0.0
 20
0.0
 30
0.0
  3
DatumFilled45
  1

  0
POLYLINE
  5
AB
330
A8
100
AcDbEntity
  8
0
 62
     0
100
AcDb2dPolyline
 66
     1
 10
0.0
 20
0.0
 30
0.0
 70
   128
  0
VERTEX
  5
AC
330
AB
100
AcDbEntity
  8
0
 62
     0
100
AcDbVertex
100
AcDb2dVertex
 10
0.0
 20
1.0
 30
0.0
  0
VERTEX
  5
AD
330
AB
100
AcDbEntity
  8
0
 62
     0
100
AcDbVertex
100
AcDb2dVertex
 10
0.0
 20
-1.0
 30
0.0
  0
VERTEX
  5
AF
330
AB
100
AcDbEntity
  8
0
 62
     0
100
AcDbVertex
100
AcDb2dVertex
 10
-1.0
 20
0.0
 30
0.0
  0
VERTEX
  5
B0
330
AB
100
AcDbEntity
  8
0
 62
     0
100
AcDbVertex
100
AcDb2dVertex
 10
0.0
 20
1.0
 30
0.0
  0
SEQEND
  5
AE
330
AB
100
AcDbEntity
  8
0
 62
     0
  0
SOLID
  5
B1
330
A8
100
AcDbEntity
  8
0
 62
     0
100
AcDbTrace
 10
0.0
 20
1.0
 30
0.0
 11
0.0
 21
-1.0
 31
0.0
 12
-1.0
 22
0.0
 32
0.0
 13
0.0
 23
1.0
 33
0.0
  0
ENDBLK
  5
AA
330
A8
100
AcDbEntity
  8
0
100
AcDbBlockEnd
  0
BLOCK
  5
B4
330
B3
100
AcDbEntity
  8
0
100
AcDbBlockBegin
  2
Ränder Default Border
 70
     0
 10
0.0
 20
0.0
 30
0.0
  3
Ränder Default Border
  1

  0
POLYLINE
  5
B6
330
B3
100
AcDbEntity
  8
Rahmen (ISO)
100
AcDb2dPolyline
 66
     1
 10
0.0
 20
0.0
 30
0.0
 70
   128
  0
VERTEX
  5
B7
330
B6
100
AcDbEntity
  8
Rahmen (ISO)
100
AcDbVertex
100
AcDb2dVertex
 10
10.0
 20
10.0
 30
0.0
  0
VERTEX
  5
B8
330
B6
100
AcDbEntity
  8
Rahmen (ISO)
100
AcDbVertex
100
AcDb2dVertex
 10
10.0
 20
200.0
 30
0.0
  0
VERTEX
  5
BA
330
B6
100
AcDbEntity
  8
Rahmen (ISO)
100
AcDbVertex
100
AcDb2dVertex
 10
287.0000076293946
 20
200.0
 30
0.0
  0
VERTEX
  5
BB
330
B6
100
AcDbEntity
  8
Rahmen (ISO)
100
AcDbVertex
100
AcDb2dVertex
 10
287.0000076293946
 20
10.0
 30
0.0
  0
VERTEX
  5
BC
330
B6
100
AcDbEntity
  8
Rahmen (ISO)
100
AcDbVertex
100
AcDb2dVertex
 10
10.0
 20
10.0
 30
0.0
  0
SEQEND
  5
B9
330
B6
100
AcDbEntity
  8
Rahmen (ISO)
  0
POLYLINE
  5
BD
330
B3
100
AcDbEntity
  8
Rahmen (ISO)
100
AcDb2dPolyline
 66
     1
 10
0.0
 20
0.0
 30
0.0
 70
   128
  0
VERTEX
  5
BE
330
BD
100
AcDbEntity
  8
Rahmen (ISO)
100
AcDbVertex
100
AcDb2dVertex
 10
148.5000038146973
 20
0.0
 30
0.0
  0
VERTEX
  5
BF
330
BD
100
AcDbEntity
  8
Rahmen (ISO)
100
AcDbVertex
100
AcDb2dVertex
 10
148.5000038146973
 20
10.0
 30
0.0
  0
VERTEX
  5
C1
330
BD
100
AcDbEntity
  8
Rahmen (ISO)
100
AcDbVertex
100
AcDb2dVertex
 10
145.6132507324219
 20
5.0
 30
0.0
  0
VERTEX
  5
C2
330
BD
100
AcDbEntity
  8
Rahmen (ISO)
100
AcDbVertex
100
AcDb2dVertex
 10
151.3867473602295
 20
5.0
 30
0.0
  0
VERTEX
  5
C3
330
BD
100
AcDbEntity
  8
Rahmen (ISO)
100
AcDbVertex
100
AcDb2dVertex
 10
148.5000038146973
 20
10.0
 30
0.0
  0
SEQEND
  5
C0
330
BD
100
AcDbEntity
  8
Rahmen (ISO)
  0
POLYLINE
  5
C4
330
B3
100
AcDbEntity
  8
Rahmen (ISO)
100
AcDb2dPolyline
 66
     1
 10
0.0
 20
0.0
 30
0.0
 70
   128
  0
VERTEX
  5
C5
330
C4
100
AcDbEntity
  8
Rahmen (ISO)
100
AcDbVertex
100
AcDb2dVertex
 10
148.5000038146973
 20
210.0
 30
0.0
  0
VERTEX
  5
C6
330
C4
100
AcDbEntity
  8
Rahmen (ISO)
100
AcDbVertex
100
AcDb2dVertex
 10
148.5000038146973
 20
200.0
 30
0.0
  0
VERTEX
  5
C8
330
C4
100
AcDbEntity
  8
Rahmen (ISO)
100
AcDbVertex
100
AcDb2dVertex
 10
145.6132507324219
 20
205.0
 30
0.0
  0
VERTEX
  5
C9
330
C4
100
AcDbEntity
  8
Rahmen (ISO)
100
AcDbVertex
100
AcDb2dVertex
 10
151.3867473602295
 20
205.0
 30
0.0
  0
VERTEX
  5
CA
330
C4
100
AcDbEntity
  8
Rahmen (ISO)
100
AcDbVertex
100
AcDb2dVertex
 10
148.5000038146973
 20
200.0
 30
0.0
  0
SEQEND
  5
C7
330
C4
100
AcDbEntity
  8
Rahmen (ISO)
  0
POLYLINE
  5
CB
330
B3
100
AcDbEntity
  8
Rahmen (ISO)
100
AcDb2dPolyline
 66
     1
 10
0.0
 20
0.0
 30
0.0
 70
   128
  0
VERTEX
  5
CC
330
CB
100
AcDbEntity
  8
Rahmen (ISO)
100
AcDbVertex
100
AcDb2dVertex
 10
0.0
 20
105.0
 30
0.0
  0
VERTEX
  5
CD
330
CB
100
AcDbEntity
  8
Rahmen (ISO)
100
AcDbVertex
100
AcDb2dVertex
 10
10.0
 20
105.0
 30
0.0
  0
VERTEX
  5
CF
330
CB
100
AcDbEntity
  8
Rahmen (ISO)
100
AcDbVertex
100
AcDb2dVertex
 10
5.0
 20
107.8867530822754
 30
0.0
  0
VERTEX
  5
D0
330
CB
100
AcDbEntity
  8
Rahmen (ISO)
100
AcDbVertex
100
AcDb2dVertex
 10
5.0
 20
102.1132469177246
 30
0.0
  0
VERTEX
  5
D1
330
CB
100
AcDbEntity
  8
Rahmen (ISO)
100
AcDbVertex
100
AcDb2dVertex
 10
10.0
 20
105.0
 30
0.0
  0
SEQEND
  5
CE
330
CB
100
AcDbEntity
  8
Rahmen (ISO)
  0
POLYLINE
  5
D2
330
B3
100
AcDbEntity
  8
Rahmen (ISO)
100
AcDb2dPolyline
 66
     1
 10
0.0
 20
0.0
 30
0.0
 70
   128
  0
VERTEX
  5
D3
330
D2
100
AcDbEntity
  8
Rahmen (ISO)
100
AcDbVertex
100
AcDb2dVertex
 10
297.0000076293946
 20
105.0
 30
0.0
  0
VERTEX
  5
D4
330
D2
100
AcDbEntity
  8
Rahmen (ISO)
100
AcDbVertex
100
AcDb2dVertex
 10
287.0000076293946
 20
105.0
 30
0.0
  0
VERTEX
  5
D6
330
D2
100
AcDbEntity
  8
Rahmen (ISO)
100
AcDbVertex
100
AcDb2dVertex
 10
292.0000076293945
 20
107.8867530822754
 30
0.0
  0
VERTEX
  5
D7
330
D2
100
AcDbEntity
  8
Rahmen (ISO)
100
AcDbVertex
100
AcDb2dVertex
 10
292.0000076293945
 20
102.1132469177246
 30
0.0
  0
VERTEX
  5
D8
330
D2
100
AcDbEntity
  8
Rahmen (ISO)
100
AcDbVertex
100
AcDb2dVertex
 10
287.0000076293946
 20
105.0
 30
0.0
  0
SEQEND
  5
D5
330
D2
100
AcDbEntity
  8
Rahmen (ISO)
  0
ENDBLK
  5
B5
330
B3
100
AcDbEntity
  8
0
100
AcDbBlockEnd
  0
BLOCK
  5
DB
330
DA
100
AcDbEntity
  8
0
100
AcDbBlockBegin
  2
Schriftfelder perma_schriftfeld
 70
     2
 10
0.0
 20
0.0
 30
0.0
  3
Schriftfelder perma_schriftfeld
  1

  0
CIRCLE
  5
DD
102
{ACAD_REACTORS
330
E4
102
}
330
DA
100
AcDbEntity
  8
0
100
AcDbCircle
 10
205.3250636582649
 20
129.9577411706921
 30
0.0
 40
1.719337681537762
  0
LINE
  5
DE
102
{ACAD_REACTORS
330
E4
102
}
330
DA
100
AcDbEntity
  8
0
100
AcDbLine
 10
203.2623378426937
 20
132.9839504308452
 30
0.0
 11
201.8495368769228
 21
132.9839504308356
 31
0.0
  0
LINE
  5
DF
102
{ACAD_REACTORS
330
E4
102
}
330
DA
100
AcDbEntity
  8
0
100
AcDbLine
 10
203.262337842699
 20
132.1824812316113
 30
0.0
 11
203.2623378426937
 21
132.9839504308452
 31
0.0
  0
ARC
  5
E0
102
{ACAD_REACTORS
330
E4
102
}
330
DA
100
AcDbEntity
  8
0
100
AcDbCircle
 10
205.3250636582649
 20
129.9577411706921
 30
0.0
 40
3.033859938899787
100
AcDbArc
 50
227.1640563882714
 51
132.8359436124889
  0
LINE
  5
E1
102
{ACAD_REACTORS
330
E4
102
}
330
DA
100
AcDbEntity
  8
0
100
AcDbLine
 10
203.2623378427515
 20
124.2665634117997
 30
0.0
 11
203.2623378427285
 21
127.7330011097455
 31
0.0
  0
LINE
  5
E2
102
{ACAD_REACTORS
330
E4
102
}
330
DA
100
AcDbEntity
  8
0
100
AcDbLine
 10
201.8495368769814
 20
124.2665634117903
 30
0.0
 11
203.2623378427515
 21
124.2665634117997
 31
0.0
  0
LINE
  5
E3
102
{ACAD_REACTORS
330
E4
102
}
330
DA
100
AcDbEntity
  8
0
100
AcDbLine
 10
201.8495368769228
 20
132.9839504308356
 30
0.0
 11
201.8495368769814
 21
124.2665634117903
 31
0.0
  0
HATCH
  5
E4
330
DA
100
AcDbEntity
  8
Schraffur (ISO)
 62
     1
420
 16711680
100
AcDbHatch
 10
0.0
 20
0.0
 30
0.0
210
0.0
220
0.0
230
1.0
  2
SOLID
 70
     1
 71
     1
 91
        2
 92
        0
 93
        1
 72
     2
 10
205.3250636582649
 20
129.9577411706921
 40
1.719337681537762
 50
0.0
 51
360.0
 73
     1
 97
        1
330
DD
 92
        1
 93
        6
 72
     1
 10
203.2623378426937
 20
132.9839504308452
 11
201.8495368769228
 21
132.9839504308356
 72
     1
 10
201.8495368769228
 20
132.9839504308356
 11
201.8495368769814
 21
124.2665634117903
 72
     1
 10
201.8495368769814
 20
124.2665634117903
 11
203.2623378427515
 21
124.2665634117997
 72
     1
 10
203.2623378427515
 20
124.2665634117997
 11
203.2623378427285
 21
127.7330011097455
 72
     2
 10
205.3250636582649
 20
129.9577411706921
 40
3.033859938899787
 50
227.1640563882714
 51
492.8359436124888
 73
     1
 72
     1
 10
203.262337842699
 20
132.1824812316113
 11
203.2623378426937
 21
132.9839504308452
 97
        6
330
DE
330
E3
330
E2
330
E1
330
E0
330
DF
 75
     0
 76
     1
 98
        1
 10
0.0
 20
0.0
450
        0
451
        0
460
0.0
461
0.0
452
        0
462
0.0
453
        0
470

  0
CIRCLE
  5
E5
102
{ACAD_REACTORS
330
EC
102
}
330
DA
100
AcDbEntity
  8
0
100
AcDbCircle
 10
229.2240761842578
 20
129.9577411707767
 30
10.0
 40
1.719337681537758
  0
LINE
  5
E6
102
{ACAD_REACTORS
330
EC
102
}
330
DA
100
AcDbEntity
  8
0
100
AcDbLine
 10
232.6996029656125
 20
132.9916011097586
 30
10.0
 11
232.6996029656104
 21
126.9238812318674
 31
10.0
  0
LINE
  5
E7
102
{ACAD_REACTORS
330
EC
102
}
330
DA
100
AcDbEntity
  8
0
100
AcDbLine
 10
231.1578705209663
 20
132.9916011097573
 30
10.0
 11
232.6996029656125
 21
132.9916011097586
 31
10.0
  0
LINE
  5
E8
102
{ACAD_REACTORS
330
EC
102
}
330
DA
100
AcDbEntity
  8
0
100
AcDbLine
 10
231.1578705209618
 20
132.2954207023184
 30
10.0
 11
231.1578705209663
 21
132.9916011097573
 31
10.0
  0
ARC
  5
E9
102
{ACAD_REACTORS
330
EC
102
}
330
DA
100
AcDbEntity
  8
0
100
AcDbCircle
 10
229.2240761842578
 20
129.9577411707767
 30
10.0
 40
3.033859938900635
100
AcDbArc
 50
50.40148946657925
 51
309.5985105326799
  0
LINE
  5
EA
102
{ACAD_REACTORS
330
EC
102
}
330
DA
100
AcDbEntity
  8
0
100
AcDbLine
 10
231.157870520928
 20
126.9238812318672
 30
10.0
 11
231.1578705209325
 21
127.6200616392089
 31
10.0
  0
LINE
  5
EB
102
{ACAD_REACTORS
330
EC
102
}
330
DA
100
AcDbEntity
  8
0
100
AcDbLine
 10
232.6996029656104
 20
126.9238812318674
 30
10.0
 11
231.157870520928
 21
126.9238812318672
 31
10.0
  0
HATCH
  5
EC
330
DA
100
AcDbEntity
  8
Schraffur (ISO)
 62
     1
420
 16711680
100
AcDbHatch
 10
0.0
 20
0.0
 30
0.0
210
0.0
220
0.0
230
1.0
  2
SOLID
 70
     1
 71
     1
 91
        2
 92
        0
 93
        1
 72
     2
 10
229.2240761842578
 20
129.9577411707767
 40
1.719337681537758
 50
0.0
 51
360.0
 73
     1
 97
        1
330
E5
 92
        1
 93
        6
 72
     1
 10
232.6996029656125
 20
132.9916011097586
 11
232.6996029656104
 21
126.9238812318674
 72
     1
 10
232.6996029656104
 20
126.9238812318674
 11
231.157870520928
 21
126.9238812318672
 72
     1
 10
231.157870520928
 20
126.9238812318672
 11
231.1578705209325
 21
127.6200616392089
 72
     2
 10
229.2240761842578
 20
129.9577411707767
 40
3.033859938900635
 50
50.40148946732005
 51
309.5985105334207
 73
     0
 72
     1
 10
231.1578705209618
 20
132.2954207023184
 11
231.1578705209663
 21
132.9916011097573
 72
     1
 10
231.1578705209663
 20
132.9916011097573
 11
232.6996029656125
 21
132.9916011097585
 97
        6
330
E6
330
EB
330
EA
330
E9
330
E8
330
E7
 75
     0
 76
     1
 98
        1
 10
0.0
 20
0.0
450
        0
451
        0
460
0.0
461
0.0
452
        0
462
0.0
453
        0
470

  0
LINE
  5
ED
102
{ACAD_REACTORS
330
FB
102
}
330
DA
100
AcDbEntity
  8
0
100
AcDbLine
 10
218.8383764312017
 20
126.923881231913
 30
0.0
 11
220.2513001425073
 21
126.9238812319141
 31
0.0
  0
LINE
  5
EE
102
{ACAD_REACTORS
330
FB
102
}
330
DA
100
AcDbEntity
  8
0
100
AcDbLine
 10
218.8383764311983
 20
132.4416011097574
 30
0.0
 11
218.8383764312017
 21
126.923881231913
 31
0.0
  0
ARC
  5
EF
102
{ACAD_REACTORS
330
FB
102
}
330
DA
100
AcDbEntity
  8
0
100
AcDbCircle
 10
219.3883764312018
 20
132.4416011097618
 30
0.0
 40
0.5500000000000746
100
AcDbArc
 50
90.0
 51
180.0
  0
LINE
  5
F0
102
{ACAD_REACTORS
330
FB
102
}
330
DA
100
AcDbEntity
  8
0
100
AcDbLine
 10
225.0191271660537
 20
132.9916011097573
 30
0.0
 11
219.3883764312018
 21
132.9916011097574
 31
0.0
  0
ARC
  5
F1
102
{ACAD_REACTORS
330
FB
102
}
330
DA
100
AcDbEntity
  8
0
100
AcDbCircle
 10
225.0191271660537
 20
132.4416011097574
 30
0.0
 40
0.5500000000000976
100
AcDbArc
 50
0.0
 51
90.0
  0
LINE
  5
F2
102
{ACAD_REACTORS
330
FB
102
}
330
DA
100
AcDbEntity
  8
0
100
AcDbLine
 10
225.5691271660538
 20
126.9238812319165
 30
0.0
 11
225.5691271660537
 21
132.4416011097573
 31
0.0
  0
LINE
  5
F3
102
{ACAD_REACTORS
330
FB
102
}
330
DA
100
AcDbEntity
  8
0
100
AcDbLine
 10
224.1562034547728
 20
126.9238812319165
 30
0.0
 11
225.5691271660538
 21
126.9238812319165
 31
0.0
  0
LINE
  5
F4
102
{ACAD_REACTORS
330
FB
102
}
330
DA
100
AcDbEntity
  8
0
100
AcDbLine
 10
224.1562034547728
 20
131.6116554876772
 30
0.0
 11
224.1562034547728
 21
126.9238812319165
 31
0.0
  0
LINE
  5
F5
102
{ACAD_REACTORS
330
FB
102
}
330
DA
100
AcDbEntity
  8
0
100
AcDbLine
 10
222.9086179624947
 20
131.6116554876776
 30
0.0
 11
224.1562034547728
 21
131.6116554876772
 31
0.0
  0
LINE
  5
F6
102
{ACAD_REACTORS
330
FB
102
}
330
DA
100
AcDbEntity
  8
0
100
AcDbLine
 10
222.9086179624931
 20
126.923881231913
 30
0.0
 11
222.9086179624947
 21
131.6116554876776
 31
0.0
  0
LINE
  5
F7
102
{ACAD_REACTORS
330
FB
102
}
330
DA
100
AcDbEntity
  8
0
100
AcDbLine
 10
221.4988856347862
 20
126.9238812319135
 30
0.0
 11
222.9086179624931
 21
126.923881231913
 31
0.0
  0
LINE
  5
F8
102
{ACAD_REACTORS
330
FB
102
}
330
DA
100
AcDbEntity
  8
0
100
AcDbLine
 10
221.4988856347877
 20
131.6116554876782
 30
0.0
 11
221.4988856347862
 21
126.9238812319135
 31
0.0
  0
LINE
  5
F9
102
{ACAD_REACTORS
330
FB
102
}
330
DA
100
AcDbEntity
  8
0
100
AcDbLine
 10
220.2513001425089
 20
131.6116554876786
 30
0.0
 11
221.4988856347877
 21
131.6116554876782
 31
0.0
  0
LINE
  5
FA
102
{ACAD_REACTORS
330
FB
102
}
330
DA
100
AcDbEntity
  8
0
100
AcDbLine
 10
220.2513001425073
 20
126.9238812319141
 30
0.0
 11
220.2513001425089
 21
131.6116554876786
 31
0.0
  0
HATCH
  5
FB
330
DA
100
AcDbEntity
  8
Schraffur (ISO)
 62
     1
420
 16711680
100
AcDbHatch
 10
0.0
 20
0.0
 30
0.0
210
0.0
220
0.0
230
1.0
  2
SOLID
 70
     1
 71
     1
 91
        1
 92
        1
 93
       14
 72
     1
 10
218.8383764312017
 20
126.923881231913
 11
220.2513001425073
 21
126.9238812319141
 72
     1
 10
220.2513001425073
 20
126.9238812319141
 11
220.2513001425088
 21
131.6116554876786
 72
     1
 10
220.2513001425089
 20
131.6116554876786
 11
221.4988856347877
 21
131.6116554876781
 72
     1
 10
221.4988856347877
 20
131.6116554876782
 11
221.4988856347862
 21
126.9238812319135
 72
     1
 10
221.4988856347862
 20
126.9238812319135
 11
222.9086179624931
 21
126.923881231913
 72
     1
 10
222.9086179624931
 20
126.923881231913
 11
222.9086179624947
 21
131.6116554876776
 72
     1
 10
222.9086179624947
 20
131.6116554876776
 11
224.1562034547728
 21
131.6116554876772
 72
     1
 10
224.1562034547728
 20
131.6116554876772
 11
224.1562034547728
 21
126.9238812319165
 72
     1
 10
224.1562034547728
 20
126.9238812319165
 11
225.5691271660538
 21
126.9238812319165
 72
     1
 10
225.5691271660538
 20
126.9238812319165
 11
225.5691271660537
 21
132.4416011097573
 72
     2
 10
225.0191271660537
 20
132.4416011097574
 40
0.5500000000000976
 50
0.0
 51
90.0
 73
     1
 72
     1
 10
225.0191271660537
 20
132.9916011097573
 11
219.3883764312018
 21
132.9916011097574
 72
     2
 10
219.3883764312018
 20
132.4416011097618
 40
0.5500000000000746
 50
90.0
 51
180.0
 73
     1
 72
     1
 10
218.8383764311983
 20
132.4416011097574
 11
218.8383764312017
 21
126.923881231913
 97
       14
330
ED
330
FA
330
F9
330
F8
330
F7
330
F6
330
F5
330
F4
330
F3
330
F2
330
F1
330
F0
330
EF
330
EE
 75
     0
 76
     1
 98
        1
 10
0.0
 20
0.0
450
        0
451
        0
460
0.0
461
0.0
452
        0
462
0.0
453
        0
470

  0
LINE
  5
FC
102
{ACAD_REACTORS
330
100
102
}
330
DA
100
AcDbEntity
  8
0
100
AcDbLine
 10
204.1419322580611
 20
124.2665634117745
 30
0.0
 11
232.6996029656679
 21
124.2665634119642
 31
0.0
  0
LINE
  5
FD
102
{ACAD_REACTORS
330
100
102
}
330
DA
100
AcDbEntity
  8
0
100
AcDbLine
 10
204.1419322580517
 20
125.6885717007361
 30
0.0
 11
204.1419322580611
 21
124.2665634117745
 31
0.0
  0
LINE
  5
FE
102
{ACAD_REACTORS
330
100
102
}
330
DA
100
AcDbEntity
  8
0
100
AcDbLine
 10
232.6996029656585
 20
125.6885717009258
 30
0.0
 11
204.1419322580517
 21
125.6885717007361
 31
0.0
  0
LINE
  5
FF
102
{ACAD_REACTORS
330
100
102
}
330
DA
100
AcDbEntity
  8
0
100
AcDbLine
 10
232.6996029656679
 20
124.2665634119642
 30
0.0
 11
232.6996029656585
 21
125.6885717009258
 31
0.0
  0
HATCH
  5
100
330
DA
100
AcDbEntity
  8
Schraffur (ISO)
 62
     1
420
 16711680
100
AcDbHatch
 10
0.0
 20
0.0
 30
0.0
210
0.0
220
0.0
230
1.0
  2
SOLID
 70
     1
 71
     1
 91
        1
 92
        1
 93
        4
 72
     1
 10
204.1419322580611
 20
124.2665634117745
 11
232.6996029656679
 21
124.2665634119642
 72
     1
 10
232.6996029656679
 20
124.2665634119642
 11
232.6996029656585
 21
125.6885717009258
 72
     1
 10
232.6996029656585
 20
125.6885717009258
 11
204.1419322580517
 21
125.6885717007361
 72
     1
 10
204.1419322580517
 20
125.6885717007361
 11
204.1419322580611
 21
124.2665634117745
 97
        4
330
FC
330
FF
330
FE
330
FD
 75
     0
 76
     1
 98
        1
 10
0.0
 20
0.0
450
        0
451
        0
460
0.0
461
0.0
452
        0
462
0.0
453
        0
470

  0
LINE
  5
101
102
{ACAD_REACTORS
330
108
102
}
330
DA
100
AcDbEntity
  8
0
100
AcDbLine
 10
215.2485608755792
 20
126.9238812319728
 30
10.0
 11
215.2485608755792
 21
132.4416011097575
 31
10.0
  0
LINE
  5
102
102
{ACAD_REACTORS
330
108
102
}
330
DA
100
AcDbEntity
  8
0
100
AcDbLine
 10
216.6614845869121
 20
126.9238812319728
 30
10.0
 11
215.2485608755792
 21
126.9238812319728
 31
10.0
  0
LINE
  5
103
102
{ACAD_REACTORS
330
108
102
}
330
DA
100
AcDbEntity
  8
0
100
AcDbLine
 10
216.6614845869121
 20
131.6116554877478
 30
10.0
 11
216.6614845869121
 21
126.9238812319728
 31
10.0
  0
LINE
  5
104
102
{ACAD_REACTORS
330
108
102
}
330
DA
100
AcDbEntity
  8
0
100
AcDbLine
 10
218.5171513984061
 20
131.6116554877478
 30
10.0
 11
216.6614845869121
 21
131.6116554877478
 31
10.0
  0
LINE
  5
105
102
{ACAD_REACTORS
330
108
102
}
330
DA
100
AcDbEntity
  8
0
100
AcDbLine
 10
218.5171513984061
 20
132.9916011097571
 30
10.0
 11
218.5171513984061
 21
131.6116554877478
 31
10.0
  0
LINE
  5
106
102
{ACAD_REACTORS
330
108
102
}
330
DA
100
AcDbEntity
  8
0
100
AcDbLine
 10
215.7985608755792
 20
132.9916011097575
 30
10.0
 11
218.5171513984061
 21
132.9916011097571
 31
10.0
  0
ARC
  5
107
102
{ACAD_REACTORS
330
108
102
}
330
DA
100
AcDbEntity
  8
0
100
AcDbCircle
 10
215.7985608755792
 20
132.4416011097575
 30
10.0
 40
0.5499999999999972
100
AcDbArc
 50
89.99999999999259
 51
180.0
  0
HATCH
  5
108
330
DA
100
AcDbEntity
  8
Schraffur (ISO)
 62
     1
420
 16711680
100
AcDbHatch
 10
0.0
 20
0.0
 30
0.0
210
0.0
220
0.0
230
1.0
  2
SOLID
 70
     1
 71
     1
 91
        1
 92
        1
 93
        7
 72
     1
 10
215.2485608755792
 20
126.9238812319728
 11
215.2485608755792
 21
132.4416011097575
 72
     2
 10
215.7985608755792
 20
132.4416011097575
 40
0.5499999999999972
 50
180.0
 51
270.0000000000074
 73
     0
 72
     1
 10
215.7985608755792
 20
132.9916011097575
 11
218.5171513984061
 21
132.9916011097571
 72
     1
 10
218.5171513984061
 20
132.9916011097571
 11
218.5171513984061
 21
131.6116554877478
 72
     1
 10
218.5171513984061
 20
131.6116554877478
 11
216.6614845869122
 21
131.6116554877478
 72
     1
 10
216.6614845869121
 20
131.6116554877478
 11
216.6614845869121
 21
126.9238812319728
 72
     1
 10
216.6614845869121
 20
126.9238812319728
 11
215.2485608755792
 21
126.9238812319728
 97
        7
330
101
330
107
330
106
330
105
330
104
330
103
330
102
 75
     0
 76
     1
 98
        1
 10
0.0
 20
0.0
450
        0
451
        0
460
0.0
461
0.0
452
        0
462
0.0
453
        0
470

  0
ARC
  5
109
102
{ACAD_REACTORS
330
10F
102
}
330
DA
100
AcDbEntity
  8
0
100
AcDbCircle
 10
211.6662717366203
 20
129.8770198634057
 30
10.0
 40
1.613931804228503
100
AcDbArc
 50
28.92986986901106
 51
151.0701301310047
  0
LINE
  5
10A
102
{ACAD_REACTORS
330
10F
102
}
330
DA
100
AcDbEntity
  8
0
100
AcDbLine
 10
213.0788049606536
 20
130.6577411707252
 30
10.0
 11
210.2537385125869
 21
130.6577411707248
 31
10.0
  0
LINE
  5
10B
102
{ACAD_REACTORS
330
10F
102
}
330
DA
100
AcDbEntity
  8
0
100
AcDbLine
 10
214.8537416263049
 20
129.4184174447039
 30
10.0
 11
210.1188675585661
 21
129.4184174447032
 31
10.0
  0
ARC
  5
10C
102
{ACAD_REACTORS
330
10F
102
}
330
DA
100
AcDbEntity
  8
0
100
AcDbCircle
 10
211.6662717366203
 20
129.8770198634057
 30
10.0
 40
3.220291986153563
100
AcDbArc
 50
351.8126618974374
 51
341.77754735009
  0
LINE
  5
10D
102
{ACAD_REACTORS
330
10F
102
}
330
DA
100
AcDbEntity
  8
0
100
AcDbLine
 10
212.9275052645394
 20
128.8700114936525
 30
10.0
 11
214.7250647370304
 21
128.8700114936653
 31
10.0
  0
ARC
  5
10E
102
{ACAD_REACTORS
330
10F
102
}
330
DA
100
AcDbEntity
  8
0
100
AcDbCircle
 10
211.6662717366203
 20
129.8770198634057
 30
10.0
 40
1.613931804228503
100
AcDbArc
 50
196.508183577668
 51
321.395037276296
  0
HATCH
  5
10F
330
DA
100
AcDbEntity
  8
Schraffur (ISO)
 62
     1
420
 16711680
100
AcDbHatch
 10
0.0
 20
0.0
 30
0.0
210
0.0
220
0.0
230
1.0
  2
SOLID
 70
     1
 71
     1
 91
        2
 92
        0
 93
        2
 72
     2
 10
211.6662717366203
 20
129.8770198634057
 40
1.613931804228503
 50
28.92986986901105
 51
151.0701301310047
 73
     1
 72
     1
 10
210.2537385125869
 20
130.6577411707248
 11
213.0788049606536
 21
130.6577411707252
 97
        2
330
109
330
10A
 92
        1
 93
        4
 72
     1
 10
214.8537416263049
 20
129.4184174447039
 11
210.1188675585661
 21
129.4184174447032
 72
     2
 10
211.6662717366203
 20
129.8770198634057
 40
1.613931804228503
 50
196.508183577668
 51
321.395037276296
 73
     1
 72
     1
 10
212.9275052645394
 20
128.8700114936525
 11
214.7250647370304
 21
128.8700114936653
 72
     2
 10
211.6662717366203
 20
129.8770198634057
 40
3.220291986153563
 50
18.22245264990997
 51
368.1873381025625
 73
     0
 97
        4
330
10B
330
10E
330
10D
330
10C
 75
     0
 76
     1
 98
        1
 10
0.0
 20
0.0
450
        0
451
        0
460
0.0
461
0.0
452
        0
462
0.0
453
        0
470

  0
LINE
  5
110
330
DA
100
AcDbEntity
  8
Titel (ISO)
100
AcDbLine
 10
98.36981491444584
 20
99.86435430602192
 30
0.0
 11
288.3698149144458
 21
99.86435430602192
 31
0.0
  0
LINE
  5
111
330
DA
100
AcDbEntity
  8
Titel (ISO)
100
AcDbLine
 10
288.3698149144458
 20
99.86435430602192
 30
0.0
 11
288.3698149144458
 21
155.1143543060219
 31
0.0
  0
LINE
  5
112
330
DA
100
AcDbEntity
  8
Titel (ISO)
100
AcDbLine
 10
288.3698149144458
 20
155.1143543060219
 30
0.0
 11
98.36981491444582
 21
155.1143543060219
 31
0.0
  0
LINE
  5
113
330
DA
100
AcDbEntity
  8
Titel (ISO)
100
AcDbLine
 10
98.36981491444584
 20
155.1143543060219
 30
0.0
 11
98.36981491444584
 21
99.86435430602192
 31
0.0
  0
LINE
  5
114
330
DA
100
AcDbEntity
  8
Titel (ISO)
100
AcDbLine
 10
152.9698149144458
 20
99.86435430602192
 30
0.0
 11
152.9698149144458
 21
155.1143543060219
 31
0.0
  0
LINE
  5
115
330
DA
100
AcDbEntity
  8
Titel (ISO)
100
AcDbLine
 10
197.1698149144458
 20
99.86435430602192
 30
0.0
 11
197.1698149144458
 21
155.1143543060219
 31
0.0
  0
LINE
  5
116
330
DA
100
AcDbEntity
  8
Titel (ISO)
100
AcDbLine
 10
98.36981491444584
 20
138.114354306022
 30
0.0
 11
288.3698149144458
 21
138.114354306022
 31
0.0
  0
LINE
  5
117
330
DA
100
AcDbEntity
  8
Titel (ISO)
100
AcDbLine
 10
152.9698149144458
 20
116.864354306022
 30
0.0
 11
288.3698149144458
 21
116.864354306022
 31
0.0
  0
LINE
  5
118
330
DA
100
AcDbEntity
  8
Titel (ISO)
100
AcDbLine
 10
197.1698149144458
 20
148.3643543060219
 30
0.0
 11
288.3698149144458
 21
148.3643543060219
 31
0.0
  0
LINE
  5
119
330
DA
100
AcDbEntity
  8
Titel (ISO)
100
AcDbLine
 10
241.7982776815565
 20
148.364354306022
 30
0.0
 11
241.7982776815565
 21
155.1143543060219
 31
0.0
  0
LINE
  5
11A
330
DA
100
AcDbEntity
  8
Titel (ISO)
100
AcDbLine
 10
98.36981491444584
 20
104.1143543060219
 30
0.0
 11
152.9698149144458
 21
104.1143543060219
 31
0.0
  0
LINE
  5
11B
330
DA
100
AcDbEntity
  8
Titel (ISO)
100
AcDbLine
 10
152.9698149144458
 20
104.1143543060219
 30
0.0
 11
197.1698149144458
 21
104.1143543060219
 31
0.0
  0
LINE
  5
11C
330
DA
100
AcDbEntity
  8
Titel (ISO)
100
AcDbLine
 10
197.1698149144458
 20
104.1143543060219
 30
0.0
 11
288.3698149144458
 21
104.1143543060219
 31
0.0
  0
LINE
  5
11D
330
DA
100
AcDbEntity
  8
Titel (ISO)
100
AcDbLine
 10
272.5698149144459
 20
104.1143543060219
 30
0.0
 11
272.5698149144459
 21
116.864354306022
 31
0.0
  0
LINE
  5
11E
330
DA
100
AcDbEntity
  8
Titel (ISO)
100
AcDbLine
 10
272.5698149144458
 20
108.2553799470478
 30
0.0
 11
288.3698149144458
 21
108.2553799470477
 31
0.0
  0
LINE
  5
11F
330
DA
100
AcDbEntity
  8
Titel (ISO)
100
AcDbLine
 10
152.9698149144458
 20
108.3643543060219
 30
0.0
 11
98.36981491444584
 21
108.3643543060219
 31
0.0
  0
LINE
  5
120
330
DA
100
AcDbEntity
  8
Titel (ISO)
100
AcDbLine
 10
98.36981491444584
 20
112.6143543060219
 30
0.0
 11
152.9698149144458
 21
112.6143543060219
 31
0.0
  0
LINE
  5
121
330
DA
100
AcDbEntity
  8
Titel (ISO)
100
AcDbLine
 10
98.36981491444587
 20
116.8643543060219
 30
0.0
 11
152.9698149144458
 21
116.864354306022
 31
0.0
  0
LINE
  5
122
330
DA
100
AcDbEntity
  8
Titel (ISO)
100
AcDbLine
 10
98.36981491444584
 20
121.1143543060219
 30
0.0
 11
152.9698149144458
 21
121.1143543060219
 31
0.0
  0
LINE
  5
123
330
DA
100
AcDbEntity
  8
Titel (ISO)
100
AcDbLine
 10
152.9698149144458
 20
121.1143543060219
 30
0.0
 11
197.1698149144458
 21
121.114354306022
 31
0.0
  0
LINE
  5
124
330
DA
100
AcDbEntity
  8
Titel (ISO)
100
AcDbLine
 10
98.36981491444584
 20
125.3643543060219
 30
0.0
 11
152.9698149144458
 21
125.3643543060219
 31
0.0
  0
LINE
  5
125
330
DA
100
AcDbEntity
  8
Titel (ISO)
100
AcDbLine
 10
152.9698149144458
 20
125.3643543060219
 30
0.0
 11
197.1698149144458
 21
125.3643543060219
 31
0.0
  0
LINE
  5
126
330
DA
100
AcDbEntity
  8
Titel (ISO)
100
AcDbLine
 10
98.36981491444584
 20
129.6143543060219
 30
0.0
 11
152.9698149144458
 21
129.6143543060219
 31
0.0
  0
LINE
  5
127
330
DA
100
AcDbEntity
  8
Titel (ISO)
100
AcDbLine
 10
152.9698149144458
 20
129.6143543060219
 30
0.0
 11
197.1698149144458
 21
129.6143543060219
 31
0.0
  0
LINE
  5
128
330
DA
100
AcDbEntity
  8
Titel (ISO)
100
AcDbLine
 10
98.36981491444584
 20
133.8643543060219
 30
0.0
 11
152.9698149144458
 21
133.864354306022
 31
0.0
  0
LINE
  5
129
330
DA
100
AcDbEntity
  8
Titel (ISO)
100
AcDbLine
 10
152.9698149144458
 20
133.864354306022
 30
0.0
 11
197.1698149144458
 21
133.864354306022
 31
0.0
  0
LINE
  5
12A
330
DA
100
AcDbEntity
  8
Titel (ISO)
100
AcDbLine
 10
106.1698149144458
 20
99.86435430602192
 30
0.0
 11
106.1698149144458
 21
138.114354306022
 31
0.0
  0
LINE
  5
12B
330
DA
100
AcDbEntity
  8
Titel (ISO)
100
AcDbLine
 10
132.1698149144458
 20
99.86435430602192
 30
0.0
 11
132.1698149144458
 21
138.114354306022
 31
0.0
  0
LINE
  5
12C
330
DA
100
AcDbEntity
  8
Titel (ISO)
100
AcDbLine
 10
145.1698149144458
 20
99.86435430602192
 30
0.0
 11
145.1698149144458
 21
138.114354306022
 31
0.0
  0
LINE
  5
12D
330
DA
100
AcDbEntity
  8
Titel (ISO)
100
AcDbLine
 10
163.3698149144458
 20
121.1143543060219
 30
0.0
 11
163.3698149144458
 21
138.114354306022
 31
0.0
  0
LINE
  5
12E
330
DA
100
AcDbEntity
  8
Titel (ISO)
100
AcDbLine
 10
178.9698149144458
 20
116.864354306022
 30
0.0
 11
178.9698149144458
 21
138.114354306022
 31
0.0
  0
LINE
  5
12F
330
DA
100
AcDbEntity
  8
Titel (ISO)
100
AcDbLine
 10
178.9698149144458
 20
138.114354306022
 30
0.0
 11
178.9698149144458
 21
155.1143543060219
 31
0.0
  0
CIRCLE
  5
130
330
DA
100
AcDbEntity
  8
PERMA_ROT
100
AcDbCircle
 10
234.6022518879248
 20
134.6938533283584
 30
0.0
 40
1.599084806255177
  0
LINE
  5
131
330
DA
100
AcDbEntity
  8
Titel (ISO)
100
AcDbLine
 10
201.8495368769228
 20
132.9839504308356
 30
0.0
 11
203.2623378426937
 21
132.9839504308452
 31
0.0
  0
LINE
  5
132
330
DA
100
AcDbEntity
  8
Titel (ISO)
100
AcDbLine
 10
220.2513001425073
 20
126.9238812319141
 30
0.0
 11
218.8383764312017
 21
126.923881231913
 31
0.0
  0
LINE
  5
133
330
DA
100
AcDbEntity
  8
Titel (ISO)
100
AcDbLine
 10
231.1578705209663
 20
132.9916011097573
 30
0.0
 11
232.6996029656125
 21
132.9916011097586
 31
0.0
  0
ARC
  5
134
330
DA
100
AcDbEntity
  8
Titel (ISO)
100
AcDbCircle
 10
229.2240761842578
 20
129.9577411707767
 30
0.0
 40
3.033859938900635
100
AcDbArc
 50
50.40148946657925
 51
309.5985105326799
  0
LINE
  5
135
330
DA
100
AcDbEntity
  8
Titel (ISO)
100
AcDbLine
 10
232.6996029656125
 20
132.9916011097586
 30
0.0
 11
232.6996029656104
 21
126.9238812318674
 31
0.0
  0
LINE
  5
136
330
DA
100
AcDbEntity
  8
Titel (ISO)
100
AcDbLine
 10
231.1578705209663
 20
132.9916011097573
 30
0.0
 11
231.1578705209618
 21
132.2954207023184
 31
0.0
  0
LINE
  5
137
330
DA
100
AcDbEntity
  8
Titel (ISO)
100
AcDbLine
 10
231.1578705209325
 20
127.6200616392089
 30
0.0
 11
231.157870520928
 21
126.9238812318672
 31
0.0
  0
LINE
  5
138
330
DA
100
AcDbEntity
  8
Titel (ISO)
100
AcDbLine
 10
231.157870520928
 20
126.9238812318672
 30
0.0
 11
232.6996029656104
 21
126.9238812318674
 31
0.0
  0
CIRCLE
  5
139
330
DA
100
AcDbEntity
  8
Titel (ISO)
100
AcDbCircle
 10
229.2240761842578
 20
129.9577411707767
 30
0.0
 40
1.719337681537758
  0
LINE
  5
13A
330
DA
100
AcDbEntity
  8
Titel (ISO)
100
AcDbLine
 10
220.2513001425073
 20
126.9238812319141
 30
0.0
 11
220.2513001425089
 21
131.6116554876786
 31
0.0
  0
LINE
  5
13B
330
DA
100
AcDbEntity
  8
Titel (ISO)
100
AcDbLine
 10
221.4988856347862
 20
126.9238812319135
 30
0.0
 11
221.4988856347877
 21
131.6116554876782
 31
0.0
  0
LINE
  5
13C
330
DA
100
AcDbEntity
  8
Titel (ISO)
100
AcDbLine
 10
221.4988856347877
 20
131.6116554876782
 30
0.0
 11
220.2513001425089
 21
131.6116554876786
 31
0.0
  0
LINE
  5
13D
330
DA
100
AcDbEntity
  8
Titel (ISO)
100
AcDbLine
 10
222.9086179624947
 20
131.6116554876776
 30
0.0
 11
224.1562034547728
 21
131.6116554876772
 31
0.0
  0
LINE
  5
13E
330
DA
100
AcDbEntity
  8
Titel (ISO)
100
AcDbLine
 10
222.9086179624931
 20
126.923881231913
 30
0.0
 11
222.9086179624947
 21
131.6116554876776
 31
0.0
  0
LINE
  5
13F
330
DA
100
AcDbEntity
  8
Titel (ISO)
100
AcDbLine
 10
221.4988856347862
 20
126.9238812319135
 30
0.0
 11
222.9086179624931
 21
126.923881231913
 31
0.0
  0
LINE
  5
140
330
DA
100
AcDbEntity
  8
Titel (ISO)
100
AcDbLine
 10
224.1562034547728
 20
126.9238812319165
 30
0.0
 11
224.1562034547728
 21
131.6116554876772
 31
0.0
  0
LINE
  5
141
330
DA
100
AcDbEntity
  8
Titel (ISO)
100
AcDbLine
 10
224.1562034547728
 20
126.9238812319165
 30
0.0
 11
225.5691271660538
 21
126.9238812319165
 31
0.0
  0
LINE
  5
142
330
DA
100
AcDbEntity
  8
Titel (ISO)
100
AcDbLine
 10
225.5691271660538
 20
126.9238812319165
 30
0.0
 11
225.5691271660537
 21
132.4416011097573
 31
0.0
  0
LINE
  5
143
330
DA
100
AcDbEntity
  8
Titel (ISO)
100
AcDbLine
 10
225.0191271660537
 20
132.9916011097573
 30
0.0
 11
219.3883764312018
 21
132.9916011097574
 31
0.0
  0
ARC
  5
144
330
DA
100
AcDbEntity
  8
Titel (ISO)
100
AcDbCircle
 10
225.0191271660537
 20
132.4416011097574
 30
0.0
 40
0.5500000000000976
100
AcDbArc
 50
0.0
 51
90.0
  0
LINE
  5
145
330
DA
100
AcDbEntity
  8
Titel (ISO)
100
AcDbLine
 10
218.8383764312017
 20
126.923881231913
 30
0.0
 11
218.8383764311983
 21
132.4416011097574
 31
0.0
  0
ARC
  5
146
330
DA
100
AcDbEntity
  8
Titel (ISO)
100
AcDbCircle
 10
219.3883764312018
 20
132.4416011097618
 30
0.0
 40
0.5500000000000746
100
AcDbArc
 50
90.0
 51
180.0
  0
LINE
  5
147
330
DA
100
AcDbEntity
  8
Titel (ISO)
100
AcDbLine
 10
201.8495368769228
 20
132.9839504308356
 30
0.0
 11
201.8495368769814
 21
124.2665634117903
 31
0.0
  0
LINE
  5
148
330
DA
100
AcDbEntity
  8
Titel (ISO)
100
AcDbLine
 10
201.8495368769814
 20
124.2665634117903
 30
0.0
 11
203.2623378427515
 21
124.2665634117997
 31
0.0
  0
ARC
  5
149
330
DA
100
AcDbEntity
  8
Titel (ISO)
100
AcDbCircle
 10
205.3250636582649
 20
129.9577411706921
 30
0.0
 40
3.033859938899787
100
AcDbArc
 50
227.1640563882714
 51
132.8359436124889
  0
CIRCLE
  5
14A
330
DA
100
AcDbEntity
  8
Titel (ISO)
100
AcDbCircle
 10
205.3250636582649
 20
129.9577411706921
 30
0.0
 40
1.719337681537762
  0
LINE
  5
14B
330
DA
100
AcDbEntity
  8
Titel (ISO)
100
AcDbLine
 10
203.2623378427515
 20
124.2665634117997
 30
0.0
 11
203.2623378427285
 21
127.7330011097455
 31
0.0
  0
LINE
  5
14C
330
DA
100
AcDbEntity
  8
Titel (ISO)
100
AcDbLine
 10
203.262337842699
 20
132.1824812316113
 30
0.0
 11
203.2623378426937
 21
132.9839504308452
 31
0.0
  0
LINE
  5
14D
330
DA
100
AcDbEntity
  8
Titel (ISO)
100
AcDbLine
 10
232.6996029656585
 20
125.6885717009258
 30
0.0
 11
232.6996029656679
 21
124.2665634119642
 31
0.0
  0
LINE
  5
14E
330
DA
100
AcDbEntity
  8
Titel (ISO)
100
AcDbLine
 10
204.1419322580517
 20
125.6885717007361
 30
0.0
 11
232.6996029656585
 21
125.6885717009258
 31
0.0
  0
LINE
  5
14F
330
DA
100
AcDbEntity
  8
Titel (ISO)
100
AcDbLine
 10
204.1419322580611
 20
124.2665634117745
 30
0.0
 11
232.6996029656679
 21
124.2665634119642
 31
0.0
  0
LINE
  5
150
330
DA
100
AcDbEntity
  8
Titel (ISO)
100
AcDbLine
 10
204.1419322580517
 20
125.6885717007361
 30
0.0
 11
204.1419322580611
 21
124.2665634117745
 31
0.0
  0
LINE
  5
151
330
DA
100
AcDbEntity
  8
Titel (ISO)
100
AcDbLine
 10
98.66197087343079
 20
108.3643543060219
 30
0.0
 11
106.1698149144458
 21
108.3643543060219
 31
0.0
  0
LINE
  5
152
330
DA
100
AcDbEntity
  8
Titel (ISO)
100
AcDbLine
 10
98.36981491444584
 20
108.3643543060219
 30
0.0
 11
98.36981491444584
 21
104.1143543060219
 31
0.0
  0
LINE
  5
153
330
DA
100
AcDbEntity
  8
Titel (ISO)
100
AcDbLine
 10
106.1698149144458
 20
108.3643543060219
 30
0.0
 11
132.1698149144458
 21
108.3643543060219
 31
0.0
  0
LINE
  5
154
330
DA
100
AcDbEntity
  8
Titel (ISO)
100
AcDbLine
 10
132.1698149144458
 20
108.3643543060219
 30
0.0
 11
145.1698149144458
 21
108.3643543060219
 31
0.0
  0
LINE
  5
155
330
DA
100
AcDbEntity
  8
Titel (ISO)
100
AcDbLine
 10
145.1698149144458
 20
108.3643543060219
 30
0.0
 11
152.9698149144458
 21
108.3643543060219
 31
0.0
  0
LINE
  5
156
330
DA
100
AcDbEntity
  8
Titel (ISO)
100
AcDbLine
 10
152.9698149144458
 20
112.6143543060219
 30
0.0
 11
152.9698149144458
 21
116.864354306022
 31
0.0
  0
LINE
  5
157
330
DA
100
AcDbEntity
  8
Titel (ISO)
100
AcDbLine
 10
152.9698149144458
 20
116.864354306022
 30
0.0
 11
152.9698149144458
 21
121.1143543060219
 31
0.0
  0
LINE
  5
158
330
DA
100
AcDbEntity
  8
Titel (ISO)
100
AcDbLine
 10
98.36981491444584
 20
138.114354306022
 30
0.0
 11
106.1698149144458
 21
138.114354306022
 31
0.0
  0
LINE
  5
159
330
DA
100
AcDbEntity
  8
Titel (ISO)
100
AcDbLine
 10
106.1698149144458
 20
138.114354306022
 30
0.0
 11
132.1698149144458
 21
138.114354306022
 31
0.0
  0
LINE
  5
15A
330
DA
100
AcDbEntity
  8
Titel (ISO)
100
AcDbLine
 10
132.1698149144458
 20
138.114354306022
 30
0.0
 11
145.1698149144458
 21
138.114354306022
 31
0.0
  0
LINE
  5
15B
330
DA
100
AcDbEntity
  8
Titel (ISO)
100
AcDbLine
 10
145.1698149144458
 20
138.114354306022
 30
0.0
 11
152.9698149144458
 21
138.114354306022
 31
0.0
  0
LINE
  5
15C
330
DA
100
AcDbEntity
  8
Titel (ISO)
100
AcDbLine
 10
98.36981491444584
 20
138.114354306022
 30
0.0
 11
98.36981491444584
 21
133.8643543060219
 31
0.0
  0
LINE
  5
15D
330
DA
100
AcDbEntity
  8
Titel (ISO)
100
AcDbLine
 10
98.36981491444584
 20
133.8643543060219
 30
0.0
 11
98.36981491444584
 21
129.6143543060219
 31
0.0
  0
LINE
  5
15E
330
DA
100
AcDbEntity
  8
Titel (ISO)
100
AcDbLine
 10
98.36981491444584
 20
129.6143543060219
 30
0.0
 11
98.36981491444584
 21
125.3643543060219
 31
0.0
  0
LINE
  5
15F
330
DA
100
AcDbEntity
  8
Titel (ISO)
100
AcDbLine
 10
98.36981491444584
 20
121.1143543060219
 30
0.0
 11
98.36981491444587
 21
116.8643543060219
 31
0.0
  0
LINE
  5
160
330
DA
100
AcDbEntity
  8
Titel (ISO)
100
AcDbLine
 10
98.36981491444584
 20
116.5541786373007
 30
0.0
 11
98.36981491444584
 21
112.6143543060219
 31
0.0
  0
LINE
  5
161
330
DA
100
AcDbEntity
  8
Titel (ISO)
100
AcDbLine
 10
98.36981491444584
 20
112.6143543060219
 30
0.0
 11
98.36981491444584
 21
108.3643543060219
 31
0.0
  0
LINE
  5
162
330
DA
100
AcDbEntity
  8
Titel (ISO)
100
AcDbLine
 10
98.36981491444584
 20
121.6067234034259
 30
0.0
 11
98.36981491444584
 21
125.3643543060219
 31
0.0
  0
LINE
  5
163
330
DA
100
AcDbEntity
  8
Titel (ISO)
100
AcDbLine
 10
163.3698149144458
 20
129.6143543060219
 30
0.0
 11
163.3698149144458
 21
133.864354306022
 31
0.0
  0
LINE
  5
164
330
DA
100
AcDbEntity
  8
Titel (ISO)
100
AcDbLine
 10
163.3698149144458
 20
133.864354306022
 30
0.0
 11
178.9698149144458
 21
133.864354306022
 31
0.0
  0
LINE
  5
165
330
DA
100
AcDbEntity
  8
Titel (ISO)
100
AcDbLine
 10
178.9698149144458
 20
133.864354306022
 30
0.0
 11
197.1698149144458
 21
133.864354306022
 31
0.0
  0
LINE
  5
166
330
DA
100
AcDbEntity
  8
Titel (ISO)
100
AcDbLine
 10
197.1698149144458
 20
148.3643543060219
 30
0.0
 11
197.1698149144458
 21
155.1143543060219
 31
0.0
  0
LINE
  5
167
330
DA
100
AcDbEntity
  8
Titel (ISO)
100
AcDbLine
 10
197.1698149144458
 20
104.1143543060219
 30
0.0
 11
197.1698149144458
 21
99.86435430602192
 31
0.0
  0
LINE
  5
168
330
DA
100
AcDbEntity
  8
Titel (ISO)
100
AcDbLine
 10
216.6614845869121
 20
126.9238812319728
 30
0.0
 11
215.2485608755792
 21
126.9238812319728
 31
0.0
  0
LINE
  5
169
330
DA
100
AcDbEntity
  8
Titel (ISO)
100
AcDbLine
 10
215.2485608755792
 20
132.4416011097575
 30
0.0
 11
215.2485608755792
 21
126.9238812319728
 31
0.0
  0
LINE
  5
16A
330
DA
100
AcDbEntity
  8
Titel (ISO)
100
AcDbLine
 10
216.6614845869121
 20
126.9238812319728
 30
0.0
 11
216.6614845869121
 21
131.6116554877478
 31
0.0
  0
LINE
  5
16B
330
DA
100
AcDbEntity
  8
Titel (ISO)
100
AcDbLine
 10
218.5171513984061
 20
131.6116554877478
 30
0.0
 11
216.6614845869121
 21
131.6116554877478
 31
0.0
  0
LINE
  5
16C
330
DA
100
AcDbEntity
  8
Titel (ISO)
100
AcDbLine
 10
218.5171513984061
 20
131.6116554877478
 30
0.0
 11
218.5171513984061
 21
132.9916011097571
 31
0.0
  0
LINE
  5
16D
330
DA
100
AcDbEntity
  8
Titel (ISO)
100
AcDbLine
 10
218.5171513984061
 20
132.9916011097571
 30
0.0
 11
215.7985608755792
 21
132.9916011097575
 31
0.0
  0
ARC
  5
16E
330
DA
100
AcDbEntity
  8
Titel (ISO)
100
AcDbCircle
 10
215.7985608755792
 20
132.4416011097575
 30
0.0
 40
0.5499999999999972
100
AcDbArc
 50
90.0
 51
180.0
  0
ARC
  5
16F
330
DA
100
AcDbEntity
  8
Titel (ISO)
100
AcDbCircle
 10
211.6662717366203
 20
129.8770198634057
 30
0.0
 40
3.220291986153563
100
AcDbArc
 50
351.8126618974374
 51
341.77754735009
  0
LINE
  5
170
330
DA
100
AcDbEntity
  8
Titel (ISO)
100
AcDbLine
 10
210.2537385125869
 20
130.6577411707248
 30
0.0
 11
213.0788049606536
 21
130.6577411707252
 31
0.0
  0
LINE
  5
171
330
DA
100
AcDbEntity
  8
Titel (ISO)
100
AcDbLine
 10
210.1188675585661
 20
129.4184174447032
 30
0.0
 11
214.8537416263049
 21
129.4184174447039
 31
0.0
  0
LINE
  5
172
330
DA
100
AcDbEntity
  8
Titel (ISO)
100
AcDbLine
 10
214.7250647370304
 20
128.8700114936653
 30
0.0
 11
212.9275052645394
 21
128.8700114936525
 31
0.0
  0
ARC
  5
173
330
DA
100
AcDbEntity
  8
Titel (ISO)
100
AcDbCircle
 10
211.6662717366203
 20
129.8770198634057
 30
0.0
 40
1.613931804228503
100
AcDbArc
 50
28.92986986901106
 51
151.0701301310047
  0
ARC
  5
174
330
DA
100
AcDbEntity
  8
Titel (ISO)
100
AcDbCircle
 10
211.6662717366203
 20
129.8770198634057
 30
0.0
 40
1.613931804228503
100
AcDbArc
 50
196.508183577668
 51
321.3950372762955
  0
LINE
  5
175
330
DA
100
AcDbEntity
  8
Titel (ISO)
100
AcDbLine
 10
98.36981491444584
 20
104.1143543060219
 30
0.0
 11
106.1698149144458
 21
104.1143543060219
 31
0.0
  0
TEXT
  5
176
330
DA
100
AcDbEntity
  8
Titel (ISO)
100
AcDbText
 10
99.1948147922563
 20
101.2393542762196
 30
0.0
 40
1.500000059604644
  1
Status
  7
Notiztext (DIN)
 72
     1
 11
102.2698149144458
 21
101.9893543060219
 31
0.0
100
AcDbText
 73
     2
  0
TEXT
  5
178
330
DA
100
AcDbEntity
  8
Titel (ISO)
100
AcDbText
 10
113.8448147028493
 20
101.2393542762196
 30
0.0
 40
1.500000059604644
  1
Änderungen
  7
Notiztext (DIN)
 72
     1
 11
119.1698149144458
 21
101.9893543060219
 31
0.0
100
AcDbText
 73
     2
  0
TEXT
  5
179
330
DA
100
AcDbEntity
  8
Titel (ISO)
100
AcDbText
 10
135.8948148041772
 20
101.2393542762196
 30
0.0
 40
1.500000059604644
  1
Datum
  7
Notiztext (DIN)
 72
     1
 11
138.6698149144458
 21
101.9893543060219
 31
0.0
100
AcDbText
 73
     2
  0
TEXT
  5
17A
330
DA
100
AcDbEntity
  8
Titel (ISO)
100
AcDbText
 10
146.7448148220586
 20
101.2393542762196
 30
0.0
 40
1.500000059604644
  1
Name
  7
Notiztext (DIN)
 72
     1
 11
149.0698149144458
 21
101.9893543060219
 31
0.0
100
AcDbText
 73
     2
  0
TEXT
  5
17B
330
DA
100
AcDbEntity
  8
Titel (ISO)
100
AcDbText
 10
153.9698149144458
 20
131.1343542869485
 30
0.0
 40
1.299999952316284
  1
Gezeichnet
  7
Notiztext (DIN)
 11
153.9698149144458
 21
130.614354306022
 31
0.0
100
AcDbText
 73
     1
  0
TEXT
  5
17C
330
DA
100
AcDbEntity
  8
Titel (ISO)
100
AcDbText
 10
153.9698149144458
 20
126.8843542869485
 30
0.0
 40
1.299999952316284
  1
Kontrolliert
  7
Notiztext (DIN)
 11
153.9698149144458
 21
126.3643543060219
 31
0.0
100
AcDbText
 73
     1
  0
TEXT
  5
17D
330
DA
100
AcDbEntity
  8
Titel (ISO)
100
AcDbText
 10
153.9698149144458
 20
122.7143543298638
 30
0.0
 40
1.500000059604644
  1
Norm
  7
Notiztext (DIN)
 11
153.9698149144458
 21
122.114354306022
 31
0.0
100
AcDbText
 73
     1
  0
TEXT
  5
17E
330
DA
100
AcDbEntity
  8
Titel (ISO)
100
AcDbText
 10
167.4698148593116
 20
135.6643543179429
 30
0.0
 40
2.000000029802322
  1
Datum
  7
Notiztext (DIN)
 72
     1
 11
171.1698149144458
 21
134.8643543060219
 31
0.0
100
AcDbText
 73
     1
  0
TEXT
  5
17F
330
DA
100
AcDbEntity
  8
Titel (ISO)
100
AcDbText
 10
184.9698148682522
 20
135.6643543179429
 30
0.0
 40
2.000000029802322
  1
Name
  7
Notiztext (DIN)
 72
     1
 11
188.0698149144458
 21
134.8643543060219
 31
0.0
100
AcDbText
 73
     1
  0
MTEXT
  5
180
330
DA
100
AcDbEntity
  8
Titel (ISO)
100
AcDbMText
 10
198.6698149144458
 20
153.4893542730182
 30
0.0
 40
3.499999940395355
 41
18.92857074737549
 71
     1
 72
     1
  1
\fISOCPEUR|b0|i0;\H3.5000;Maßstab:
  7
Notiztext (DIN)
 73
     1
 44
1.0
  0
MTEXT
  5
181
330
DA
100
AcDbEntity
  8
Titel (ISO)
100
AcDbMText
 10
248.2740521347458
 20
151.7393543060219
 30
0.0
 40
3.499999940395355
 41
9.951548906378775
 71
     5
 72
     1
  1
\fISOCPEUR|b0|i0;\H3.5000;Mat.:
  7
Notiztext (DIN)
 73
     1
 44
1.0
  0
MTEXT
  5
182
330
DA
100
AcDbEntity
  8
Titel (ISO)
100
AcDbMText
 10
198.8601444470289
 20
102.8969489062
 30
0.0
 40
2.000000029802322
 41
0.0
 71
     1
 72
     1
  1
\fISOCPEUR|b0|i0;\H2.0000;Zeichnungsnummer
  7
Notiztext (DIN)
 73
     1
 44
1.0
  0
MTEXT
  5
183
330
DA
100
AcDbEntity
  8
Titel (ISO)
100
AcDbMText
 10
153.747576810599
 20
102.8233270475816
 30
0.0
 40
2.000000029802322
 41
0.0
 71
     1
 72
     1
  1
\fISOCPEUR|b0|i0;\H2.0000;Ers. für
  7
Notiztext (DIN)
 73
     1
 44
1.0
  0
TEXT
  5
184
330
DA
100
AcDbEntity
  8
Titel (ISO)
100
AcDbText
 10
157.0119771855214
 20
112.7007030420587
 30
0.0
 40
2.5
  1
Projekt
  7
Notiztext (DIN)
 72
     1
 11
162.5119771855214
 21
113.9507030420587
 31
0.0
100
AcDbText
 73
     2
  0
TEXT
  5
185
330
DA
100
AcDbEntity
  8
Titel (ISO)
100
AcDbText
 10
197.8104889774194
 20
113.2684323889648
 30
0.0
 40
2.5
  1
Benennung
  7
Notiztext (DIN)
 72
     1
 11
205.8104889774194
 21
114.5184323889648
 31
0.0
100
AcDbText
 73
     2
  0
MTEXT
  5
186
330
DA
100
AcDbEntity
  8
Titel (ISO)
100
AcDbMText
 10
257.8589251916391
 20
136.6441926282114
 30
0.0
 40
1.800000071525573
 41
34.51986232303284
 71
     1
 72
     1
  1
\fISOCPEUR|b0|i0;\H1.8000;perma-tec GmbH & Co KG.\PHammelburger Str.21 \P97717 Euerdorf\PGermany\PTel. : 09704/609-0\PFax : 09704/609-50
  7
Notiztext (DIN)
 73
     2
 44
1.068348169326782
  0
TEXT
  5
188
330
DA
100
AcDbEntity
  8
0
100
AcDbText
 10
201.84073392564
 20
121.6459786842827
 30
0.0
 40
2.000000029802322
  1
Schmiersysteme
 41
1.595794943460748
  7
ROMANS-ISOCPEUR
 72
     5
 11
232.479997296647
 21
121.6459786842827
 31
0.0
100
AcDbText
  0
TEXT
  5
189
330
DA
100
AcDbEntity
  8
PERMA_ROT
100
AcDbText
 10
233.6022518879248
 20
133.4438533283584
 30
0.0
 40
2.5
  1
R
  7
ROMANS-ISOCPEUR
 72
     1
 11
234.6022518879248
 21
134.6938533283584
 31
0.0
100
AcDbText
 73
     2
  0
MTEXT
  5
18A
330
DA
100
AcDbEntity
  8
Titel (ISO)
100
AcDbMText
 10
99.87868049203875
 20
153.5284714470099
 30
0.0
 40
2.5
 41
0.0
 71
     1
 72
     1
  1
\fISOCPEUR|b0|i0;\H2.5000;Artikelnummer:
  7
Notiztext (DIN)
 73
     1
 44
1.0
  0
ATTDEF
  5
18B
330
DA
100
AcDbEntity
  8
Titel (ISO)
100
AcDbText
 10
277.7198149144459
 20
110.0598671265347
 30
0.0
 40
5.0
  1
1 
  7
Notiztext (DIN)
 72
     1
 11
280.4698149144459
 21
112.5598671265347
 31
0.0
100
AcDbAttributeDefinition
  3
Blattnummer
  2
Blattnummer
 70
     0
 74
     2
  0
ATTDEF
  5
18C
330
DA
100
AcDbEntity
  8
Titel (ISO)
100
AcDbText
 10
278.3448149144458
 20
104.9348671265347
 30
0.0
 40
2.5
  1
A4
  7
Notiztext (DIN)
 72
     1
 11
280.4698149144459
 21
106.1848671265347
 31
0.0
100
AcDbAttributeDefinition
  3
Blattgröße
  2
Blattgröße
 70
     0
 74
     2
  0
ATTDEF
  5
18D
330
DA
100
AcDbEntity
  8
Titel (ISO)
100
AcDbText
 10
164.3698149144458
 20
127.1643543179429
 30
0.0
 40
2.000000029802322
  1

  7
Notiztext (DIN)
 11
164.3698149144458
 21
126.3643543060219
 31
0.0
100
AcDbAttributeDefinition
  3
KONTROLLDATUM
  2
KONTROLLDATUM
 70
     0
 74
     1
  0
ATTDEF
  5
18E
330
DA
100
AcDbEntity
  8
Titel (ISO)
100
AcDbText
 10
164.3698149144458
 20
122.9143543179429
 30
0.0
 40
2.000000029802322
  1

  7
Notiztext (DIN)
 11
164.3698149144458
 21
122.114354306022
 31
0.0
100
AcDbAttributeDefinition
  3
GENEHM.DAT. KONSTR.
  2
GENEHM.DAT._KONSTR.
 70
     0
 74
     1
  0
ATTDEF
  5
18F
330
DA
100
AcDbEntity
  8
Titel (ISO)
100
AcDbText
 10
179.9698149144458
 20
122.9143543179429
 30
0.0
 40
2.000000029802322
  1

  7
Notiztext (DIN)
 11
179.9698149144458
 21
122.114354306022
 31
0.0
100
AcDbAttributeDefinition
  3
KONSTR. GEN. VON
  2
KONSTR._GEN._VON
 70
     0
 74
     1
  0
ATTDEF
  5
190
330
DA
100
AcDbEntity
  8
Titel (ISO)
100
AcDbText
 10
179.9698149144458
 20
127.1643543179429
 30
0.0
 40
2.000000029802322
  1

  7
Notiztext (DIN)
 11
179.9698149144458
 21
126.3643543060219
 31
0.0
100
AcDbAttributeDefinition
  3
KONTROLLIERT VON
  2
KONTROLLIERT_VON
 70
     0
 74
     1
  0
ATTDEF
  5
191
330
DA
100
AcDbEntity
  8
Titel (ISO)
100
AcDbText
 10
102.2698149144458
 20
105.2393542911207
 30
0.0
 40
2.000000029802322
  1

  7
Notiztext (DIN)
 72
     1
 11
102.2698149144458
 21
106.2393543060219
 31
0.0
100
AcDbAttributeDefinition
  3
Status1
  2
Status1
 70
     0
 74
     2
  0
ATTDEF
  5
192
330
DA
100
AcDbEntity
  8
Titel (ISO)
100
AcDbText
 10
119.1698149144458
 20
105.2393542911207
 30
0.0
 40
2.000000029802322
  1

  7
Notiztext (DIN)
 72
     1
 11
119.1698149144458
 21
106.2393543060219
 31
0.0
100
AcDbAttributeDefinition
  3
Änderungen1
  2
Änderungen1
 70
     0
 74
     2
  0
ATTDEF
  5
193
330
DA
100
AcDbEntity
  8
Titel (ISO)
100
AcDbText
 10
138.6698149144458
 20
105.2393542911207
 30
0.0
 40
2.000000029802322
  1

  7
Notiztext (DIN)
 72
     1
 11
138.6698149144458
 21
106.2393543060219
 31
0.0
100
AcDbAttributeDefinition
  3
Datum1
  2
Datum1
 70
     0
 74
     2
  0
ATTDEF
  5
194
330
DA
100
AcDbEntity
  8
Titel (ISO)
100
AcDbText
 10
149.0698149144458
 20
105.2393542911207
 30
0.0
 40
2.000000029802322
  1

  7
Notiztext (DIN)
 72
     1
 11
149.0698149144458
 21
106.2393543060219
 31
0.0
100
AcDbAttributeDefinition
  3
Name1
  2
Name1
 70
     0
 74
     2
  0
ATTDEF
  5
195
330
DA
100
AcDbEntity
  8
Titel (ISO)
100
AcDbText
 10
102.2698149144458
 20
109.4893542911208
 30
0.0
 40
2.000000029802322
  1

  7
Notiztext (DIN)
 72
     1
 11
102.2698149144458
 21
110.4893543060219
 31
0.0
100
AcDbAttributeDefinition
  3
Status2
  2
Status2
 70
     0
 74
     2
  0
ATTDEF
  5
196
330
DA
100
AcDbEntity
  8
Titel (ISO)
100
AcDbText
 10
119.1698149144458
 20
109.4893542911208
 30
0.0
 40
2.000000029802322
  1

  7
Notiztext (DIN)
 72
     1
 11
119.1698149144458
 21
110.4893543060219
 31
0.0
100
AcDbAttributeDefinition
  3
Änderungen2
  2
Änderungen2
 70
     0
 74
     2
  0
ATTDEF
  5
197
330
DA
100
AcDbEntity
  8
Titel (ISO)
100
AcDbText
 10
138.6698149144458
 20
109.4893542911208
 30
0.0
 40
2.000000029802322
  1

  7
Notiztext (DIN)
 72
     1
 11
138.6698149144458
 21
110.4893543060219
 31
0.0
100
AcDbAttributeDefinition
  3
Datum2
  2
Datum2
 70
     0
 74
     2
  0
ATTDEF
  5
198
330
DA
100
AcDbEntity
  8
Titel (ISO)
100
AcDbText
 10
149.0698149144458
 20
109.4893542911208
 30
0.0
 40
2.000000029802322
  1

  7
Notiztext (DIN)
 72
     1
 11
149.0698149144458
 21
110.4893543060219
 31
0.0
100
AcDbAttributeDefinition
  3
Name2
  2
Name2
 70
     0
 74
     2
  0
ATTDEF
  5
199
330
DA
100
AcDbEntity
  8
Titel (ISO)
100
AcDbText
 10
149.0698149144458
 20
113.5842664567602
 30
0.0
 40
2.000000029802322
  1

  7
Notiztext (DIN)
 72
     1
 11
149.0698149144458
 21
114.5842664716613
 31
0.0
100
AcDbAttributeDefinition
  3
Name3
  2
Name3
 70
     0
 74
     2
  0
ATTDEF
  5
19A
330
DA
100
AcDbEntity
  8
Titel (ISO)
100
AcDbText
 10
138.6698149144458
 20
113.5842664567602
 30
0.0
 40
2.000000029802322
  1

  7
Notiztext (DIN)
 72
     1
 11
138.6698149144458
 21
114.5842664716613
 31
0.0
100
AcDbAttributeDefinition
  3
Datum3
  2
Datum3
 70
     0
 74
     2
  0
ATTDEF
  5
19B
330
DA
100
AcDbEntity
  8
Titel (ISO)
100
AcDbText
 10
119.1698149144459
 20
113.5842664567601
 30
0.0
 40
2.000000029802322
  1

  7
Notiztext (DIN)
 72
     1
 11
119.1698149144459
 21
114.5842664716613
 31
0.0
100
AcDbAttributeDefinition
  3
Änderungen3
  2
Änderungen3
 70
     0
 74
     2
  0
ATTDEF
  5
19C
330
DA
100
AcDbEntity
  8
Titel (ISO)
100
AcDbText
 10
102.2698149144458
 20
113.5842664567601
 30
0.0
 40
2.000000029802322
  1

  7
Notiztext (DIN)
 72
     1
 11
102.2698149144458
 21
114.5842664716613
 31
0.0
100
AcDbAttributeDefinition
  3
Status3
  2
Status3
 70
     0
 74
     2
  0
ATTDEF
  5
19D
330
DA
100
AcDbEntity
  8
Titel (ISO)
100
AcDbText
 10
149.0698149144458
 20
117.9893542911208
 30
0.0
 40
2.000000029802322
  1

  7
Notiztext (DIN)
 72
     1
 11
149.0698149144458
 21
118.9893543060219
 31
0.0
100
AcDbAttributeDefinition
  3
Name4
  2
Name4
 70
     0
 74
     2
  0
ATTDEF
  5
19E
330
DA
100
AcDbEntity
  8
Titel (ISO)
100
AcDbText
 10
138.6698149144458
 20
117.9893542911208
 30
0.0
 40
2.000000029802322
  1

  7
Notiztext (DIN)
 72
     1
 11
138.6698149144458
 21
118.9893543060219
 31
0.0
100
AcDbAttributeDefinition
  3
Datum4
  2
Datum4
 70
     0
 74
     2
  0
ATTDEF
  5
19F
330
DA
100
AcDbEntity
  8
Titel (ISO)
100
AcDbText
 10
119.1698149144458
 20
117.9893542911208
 30
0.0
 40
2.000000029802322
  1

  7
Notiztext (DIN)
 72
     1
 11
119.1698149144458
 21
118.9893543060219
 31
0.0
100
AcDbAttributeDefinition
  3
Änderungen4
  2
Änderungen4
 70
     0
 74
     2
  0
ATTDEF
  5
1A0
330
DA
100
AcDbEntity
  8
Titel (ISO)
100
AcDbText
 10
102.2698149144458
 20
117.9893542911208
 30
0.0
 40
2.000000029802322
  1

  7
Notiztext (DIN)
 72
     1
 11
102.2698149144458
 21
118.9893543060219
 31
0.0
100
AcDbAttributeDefinition
  3
Status4
  2
Status4
 70
     0
 74
     2
  0
ATTDEF
  5
1A1
330
DA
100
AcDbEntity
  8
Titel (ISO)
100
AcDbText
 10
102.2698149144458
 20
122.4855388398227
 30
0.0
 40
2.000000029802322
  1

  7
Notiztext (DIN)
 72
     1
 11
102.2698149144458
 21
123.4855388547239
 31
0.0
100
AcDbAttributeDefinition
  3
Status5
  2
Status5
 70
     0
 74
     2
  0
ATTDEF
  5
1A2
330
DA
100
AcDbEntity
  8
Titel (ISO)
100
AcDbText
 10
119.1698149144458
 20
122.4855388398227
 30
0.0
 40
2.000000029802322
  1

  7
Notiztext (DIN)
 72
     1
 11
119.1698149144458
 21
123.4855388547239
 31
0.0
100
AcDbAttributeDefinition
  3
Änderungen5
  2
Änderungen5
 70
     0
 74
     2
  0
ATTDEF
  5
1A3
330
DA
100
AcDbEntity
  8
Titel (ISO)
100
AcDbText
 10
138.6698149144458
 20
122.4855388398228
 30
0.0
 40
2.000000029802322
  1

  7
Notiztext (DIN)
 72
     1
 11
138.6698149144458
 21
123.4855388547239
 31
0.0
100
AcDbAttributeDefinition
  3
Datum5
  2
Datum5
 70
     0
 74
     2
  0
ATTDEF
  5
1A4
330
DA
100
AcDbEntity
  8
Titel (ISO)
100
AcDbText
 10
149.0698149144458
 20
122.4855388398228
 30
0.0
 40
2.000000029802322
  1

  7
Notiztext (DIN)
 72
     1
 11
149.0698149144458
 21
123.4855388547239
 31
0.0
100
AcDbAttributeDefinition
  3
Name5
  2
Name5
 70
     0
 74
     2
  0
ATTDEF
  5
1A5
330
DA
100
AcDbEntity
  8
Titel (ISO)
100
AcDbText
 10
102.2698149144458
 20
126.4893542911208
 30
0.0
 40
2.000000029802322
  1

  7
Notiztext (DIN)
 72
     1
 11
102.2698149144458
 21
127.4893543060219
 31
0.0
100
AcDbAttributeDefinition
  3
Status6
  2
Status6
 70
     0
 74
     2
  0
ATTDEF
  5
1A6
330
DA
100
AcDbEntity
  8
Titel (ISO)
100
AcDbText
 10
119.1698149144458
 20
126.4893542911208
 30
0.0
 40
2.000000029802322
  1

  7
Notiztext (DIN)
 72
     1
 11
119.1698149144458
 21
127.4893543060219
 31
0.0
100
AcDbAttributeDefinition
  3
Änderungen6
  2
Änderungen6
 70
     0
 74
     2
  0
ATTDEF
  5
1A7
330
DA
100
AcDbEntity
  8
Titel (ISO)
100
AcDbText
 10
138.6698149144458
 20
126.4893542911208
 30
0.0
 40
2.000000029802322
  1

  7
Notiztext (DIN)
 72
     1
 11
138.6698149144458
 21
127.489354306022
 31
0.0
100
AcDbAttributeDefinition
  3
Datum6
  2
Datum6
 70
     0
 74
     2
  0
ATTDEF
  5
1A8
330
DA
100
AcDbEntity
  8
Titel (ISO)
100
AcDbText
 10
149.0698149144458
 20
126.4893542911208
 30
0.0
 40
2.000000029802322
  1

  7
Notiztext (DIN)
 72
     1
 11
149.0698149144458
 21
127.489354306022
 31
0.0
100
AcDbAttributeDefinition
  3
Name6
  2
Name6
 70
     0
 74
     2
  0
ATTDEF
  5
1A9
330
DA
100
AcDbEntity
  8
Titel (ISO)
100
AcDbText
 10
102.2814044709229
 20
130.7393542911208
 30
0.0
 40
2.000000029802322
  1

  7
Notiztext (DIN)
 72
     1
 11
102.2814044709229
 21
131.739354306022
 31
0.0
100
AcDbAttributeDefinition
  3
Status7
  2
Status7
 70
     0
 74
     2
  0
ATTDEF
  5
1AA
330
DA
100
AcDbEntity
  8
Titel (ISO)
100
AcDbText
 10
119.1698149144458
 20
130.7393542911208
 30
0.0
 40
2.000000029802322
  1

  7
Notiztext (DIN)
 72
     1
 11
119.1698149144458
 21
131.7393543060219
 31
0.0
100
AcDbAttributeDefinition
  3
Änderungen7
  2
Änderungen7
 70
     0
 74
     2
  0
ATTDEF
  5
1AB
330
DA
100
AcDbEntity
  8
Titel (ISO)
100
AcDbText
 10
138.6698149144458
 20
130.7393542911208
 30
0.0
 40
2.000000029802322
  1

  7
Notiztext (DIN)
 72
     1
 11
138.6698149144458
 21
131.739354306022
 31
0.0
100
AcDbAttributeDefinition
  3
Datum7
  2
Datum7
 70
     0
 74
     2
  0
ATTDEF
  5
1AC
330
DA
100
AcDbEntity
  8
Titel (ISO)
100
AcDbText
 10
149.0698149144458
 20
130.7393542911208
 30
0.0
 40
2.000000029802322
  1

  7
Notiztext (DIN)
 72
     1
 11
149.0698149144458
 21
131.739354306022
 31
0.0
100
AcDbAttributeDefinition
  3
Name7
  2
Name7
 70
     0
 74
     2
  0
ATTDEF
  5
1AD
330
DA
100
AcDbEntity
  8
Titel (ISO)
100
AcDbText
 10
102.2814044709229
 20
134.9893542911209
 30
0.0
 40
2.000000029802322
  1

  7
Notiztext (DIN)
 72
     1
 11
102.2814044709229
 21
135.989354306022
 31
0.0
100
AcDbAttributeDefinition
  3
Status8
  2
Status8
 70
     0
 74
     2
  0
ATTDEF
  5
1AE
330
DA
100
AcDbEntity
  8
Titel (ISO)
100
AcDbText
 10
119.1698149144458
 20
134.9893542911209
 30
0.0
 40
2.000000029802322
  1

  7
Notiztext (DIN)
 72
     1
 11
119.1698149144458
 21
135.989354306022
 31
0.0
100
AcDbAttributeDefinition
  3
Änderungen8
  2
Änderungen8
 70
     0
 74
     2
  0
ATTDEF
  5
1AF
330
DA
100
AcDbEntity
  8
Titel (ISO)
100
AcDbText
 10
138.6698149144458
 20
134.9893542911209
 30
0.0
 40
2.000000029802322
  1

  7
Notiztext (DIN)
 72
     1
 11
138.6698149144458
 21
135.989354306022
 31
0.0
100
AcDbAttributeDefinition
  3
Datum8
  2
Datum8
 70
     0
 74
     2
  0
ATTDEF
  5
1B0
330
DA
100
AcDbEntity
  8
Titel (ISO)
100
AcDbText
 10
149.0698149144458
 20
134.9893542911209
 30
0.0
 40
2.000000029802322
  1

  7
Notiztext (DIN)
 72
     1
 11
149.0698149144458
 21
135.989354306022
 31
0.0
100
AcDbAttributeDefinition
  3
Name8
  2
Name8
 70
     0
 74
     2
  0
ATTDEF
  5
1B1
330
DA
100
AcDbEntity
  8
Titel (ISO)
100
AcDbText
 10
127.0310661311663
 20
141.2205819331963
 30
0.0
 40
3.499999940395355
  1

  7
Notiztext (DIN)
 72
     1
 11
127.0310661311663
 21
142.970581903394
 31
0.0
100
AcDbAttributeDefinition
  3
Artikelnummer
  2
Artikelnummer
 70
     0
 74
     2
  0
ATTDEF
  5
1B2
330
DA
100
AcDbEntity
  8
Titel (ISO)
100
AcDbText
 10
166.7698148488807
 20
130.7393542911208
 30
0.0
 40
2.000000029802322
  1
28.11.06
  7
Notiztext (DIN)
 72
     1
 11
171.1698149144458
 21
131.7393543060219
 31
0.0
100
AcDbAttributeDefinition
  3
Gezeichnet_Datum
  2
Gezeichnet_Datum
 70
     0
 74
     2
  0
ATTDEF
  5
1B3
330
DA
100
AcDbEntity
  8
Titel (ISO)
100
AcDbText
 10
184.3698148593115
 20
130.7393542911208
 30
0.0
 40
2.000000029802322
  1
Scheit
  7
Notiztext (DIN)
 72
     1
 11
188.0698149144458
 21
131.7393543060219
 31
0.0
100
AcDbAttributeDefinition
  3
Gezeichnet_Name
  2
Gezeichnet_Name
 70
     0
 74
     2
  0
ATTDEF
  5
1B4
330
DA
100
AcDbEntity
  8
Titel (ISO)
100
AcDbText
 10
227.2961665584645
 20
149.9893543358243
 30
0.0
 40
3.499999940395355
  1
1:1
  7
Notiztext (DIN)
 72
     1
 11
229.5711665197215
 21
151.7393543060219
 31
0.0
100
AcDbAttributeDefinition
  3
Maßstab
  2
Maßstab
 70
     0
 74
     2
  0
ATTDEF
  5
1B5
330
DA
100
AcDbEntity
  8
Titel (ISO)
100
AcDbText
 10
256.4954200303901
 20
150.2393542464173
 30
0.0
 40
3.000000119209289
  1
Aluminium/ V2A
  7
Notiztext (DIN)
 72
     1
 11
270.8954206025947
 21
151.7393543060219
 31
0.0
100
AcDbAttributeDefinition
  3
Material
  2
Material
 70
     0
 74
     2
  0
ATTDEF
  5
1B6
330
DA
100
AcDbEntity
  8
Titel (ISO)
100
AcDbText
 10
230.2886199609814
 20
100.5893543000615
 30
0.0
 40
2.800000011920928
  1
EC STB 02 A
  7
Notiztext (DIN)
 72
     1
 11
241.3486200080691
 21
101.9893543060219
 31
0.0
100
AcDbAttributeDefinition
  3
Zeichnungsnummer
  2
Zeichnungsnummer
 70
     0
 74
     2
  0
ATTDEF
  5
1B7
330
DA
100
AcDbEntity
  8
Titel (ISO)
100
AcDbText
 10
176.3338819474774
 20
100.6294379686119
 30
0.0
 40
2.800000011920928
  1

  7
Notiztext (DIN)
 72
     1
 11
176.3338819474774
 21
102.0294379745724
 31
0.0
100
AcDbAttributeDefinition
  3
<Ers. für>
  2
<Ers._für>
 70
     0
 74
     2
  0
ATTDEF
  5
1B8
330
DA
100
AcDbEntity
  8
Titel (ISO)
100
AcDbText
 10
235.3262306693884
 20
106.3630554373207
 30
0.0
 40
4.49999988079071
  1

  7
Notiztext (DIN)
 72
     1
 11
235.3262306693884
 21
108.613055377716
 31
0.0
100
AcDbAttributeDefinition
  3
<Benennung>
  2
<Benennung>
 70
     0
 74
     2
  0
ATTDEF
  5
1B9
330
DA
100
AcDbEntity
  8
Titel (ISO)
100
AcDbText
 10
167.7631953853302
 20
106.6130553479138
 30
0.0
 40
4.000000059604644
  1
ECOSY
  7
Notiztext (DIN)
 72
     1
 11
175.5631955015592
 21
108.6130553777161
 31
0.0
100
AcDbAttributeDefinition
  3
<Projekt>
  2
<Projekt>
 70
     0
 74
     2
  0
ENDBLK
  5
DC
330
DA
100
AcDbEntity
  8
0
100
AcDbBlockEnd
  0
BLOCK
  5
33A
330
32F
100
AcDbEntity
  8
0
100
AcDbBlockBegin
  2
*D6
 70
     1
 10
0.0
 20
0.0
 30
0.0
  3
*D6
  1

  0
LINE
  5
3E0
330
32F
100
AcDbEntity
  8
Bemaßung (ISO)
100
AcDbLine
 10
312.4645570356656
 20
1115.28561389301
 30
0.0
 11
312.4645570356656
 21
1249.447768871603
 31
0.0
  0
LINE
  5
3E1
330
32F
100
AcDbEntity
  8
Bemaßung (ISO)
100
AcDbLine
 10
1212.464557035701
 20
1115.285613893274
 30
0.0
 11
1212.464557035701
 21
1249.447768871603
 31
0.0
  0
LINE
  5
3E2
330
32F
100
AcDbEntity
  8
Bemaßung (ISO)
100
AcDbLine
 10
337.4645570356656
 20
1239.447768871603
 30
0.0
 11
1187.464557035702
 21
1239.447768871603
 31
0.0
  0
SOLID
  5
3E3
330
32F
100
AcDbEntity
  8
Bemaßung (ISO)
100
AcDbTrace
 10
337.4645570356656
 20
1243.61443553827
 30
0.0
 11
337.4645570356656
 21
1235.281102204937
 31
0.0
 12
312.4645570356656
 22
1239.447768871603
 32
0.0
 13
312.4645570356656
 23
1239.447768871603
 33
0.0
  0
SOLID
  5
3E4
330
32F
100
AcDbEntity
  8
Bemaßung (ISO)
100
AcDbTrace
 10
1187.464557035702
 20
1243.61443553827
 30
0.0
 11
1187.464557035702
 21
1235.281102204937
 31
0.0
 12
1212.464557035701
 22
1239.447768871603
 32
0.0
 13
1212.464557035701
 23
1239.447768871603
 33
0.0
  0
MTEXT
  5
3E5
330
32F
100
AcDbEntity
  8
Bemaßung (ISO)
100
AcDbMText
 10
747.4645570356837
 20
1272.447768871603
 30
0.0
 40
25.0
 41
0.0
 71
     1
 72
     1
  1
\A1;90
  7
Notiztext (DIN)
 73
     1
 44
1.0
  0
POINT
  5
3E6
330
32F
100
AcDbEntity
  8
Defpoints
 62
     0
100
AcDbPoint
 10
312.4645570356656
 20
1115.28561389301
 30
0.0
  0
POINT
  5
3E7
330
32F
100
AcDbEntity
  8
Defpoints
 62
     0
100
AcDbPoint
 10
1212.464557035701
 20
1115.285613893274
 30
0.0
  0
POINT
  5
3E8
330
32F
100
AcDbEntity
  8
Defpoints
 62
     0
100
AcDbPoint
 10
1212.464557035701
 20
1239.447768871603
 30
0.0
  0
ENDBLK
  5
33B
330
32F
100
AcDbEntity
  8
0
100
AcDbBlockEnd
  0
BLOCK
  5
3F5
330
3EA
100
AcDbEntity
  8
0
100
AcDbBlockBegin
  2
*D7
 70
     1
 10
0.0
 20
0.0
 30
0.0
  3
*D7
  1

  0
LINE
  5
4A0
330
3EA
100
AcDbEntity
  8
Bemaßung (ISO)
100
AcDbLine
 10
537.464557036094
 20
1842.216438652595
 30
0.0
 11
537.464557036094
 21
1935.460362459801
 31
0.0
  0
LINE
  5
4A1
330
3EA
100
AcDbEntity
  8
Bemaßung (ISO)
100
AcDbLine
 10
987.464557036092
 20
1862.216438652595
 30
0.0
 11
987.464557036092
 21
1935.460362459801
 31
0.0
  0
LINE
  5
4A2
330
3EA
100
AcDbEntity
  8
Bemaßung (ISO)
100
AcDbLine
 10
562.464557036094
 20
1925.460362459801
 30
0.0
 11
962.464557036092
 21
1925.460362459801
 31
0.0
  0
SOLID
  5
4A3
330
3EA
100
AcDbEntity
  8
Bemaßung (ISO)
100
AcDbTrace
 10
562.464557036094
 20
1929.627029126467
 30
0.0
 11
562.464557036094
 21
1921.293695793134
 31
0.0
 12
537.464557036094
 22
1925.460362459801
 32
0.0
 13
537.464557036094
 23
1925.460362459801
 33
0.0
  0
SOLID
  5
4A4
330
3EA
100
AcDbEntity
  8
Bemaßung (ISO)
100
AcDbTrace
 10
962.464557036092
 20
1929.627029126467
 30
0.0
 11
962.464557036092
 21
1921.293695793134
 31
0.0
 12
987.464557036092
 22
1925.460362459801
 32
0.0
 13
987.464557036092
 23
1925.460362459801
 33
0.0
  0
MTEXT
  5
4A5
330
3EA
100
AcDbEntity
  8
Bemaßung (ISO)
100
AcDbMText
 10
746.2145570360931
 20
1958.460362459801
 30
0.0
 40
25.0
 41
0.0
 71
     1
 72
     1
  1
\A1;45
  7
Notiztext (DIN)
 73
     1
 44
1.0
  0
POINT
  5
4A6
330
3EA
100
AcDbEntity
  8
Defpoints
 62
     0
100
AcDbPoint
 10
537.464557036094
 20
1842.216438652595
 30
0.0
  0
POINT
  5
4A7
330
3EA
100
AcDbEntity
  8
Defpoints
 62
     0
100
AcDbPoint
 10
987.464557036092
 20
1862.216438652595
 30
0.0
  0
POINT
  5
4A8
330
3EA
100
AcDbEntity
  8
Defpoints
 62
     0
100
AcDbPoint
 10
987.464557036092
 20
1925.460362459801
 30
0.0
  0
ENDBLK
  5
3F6
330
3EA
100
AcDbEntity
  8
0
100
AcDbBlockEnd
  0
BLOCK
  5
4B5
330
4AA
100
AcDbEntity
  8
0
100
AcDbBlockBegin
  2
*D8
 70
     1
 10
0.0
 20
0.0
 30
0.0
  3
*D8
  1

  0
LINE
  5
57B
330
4AA
100
AcDbEntity
  8
Bemaßung (ISO)
100
AcDbLine
 10
507.8795570360941
 20
1812.631438652595
 30
0.0
 11
482.3244538839
 21
1812.631438652595
 31
0.0
  0
LINE
  5
57C
330
4AA
100
AcDbEntity
  8
Bemaßung (ISO)
100
AcDbLine
 10
492.3244538839
 20
1887.631438652595
 30
0.0
 11
492.3244538839
 21
1912.631438652595
 31
0.0
  0
LINE
  5
57D
330
4AA
100
AcDbEntity
  8
Bemaßung (ISO)
100
AcDbLine
 10
492.3244538839
 20
1787.631438652595
 30
0.0
 11
492.3244538839
 21
1762.631438652595
 31
0.0
  0
MTEXT
  5
57E
330
4AA
100
AcDbEntity
  8
Bemaßung (ISO)
100
AcDbMText
 10
459.3244538839001
 20
1831.381438652595
 30
0.0
 40
25.0
 41
0.0
 71
     1
 72
     1
  1
\A1;5
  7
Notiztext (DIN)
 11
0.0000000000000001
 21
1.0
 31
0.0
 73
     1
 44
1.0
  0
SOLID
  5
57F
330
4AA
100
AcDbEntity
  8
Bemaßung (ISO)
100
AcDbTrace
 10
488.1577872172334
 20
1887.631438652595
 30
0.0
 11
496.4911205505666
 21
1887.631438652595
 31
0.0
 12
492.3244538839
 22
1862.631438652595
 32
0.0
 13
492.3244538839
 23
1862.631438652595
 33
0.0
  0
SOLID
  5
580
330
4AA
100
AcDbEntity
  8
Bemaßung (ISO)
100
AcDbTrace
 10
488.1577872172334
 20
1787.631438652595
 30
0.0
 11
496.4911205505666
 21
1787.631438652595
 31
0.0
 12
492.3244538839
 22
1812.631438652595
 32
0.0
 13
492.3244538839
 23
1812.631438652595
 33
0.0
  0
POINT
  5
581
330
4AA
100
AcDbEntity
  8
Defpoints
 62
     0
100
AcDbPoint
 10
440.464557036093
 20
1862.631438652595
 30
0.0
  0
POINT
  5
582
330
4AA
100
AcDbEntity
  8
Defpoints
 62
     0
100
AcDbPoint
 10
507.8795570360941
 20
1812.631438652595
 30
0.0
  0
POINT
  5
583
330
4AA
100
AcDbEntity
  8
Defpoints
 62
     0
100
AcDbPoint
 10
492.3244538839
 20
1812.631438652595
 30
0.0
  0
ENDBLK
  5
4B6
330
4AA
100
AcDbEntity
  8
0
100
AcDbBlockEnd
  0
BLOCK
  5
590
330
585
100
AcDbEntity
  8
0
100
AcDbBlockBegin
  2
*D9
 70
     1
 10
0.0
 20
0.0
 30
0.0
  3
*D9
  1

  0
LINE
  5
63B
330
585
100
AcDbEntity
  8
Bemaßung (ISO)
100
AcDbLine
 10
1343.249623439903
 20
1859.631438652595
 30
0.0
 11
1343.249623439903
 21
1928.102204051608
 31
0.0
  0
LINE
  5
63C
330
585
100
AcDbEntity
  8
Bemaßung (ISO)
100
AcDbLine
 10
1473.249623439903
 20
1859.631438652596
 30
0.0
 11
1473.249623439903
 21
1928.102204051609
 31
0.0
  0
LINE
  5
63D
330
585
100
AcDbEntity
  8
Bemaßung (ISO)
100
AcDbLine
 10
1368.249623439903
 20
1918.102204051608
 30
0.0
 11
1448.249623439903
 21
1918.102204051608
 31
0.0
  0
SOLID
  5
63E
330
585
100
AcDbEntity
  8
Bemaßung (ISO)
100
AcDbTrace
 10
1368.249623439903
 20
1922.268870718275
 30
0.0
 11
1368.249623439903
 21
1913.935537384942
 31
0.0
 12
1343.249623439903
 22
1918.102204051608
 32
0.0
 13
1343.249623439903
 23
1918.102204051608
 33
0.0
  0
SOLID
  5
63F
330
585
100
AcDbEntity
  8
Bemaßung (ISO)
100
AcDbTrace
 10
1448.249623439903
 20
1922.268870718275
 30
0.0
 11
1448.249623439903
 21
1913.935537384942
 31
0.0
 12
1473.249623439903
 22
1918.102204051608
 32
0.0
 13
1473.249623439903
 23
1918.102204051608
 33
0.0
  0
MTEXT
  5
640
330
585
100
AcDbEntity
  8
Bemaßung (ISO)
100
AcDbMText
 10
1395.749623439903
 20
1951.102204051608
 30
0.0
 40
25.0
 41
0.0
 71
     1
 72
     1
  1
\A1;13
  7
Notiztext (DIN)
 73
     1
 44
1.0
  0
POINT
  5
641
330
585
100
AcDbEntity
  8
Defpoints
 62
     0
100
AcDbPoint
 10
1343.249623439903
 20
1859.631438652595
 30
0.0
  0
POINT
  5
642
330
585
100
AcDbEntity
  8
Defpoints
 62
     0
100
AcDbPoint
 10
1473.249623439903
 20
1859.631438652596
 30
0.0
  0
POINT
  5
643
330
585
100
AcDbEntity
  8
Defpoints
 62
     0
100
AcDbPoint
 10
1473.249623439903
 20
1918.102204051608
 30
0.0
  0
ENDBLK
  5
591
330
585
100
AcDbEntity
  8
0
100
AcDbBlockEnd
  0
BLOCK
  5
65A
330
64F
100
AcDbEntity
  8
0
100
AcDbBlockBegin
  2
*D10
 70
     1
 10
0.0
 20
0.0
 30
0.0
  3
*D10
  1

  0
LINE
  5
726
330
64F
100
AcDbEntity
  8
Bemaßung (ISO)
100
AcDbLine
 10
537.4645570360939
 20
1842.631438652594
 30
0.0
 11
631.7986740622147
 21
1842.631438652594
 31
0.0
  0
LINE
  5
727
330
64F
100
AcDbEntity
  8
Bemaßung (ISO)
100
AcDbLine
 10
537.4645570360939
 20
1782.631438652594
 30
0.0
 11
631.7986740622147
 21
1782.631438652594
 31
0.0
  0
LINE
  5
728
330
64F
100
AcDbEntity
  8
Bemaßung (ISO)
100
AcDbLine
 10
621.7986740622148
 20
1867.631438652594
 30
0.0
 11
621.7986740622148
 21
1892.631438652594
 31
0.0
  0
LINE
  5
729
330
64F
100
AcDbEntity
  8
Bemaßung (ISO)
100
AcDbLine
 10
621.7986740622148
 20
1757.631438652595
 30
0.0
 11
621.7986740622148
 21
1732.631438652594
 31
0.0
  0
MTEXT
  5
72A
330
64F
100
AcDbEntity
  8
Bemaßung (ISO)
100
AcDbMText
 10
588.7986740622149
 20
1795.131438652594
 30
0.0
 40
25.0
 41
0.0
 71
     1
 72
     1
  1
\A1;M6
  7
Notiztext (DIN)
 11
0.0000000000000001
 21
1.0
 31
0.0
 73
     1
 44
1.0
  0
SOLID
  5
72B
330
64F
100
AcDbEntity
  8
Bemaßung (ISO)
100
AcDbTrace
 10
617.6320073955481
 20
1867.631438652594
 30
0.0
 11
625.9653407288815
 21
1867.631438652594
 31
0.0
 12
621.7986740622148
 22
1842.631438652594
 32
0.0
 13
621.7986740622148
 23
1842.631438652594
 33
0.0
  0
SOLID
  5
72C
330
64F
100
AcDbEntity
  8
Bemaßung (ISO)
100
AcDbTrace
 10
617.6320073955481
 20
1757.631438652595
 30
0.0
 11
625.9653407288814
 21
1757.631438652595
 31
0.0
 12
621.7986740622148
 22
1782.631438652594
 32
0.0
 13
621.7986740622148
 23
1782.631438652594
 33
0.0
  0
POINT
  5
72D
330
64F
100
AcDbEntity
  8
Defpoints
 62
     0
100
AcDbPoint
 10
537.4645570360939
 20
1842.631438652594
 30
0.0
  0
POINT
  5
72E
330
64F
100
AcDbEntity
  8
Defpoints
 62
     0
100
AcDbPoint
 10
537.4645570360939
 20
1782.631438652594
 30
0.0
  0
POINT
  5
72F
330
64F
100
AcDbEntity
  8
Defpoints
 62
     0
100
AcDbPoint
 10
621.7986740622148
 20
1782.631438652594
 30
0.0
  0
ENDBLK
  5
65B
330
64F
100
AcDbEntity
  8
0
100
AcDbBlockEnd
  0
BLOCK
  5
73C
330
731
100
AcDbEntity
  8
0
100
AcDbBlockBegin
  2
*D11
 70
     1
 10
0.0
 20
0.0
 30
0.0
  3
*D11
  1

  0
LINE
  5
7E7
330
731
100
AcDbEntity
  8
Bemaßung (ISO)
100
AcDbLine
 10
1817.184465337412
 20
1859.631438652595
 30
0.0
 11
1817.184465337412
 21
1928.537825021895
 31
0.0
  0
LINE
  5
7E8
330
731
100
AcDbEntity
  8
Bemaßung (ISO)
100
AcDbLine
 10
2467.184465337412
 20
1859.631438652595
 30
0.0
 11
2467.184465337412
 21
1928.537825021894
 31
0.0
  0
LINE
  5
7E9
330
731
100
AcDbEntity
  8
Bemaßung (ISO)
100
AcDbLine
 10
1842.184465337412
 20
1918.537825021895
 30
0.0
 11
2442.184465337412
 21
1918.537825021894
 31
0.0
  0
SOLID
  5
7EA
330
731
100
AcDbEntity
  8
Bemaßung (ISO)
100
AcDbTrace
 10
1842.184465337412
 20
1922.704491688562
 30
0.0
 11
1842.184465337412
 21
1914.371158355228
 31
0.0
 12
1817.184465337412
 22
1918.537825021895
 32
0.0
 13
1817.184465337412
 23
1918.537825021895
 33
0.0
  0
SOLID
  5
7EB
330
731
100
AcDbEntity
  8
Bemaßung (ISO)
100
AcDbTrace
 10
2442.184465337412
 20
1922.704491688561
 30
0.0
 11
2442.184465337412
 21
1914.371158355227
 31
0.0
 12
2467.184465337412
 22
1918.537825021894
 32
0.0
 13
2467.184465337412
 23
1918.537825021894
 33
0.0
  0
MTEXT
  5
7EC
330
731
100
AcDbEntity
  8
Bemaßung (ISO)
100
AcDbMText
 10
2127.184465337412
 20
1951.537825021895
 30
0.0
 40
25.0
 41
0.0
 71
     1
 72
     1
  1
\A1;65
  7
Notiztext (DIN)
 73
     1
 44
1.0
  0
POINT
  5
7ED
330
731
100
AcDbEntity
  8
Defpoints
 62
     0
100
AcDbPoint
 10
1817.184465337412
 20
1859.631438652595
 30
0.0
  0
POINT
  5
7EE
330
731
100
AcDbEntity
  8
Defpoints
 62
     0
100
AcDbPoint
 10
2467.184465337412
 20
1859.631438652595
 30
0.0
  0
POINT
  5
7EF
330
731
100
AcDbEntity
  8
Defpoints
 62
     0
100
AcDbPoint
 10
2467.184465337412
 20
1918.537825021894
 30
0.0
  0
ENDBLK
  5
73D
330
731
100
AcDbEntity
  8
0
100
AcDbBlockEnd
  0
BLOCK
  5
7FC
330
7F1
100
AcDbEntity
  8
0
100
AcDbBlockBegin
  2
*D12
 70
     1
 10
0.0
 20
0.0
 30
0.0
  3
*D12
  1

  0
LINE
  5
8B9
330
7F1
100
AcDbEntity
  8
Bemaßung (ISO)
100
AcDbLine
 10
1820.184465337412
 20
1862.631438652595
 30
0.0
 11
1629.811017080231
 21
1862.631438652595
 31
0.0
  0
LINE
  5
8BA
330
7F1
100
AcDbEntity
  8
Bemaßung (ISO)
100
AcDbLine
 10
1826.684465337424
 20
1322.631438652601
 30
0.0
 11
1629.811017080231
 21
1322.631438652601
 31
0.0
  0
LINE
  5
8BB
330
7F1
100
AcDbEntity
  8
Bemaßung (ISO)
100
AcDbLine
 10
1639.811017080231
 20
1837.631438652595
 30
0.0
 11
1639.811017080231
 21
1347.631438652601
 31
0.0
  0
MTEXT
  5
8BC
330
7F1
100
AcDbEntity
  8
Bemaßung (ISO)
100
AcDbMText
 10
1606.811017080231
 20
1576.381438652598
 30
0.0
 40
25.0
 41
0.0
 71
     1
 72
     1
  1
\A1;54
  7
Notiztext (DIN)
 11
0.0000000000000001
 21
1.0
 31
0.0
 73
     1
 44
1.0
  0
SOLID
  5
8BD
330
7F1
100
AcDbEntity
  8
Bemaßung (ISO)
100
AcDbTrace
 10
1635.644350413565
 20
1837.631438652595
 30
0.0
 11
1643.977683746898
 21
1837.631438652595
 31
0.0
 12
1639.811017080231
 22
1862.631438652595
 32
0.0
 13
1639.811017080231
 23
1862.631438652595
 33
0.0
  0
SOLID
  5
8BE
330
7F1
100
AcDbEntity
  8
Bemaßung (ISO)
100
AcDbTrace
 10
1635.644350413565
 20
1347.631438652601
 30
0.0
 11
1643.977683746898
 21
1347.631438652601
 31
0.0
 12
1639.811017080231
 22
1322.631438652601
 32
0.0
 13
1639.811017080231
 23
1322.631438652601
 33
0.0
  0
POINT
  5
8BF
330
7F1
100
AcDbEntity
  8
Defpoints
 62
     0
100
AcDbPoint
 10
1820.184465337412
 20
1862.631438652595
 30
0.0
  0
POINT
  5
8C0
330
7F1
100
AcDbEntity
  8
Defpoints
 62
     0
100
AcDbPoint
 10
1826.684465337424
 20
1322.631438652601
 30
0.0
  0
POINT
  5
8C1
330
7F1
100
AcDbEntity
  8
Defpoints
 62
     0
100
AcDbPoint
 10
1639.811017080231
 20
1322.631438652601
 30
0.0
  0
ENDBLK
  5
7FD
330
7F1
100
AcDbEntity
  8
0
100
AcDbBlockEnd
  0
BLOCK
  5
8CE
330
8C3
100
AcDbEntity
  8
0
100
AcDbBlockBegin
  2
*D13
 70
     1
 10
0.0
 20
0.0
 30
0.0
  3
*D13
  1

  0
LINE
  5
985
330
8C3
100
AcDbEntity
  8
Bemaßung (ISO)
100
AcDbLine
 10
787.4645570356739
 20
1142.973635428345
 30
0.0
 11
787.4645570356739
 21
1095.496954350985
 31
0.0
  0
LINE
  5
986
330
8C3
100
AcDbEntity
  8
Bemaßung (ISO)
100
AcDbLine
 10
737.794557035674
 20
1142.973635428345
 30
0.0
 11
737.794557035674
 21
1095.496954350985
 31
0.0
  0
LINE
  5
987
330
8C3
100
AcDbEntity
  8
Bemaßung (ISO)
100
AcDbLine
 10
712.794557035674
 20
1105.496954350985
 30
0.0
 11
687.794557035674
 21
1105.496954350985
 31
0.0
  0
LINE
  5
988
330
8C3
100
AcDbEntity
  8
Bemaßung (ISO)
100
AcDbLine
 10
812.4645570356738
 20
1105.496954350985
 30
0.0
 11
911.0566443480886
 21
1105.496954350985
 31
0.0
  0
SOLID
  5
989
330
8C3
100
AcDbEntity
  8
Bemaßung (ISO)
100
AcDbTrace
 10
712.794557035674
 20
1109.663621017651
 30
0.0
 11
712.794557035674
 21
1101.330287684318
 31
0.0
 12
737.794557035674
 22
1105.496954350985
 32
0.0
 13
737.794557035674
 23
1105.496954350985
 33
0.0
  0
SOLID
  5
98A
330
8C3
100
AcDbEntity
  8
Bemaßung (ISO)
100
AcDbTrace
 10
812.4645570356738
 20
1109.663621017651
 30
0.0
 11
812.4645570356738
 21
1101.330287684318
 31
0.0
 12
787.4645570356739
 22
1105.496954350985
 32
0.0
 13
787.4645570356739
 23
1105.496954350985
 33
0.0
  0
MTEXT
  5
98B
330
8C3
100
AcDbEntity
  8
Bemaßung (ISO)
100
AcDbMText
 10
845.4645570356738
 20
1153.515893744924
 30
0.0
 40
25.0
 41
0.0
 71
     1
 72
     1
  1
\A1; \fArial|b1|i0;\H4.0000;M
  7
Notiztext (DIN)
 73
     1
 44
1.0
  0
POINT
  5
98C
330
8C3
100
AcDbEntity
  8
Defpoints
 62
     0
100
AcDbPoint
 10
787.4645570356739
 20
1142.973635428345
 30
0.0
  0
POINT
  5
98D
330
8C3
100
AcDbEntity
  8
Defpoints
 62
     0
100
AcDbPoint
 10
737.794557035674
 20
1142.973635428345
 30
0.0
  0
POINT
  5
98E
330
8C3
100
AcDbEntity
  8
Defpoints
 62
     0
100
AcDbPoint
 10
737.794557035674
 20
1105.496954350985
 30
0.0
  0
ENDBLK
  5
8CF
330
8C3
100
AcDbEntity
  8
0
100
AcDbBlockEnd
  0
BLOCK
  5
B2B
330
B21
100
AcDbEntity
  8
0
100
AcDbBlockBegin
  2
*D14
 70
     1
 10
0.0
 20
0.0
 30
0.0
  3
*D14
  1

  0
LINE
  5
B22
330
B21
100
AcDbEntity
  8
Bemaßung (ISO)
100
AcDbLine
 10
31.24645570356656
 20
111.5285613893009
 30
0.0
 11
31.24645570356656
 21
124.9447768871603
 31
0.0
  0
LINE
  5
B23
330
B21
100
AcDbEntity
  8
Bemaßung (ISO)
100
AcDbLine
 10
121.2464557035701
 20
111.5285613893274
 30
0.0
 11
121.2464557035701
 21
124.9447768871603
 31
0.0
  0
LINE
  5
B24
330
B21
100
AcDbEntity
  8
Bemaßung (ISO)
100
AcDbLine
 10
33.74645570356656
 20
123.9447768871603
 30
0.0
 11
118.7464557035702
 21
123.9447768871603
 31
0.0
  0
SOLID
  5
B25
330
B21
100
AcDbEntity
  8
Bemaßung (ISO)
100
AcDbTrace
 10
33.74645570356656
 20
124.361443553827
 30
0.0
 11
33.74645570356656
 21
123.5281102204937
 31
0.0
 12
31.24645570356656
 22
123.9447768871603
 32
0.0
 13
31.24645570356656
 23
123.9447768871603
 33
0.0
  0
SOLID
  5
B26
330
B21
100
AcDbEntity
  8
Bemaßung (ISO)
100
AcDbTrace
 10
118.7464557035702
 20
124.361443553827
 30
0.0
 11
118.7464557035702
 21
123.5281102204937
 31
0.0
 12
121.2464557035701
 22
123.9447768871603
 32
0.0
 13
121.2464557035701
 23
123.9447768871603
 33
0.0
  0
MTEXT
  5
B27
330
B21
100
AcDbEntity
  8
Bemaßung (ISO)
100
AcDbMText
 10
74.74645570356838
 20
127.2447768871603
 30
0.0
 40
2.5
 41
0.0
 71
     1
 72
     1
  1
\A1;90
  7
Notiztext (DIN)
 73
     1
 44
1.0
  0
POINT
  5
B28
330
B21
100
AcDbEntity
  8
Defpoints
 62
     0
100
AcDbPoint
 10
31.24645570356656
 20
111.5285613893009
 30
0.0
  0
POINT
  5
B29
330
B21
100
AcDbEntity
  8
Defpoints
 62
     0
100
AcDbPoint
 10
121.2464557035701
 20
111.5285613893274
 30
0.0
  0
POINT
  5
B2A
330
B21
100
AcDbEntity
  8
Defpoints
 62
     0
100
AcDbPoint
 10
121.2464557035701
 20
123.9447768871603
 30
0.0
  0
ENDBLK
  5
B2C
330
B21
100
AcDbEntity
  8
0
100
AcDbBlockEnd
  0
BLOCK
  5
B37
330
B2D
100
AcDbEntity
  8
0
100
AcDbBlockBegin
  2
*D15
 70
     1
 10
0.0
 20
0.0
 30
0.0
  3
*D15
  1

  0
LINE
  5
B2E
330
B2D
100
AcDbEntity
  8
Bemaßung (ISO)
100
AcDbLine
 10
53.7464557036094
 20
184.2216438652595
 30
0.0
 11
53.7464557036094
 21
193.54603624598
 31
0.0
  0
LINE
  5
B2F
330
B2D
100
AcDbEntity
  8
Bemaßung (ISO)
100
AcDbLine
 10
98.7464557036092
 20
186.2216438652595
 30
0.0
 11
98.7464557036092
 21
193.54603624598
 31
0.0
  0
LINE
  5
B30
330
B2D
100
AcDbEntity
  8
Bemaßung (ISO)
100
AcDbLine
 10
56.2464557036094
 20
192.5460362459801
 30
0.0
 11
96.2464557036092
 21
192.5460362459801
 31
0.0
  0
SOLID
  5
B31
330
B2D
100
AcDbEntity
  8
Bemaßung (ISO)
100
AcDbTrace
 10
56.2464557036094
 20
192.9627029126467
 30
0.0
 11
56.2464557036094
 21
192.1293695793134
 31
0.0
 12
53.7464557036094
 22
192.5460362459801
 32
0.0
 13
53.7464557036094
 23
192.5460362459801
 33
0.0
  0
SOLID
  5
B32
330
B2D
100
AcDbEntity
  8
Bemaßung (ISO)
100
AcDbTrace
 10
96.2464557036092
 20
192.9627029126467
 30
0.0
 11
96.2464557036092
 21
192.1293695793134
 31
0.0
 12
98.7464557036092
 22
192.5460362459801
 32
0.0
 13
98.7464557036092
 23
192.5460362459801
 33
0.0
  0
MTEXT
  5
B33
330
B2D
100
AcDbEntity
  8
Bemaßung (ISO)
100
AcDbMText
 10
74.62145570360931
 20
195.8460362459801
 30
0.0
 40
2.5
 41
0.0
 71
     1
 72
     1
  1
\A1;45
  7
Notiztext (DIN)
 73
     1
 44
1.0
  0
POINT
  5
B34
330
B2D
100
AcDbEntity
  8
Defpoints
 62
     0
100
AcDbPoint
 10
53.7464557036094
 20
184.2216438652595
 30
0.0
  0
POINT
  5
B35
330
B2D
100
AcDbEntity
  8
Defpoints
 62
     0
100
AcDbPoint
 10
98.7464557036092
 20
186.2216438652595
 30
0.0
  0
POINT
  5
B36
330
B2D
100
AcDbEntity
  8
Defpoints
 62
     0
100
AcDbPoint
 10
98.7464557036092
 20
192.5460362459801
 30
0.0
  0
ENDBLK
  5
B38
330
B2D
100
AcDbEntity
  8
0
100
AcDbBlockEnd
  0
BLOCK
  5
B43
330
B39
100
AcDbEntity
  8
0
100
AcDbBlockBegin
  2
*D16
 70
     1
 10
0.0
 20
0.0
 30
0.0
  3
*D16
  1

  0
LINE
  5
B3A
330
B39
100
AcDbEntity
  8
Bemaßung (ISO)
100
AcDbLine
 10
50.78795570360941
 20
181.2631438652595
 30
0.0
 11
48.23244538839
 21
181.2631438652595
 31
0.0
  0
LINE
  5
B3B
330
B39
100
AcDbEntity
  8
Bemaßung (ISO)
100
AcDbLine
 10
49.23244538839
 20
188.7631438652595
 30
0.0
 11
49.23244538839
 21
191.2631438652595
 31
0.0
  0
LINE
  5
B3C
330
B39
100
AcDbEntity
  8
Bemaßung (ISO)
100
AcDbLine
 10
49.23244538839
 20
178.7631438652596
 30
0.0
 11
49.23244538839
 21
176.2631438652595
 31
0.0
  0
MTEXT
  5
B3D
330
B39
100
AcDbEntity
  8
Bemaßung (ISO)
100
AcDbMText
 10
45.93244538839001
 20
183.1381438652595
 30
0.0
 40
2.5
 41
0.0
 71
     1
 72
     1
  1
\A1;5
  7
Notiztext (DIN)
 11
0.0000000000000001
 21
1.0
 31
0.0
 73
     1
 44
1.0
  0
SOLID
  5
B3E
330
B39
100
AcDbEntity
  8
Bemaßung (ISO)
100
AcDbTrace
 10
48.81577872172334
 20
188.7631438652595
 30
0.0
 11
49.64911205505667
 21
188.7631438652595
 31
0.0
 12
49.23244538839
 22
186.2631438652595
 32
0.0
 13
49.23244538839
 23
186.2631438652595
 33
0.0
  0
SOLID
  5
B3F
330
B39
100
AcDbEntity
  8
Bemaßung (ISO)
100
AcDbTrace
 10
48.81577872172334
 20
178.7631438652596
 30
0.0
 11
49.64911205505667
 21
178.7631438652596
 31
0.0
 12
49.23244538839
 22
181.2631438652595
 32
0.0
 13
49.23244538839
 23
181.2631438652595
 33
0.0
  0
POINT
  5
B40
330
B39
100
AcDbEntity
  8
Defpoints
 62
     0
100
AcDbPoint
 10
44.0464557036093
 20
186.2631438652595
 30
0.0
  0
POINT
  5
B41
330
B39
100
AcDbEntity
  8
Defpoints
 62
     0
100
AcDbPoint
 10
50.78795570360941
 20
181.2631438652595
 30
0.0
  0
POINT
  5
B42
330
B39
100
AcDbEntity
  8
Defpoints
 62
     0
100
AcDbPoint
 10
49.23244538839
 20
181.2631438652595
 30
0.0
  0
ENDBLK
  5
B44
330
B39
100
AcDbEntity
  8
0
100
AcDbBlockEnd
  0
BLOCK
  5
B4F
330
B45
100
AcDbEntity
  8
0
100
AcDbBlockBegin
  2
*D17
 70
     1
 10
0.0
 20
0.0
 30
0.0
  3
*D17
  1

  0
LINE
  5
B46
330
B45
100
AcDbEntity
  8
Bemaßung (ISO)
100
AcDbLine
 10
134.3249623439903
 20
185.9631438652595
 30
0.0
 11
134.3249623439903
 21
192.8102204051608
 31
0.0
  0
LINE
  5
B47
330
B45
100
AcDbEntity
  8
Bemaßung (ISO)
100
AcDbLine
 10
147.3249623439903
 20
185.9631438652595
 30
0.0
 11
147.3249623439903
 21
192.8102204051608
 31
0.0
  0
LINE
  5
B48
330
B45
100
AcDbEntity
  8
Bemaßung (ISO)
100
AcDbLine
 10
136.8249623439903
 20
191.8102204051608
 30
0.0
 11
144.8249623439903
 21
191.8102204051608
 31
0.0
  0
SOLID
  5
B49
330
B45
100
AcDbEntity
  8
Bemaßung (ISO)
100
AcDbTrace
 10
136.8249623439903
 20
192.2268870718275
 30
0.0
 11
136.8249623439903
 21
191.3935537384942
 31
0.0
 12
134.3249623439903
 22
191.8102204051608
 32
0.0
 13
134.3249623439903
 23
191.8102204051608
 33
0.0
  0
SOLID
  5
B4A
330
B45
100
AcDbEntity
  8
Bemaßung (ISO)
100
AcDbTrace
 10
144.8249623439903
 20
192.2268870718275
 30
0.0
 11
144.8249623439903
 21
191.3935537384942
 31
0.0
 12
147.3249623439903
 22
191.8102204051608
 32
0.0
 13
147.3249623439903
 23
191.8102204051608
 33
0.0
  0
MTEXT
  5
B4B
330
B45
100
AcDbEntity
  8
Bemaßung (ISO)
100
AcDbMText
 10
139.5749623439903
 20
195.1102204051609
 30
0.0
 40
2.5
 41
0.0
 71
     1
 72
     1
  1
\A1;13
  7
Notiztext (DIN)
 73
     1
 44
1.0
  0
POINT
  5
B4C
330
B45
100
AcDbEntity
  8
Defpoints
 62
     0
100
AcDbPoint
 10
134.3249623439903
 20
185.9631438652595
 30
0.0
  0
POINT
  5
B4D
330
B45
100
AcDbEntity
  8
Defpoints
 62
     0
100
AcDbPoint
 10
147.3249623439903
 20
185.9631438652595
 30
0.0
  0
POINT
  5
B4E
330
B45
100
AcDbEntity
  8
Defpoints
 62
     0
100
AcDbPoint
 10
147.3249623439903
 20
191.8102204051608
 30
0.0
  0
ENDBLK
  5
B50
330
B45
100
AcDbEntity
  8
0
100
AcDbBlockEnd
  0
BLOCK
  5
B5C
330
B51
100
AcDbEntity
  8
0
100
AcDbBlockBegin
  2
*D18
 70
     1
 10
0.0
 20
0.0
 30
0.0
  3
*D18
  1

  0
LINE
  5
B52
330
B51
100
AcDbEntity
  8
Bemaßung (ISO)
100
AcDbLine
 10
53.74645570360939
 20
184.2631438652594
 30
0.0
 11
63.17986740622148
 21
184.2631438652594
 31
0.0
  0
LINE
  5
B53
330
B51
100
AcDbEntity
  8
Bemaßung (ISO)
100
AcDbLine
 10
53.74645570360939
 20
178.2631438652594
 30
0.0
 11
63.17986740622148
 21
178.2631438652594
 31
0.0
  0
LINE
  5
B54
330
B51
100
AcDbEntity
  8
Bemaßung (ISO)
100
AcDbLine
 10
62.17986740622148
 20
186.7631438652594
 30
0.0
 11
62.17986740622148
 21
189.2631438652594
 31
0.0
  0
LINE
  5
B55
330
B51
100
AcDbEntity
  8
Bemaßung (ISO)
100
AcDbLine
 10
62.17986740622148
 20
175.7631438652594
 30
0.0
 11
62.17986740622148
 21
173.2631438652594
 31
0.0
  0
MTEXT
  5
B56
330
B51
100
AcDbEntity
  8
Bemaßung (ISO)
100
AcDbMText
 10
58.87986740622149
 20
179.5131438652594
 30
0.0
 40
2.5
 41
0.0
 71
     1
 72
     1
  1
\A1;M6
  7
Notiztext (DIN)
 11
0.0000000000000001
 21
1.0
 31
0.0
 73
     1
 44
1.0
  0
SOLID
  5
B57
330
B51
100
AcDbEntity
  8
Bemaßung (ISO)
100
AcDbTrace
 10
61.76320073955482
 20
186.7631438652594
 30
0.0
 11
62.59653407288815
 21
186.7631438652594
 31
0.0
 12
62.17986740622148
 22
184.2631438652594
 32
0.0
 13
62.17986740622148
 23
184.2631438652594
 33
0.0
  0
SOLID
  5
B58
330
B51
100
AcDbEntity
  8
Bemaßung (ISO)
100
AcDbTrace
 10
61.76320073955481
 20
175.7631438652594
 30
0.0
 11
62.59653407288814
 21
175.7631438652594
 31
0.0
 12
62.17986740622148
 22
178.2631438652594
 32
0.0
 13
62.17986740622148
 23
178.2631438652594
 33
0.0
  0
POINT
  5
B59
330
B51
100
AcDbEntity
  8
Defpoints
 62
     0
100
AcDbPoint
 10
53.74645570360939
 20
184.2631438652594
 30
0.0
  0
POINT
  5
B5A
330
B51
100
AcDbEntity
  8
Defpoints
 62
     0
100
AcDbPoint
 10
53.74645570360939
 20
178.2631438652594
 30
0.0
  0
POINT
  5
B5B
330
B51
100
AcDbEntity
  8
Defpoints
 62
     0
100
AcDbPoint
 10
62.17986740622148
 20
178.2631438652594
 30
0.0
  0
ENDBLK
  5
B5D
330
B51
100
AcDbEntity
  8
0
100
AcDbBlockEnd
  0
BLOCK
  5
B68
330
B5E
100
AcDbEntity
  8
0
100
AcDbBlockBegin
  2
*D19
 70
     1
 10
0.0
 20
0.0
 30
0.0
  3
*D19
  1

  0
LINE
  5
B5F
330
B5E
100
AcDbEntity
  8
Bemaßung (ISO)
100
AcDbLine
 10
181.7184465337412
 20
185.9631438652595
 30
0.0
 11
181.7184465337412
 21
192.8537825021895
 31
0.0
  0
LINE
  5
B60
330
B5E
100
AcDbEntity
  8
Bemaßung (ISO)
100
AcDbLine
 10
246.7184465337411
 20
185.9631438652595
 30
0.0
 11
246.7184465337411
 21
192.8537825021894
 31
0.0
  0
LINE
  5
B61
330
B5E
100
AcDbEntity
  8
Bemaßung (ISO)
100
AcDbLine
 10
184.2184465337412
 20
191.8537825021895
 30
0.0
 11
244.2184465337411
 21
191.8537825021894
 31
0.0
  0
SOLID
  5
B62
330
B5E
100
AcDbEntity
  8
Bemaßung (ISO)
100
AcDbTrace
 10
184.2184465337412
 20
192.2704491688561
 30
0.0
 11
184.2184465337412
 21
191.4371158355228
 31
0.0
 12
181.7184465337412
 22
191.8537825021895
 32
0.0
 13
181.7184465337412
 23
191.8537825021895
 33
0.0
  0
SOLID
  5
B63
330
B5E
100
AcDbEntity
  8
Bemaßung (ISO)
100
AcDbTrace
 10
244.2184465337411
 20
192.2704491688561
 30
0.0
 11
244.2184465337411
 21
191.4371158355227
 31
0.0
 12
246.7184465337411
 22
191.8537825021894
 32
0.0
 13
246.7184465337411
 23
191.8537825021894
 33
0.0
  0
MTEXT
  5
B64
330
B5E
100
AcDbEntity
  8
Bemaßung (ISO)
100
AcDbMText
 10
212.7184465337412
 20
195.1537825021894
 30
0.0
 40
2.5
 41
0.0
 71
     1
 72
     1
  1
\A1;65
  7
Notiztext (DIN)
 73
     1
 44
1.0
  0
POINT
  5
B65
330
B5E
100
AcDbEntity
  8
Defpoints
 62
     0
100
AcDbPoint
 10
181.7184465337412
 20
185.9631438652595
 30
0.0
  0
POINT
  5
B66
330
B5E
100
AcDbEntity
  8
Defpoints
 62
     0
100
AcDbPoint
 10
246.7184465337411
 20
185.9631438652595
 30
0.0
  0
POINT
  5
B67
330
B5E
100
AcDbEntity
  8
Defpoints
 62
     0
100
AcDbPoint
 10
246.7184465337411
 20
191.8537825021894
 30
0.0
  0
ENDBLK
  5
B69
330
B5E
100
AcDbEntity
  8
0
100
AcDbBlockEnd
  0
BLOCK
  5
B74
330
B6A
100
AcDbEntity
  8
0
100
AcDbBlockBegin
  2
*D20
 70
     1
 10
0.0
 20
0.0
 30
0.0
  3
*D20
  1

  0
LINE
  5
B6B
330
B6A
100
AcDbEntity
  8
Bemaßung (ISO)
100
AcDbLine
 10
182.0184465337412
 20
186.2631438652595
 30
0.0
 11
162.9811017080231
 21
186.2631438652595
 31
0.0
  0
LINE
  5
B6C
330
B6A
100
AcDbEntity
  8
Bemaßung (ISO)
100
AcDbLine
 10
182.6684465337424
 20
132.2631438652601
 30
0.0
 11
162.9811017080231
 21
132.2631438652601
 31
0.0
  0
LINE
  5
B6D
330
B6A
100
AcDbEntity
  8
Bemaßung (ISO)
100
AcDbLine
 10
163.9811017080231
 20
183.7631438652595
 30
0.0
 11
163.9811017080231
 21
134.7631438652601
 31
0.0
  0
MTEXT
  5
B6E
330
B6A
100
AcDbEntity
  8
Bemaßung (ISO)
100
AcDbMText
 10
160.6811017080231
 20
157.6381438652598
 30
0.0
 40
2.5
 41
0.0
 71
     1
 72
     1
  1
\A1;54
  7
Notiztext (DIN)
 11
0.0000000000000001
 21
1.0
 31
0.0
 73
     1
 44
1.0
  0
SOLID
  5
B6F
330
B6A
100
AcDbEntity
  8
Bemaßung (ISO)
100
AcDbTrace
 10
163.5644350413564
 20
183.7631438652595
 30
0.0
 11
164.3977683746897
 21
183.7631438652595
 31
0.0
 12
163.9811017080231
 22
186.2631438652595
 32
0.0
 13
163.9811017080231
 23
186.2631438652595
 33
0.0
  0
SOLID
  5
B70
330
B6A
100
AcDbEntity
  8
Bemaßung (ISO)
100
AcDbTrace
 10
163.5644350413564
 20
134.7631438652601
 30
0.0
 11
164.3977683746897
 21
134.7631438652601
 31
0.0
 12
163.9811017080231
 22
132.2631438652601
 32
0.0
 13
163.9811017080231
 23
132.2631438652601
 33
0.0
  0
POINT
  5
B71
330
B6A
100
AcDbEntity
  8
Defpoints
 62
     0
100
AcDbPoint
 10
182.0184465337412
 20
186.2631438652595
 30
0.0
  0
POINT
  5
B72
330
B6A
100
AcDbEntity
  8
Defpoints
 62
     0
100
AcDbPoint
 10
182.6684465337424
 20
132.2631438652601
 30
0.0
  0
POINT
  5
B73
330
B6A
100
AcDbEntity
  8
Defpoints
 62
     0
100
AcDbPoint
 10
163.9811017080231
 20
132.2631438652601
 30
0.0
  0
ENDBLK
  5
B75
330
B6A
100
AcDbEntity
  8
0
100
AcDbBlockEnd
  0
BLOCK
  5
B81
330
B76
100
AcDbEntity
  8
0
100
AcDbBlockBegin
  2
*D21
 70
     1
 10
0.0
 20
0.0
 30
0.0
  3
*D21
  1

  0
LINE
  5
B77
330
B76
100
AcDbEntity
  8
Bemaßung (ISO)
100
AcDbLine
 10
78.74645570356739
 20
114.2973635428345
 30
0.0
 11
78.74645570356739
 21
109.5496954350985
 31
0.0
  0
LINE
  5
B78
330
B76
100
AcDbEntity
  8
Bemaßung (ISO)
100
AcDbLine
 10
73.7794557035674
 20
114.2973635428345
 30
0.0
 11
73.7794557035674
 21
109.5496954350985
 31
0.0
  0
LINE
  5
B79
330
B76
100
AcDbEntity
  8
Bemaßung (ISO)
100
AcDbLine
 10
71.2794557035674
 20
110.5496954350985
 30
0.0
 11
68.7794557035674
 21
110.5496954350985
 31
0.0
  0
LINE
  5
B7A
330
B76
100
AcDbEntity
  8
Bemaßung (ISO)
100
AcDbLine
 10
81.24645570356738
 20
110.5496954350985
 30
0.0
 11
91.10566443480886
 21
110.5496954350985
 31
0.0
  0
SOLID
  5
B7B
330
B76
100
AcDbEntity
  8
Bemaßung (ISO)
100
AcDbTrace
 10
71.2794557035674
 20
110.9663621017652
 30
0.0
 11
71.2794557035674
 21
110.1330287684318
 31
0.0
 12
73.7794557035674
 22
110.5496954350985
 32
0.0
 13
73.7794557035674
 23
110.5496954350985
 33
0.0
  0
SOLID
  5
B7C
330
B76
100
AcDbEntity
  8
Bemaßung (ISO)
100
AcDbTrace
 10
81.24645570356738
 20
110.9663621017652
 30
0.0
 11
81.24645570356738
 21
110.1330287684318
 31
0.0
 12
78.74645570356739
 22
110.5496954350985
 32
0.0
 13
78.74645570356739
 23
110.5496954350985
 33
0.0
  0
MTEXT
  5
B7D
330
B76
100
AcDbEntity
  8
Bemaßung (ISO)
100
AcDbMText
 10
84.54645570356738
 20
115.3515893744924
 30
0.0
 40
2.5
 41
0.0
 71
     1
 72
     1
  1
\A1; \fArial|b1|i0;\H4.0000;M
  7
Notiztext (DIN)
 73
     1
 44
1.0
  0
POINT
  5
B7E
330
B76
100
AcDbEntity
  8
Defpoints
 62
     0
100
AcDbPoint
 10
78.74645570356739
 20
114.2973635428345
 30
0.0
  0
POINT
  5
B7F
330
B76
100
AcDbEntity
  8
Defpoints
 62
     0
100
AcDbPoint
 10
73.7794557035674
 20
114.2973635428345
 30
0.0
  0
POINT
  5
B80
330
B76
100
AcDbEntity
  8
Defpoints
 62
     0
100
AcDbPoint
 10
73.7794557035674
 20
110.5496954350985
 30
0.0
  0
ENDBLK
  5
B82
330
B76
100
AcDbEntity
  8
0
100
AcDbBlockEnd
  0
ENDSEC
  0
SECTION
  2
ENTITIES
  0
INSERT
  5
D9
330
23
100
AcDbEntity
  8
0
100
AcDbBlockReference
  2
Ränder Default Border
 10
0.0
 20
0.0
 30
0.0
  0
INSERT
  5
1BA
330
23
100
AcDbEntity
  8
0
100
AcDbBlockReference
 66
     1
  2
Schriftfelder perma_schriftfeld
 10
-1.369814914445832
 20
-89.86435430602192
 30
0.0
  0
ATTRIB
  5
1BC
330
1BA
100
AcDbEntity
  8
Titel (ISO)
100
AcDbText
 10
276.35
 20
20.19551282051283
 30
0.0
 40
5.0
  1
1 
  7
Notiztext (DIN)
 72
     1
 11
279.1
 21
22.69551282051283
 31
0.0
100
AcDbAttribute
  2
Blattnummer
 70
     0
 74
     2
  0
ATTRIB
  5
1BD
330
1BA
100
AcDbEntity
  8
Titel (ISO)
100
AcDbText
 10
276.975
 20
15.07051282051282
 30
0.0
 40
2.5
  1
A4
  7
Notiztext (DIN)
 72
     1
 11
279.1
 21
16.32051282051282
 31
0.0
100
AcDbAttribute
  2
Blattgröße
 70
     0
 74
     2
  0
ATTRIB
  5
1BE
330
1BA
100
AcDbEntity
  8
Titel (ISO)
100
AcDbText
 10
163.0
 20
37.30000001192099
 30
0.0
 40
2.000000029802322
  1

  7
Notiztext (DIN)
 11
163.0
 21
36.50000000000006
 31
0.0
100
AcDbAttribute
  2
KONTROLLDATUM
 70
     0
 74
     1
  0
ATTRIB
  5
1BF
330
1BA
100
AcDbEntity
  8
Titel (ISO)
100
AcDbText
 10
163.0
 20
33.050000011921
 30
0.0
 40
2.000000029802322
  1

  7
Notiztext (DIN)
 11
163.0
 21
32.25000000000007
 31
0.0
100
AcDbAttribute
  2
GENEHM.DAT._KONSTR.
 70
     0
 74
     1
  0
ATTRIB
  5
1C0
330
1BA
100
AcDbEntity
  8
Titel (ISO)
100
AcDbText
 10
178.6
 20
33.050000011921
 30
0.0
 40
2.000000029802322
  1

  7
Notiztext (DIN)
 11
178.6
 21
32.25000000000007
 31
0.0
100
AcDbAttribute
  2
KONSTR._GEN._VON
 70
     0
 74
     1
  0
ATTRIB
  5
1C1
330
1BA
100
AcDbEntity
  8
Titel (ISO)
100
AcDbText
 10
178.6
 20
37.30000001192099
 30
0.0
 40
2.000000029802322
  1

  7
Notiztext (DIN)
 11
178.6
 21
36.50000000000006
 31
0.0
100
AcDbAttribute
  2
KONTROLLIERT_VON
 70
     0
 74
     1
  0
ATTRIB
  5
1C2
330
1BA
100
AcDbEntity
  8
Titel (ISO)
100
AcDbText
 10
100.9
 20
15.37499998509885
 30
0.0
 40
2.000000029802322
  1

  7
Notiztext (DIN)
 72
     1
 11
100.9
 21
16.37500000000001
 31
0.0
100
AcDbAttribute
  2
Status1
 70
     0
 74
     2
  0
ATTRIB
  5
1C3
330
1BA
100
AcDbEntity
  8
Titel (ISO)
100
AcDbText
 10
117.8
 20
15.37499998509885
 30
0.0
 40
2.000000029802322
  1

  7
Notiztext (DIN)
 72
     1
 11
117.8
 21
16.37500000000001
 31
0.0
100
AcDbAttribute
  2
Änderungen1
 70
     0
 74
     2
  0
ATTRIB
  5
1C4
330
1BA
100
AcDbEntity
  8
Titel (ISO)
100
AcDbText
 10
137.3
 20
15.37499998509885
 30
0.0
 40
2.000000029802322
  1

  7
Notiztext (DIN)
 72
     1
 11
137.3
 21
16.37500000000001
 31
0.0
100
AcDbAttribute
  2
Datum1
 70
     0
 74
     2
  0
ATTRIB
  5
1C5
330
1BA
100
AcDbEntity
  8
Titel (ISO)
100
AcDbText
 10
147.7
 20
15.37499998509885
 30
0.0
 40
2.000000029802322
  1

  7
Notiztext (DIN)
 72
     1
 11
147.7
 21
16.37500000000001
 31
0.0
100
AcDbAttribute
  2
Name1
 70
     0
 74
     2
  0
ATTRIB
  5
1C6
330
1BA
100
AcDbEntity
  8
Titel (ISO)
100
AcDbText
 10
100.9
 20
19.62499998509885
 30
0.0
 40
2.000000029802322
  1

  7
Notiztext (DIN)
 72
     1
 11
100.9
 21
20.62500000000002
 31
0.0
100
AcDbAttribute
  2
Status2
 70
     0
 74
     2
  0
ATTRIB
  5
1C7
330
1BA
100
AcDbEntity
  8
Titel (ISO)
100
AcDbText
 10
117.8
 20
19.62499998509885
 30
0.0
 40
2.000000029802322
  1

  7
Notiztext (DIN)
 72
     1
 11
117.8
 21
20.62500000000002
 31
0.0
100
AcDbAttribute
  2
Änderungen2
 70
     0
 74
     2
  0
ATTRIB
  5
1C8
330
1BA
100
AcDbEntity
  8
Titel (ISO)
100
AcDbText
 10
137.3
 20
19.62499998509885
 30
0.0
 40
2.000000029802322
  1

  7
Notiztext (DIN)
 72
     1
 11
137.3
 21
20.62500000000002
 31
0.0
100
AcDbAttribute
  2
Datum2
 70
     0
 74
     2
  0
ATTRIB
  5
1C9
330
1BA
100
AcDbEntity
  8
Titel (ISO)
100
AcDbText
 10
147.7
 20
19.62499998509885
 30
0.0
 40
2.000000029802322
  1

  7
Notiztext (DIN)
 72
     1
 11
147.7
 21
20.62500000000002
 31
0.0
100
AcDbAttribute
  2
Name2
 70
     0
 74
     2
  0
ATTRIB
  5
1CA
330
1BA
100
AcDbEntity
  8
Titel (ISO)
100
AcDbText
 10
147.7
 20
23.71991215073825
 30
0.0
 40
2.000000029802322
  1

  7
Notiztext (DIN)
 72
     1
 11
147.7
 21
24.71991216563941
 31
0.0
100
AcDbAttribute
  2
Name3
 70
     0
 74
     2
  0
ATTRIB
  5
1CB
330
1BA
100
AcDbEntity
  8
Titel (ISO)
100
AcDbText
 10
137.3
 20
23.71991215073825
 30
0.0
 40
2.000000029802322
  1

  7
Notiztext (DIN)
 72
     1
 11
137.3
 21
24.71991216563941
 31
0.0
100
AcDbAttribute
  2
Datum3
 70
     0
 74
     2
  0
ATTRIB
  5
1CC
330
1BA
100
AcDbEntity
  8
Titel (ISO)
100
AcDbText
 10
117.8
 20
23.71991215073823
 30
0.0
 40
2.000000029802322
  1

  7
Notiztext (DIN)
 72
     1
 11
117.8
 21
24.71991216563939
 31
0.0
100
AcDbAttribute
  2
Änderungen3
 70
     0
 74
     2
  0
ATTRIB
  5
1CD
330
1BA
100
AcDbEntity
  8
Titel (ISO)
100
AcDbText
 10
100.9
 20
23.71991215073823
 30
0.0
 40
2.000000029802322
  1

  7
Notiztext (DIN)
 72
     1
 11
100.9
 21
24.71991216563939
 31
0.0
100
AcDbAttribute
  2
Status3
 70
     0
 74
     2
  0
ATTRIB
  5
1CE
330
1BA
100
AcDbEntity
  8
Titel (ISO)
100
AcDbText
 10
147.7
 20
28.12499998509889
 30
0.0
 40
2.000000029802322
  1

  7
Notiztext (DIN)
 72
     1
 11
147.7
 21
29.12500000000005
 31
0.0
100
AcDbAttribute
  2
Name4
 70
     0
 74
     2
  0
ATTRIB
  5
1CF
330
1BA
100
AcDbEntity
  8
Titel (ISO)
100
AcDbText
 10
137.3
 20
28.12499998509889
 30
0.0
 40
2.000000029802322
  1

  7
Notiztext (DIN)
 72
     1
 11
137.3
 21
29.12500000000005
 31
0.0
100
AcDbAttribute
  2
Datum4
 70
     0
 74
     2
  0
ATTRIB
  5
1D0
330
1BA
100
AcDbEntity
  8
Titel (ISO)
100
AcDbText
 10
117.8
 20
28.12499998509887
 30
0.0
 40
2.000000029802322
  1

  7
Notiztext (DIN)
 72
     1
 11
117.8
 21
29.12500000000003
 31
0.0
100
AcDbAttribute
  2
Änderungen4
 70
     0
 74
     2
  0
ATTRIB
  5
1D1
330
1BA
100
AcDbEntity
  8
Titel (ISO)
100
AcDbText
 10
100.9
 20
28.12499998509887
 30
0.0
 40
2.000000029802322
  1

  7
Notiztext (DIN)
 72
     1
 11
100.9
 21
29.12500000000003
 31
0.0
100
AcDbAttribute
  2
Status4
 70
     0
 74
     2
  0
ATTRIB
  5
1D2
330
1BA
100
AcDbEntity
  8
Titel (ISO)
100
AcDbText
 10
100.9
 20
32.62118453380085
 30
0.0
 40
2.000000029802322
  1

  7
Notiztext (DIN)
 72
     1
 11
100.9
 21
33.62118454870201
 31
0.0
100
AcDbAttribute
  2
Status5
 70
     0
 74
     2
  0
ATTRIB
  5
1D3
330
1BA
100
AcDbEntity
  8
Titel (ISO)
100
AcDbText
 10
117.8
 20
32.62118453380085
 30
0.0
 40
2.000000029802322
  1

  7
Notiztext (DIN)
 72
     1
 11
117.8
 21
33.62118454870201
 31
0.0
100
AcDbAttribute
  2
Änderungen5
 70
     0
 74
     2
  0
ATTRIB
  5
1D4
330
1BA
100
AcDbEntity
  8
Titel (ISO)
100
AcDbText
 10
137.3
 20
32.62118453380086
 30
0.0
 40
2.000000029802322
  1

  7
Notiztext (DIN)
 72
     1
 11
137.3
 21
33.62118454870202
 31
0.0
100
AcDbAttribute
  2
Datum5
 70
     0
 74
     2
  0
ATTRIB
  5
1D5
330
1BA
100
AcDbEntity
  8
Titel (ISO)
100
AcDbText
 10
147.7
 20
32.62118453380086
 30
0.0
 40
2.000000029802322
  1

  7
Notiztext (DIN)
 72
     1
 11
147.7
 21
33.62118454870202
 31
0.0
100
AcDbAttribute
  2
Name5
 70
     0
 74
     2
  0
ATTRIB
  5
1D6
330
1BA
100
AcDbEntity
  8
Titel (ISO)
100
AcDbText
 10
100.9
 20
36.62499998509888
 30
0.0
 40
2.000000029802322
  1

  7
Notiztext (DIN)
 72
     1
 11
100.9
 21
37.62500000000005
 31
0.0
100
AcDbAttribute
  2
Status6
 70
     0
 74
     2
  0
ATTRIB
  5
1D7
330
1BA
100
AcDbEntity
  8
Titel (ISO)
100
AcDbText
 10
117.8
 20
36.62499998509888
 30
0.0
 40
2.000000029802322
  1

  7
Notiztext (DIN)
 72
     1
 11
117.8
 21
37.62500000000005
 31
0.0
100
AcDbAttribute
  2
Änderungen6
 70
     0
 74
     2
  0
ATTRIB
  5
1D8
330
1BA
100
AcDbEntity
  8
Titel (ISO)
100
AcDbText
 10
137.3
 20
36.62499998509892
 30
0.0
 40
2.000000029802322
  1

  7
Notiztext (DIN)
 72
     1
 11
137.3
 21
37.62500000000009
 31
0.0
100
AcDbAttribute
  2
Datum6
 70
     0
 74
     2
  0
ATTRIB
  5
1D9
330
1BA
100
AcDbEntity
  8
Titel (ISO)
100
AcDbText
 10
147.7
 20
36.62499998509892
 30
0.0
 40
2.000000029802322
  1

  7
Notiztext (DIN)
 72
     1
 11
147.7
 21
37.62500000000009
 31
0.0
100
AcDbAttribute
  2
Name6
 70
     0
 74
     2
  0
ATTRIB
  5
1DA
330
1BA
100
AcDbEntity
  8
Titel (ISO)
100
AcDbText
 10
100.9115895564771
 20
40.87499998509892
 30
0.0
 40
2.000000029802322
  1

  7
Notiztext (DIN)
 72
     1
 11
100.9115895564771
 21
41.87500000000008
 31
0.0
100
AcDbAttribute
  2
Status7
 70
     0
 74
     2
  0
ATTRIB
  5
1DB
330
1BA
100
AcDbEntity
  8
Titel (ISO)
100
AcDbText
 10
117.8
 20
40.8749999850989
 30
0.0
 40
2.000000029802322
  1

  7
Notiztext (DIN)
 72
     1
 11
117.8
 21
41.87500000000006
 31
0.0
100
AcDbAttribute
  2
Änderungen7
 70
     0
 74
     2
  0
ATTRIB
  5
1DC
330
1BA
100
AcDbEntity
  8
Titel (ISO)
100
AcDbText
 10
137.3
 20
40.87499998509894
 30
0.0
 40
2.000000029802322
  1

  7
Notiztext (DIN)
 72
     1
 11
137.3
 21
41.8750000000001
 31
0.0
100
AcDbAttribute
  2
Datum7
 70
     0
 74
     2
  0
ATTRIB
  5
1DD
330
1BA
100
AcDbEntity
  8
Titel (ISO)
100
AcDbText
 10
147.7
 20
40.87499998509894
 30
0.0
 40
2.000000029802322
  1

  7
Notiztext (DIN)
 72
     1
 11
147.7
 21
41.8750000000001
 31
0.0
100
AcDbAttribute
  2
Name7
 70
     0
 74
     2
  0
ATTRIB
  5
1DE
330
1BA
100
AcDbEntity
  8
Titel (ISO)
100
AcDbText
 10
100.9115895564771
 20
45.12499998509895
 30
0.0
 40
2.000000029802322
  1

  7
Notiztext (DIN)
 72
     1
 11
100.9115895564771
 21
46.12500000000011
 31
0.0
100
AcDbAttribute
  2
Status8
 70
     0
 74
     2
  0
ATTRIB
  5
1DF
330
1BA
100
AcDbEntity
  8
Titel (ISO)
100
AcDbText
 10
117.8
 20
45.12499998509897
 30
0.0
 40
2.000000029802322
  1

  7
Notiztext (DIN)
 72
     1
 11
117.8
 21
46.12500000000013
 31
0.0
100
AcDbAttribute
  2
Änderungen8
 70
     0
 74
     2
  0
ATTRIB
  5
1E0
330
1BA
100
AcDbEntity
  8
Titel (ISO)
100
AcDbText
 10
137.3
 20
45.12499998509897
 30
0.0
 40
2.000000029802322
  1

  7
Notiztext (DIN)
 72
     1
 11
137.3
 21
46.12500000000013
 31
0.0
100
AcDbAttribute
  2
Datum8
 70
     0
 74
     2
  0
ATTRIB
  5
1E1
330
1BA
100
AcDbEntity
  8
Titel (ISO)
100
AcDbText
 10
147.7
 20
45.12499998509897
 30
0.0
 40
2.000000029802322
  1

  7
Notiztext (DIN)
 72
     1
 11
147.7
 21
46.12500000000013
 31
0.0
100
AcDbAttribute
  2
Name8
 70
     0
 74
     2
  0
ATTRIB
  5
1E2
330
1BA
100
AcDbEntity
  8
Titel (ISO)
100
AcDbText
 10
125.6612512167204
 20
51.3562276271744
 30
0.0
 40
3.499999940395355
  1

  7
Notiztext (DIN)
 72
     1
 11
125.6612512167204
 21
53.10622759737208
 31
0.0
100
AcDbAttribute
  2
Artikelnummer
 70
     0
 74
     2
  0
ATTRIB
  5
1E3
330
1BA
100
AcDbEntity
  8
Titel (ISO)
100
AcDbText
 10
165.3999999344349
 20
40.8749999850989
 30
0.0
 40
2.000000029802322
  1
28.11.06
  7
Notiztext (DIN)
 72
     1
 11
169.8
 21
41.87500000000006
 31
0.0
100
AcDbAttribute
  2
Gezeichnet_Datum
 70
     0
 74
     2
  0
ATTRIB
  5
1E4
330
1BA
100
AcDbEntity
  8
Titel (ISO)
100
AcDbText
 10
182.9999999448657
 20
40.8749999850989
 30
0.0
 40
2.000000029802322
  1
Scheit
  7
Notiztext (DIN)
 72
     1
 11
186.7
 21
41.87500000000006
 31
0.0
100
AcDbAttribute
  2
Gezeichnet_Name
 70
     0
 74
     2
  0
ATTRIB
  5
1E5
330
1BA
100
AcDbEntity
  8
Titel (ISO)
100
AcDbText
 10
225.9263516440187
 20
60.12500002980238
 30
0.0
 40
3.499999940395355
  1
1:1
  7
Notiztext (DIN)
 72
     1
 11
228.2013516052757
 21
61.87500000000006
 31
0.0
100
AcDbAttribute
  2
Maßstab
 70
     0
 74
     2
  0
ATTRIB
  5
1E6
330
1BA
100
AcDbEntity
  8
Titel (ISO)
100
AcDbText
 10
255.1256051159443
 20
60.37499994039539
 30
0.0
 40
3.000000119209289
  1
Aluminium/ V2A
  7
Notiztext (DIN)
 72
     1
 11
269.5256056881488
 21
61.87500000000003
 31
0.0
100
AcDbAttribute
  2
Material
 70
     0
 74
     2
  0
ATTRIB
  5
1E7
330
1BA
100
AcDbEntity
  8
Titel (ISO)
100
AcDbText
 10
228.9188050465356
 20
10.72499999403955
 30
0.0
 40
2.800000011920928
  1
EC STB 02 A
  7
Notiztext (DIN)
 72
     1
 11
239.9788050936233
 21
12.12500000000002
 31
0.0
100
AcDbAttribute
  2
Zeichnungsnummer
 70
     0
 74
     2
  0
ATTRIB
  5
1E8
330
1BA
100
AcDbEntity
  8
Titel (ISO)
100
AcDbText
 10
174.9640670330316
 20
10.76508366259002
 30
0.0
 40
2.800000011920928
  1

  7
Notiztext (DIN)
 72
     1
 11
174.9640670330316
 21
12.16508366855048
 31
0.0
100
AcDbAttribute
  2
<Ers._für>
 70
     0
 74
     2
  0
ATTRIB
  5
1E9
330
1BA
100
AcDbEntity
  8
Titel (ISO)
100
AcDbText
 10
233.9564157549427
 20
16.49870113129878
 30
0.0
 40
4.49999988079071
  1

  7
Notiztext (DIN)
 72
     1
 11
233.9564157549427
 21
18.74870107169414
 31
0.0
100
AcDbAttribute
  2
<Benennung>
 70
     0
 74
     2
  0
ATTRIB
  5
1EA
330
1BA
100
AcDbEntity
  8
Titel (ISO)
100
AcDbText
 10
166.3933804708844
 20
16.74870104189185
 30
0.0
 40
4.000000059604644
  1
ECOSY
  7
Notiztext (DIN)
 72
     1
 11
174.1933805871134
 21
18.74870107169417
 31
0.0
100
AcDbAttribute
  2
<Projekt>
 70
     0
 74
     2
  0
SEQEND
  5
1BB
330
1BA
100
AcDbEntity
  8
0
  0
LINE
  5
1EB
330
23
100
AcDbEntity
  8
Sichtbar (ISO)
100
AcDbLine
 10
147.3249623439903
 20
171.5631438652596
 30
0.0
 11
147.3249623439903
 21
185.9631438652595
 31
0.0
  0
LINE
  5
1EC
330
23
100
AcDbEntity
  8
Sichtbar (ISO)
100
AcDbLine
 10
143.8249623439903
 20
177.2631438652595
 30
0.0
 11
144.1249623439903
 21
177.5631438652595
 31
0.0
  0
LINE
  5
1ED
330
23
100
AcDbEntity
  8
Sichtbar (ISO)
100
AcDbLine
 10
144.1249623439903
 20
177.5631438652595
 30
0.0
 11
137.5249623439903
 21
177.5631438652595
 31
0.0
  0
LINE
  5
1EE
330
23
100
AcDbEntity
  8
Sichtbar (ISO)
100
AcDbLine
 10
137.5249623439903
 20
177.5631438652595
 30
0.0
 11
137.8249623439903
 21
177.2631438652595
 31
0.0
  0
LINE
  5
1EF
330
23
100
AcDbEntity
  8
Sichtbar (ISO)
100
AcDbLine
 10
137.8249623439903
 20
177.2631438652595
 30
0.0
 11
137.9749623439902
 21
177.2631438652595
 31
0.0
  0
LINE
  5
1F0
330
23
100
AcDbEntity
  8
Sichtbar (ISO)
100
AcDbLine
 10
143.7097899012916
 20
177.2631438652595
 30
0.0
 11
143.8249623439903
 21
177.2631438652595
 31
0.0
  0
LINE
  5
1F1
330
23
100
AcDbEntity
  8
Sichtbar (ISO)
100
AcDbLine
 10
147.0249623439903
 20
185.9631438652595
 30
0.0
 11
147.0249623439903
 21
171.5631438652596
 31
0.0
  0
LINE
  5
1F2
330
23
100
AcDbEntity
  8
Sichtbar (ISO)
100
AcDbLine
 10
134.6249623439903
 20
185.9631438652595
 30
0.0
 11
147.0249623439903
 21
185.9631438652595
 31
0.0
  0
LINE
  5
1F3
330
23
100
AcDbEntity
  8
Sichtbar (ISO)
100
AcDbLine
 10
147.1749623439903
 20
186.1131438652595
 30
0.0
 11
147.0249623439903
 21
186.2631438652595
 31
0.0
  0
LINE
  5
1F4
330
23
100
AcDbEntity
  8
Sichtbar (ISO)
100
AcDbLine
 10
147.0249623439903
 20
186.2631438652595
 30
0.0
 11
134.6249623439903
 21
186.2631438652595
 31
0.0
  0
LINE
  5
1F5
330
23
100
AcDbEntity
  8
Sichtbar (ISO)
100
AcDbLine
 10
134.6249623439903
 20
186.2631438652595
 30
0.0
 11
134.4749623439903
 21
186.1131438652595
 31
0.0
  0
LINE
  5
1F6
330
23
100
AcDbEntity
  8
Sichtbar (ISO)
100
AcDbLine
 10
134.4749623439903
 20
186.1131438652595
 30
0.0
 11
134.6249623439903
 21
185.9631438652595
 31
0.0
  0
LINE
  5
1F7
330
23
100
AcDbEntity
  8
Sichtbar (ISO)
100
AcDbLine
 10
147.0249623439903
 20
185.9631438652595
 30
0.0
 11
147.1749623439903
 21
186.1131438652595
 31
0.0
  0
LINE
  5
1F8
330
23
100
AcDbEntity
  8
Sichtbar (ISO)
100
AcDbLine
 10
147.0249623439903
 20
171.5631438652596
 30
0.0
 11
147.1749623439903
 21
171.4131438652596
 31
0.0
  0
LINE
  5
1F9
330
23
100
AcDbEntity
  8
Sichtbar (ISO)
100
AcDbLine
 10
147.1749623439903
 20
171.4131438652596
 30
0.0
 11
147.3249623439903
 21
171.5631438652596
 31
0.0
  0
LINE
  5
1FA
330
23
100
AcDbEntity
  8
Sichtbar (ISO)
100
AcDbLine
 10
147.3249623439903
 20
185.9631438652595
 30
0.0
 11
147.1749623439903
 21
186.1131438652595
 31
0.0
  0
LINE
  5
1FB
330
23
100
AcDbEntity
  8
Sichtbar (ISO)
100
AcDbLine
 10
134.3249623439903
 20
185.9631438652595
 30
0.0
 11
134.3249623439903
 21
171.5631438652595
 31
0.0
  0
LINE
  5
1FC
330
23
100
AcDbEntity
  8
Sichtbar (ISO)
100
AcDbLine
 10
137.5249623439903
 20
177.5631438652595
 30
0.0
 11
137.5249623439903
 21
171.5631438652595
 31
0.0
  0
LINE
  5
1FD
330
23
100
AcDbEntity
  8
Sichtbar (ISO)
100
AcDbLine
 10
144.1249623439903
 20
177.0123545645791
 30
0.0
 11
144.1249623439903
 21
177.5631438652595
 31
0.0
  0
LINE
  5
1FE
330
23
100
AcDbEntity
  8
Sichtbar (ISO)
100
AcDbLine
 10
147.0249623439903
 20
171.5631438652596
 30
0.0
 11
144.4597899012916
 21
171.5631438652596
 31
0.0
  0
LINE
  5
1FF
330
23
100
AcDbEntity
  8
Sichtbar (ISO)
100
AcDbLine
 10
134.6249623439903
 20
171.5631438652595
 30
0.0
 11
134.6249623439903
 21
185.9631438652595
 31
0.0
  0
LINE
  5
200
330
23
100
AcDbEntity
  8
Sichtbar (ISO)
100
AcDbLine
 10
137.5249623439903
 20
171.5631438652595
 30
0.0
 11
134.6249623439903
 21
171.5631438652595
 31
0.0
  0
LINE
  5
201
330
23
100
AcDbEntity
  8
Sichtbar (ISO)
100
AcDbLine
 10
134.3249623439903
 20
185.9631438652595
 30
0.0
 11
134.4749623439903
 21
186.1131438652595
 31
0.0
  0
LINE
  5
202
330
23
100
AcDbEntity
  8
Sichtbar (ISO)
100
AcDbLine
 10
134.6249623439903
 20
171.5631438652595
 30
0.0
 11
134.3249623439903
 21
171.5631438652595
 31
0.0
  0
LINE
  5
203
330
23
100
AcDbEntity
  8
Sichtbar (ISO)
100
AcDbLine
 10
147.1749623439903
 20
171.4131438652596
 30
0.0
 11
147.0249623439903
 21
171.2631438652596
 31
0.0
  0
LINE
  5
204
330
23
100
AcDbEntity
  8
Sichtbar (ISO)
100
AcDbLine
 10
137.8249623439903
 20
171.5631438652595
 30
0.0
 11
137.5249623439903
 21
171.5631438652595
 31
0.0
  0
LINE
  5
205
330
23
100
AcDbEntity
  8
Sichtbar (ISO)
100
AcDbLine
 10
137.5249623439903
 20
171.2631438652596
 30
0.0
 11
137.5249623439903
 21
171.5631438652595
 31
0.0
  0
LINE
  5
206
330
23
100
AcDbEntity
  8
Sichtbar (ISO)
100
AcDbLine
 10
137.5249623439903
 20
171.2631438652596
 30
0.0
 11
137.8249623439903
 21
171.5631438652595
 31
0.0
  0
LINE
  5
207
330
23
100
AcDbEntity
  8
Sichtbar (ISO)
100
AcDbLine
 10
134.6249623439903
 20
171.2631438652596
 30
0.0
 11
134.3249623439903
 21
171.5631438652595
 31
0.0
  0
LINE
  5
208
330
23
100
AcDbEntity
  8
Sichtbar (ISO)
100
AcDbLine
 10
134.6249623439903
 20
171.2631438652596
 30
0.0
 11
134.6249623439903
 21
171.5631438652595
 31
0.0
  0
LINE
  5
209
330
23
100
AcDbEntity
  8
Sichtbar (ISO)
100
AcDbLine
 10
134.6249623439903
 20
171.2631438652596
 30
0.0
 11
137.5249623439903
 21
171.2631438652596
 31
0.0
  0
LINE
  5
20A
330
23
100
AcDbEntity
  8
Sichtbar (ISO)
100
AcDbLine
 10
137.8249623439903
 20
171.5631438652595
 30
0.0
 11
137.8249623439903
 21
177.2631438652595
 31
0.0
  0
LINE
  5
20B
330
23
100
AcDbEntity
  8
Sichtbar (ISO)
100
AcDbLine
 10
144.4597899012916
 20
171.2631438652596
 30
0.0
 11
147.0249623439903
 21
171.2631438652596
 31
0.0
  0
LINE
  5
20C
330
23
100
AcDbEntity
  8
Sichtbar (ISO)
100
AcDbLine
 10
143.8249623439903
 20
177.2631438652595
 30
0.0
 11
143.8249623439903
 21
177.2453520941435
 31
0.0
  0
LINE
  5
20D
330
23
100
AcDbEntity
  8
Sichtbar (ISO)
100
AcDbLine
 10
142.6946053502507
 20
148.7327747631779
 30
0.0
 11
142.8999623439903
 21
132.2631438652601
 31
0.0
  0
LINE
  5
20E
330
23
100
AcDbEntity
  8
Sichtbar (ISO)
100
AcDbLine
 10
142.8999623439903
 20
132.2631438652601
 30
0.0
 11
139.8999623439903
 21
132.2631438652601
 31
0.0
  0
LINE
  5
20F
330
23
100
AcDbEntity
  8
Sichtbar (ISO)
100
AcDbLine
 10
139.8999623439903
 20
132.2631438652601
 30
0.0
 11
140.0390971890721
 21
143.4217584408208
 31
0.0
  0
LINE
  5
210
330
23
100
AcDbEntity
  8
Sichtbar (ISO)
100
AcDbLine
 10
138.2831043257274
 20
142.2631438652594
 30
0.0
 11
139.1491297295119
 21
142.2631438652594
 31
0.0
  0
ELLIPSE
  5
211
330
23
100
AcDbEntity
  8
Sichtbar (ISO)
100
AcDbEllipse
 10
139.1491297295119
 20
143.7631438652594
 30
0.0
 11
0.0000000000000194
 21
-1.500000000000013
 31
0.0
210
0.0
220
0.0
230
1.0
 40
0.5000000000000217
 41
0.0000000000000047
 42
0.7853981633974475
  0
ELLIPSE
  5
212
330
23
100
AcDbEntity
  8
Sichtbar (ISO)
100
AcDbEllipse
 10
138.2831043257274
 20
143.7631438652594
 30
0.0
 11
0.000000000000007
 21
-1.500000000000015
 31
0.0
210
0.0
220
0.0
230
1.0
 40
0.5000000000000182
 41
0.0
 42
0.7853981633974412
  0
ELLIPSE
  5
213
330
23
100
AcDbEntity
  8
Sichtbar (ISO)
100
AcDbEllipse
 10
142.8437644975073
 20
152.8844642088191
 30
0.0
 11
0.0000000000000008
 21
-1.500000000000059
 31
0.0
210
0.0
220
0.0
230
1.0
 40
0.5000000000000391
 41
0.7853981633975016
 42
1.570796326794872
  0
ELLIPSE
  5
214
330
23
100
AcDbEntity
  8
Sichtbar (ISO)
100
AcDbEllipse
 10
142.8437644975074
 20
175.7631438652595
 30
0.0
 11
0.0000000000000082
 21
1.500000000000009
 31
0.0
210
0.0
220
0.0
230
1.0
 40
0.5000000000000215
 41
4.712388980384739
 42
6.283185307179637
  0
ELLIPSE
  5
215
330
23
100
AcDbEntity
  8
Sichtbar (ISO)
100
AcDbEllipse
 10
143.7097899012918
 20
175.7631438652595
 30
0.0
 11
0.0000000000000022
 21
1.500000000000009
 31
0.0
210
0.0
220
0.0
230
1.0
 40
0.5000000000000191
 41
4.71238898038469
 42
6.283185307179582
  0
LINE
  5
216
330
23
100
AcDbEntity
  8
Sichtbar (ISO)
100
AcDbLine
 10
143.7097899012919
 20
177.2631438652595
 30
0.0
 11
142.8437644975074
 21
177.2631438652595
 31
0.0
  0
ELLIPSE
  5
217
330
23
100
AcDbEntity
  8
Sichtbar (ISO)
100
AcDbEllipse
 10
143.7097899012918
 20
152.8844642088191
 30
0.0
 11
-0.0000000000000887
 21
1.500000000000063
 31
0.0
210
0.0
220
0.0
230
1.0
 40
0.5000000000000343
 41
3.926990816986927
 42
4.712388980384529
  0
LINE
  5
218
330
23
100
AcDbEntity
  8
Sichtbar (ISO)
100
AcDbLine
 10
137.9749623439902
 20
142.2631438652594
 30
0.0
 11
138.2831043257274
 21
142.2631438652594
 31
0.0
  0
LINE
  5
219
330
23
100
AcDbEntity
  8
Sichtbar (ISO)
100
AcDbLine
 10
143.5937644975074
 20
152.8844642088191
 30
0.0
 11
143.5937644975074
 21
175.7631438652595
 31
0.0
  0
LINE
  5
21A
330
23
100
AcDbEntity
  8
Sichtbar (ISO)
100
AcDbLine
 10
142.8437644975074
 20
177.2631438652595
 30
0.0
 11
137.9749623439902
 21
177.2631438652595
 31
0.0
  0
LINE
  5
21B
330
23
100
AcDbEntity
  8
Sichtbar (ISO)
100
AcDbLine
 10
137.9749623439902
 20
142.2631438652594
 30
0.0
 11
137.9749623439902
 21
177.2631438652595
 31
0.0
  0
LINE
  5
21C
330
23
100
AcDbEntity
  8
Sichtbar (ISO)
100
AcDbLine
 10
144.4597899012919
 20
152.8844642088191
 30
0.0
 11
144.4597899012919
 21
175.7631438652595
 31
0.0
  0
LINE
  5
21D
330
23
100
AcDbEntity
  8
Sichtbar (ISO)
100
AcDbLine
 10
143.3740945833973
 20
151.8238040370393
 30
0.0
 11
138.8134344116173
 21
142.7024836934796
 31
0.0
  0
LINE
  5
21E
330
23
100
AcDbEntity
  8
Sichtbar (ISO)
100
AcDbLine
 10
139.6794598154018
 20
142.7024836934796
 30
0.0
 11
144.2401199871818
 21
151.8238040370393
 31
0.0
  0
CIRCLE
  5
21F
330
23
100
AcDbEntity
  8
Sichtbar (ISO)
100
AcDbCircle
 10
98.7464557036092
 20
181.2631438652595
 30
0.0
 40
2.458499999999997
  0
CIRCLE
  5
220
330
23
100
AcDbEntity
  8
Sichtbar (ISO)
100
AcDbCircle
 10
98.74645570360934
 20
181.2631438652595
 30
0.0
 40
2.958499999999996
  0
CIRCLE
  5
221
330
23
100
AcDbEntity
  8
Sichtbar (ISO)
100
AcDbCircle
 10
53.74645570360939
 20
181.2631438652595
 30
0.0
 40
2.958499999999996
  0
CIRCLE
  5
222
330
23
100
AcDbEntity
  8
Sichtbar (ISO)
100
AcDbCircle
 10
53.74645570360925
 20
181.2631438652595
 30
0.0
 40
2.458499999999997
  0
LINE
  5
223
330
23
100
AcDbEntity
  8
Sichtbar (ISO)
100
AcDbLine
 10
44.04645570360944
 20
171.5631438652596
 30
0.0
 11
44.0464557036094
 21
185.9631438652595
 31
0.0
  0
LINE
  5
224
330
23
100
AcDbEntity
  8
Sichtbar (ISO)
100
AcDbLine
 10
43.74645570360931
 20
185.9631438652595
 30
0.0
 11
43.74645570360936
 21
171.5631438652596
 31
0.0
  0
LINE
  5
225
330
23
100
AcDbEntity
  8
Sichtbar (ISO)
100
AcDbLine
 10
43.89645570360935
 20
186.1131438652595
 30
0.0
 11
44.0464557036093
 21
186.2631438652595
 31
0.0
  0
LINE
  5
226
330
23
100
AcDbEntity
  8
Sichtbar (ISO)
100
AcDbLine
 10
43.74645570360931
 20
185.9631438652595
 30
0.0
 11
43.89645570360935
 21
186.1131438652595
 31
0.0
  0
LINE
  5
227
330
23
100
AcDbEntity
  8
Sichtbar (ISO)
100
AcDbLine
 10
43.74645570360936
 20
171.5631438652596
 30
0.0
 11
43.8964557036094
 21
171.4131438652596
 31
0.0
  0
LINE
  5
228
330
23
100
AcDbEntity
  8
Sichtbar (ISO)
100
AcDbLine
 10
43.8964557036094
 20
171.4131438652596
 30
0.0
 11
44.04645570360944
 21
171.5631438652596
 31
0.0
  0
LINE
  5
229
330
23
100
AcDbEntity
  8
Sichtbar (ISO)
100
AcDbLine
 10
44.0464557036094
 20
185.9631438652595
 30
0.0
 11
43.89645570360935
 21
186.1131438652595
 31
0.0
  0
LINE
  5
22A
330
23
100
AcDbEntity
  8
Sichtbar (ISO)
100
AcDbLine
 10
108.4464557036094
 20
171.5631438652596
 30
0.0
 11
44.04645570360944
 21
171.5631438652596
 31
0.0
  0
LINE
  5
22B
330
23
100
AcDbEntity
  8
Sichtbar (ISO)
100
AcDbLine
 10
108.4464557036093
 20
185.9631438652595
 30
0.0
 11
108.4464557036094
 21
171.5631438652596
 31
0.0
  0
LINE
  5
22C
330
23
100
AcDbEntity
  8
Sichtbar (ISO)
100
AcDbLine
 10
44.0464557036094
 20
185.9631438652595
 30
0.0
 11
108.4464557036093
 21
185.9631438652595
 31
0.0
  0
LINE
  5
22D
330
23
100
AcDbEntity
  8
Sichtbar (ISO)
100
AcDbLine
 10
108.4464557036092
 20
186.2631438652595
 30
0.0
 11
108.4464557036093
 21
185.9631438652595
 31
0.0
  0
LINE
  5
22E
330
23
100
AcDbEntity
  8
Sichtbar (ISO)
100
AcDbLine
 10
108.4464557036092
 20
186.2631438652595
 30
0.0
 11
44.0464557036093
 21
186.2631438652595
 31
0.0
  0
LINE
  5
22F
330
23
100
AcDbEntity
  8
Sichtbar (ISO)
100
AcDbLine
 10
43.8964557036094
 20
171.4131438652596
 30
0.0
 11
44.04645570360935
 21
171.2631438652596
 31
0.0
  0
LINE
  5
230
330
23
100
AcDbEntity
  8
Sichtbar (ISO)
100
AcDbLine
 10
44.04645570360935
 20
171.2631438652596
 30
0.0
 11
108.4464557036092
 21
171.2631438652596
 31
0.0
  0
LINE
  5
231
330
23
100
AcDbEntity
  8
Sichtbar (ISO)
100
AcDbLine
 10
108.4464557036094
 20
171.5631438652596
 30
0.0
 11
108.4464557036092
 21
171.2631438652596
 31
0.0
  0
LINE
  5
232
330
23
100
AcDbEntity
  8
Sichtbar (ISO)
100
AcDbLine
 10
108.4464557036092
 20
171.2631438652596
 30
0.0
 11
108.7464557036093
 21
171.5631438652596
 31
0.0
  0
LINE
  5
233
330
23
100
AcDbEntity
  8
Sichtbar (ISO)
100
AcDbLine
 10
108.4464557036094
 20
171.5631438652596
 30
0.0
 11
108.7464557036093
 21
171.5631438652596
 31
0.0
  0
LINE
  5
234
330
23
100
AcDbEntity
  8
Sichtbar (ISO)
100
AcDbLine
 10
108.4464557036093
 20
185.9631438652595
 30
0.0
 11
108.7464557036092
 21
185.9631438652595
 31
0.0
  0
LINE
  5
235
330
23
100
AcDbEntity
  8
Sichtbar (ISO)
100
AcDbLine
 10
108.4464557036092
 20
186.2631438652595
 30
0.0
 11
108.7464557036092
 21
185.9631438652595
 31
0.0
  0
LINE
  5
236
330
23
100
AcDbEntity
  8
Sichtbar (ISO)
100
AcDbLine
 10
108.7464557036093
 20
171.5631438652596
 30
0.0
 11
108.7464557036092
 21
185.9631438652595
 31
0.0
  0
ARC
  5
237
330
23
100
AcDbEntity
  8
Sichtbar schmal (ISO)
100
AcDbCircle
 10
98.74645570360939
 20
181.2631438652596
 30
0.0
 40
3.000000000000011
100
AcDbArc
 50
260.0000000000024
 51
169.9999999999511
  0
ARC
  5
238
330
23
100
AcDbEntity
  8
Sichtbar schmal (ISO)
100
AcDbCircle
 10
53.74645570360937
 20
181.2631438652594
 30
0.0
 40
3.000000000000013
100
AcDbArc
 50
260.0000000000023
 51
169.9999999999511
  0
LINE
  5
239
330
23
100
AcDbEntity
  8
Sichtbar (ISO)
100
AcDbLine
 10
44.69645570360801
 20
171.2631438652595
 30
0.0
 11
44.69645570360826
 21
132.2631438652601
 31
0.0
  0
LINE
  5
23A
330
23
100
AcDbEntity
  8
Sichtbar (ISO)
100
AcDbLine
 10
107.7964557036084
 20
132.2631438652601
 30
0.0
 11
44.69645570360826
 21
132.2631438652601
 31
0.0
  0
LINE
  5
23B
330
23
100
AcDbEntity
  8
Sichtbar (ISO)
100
AcDbLine
 10
107.7964557036084
 20
132.2631438652601
 30
0.0
 11
107.7964557036081
 21
171.2631438652595
 31
0.0
  0
ELLIPSE
  5
23C
330
23
100
AcDbEntity
  8
Sichtbar (ISO)
100
AcDbEllipse
 10
112.0481224643532
 20
143.7631438652594
 30
0.0
 11
0.0000000000000043
 21
-1.499999999999998
 31
0.0
210
0.0
220
0.0
230
1.0
 40
0.8660254037846197
 41
0.0000000000000002
 42
0.7853981633974458
  0
ELLIPSE
  5
23D
330
23
100
AcDbEntity
  8
Sichtbar (ISO)
100
AcDbEllipse
 10
111.5481224643534
 20
143.7631438652594
 30
0.0
 11
-0.0000000000000035
 21
-1.500000000000004
 31
0.0
210
0.0
220
0.0
230
1.0
 40
0.866025403784617
 41
0.0
 42
0.7853981633974421
  0
LINE
  5
23E
330
23
100
AcDbEntity
  8
Sichtbar (ISO)
100
AcDbLine
 10
111.5481224643534
 20
142.2631438652594
 30
0.0
 11
112.0481224643532
 21
142.2631438652594
 31
0.0
  0
ELLIPSE
  5
23F
330
23
100
AcDbEntity
  8
Sichtbar (ISO)
100
AcDbEllipse
 10
119.9474175979333
 20
175.7631438652595
 30
0.0
 11
-0.0000000000000014
 21
1.50000000000001
 31
0.0
210
0.0
220
0.0
230
1.0
 40
0.8660254037846161
 41
4.712388980384688
 42
6.283185307179571
  0
ELLIPSE
  5
240
330
23
100
AcDbEntity
  8
Sichtbar (ISO)
100
AcDbEllipse
 10
119.9474175979333
 20
152.8844642088191
 30
0.0
 11
-0.0000000000001549
 21
1.499999999999971
 31
0.0
210
0.0
220
0.0
230
1.0
 40
0.8660254037846268
 41
3.926990816987104
 42
4.712388980384599
  0
LINE
  5
241
330
23
100
AcDbEntity
  8
Sichtbar (ISO)
100
AcDbLine
 10
40.44478894286053
 20
142.2631438652594
 30
0.0
 11
40.9447889428608
 21
142.2631438652594
 31
0.0
  0
ELLIPSE
  5
242
330
23
100
AcDbEntity
  8
Sichtbar (ISO)
100
AcDbEllipse
 10
40.9447889428608
 20
143.7631438652594
 30
0.0
 11
0.0000000000000043
 21
-1.500000000000013
 31
0.0
210
0.0
220
0.0
230
1.0
 40
0.8660254037843206
 41
5.497787143782151
 42
6.283185307179599
  0
ELLIPSE
  5
243
330
23
100
AcDbEntity
  8
Sichtbar (ISO)
100
AcDbEllipse
 10
40.44478894286053
 20
143.7631438652594
 30
0.0
 11
0.000000000000016
 21
-1.500000000000015
 31
0.0
210
0.0
220
0.0
230
1.0
 40
0.8660254037843227
 41
5.497787143782132
 42
6.283185307179573
  0
ELLIPSE
  5
244
330
23
100
AcDbEntity
  8
Sichtbar (ISO)
100
AcDbEllipse
 10
32.54549380928314
 20
152.8844642088191
 30
0.0
 11
0.000000000000031
 21
-1.500000000000059
 31
0.0
210
0.0
220
0.0
230
1.0
 40
0.8660254037843104
 41
4.712388980384671
 42
5.497787143782098
  0
ELLIPSE
  5
245
330
23
100
AcDbEntity
  8
Sichtbar (ISO)
100
AcDbEllipse
 10
32.5454938092831
 20
175.7631438652595
 30
0.0
 11
-0.0000000000000087
 21
1.500000000000009
 31
0.0
210
0.0
220
0.0
230
1.0
 40
0.8660254037843209
 41
0.0
 42
1.570796326794891
  0
ELLIPSE
  5
246
330
23
100
AcDbEntity
  8
Sichtbar (ISO)
100
AcDbEllipse
 10
119.4474175979335
 20
175.7631438652595
 30
0.0
 11
0.000000000000009
 21
1.500000000000013
 31
0.0
210
0.0
220
0.0
230
1.0
 40
0.8660254037846177
 41
4.712388980384695
 42
6.28318530717958
  0
LINE
  5
247
330
23
100
AcDbEntity
  8
Sichtbar (ISO)
100
AcDbLine
 10
119.9474175979333
 20
177.2631438652595
 30
0.0
 11
119.4474175979335
 21
177.2631438652595
 31
0.0
  0
ELLIPSE
  5
248
330
23
100
AcDbEntity
  8
Sichtbar (ISO)
100
AcDbEllipse
 10
119.4474175979335
 20
152.8844642088191
 30
0.0
 11
0.0000000000000187
 21
-1.499999999999968
 31
0.0
210
0.0
220
0.0
230
1.0
 40
0.8660254037846284
 41
0.7853981633974385
 42
1.570796326794897
  0
ELLIPSE
  5
249
330
23
100
AcDbEntity
  8
Sichtbar (ISO)
100
AcDbEllipse
 10
33.04549380928339
 20
175.7631438652595
 30
0.0
 11
0.0000000000000015
 21
1.500000000000009
 31
0.0
210
0.0
220
0.0
230
1.0
 40
0.866025403784322
 41
0.0
 42
1.570796326794897
  0
LINE
  5
24A
330
23
100
AcDbEntity
  8
Sichtbar (ISO)
100
AcDbLine
 10
33.04549380928339
 20
177.2631438652595
 30
0.0
 11
32.5454938092831
 21
177.2631438652595
 31
0.0
  0
ELLIPSE
  5
24B
330
23
100
AcDbEntity
  8
Sichtbar (ISO)
100
AcDbEllipse
 10
33.04549380928342
 20
152.8844642088191
 30
0.0
 11
0.0000000000001098
 21
1.500000000000063
 31
0.0
210
0.0
220
0.0
230
1.0
 40
0.8660254037843131
 41
1.570796326794972
 42
2.356194490192429
  0
LINE
  5
24C
330
23
100
AcDbEntity
  8
Sichtbar (ISO)
100
AcDbLine
 10
121.2464557036102
 20
152.8844642088191
 30
0.0
 11
121.2464557036102
 21
175.7631438652595
 31
0.0
  0
LINE
  5
24D
330
23
100
AcDbEntity
  8
Sichtbar (ISO)
100
AcDbLine
 10
111.2464557036085
 20
142.2631438652594
 30
0.0
 11
111.5481224643534
 21
142.2631438652594
 31
0.0
  0
LINE
  5
24E
330
23
100
AcDbEntity
  8
Sichtbar (ISO)
100
AcDbLine
 10
41.24645570360567
 20
142.2631438652594
 30
0.0
 11
44.69645570360589
 21
142.2631438652594
 31
0.0
  0
LINE
  5
24F
330
23
100
AcDbEntity
  8
Sichtbar (ISO)
100
AcDbLine
 10
107.7964557036084
 20
142.2631438652594
 30
0.0
 11
111.2464557036085
 21
142.2631438652594
 31
0.0
  0
LINE
  5
250
330
23
100
AcDbEntity
  8
Sichtbar (ISO)
100
AcDbLine
 10
40.9447889428608
 20
142.2631438652594
 30
0.0
 11
41.24645570360567
 21
142.2631438652594
 31
0.0
  0
LINE
  5
251
330
23
100
AcDbEntity
  8
Sichtbar (ISO)
100
AcDbLine
 10
31.24645570360661
 20
152.8844642088191
 30
0.0
 11
31.24645570360662
 21
175.7631438652595
 31
0.0
  0
LINE
  5
252
330
23
100
AcDbEntity
  8
Sichtbar (ISO)
100
AcDbLine
 10
120.7464557036104
 20
152.8844642088191
 30
0.0
 11
120.7464557036104
 21
175.7631438652595
 31
0.0
  0
LINE
  5
253
330
23
100
AcDbEntity
  8
Sichtbar (ISO)
100
AcDbLine
 10
119.4474175979335
 20
177.2631438652595
 30
0.0
 11
111.2464557036085
 21
177.2631438652595
 31
0.0
  0
LINE
  5
254
330
23
100
AcDbEntity
  8
Sichtbar (ISO)
100
AcDbLine
 10
111.2464557036085
 20
142.2631438652594
 30
0.0
 11
111.2464557036085
 21
177.2631438652595
 31
0.0
  0
LINE
  5
255
330
23
100
AcDbEntity
  8
Sichtbar (ISO)
100
AcDbLine
 10
31.74645570360689
 20
152.8844642088191
 30
0.0
 11
31.74645570360689
 21
175.7631438652595
 31
0.0
  0
LINE
  5
256
330
23
100
AcDbEntity
  8
Sichtbar (ISO)
100
AcDbLine
 10
41.24645570360567
 20
142.2631438652594
 30
0.0
 11
41.24645570360569
 21
177.2631438652595
 31
0.0
  0
LINE
  5
257
330
23
100
AcDbEntity
  8
Sichtbar (ISO)
100
AcDbLine
 10
41.24645570360569
 20
177.2631438652595
 30
0.0
 11
33.04549380928337
 21
177.2631438652595
 31
0.0
  0
LINE
  5
258
330
23
100
AcDbEntity
  8
Sichtbar (ISO)
100
AcDbLine
 10
111.2464557036085
 20
177.2631438652595
 30
0.0
 11
108.7464557036082
 21
177.2631438652595
 31
0.0
  0
LINE
  5
259
330
23
100
AcDbEntity
  8
Sichtbar (ISO)
100
AcDbLine
 10
43.74645570360562
 20
177.2631438652595
 30
0.0
 11
41.24645570360569
 21
177.2631438652595
 31
0.0
  0
LINE
  5
25A
330
23
100
AcDbEntity
  8
Sichtbar (ISO)
100
AcDbLine
 10
112.966681117897
 20
142.7024836934796
 30
0.0
 11
120.8659762514772
 21
151.8238040370393
 31
0.0
  0
LINE
  5
25B
330
23
100
AcDbEntity
  8
Sichtbar (ISO)
100
AcDbLine
 10
31.62693515573953
 20
151.8238040370393
 30
0.0
 11
39.52623028931697
 21
142.7024836934796
 31
0.0
  0
LINE
  5
25C
330
23
100
AcDbEntity
  8
Sichtbar (ISO)
100
AcDbLine
 10
120.3659762514774
 20
151.8238040370393
 30
0.0
 11
112.4666811178973
 21
142.7024836934796
 31
0.0
  0
LINE
  5
25D
330
23
100
AcDbEntity
  8
Sichtbar (ISO)
100
AcDbLine
 10
40.02623028931722
 20
142.7024836934796
 30
0.0
 11
32.12693515573981
 21
151.8238040370393
 31
0.0
  0
CIRCLE
  5
25E
330
23
100
AcDbEntity
  8
Sichtbar (ISO)
100
AcDbCircle
 10
191.7184465337412
 20
181.2631438652595
 30
0.0
 40
2.458499999999997
  0
CIRCLE
  5
25F
330
23
100
AcDbEntity
  8
Sichtbar (ISO)
100
AcDbCircle
 10
236.7184465337412
 20
181.2631438652595
 30
0.0
 40
2.458499999999997
  0
CIRCLE
  5
260
330
23
100
AcDbEntity
  8
Sichtbar (ISO)
100
AcDbCircle
 10
191.7184465337411
 20
181.2631438652595
 30
0.0
 40
2.958499999999997
  0
CIRCLE
  5
261
330
23
100
AcDbEntity
  8
Sichtbar (ISO)
100
AcDbCircle
 10
236.7184465337411
 20
181.2631438652595
 30
0.0
 40
2.958499999999997
  0
CIRCLE
  5
262
330
23
100
AcDbEntity
  8
Sichtbar (ISO)
100
AcDbCircle
 10
214.2184465337411
 20
174.2631438652595
 30
0.0
 40
2.020999999999998
  0
CIRCLE
  5
263
330
23
100
AcDbEntity
  8
Sichtbar (ISO)
100
AcDbCircle
 10
236.718446533741
 20
174.2631438652595
 30
0.0
 40
2.020999999999998
  0
CIRCLE
  5
264
330
23
100
AcDbEntity
  8
Sichtbar (ISO)
100
AcDbCircle
 10
191.7184465337411
 20
174.2631438652595
 30
0.0
 40
2.020999999999998
  0
LINE
  5
265
330
23
100
AcDbEntity
  8
Sichtbar (ISO)
100
AcDbLine
 10
246.418446533741
 20
171.5631438652595
 30
0.0
 11
182.0184465337411
 21
171.5631438652595
 31
0.0
  0
LINE
  5
266
330
23
100
AcDbEntity
  8
Sichtbar (ISO)
100
AcDbLine
 10
246.4184465337411
 20
185.9631438652595
 30
0.0
 11
246.418446533741
 21
171.5631438652595
 31
0.0
  0
LINE
  5
267
330
23
100
AcDbEntity
  8
Sichtbar (ISO)
100
AcDbLine
 10
182.0184465337411
 20
185.9631438652595
 30
0.0
 11
246.4184465337411
 21
185.9631438652595
 31
0.0
  0
LINE
  5
268
330
23
100
AcDbEntity
  8
Sichtbar (ISO)
100
AcDbLine
 10
182.0184465337411
 20
171.5631438652595
 30
0.0
 11
182.0184465337411
 21
185.9631438652595
 31
0.0
  0
LINE
  5
269
330
23
100
AcDbEntity
  8
Sichtbar (ISO)
100
AcDbLine
 10
246.7184465337411
 20
171.5631438652595
 30
0.0
 11
246.7184465337411
 21
185.9631438652595
 31
0.0
  0
LINE
  5
26A
330
23
100
AcDbEntity
  8
Sichtbar (ISO)
100
AcDbLine
 10
246.4184465337411
 20
185.9631438652595
 30
0.0
 11
246.5684465337411
 21
186.1131438652595
 31
0.0
  0
LINE
  5
26B
330
23
100
AcDbEntity
  8
Sichtbar (ISO)
100
AcDbLine
 10
246.7184465337411
 20
171.5631438652595
 30
0.0
 11
246.418446533741
 21
171.5631438652595
 31
0.0
  0
LINE
  5
26C
330
23
100
AcDbEntity
  8
Sichtbar (ISO)
100
AcDbLine
 10
182.0184465337412
 20
186.2631438652595
 30
0.0
 11
181.7184465337412
 21
185.9631438652595
 31
0.0
  0
LINE
  5
26D
330
23
100
AcDbEntity
  8
Sichtbar (ISO)
100
AcDbLine
 10
182.0184465337411
 20
185.9631438652595
 30
0.0
 11
181.7184465337412
 21
185.9631438652595
 31
0.0
  0
LINE
  5
26E
330
23
100
AcDbEntity
  8
Sichtbar (ISO)
100
AcDbLine
 10
182.0184465337411
 20
185.9631438652595
 30
0.0
 11
182.0184465337412
 21
186.2631438652595
 31
0.0
  0
LINE
  5
26F
330
23
100
AcDbEntity
  8
Sichtbar (ISO)
100
AcDbLine
 10
181.7184465337411
 20
171.5631438652595
 30
0.0
 11
182.0184465337411
 21
171.2631438652596
 31
0.0
  0
LINE
  5
270
330
23
100
AcDbEntity
  8
Sichtbar (ISO)
100
AcDbLine
 10
182.0184465337411
 20
171.5631438652595
 30
0.0
 11
182.0184465337411
 21
171.2631438652596
 31
0.0
  0
LINE
  5
271
330
23
100
AcDbEntity
  8
Sichtbar (ISO)
100
AcDbLine
 10
182.0184465337411
 20
171.5631438652595
 30
0.0
 11
181.7184465337411
 21
171.5631438652595
 31
0.0
  0
LINE
  5
272
330
23
100
AcDbEntity
  8
Sichtbar (ISO)
100
AcDbLine
 10
246.4184465337411
 20
171.2631438652596
 30
0.0
 11
246.418446533741
 21
171.5631438652595
 31
0.0
  0
LINE
  5
273
330
23
100
AcDbEntity
  8
Sichtbar (ISO)
100
AcDbLine
 10
246.4184465337411
 20
171.2631438652596
 30
0.0
 11
246.7184465337411
 21
171.5631438652595
 31
0.0
  0
LINE
  5
274
330
23
100
AcDbEntity
  8
Sichtbar (ISO)
100
AcDbLine
 10
182.0184465337411
 20
171.2631438652596
 30
0.0
 11
246.4184465337411
 21
171.2631438652596
 31
0.0
  0
LINE
  5
275
330
23
100
AcDbEntity
  8
Sichtbar (ISO)
100
AcDbLine
 10
181.7184465337412
 20
185.9631438652595
 30
0.0
 11
181.7184465337411
 21
171.5631438652595
 31
0.0
  0
LINE
  5
276
330
23
100
AcDbEntity
  8
Sichtbar (ISO)
100
AcDbLine
 10
246.4184465337411
 20
186.2631438652595
 30
0.0
 11
182.0184465337412
 21
186.2631438652595
 31
0.0
  0
LINE
  5
277
330
23
100
AcDbEntity
  8
Sichtbar (ISO)
100
AcDbLine
 10
246.4184465337411
 20
186.2631438652595
 30
0.0
 11
246.5684465337411
 21
186.1131438652595
 31
0.0
  0
LINE
  5
278
330
23
100
AcDbEntity
  8
Sichtbar (ISO)
100
AcDbLine
 10
246.5684465337411
 20
186.1131438652595
 30
0.0
 11
246.7184465337411
 21
185.9631438652595
 31
0.0
  0
LINE
  5
279
330
23
100
AcDbEntity
  8
Sichtbar (ISO)
100
AcDbLine
 10
182.6684465337425
 20
142.2631438652597
 30
0.0
 11
182.6684465337424
 21
132.2631438652601
 31
0.0
  0
LINE
  5
27A
330
23
100
AcDbEntity
  8
Sichtbar (ISO)
100
AcDbLine
 10
182.6684465337424
 20
132.2631438652601
 30
0.0
 11
245.7684465337426
 21
132.2631438652601
 31
0.0
  0
LINE
  5
27B
330
23
100
AcDbEntity
  8
Sichtbar (ISO)
100
AcDbLine
 10
245.7684465337426
 20
132.2631438652601
 30
0.0
 11
245.7684465337426
 21
142.2631438652599
 31
0.0
  0
ELLIPSE
  5
27C
330
23
100
AcDbEntity
  8
Sichtbar (ISO)
100
AcDbEllipse
 10
178.4167797729958
 20
143.7631438652594
 30
0.0
 11
-0.0000000000000043
 21
-1.499999999999998
 31
0.0
210
0.0
220
0.0
230
1.0
 40
0.866025403784323
 41
5.497787143782133
 42
6.283185307179586
  0
ELLIPSE
  5
27D
330
23
100
AcDbEntity
  8
Sichtbar (ISO)
100
AcDbEllipse
 10
170.5174846394184
 20
175.7631438652595
 30
0.0
 11
0.0000000000000014
 21
1.50000000000001
 31
0.0
210
0.0
220
0.0
230
1.0
 40
0.8660254037843193
 41
0.0
 42
1.570796326794897
  0
ELLIPSE
  5
27E
330
23
100
AcDbEntity
  8
Sichtbar (ISO)
100
AcDbEllipse
 10
170.5174846394184
 20
152.8844642088191
 30
0.0
 11
0.000000000000155
 21
1.499999999999971
 31
0.0
210
0.0
220
0.0
230
1.0
 40
0.8660254037843301
 41
1.570796326794987
 42
2.356194490192484
  0
ELLIPSE
  5
27F
330
23
100
AcDbEntity
  8
Sichtbar (ISO)
100
AcDbEllipse
 10
250.0201132944884
 20
143.7631438652594
 30
0.0
 11
-0.0000000000000161
 21
-1.500000000000015
 31
0.0
210
0.0
220
0.0
230
1.0
 40
0.8660254037846193
 41
0.0
 42
0.785398163397459
  0
ELLIPSE
  5
280
330
23
100
AcDbEntity
  8
Sichtbar (ISO)
100
AcDbEllipse
 10
257.9194084280686
 20
152.8844642088191
 30
0.0
 11
-0.000000000000031
 21
-1.500000000000059
 31
0.0
210
0.0
220
0.0
230
1.0
 40
0.8660254037846073
 41
0.7853981633974759
 42
1.570796326794914
  0
ELLIPSE
  5
281
330
23
100
AcDbEntity
  8
Sichtbar (ISO)
100
AcDbEllipse
 10
257.9194084280686
 20
175.7631438652595
 30
0.0
 11
0.0000000000000087
 21
1.500000000000009
 31
0.0
210
0.0
220
0.0
230
1.0
 40
0.8660254037846176
 41
4.712388980384718
 42
6.283185307179596
  0
LINE
  5
282
330
23
100
AcDbEntity
  8
Sichtbar (ISO)
100
AcDbLine
 10
178.4167797729958
 20
142.2631438652594
 30
0.0
 11
178.9504973413095
 21
142.2631438652594
 31
0.0
  0
LINE
  5
283
330
23
100
AcDbEntity
  8
Sichtbar (ISO)
100
AcDbLine
 10
178.9504973413095
 20
142.2631438652594
 30
0.0
 11
178.9504973413095
 21
177.2631438652595
 31
0.0
  0
LINE
  5
284
330
23
100
AcDbEntity
  8
Sichtbar (ISO)
100
AcDbLine
 10
178.9504973413095
 20
177.2631438652595
 30
0.0
 11
170.5174846394184
 21
177.2631438652595
 31
0.0
  0
LINE
  5
285
330
23
100
AcDbEntity
  8
Sichtbar (ISO)
100
AcDbLine
 10
169.2184465337419
 20
152.8844642088191
 30
0.0
 11
169.2184465337419
 21
175.7631438652595
 31
0.0
  0
LINE
  5
286
330
23
100
AcDbEntity
  8
Sichtbar (ISO)
100
AcDbLine
 10
249.4863957261745
 20
142.2631438652594
 30
0.0
 11
250.0201132944885
 21
142.2631438652594
 31
0.0
  0
LINE
  5
287
330
23
100
AcDbEntity
  8
Sichtbar (ISO)
100
AcDbLine
 10
178.9504973413095
 20
142.2631438652594
 30
0.0
 11
249.4863957261745
 21
142.2631438652594
 31
0.0
  0
LINE
  5
288
330
23
100
AcDbEntity
  8
Sichtbar (ISO)
100
AcDbLine
 10
259.2184465337455
 20
152.8844642088191
 30
0.0
 11
259.2184465337455
 21
175.7631438652595
 31
0.0
  0
LINE
  5
289
330
23
100
AcDbEntity
  8
Sichtbar (ISO)
100
AcDbLine
 10
257.9194084280686
 20
177.2631438652595
 30
0.0
 11
249.4863957261745
 21
177.2631438652595
 31
0.0
  0
LINE
  5
28A
330
23
100
AcDbEntity
  8
Sichtbar (ISO)
100
AcDbLine
 10
249.4863957261745
 20
142.2631438652594
 30
0.0
 11
249.4863957261745
 21
177.2631438652595
 31
0.0
  0
LINE
  5
28B
330
23
100
AcDbEntity
  8
Sichtbar (ISO)
100
AcDbLine
 10
249.4863957261745
 20
177.2631438652595
 30
0.0
 11
246.7184465337435
 21
177.2631438652595
 31
0.0
  0
LINE
  5
28C
330
23
100
AcDbEntity
  8
Sichtbar (ISO)
100
AcDbLine
 10
181.7184465337408
 20
177.2631438652595
 30
0.0
 11
178.9504973413095
 21
177.2631438652595
 31
0.0
  0
LINE
  5
28D
330
23
100
AcDbEntity
  8
Sichtbar (ISO)
100
AcDbLine
 10
177.4982211194522
 20
142.7024836934796
 30
0.0
 11
169.5989259858748
 21
151.8238040370393
 31
0.0
  0
LINE
  5
28E
330
23
100
AcDbEntity
  8
Sichtbar (ISO)
100
AcDbLine
 10
258.8379670816125
 20
151.8238040370393
 30
0.0
 11
250.9386719480323
 21
142.7024836934796
 31
0.0
  0
CIRCLE
  5
28F
330
23
100
AcDbEntity
  8
Sichtbar (ISO)
100
AcDbCircle
 10
236.718446533741
 20
174.2631438652595
 30
0.0
 40
1.570584999999998
  0
LINE
  5
290
330
23
100
AcDbEntity
  8
Sichtbar (ISO)
100
AcDbLine
 10
237.7184465337411
 20
174.8404941344492
 30
0.0
 11
237.7184465337411
 21
173.6857935960699
 31
0.0
  0
LINE
  5
291
330
23
100
AcDbEntity
  8
Sichtbar (ISO)
100
AcDbLine
 10
237.7184465337411
 20
173.6857935960699
 30
0.0
 11
236.718446533741
 21
173.1084433268803
 31
0.0
  0
LINE
  5
292
330
23
100
AcDbEntity
  8
Sichtbar (ISO)
100
AcDbLine
 10
236.718446533741
 20
173.1084433268803
 30
0.0
 11
235.718446533741
 21
173.6857935960699
 31
0.0
  0
LINE
  5
293
330
23
100
AcDbEntity
  8
Sichtbar (ISO)
100
AcDbLine
 10
235.718446533741
 20
173.6857935960699
 30
0.0
 11
235.718446533741
 21
174.8404941344492
 31
0.0
  0
LINE
  5
294
330
23
100
AcDbEntity
  8
Sichtbar (ISO)
100
AcDbLine
 10
235.718446533741
 20
174.8404941344492
 30
0.0
 11
236.718446533741
 21
175.4178444036388
 31
0.0
  0
LINE
  5
295
330
23
100
AcDbEntity
  8
Sichtbar (ISO)
100
AcDbLine
 10
236.718446533741
 20
175.4178444036388
 30
0.0
 11
237.7184465337411
 21
174.8404941344492
 31
0.0
  0
CIRCLE
  5
296
330
23
100
AcDbEntity
  8
Sichtbar (ISO)
100
AcDbCircle
 10
214.2184465337411
 20
174.2631438652595
 30
0.0
 40
1.570584999999998
  0
LINE
  5
297
330
23
100
AcDbEntity
  8
Sichtbar (ISO)
100
AcDbLine
 10
215.218446533741
 20
174.8404941344492
 30
0.0
 11
215.218446533741
 21
173.6857935960699
 31
0.0
  0
LINE
  5
298
330
23
100
AcDbEntity
  8
Sichtbar (ISO)
100
AcDbLine
 10
215.218446533741
 20
173.6857935960699
 30
0.0
 11
214.2184465337411
 21
173.1084433268803
 31
0.0
  0
LINE
  5
299
330
23
100
AcDbEntity
  8
Sichtbar (ISO)
100
AcDbLine
 10
214.2184465337411
 20
173.1084433268803
 30
0.0
 11
213.2184465337411
 21
173.6857935960699
 31
0.0
  0
LINE
  5
29A
330
23
100
AcDbEntity
  8
Sichtbar (ISO)
100
AcDbLine
 10
213.2184465337411
 20
173.6857935960699
 30
0.0
 11
213.2184465337411
 21
174.8404941344492
 31
0.0
  0
LINE
  5
29B
330
23
100
AcDbEntity
  8
Sichtbar (ISO)
100
AcDbLine
 10
213.2184465337411
 20
174.8404941344492
 30
0.0
 11
214.2184465337411
 21
175.4178444036388
 31
0.0
  0
LINE
  5
29C
330
23
100
AcDbEntity
  8
Sichtbar (ISO)
100
AcDbLine
 10
214.2184465337411
 20
175.4178444036388
 30
0.0
 11
215.218446533741
 21
174.8404941344492
 31
0.0
  0
CIRCLE
  5
29D
330
23
100
AcDbEntity
  8
Sichtbar (ISO)
100
AcDbCircle
 10
191.7184465337411
 20
174.2631438652595
 30
0.0
 40
1.570584999999998
  0
LINE
  5
29E
330
23
100
AcDbEntity
  8
Sichtbar (ISO)
100
AcDbLine
 10
192.7184465337411
 20
174.8404941344492
 30
0.0
 11
192.7184465337411
 21
173.6857935960699
 31
0.0
  0
LINE
  5
29F
330
23
100
AcDbEntity
  8
Sichtbar (ISO)
100
AcDbLine
 10
192.7184465337411
 20
173.6857935960699
 30
0.0
 11
191.7184465337411
 21
173.1084433268803
 31
0.0
  0
LINE
  5
2A0
330
23
100
AcDbEntity
  8
Sichtbar (ISO)
100
AcDbLine
 10
191.7184465337411
 20
173.1084433268803
 30
0.0
 11
190.7184465337411
 21
173.6857935960699
 31
0.0
  0
LINE
  5
2A1
330
23
100
AcDbEntity
  8
Sichtbar (ISO)
100
AcDbLine
 10
190.7184465337411
 20
173.6857935960699
 30
0.0
 11
190.7184465337411
 21
174.8404941344492
 31
0.0
  0
LINE
  5
2A2
330
23
100
AcDbEntity
  8
Sichtbar (ISO)
100
AcDbLine
 10
190.7184465337411
 20
174.8404941344492
 30
0.0
 11
191.7184465337411
 21
175.4178444036388
 31
0.0
  0
LINE
  5
2A3
330
23
100
AcDbEntity
  8
Sichtbar (ISO)
100
AcDbLine
 10
191.7184465337411
 20
175.4178444036388
 30
0.0
 11
192.7184465337411
 21
174.8404941344492
 31
0.0
  0
LINE
  5
2A4
330
23
100
AcDbEntity
  8
Sichtbar (ISO)
100
AcDbLine
 10
44.04645570356934
 20
107.7973635428249
 30
0.0
 11
108.4464557035692
 21
107.797363542844
 31
0.0
  0
LINE
  5
2A5
330
23
100
AcDbEntity
  8
Sichtbar (ISO)
100
AcDbLine
 10
108.4464557035654
 20
120.7973635428439
 30
0.0
 11
44.04645570356551
 21
120.7973635428248
 31
0.0
  0
LINE
  5
2A6
330
23
100
AcDbEntity
  8
Sichtbar (ISO)
100
AcDbLine
 10
44.04645570356551
 20
120.7973635428248
 30
0.0
 11
43.89645570356556
 21
120.6473635428248
 31
0.0
  0
LINE
  5
2A7
330
23
100
AcDbEntity
  8
Sichtbar (ISO)
100
AcDbLine
 10
108.4464557035692
 20
108.0973635428441
 30
0.0
 11
108.4464557035692
 21
107.797363542844
 31
0.0
  0
LINE
  5
2A8
330
23
100
AcDbEntity
  8
Sichtbar (ISO)
100
AcDbLine
 10
108.4464557035692
 20
108.0973635428441
 30
0.0
 11
44.04645570356925
 21
108.097363542825
 31
0.0
  0
LINE
  5
2A9
330
23
100
AcDbEntity
  8
Sichtbar (ISO)
100
AcDbLine
 10
108.4464557035692
 20
107.797363542844
 30
0.0
 11
108.7464557035692
 21
108.0973635428441
 31
0.0
  0
LINE
  5
2AA
330
23
100
AcDbEntity
  8
Sichtbar (ISO)
100
AcDbLine
 10
108.4464557035692
 20
108.0973635428441
 30
0.0
 11
108.7464557035692
 21
108.0973635428441
 31
0.0
  0
LINE
  5
2AB
330
23
100
AcDbEntity
  8
Sichtbar (ISO)
100
AcDbLine
 10
108.4464557035655
 20
120.497363542844
 30
0.0
 11
108.7464557035655
 21
120.497363542844
 31
0.0
  0
LINE
  5
2AC
330
23
100
AcDbEntity
  8
Sichtbar (ISO)
100
AcDbLine
 10
108.4464557035654
 20
120.7973635428439
 30
0.0
 11
108.7464557035655
 21
120.497363542844
 31
0.0
  0
LINE
  5
2AD
330
23
100
AcDbEntity
  8
Sichtbar (ISO)
100
AcDbLine
 10
108.4464557035654
 20
120.7973635428439
 30
0.0
 11
108.4464557035655
 21
120.497363542844
 31
0.0
  0
LINE
  5
2AE
330
23
100
AcDbEntity
  8
Sichtbar (ISO)
100
AcDbLine
 10
44.0464557035656
 20
120.4973635428249
 30
0.0
 11
108.4464557035655
 21
120.497363542844
 31
0.0
  0
LINE
  5
2AF
330
23
100
AcDbEntity
  8
Sichtbar (ISO)
100
AcDbLine
 10
108.4464557035655
 20
120.497363542844
 30
0.0
 11
108.4464557035692
 21
108.0973635428441
 31
0.0
  0
LINE
  5
2B0
330
23
100
AcDbEntity
  8
Sichtbar (ISO)
100
AcDbLine
 10
108.7464557035692
 20
108.0973635428441
 30
0.0
 11
108.7464557035655
 21
120.497363542844
 31
0.0
  0
LINE
  5
2B1
330
23
100
AcDbEntity
  8
Sichtbar (ISO)
100
AcDbLine
 10
43.74645570356562
 20
120.4973635428247
 30
0.0
 11
43.74645570356925
 21
108.0973635428248
 31
0.0
  0
LINE
  5
2B2
330
23
100
AcDbEntity
  8
Sichtbar (ISO)
100
AcDbLine
 10
43.89645570356929
 20
107.9473635428249
 30
0.0
 11
44.04645570356925
 21
108.097363542825
 31
0.0
  0
LINE
  5
2B3
330
23
100
AcDbEntity
  8
Sichtbar (ISO)
100
AcDbLine
 10
44.04645570356925
 20
108.097363542825
 30
0.0
 11
44.0464557035656
 21
120.4973635428249
 31
0.0
  0
LINE
  5
2B4
330
23
100
AcDbEntity
  8
Sichtbar (ISO)
100
AcDbLine
 10
44.0464557035656
 20
120.4973635428249
 30
0.0
 11
43.89645570356556
 21
120.6473635428248
 31
0.0
  0
LINE
  5
2B5
330
23
100
AcDbEntity
  8
Sichtbar (ISO)
100
AcDbLine
 10
43.89645570356556
 20
120.6473635428248
 30
0.0
 11
43.74645570356562
 21
120.4973635428247
 31
0.0
  0
LINE
  5
2B6
330
23
100
AcDbEntity
  8
Sichtbar (ISO)
100
AcDbLine
 10
43.74645570356925
 20
108.0973635428248
 30
0.0
 11
43.89645570356929
 21
107.9473635428249
 31
0.0
  0
LINE
  5
2B7
330
23
100
AcDbEntity
  8
Sichtbar (ISO)
100
AcDbLine
 10
44.04645570356934
 20
107.7973635428249
 30
0.0
 11
43.89645570356929
 21
107.9473635428249
 31
0.0
  0
CIRCLE
  5
2B8
330
23
100
AcDbEntity
  8
Sichtbar (ISO)
100
AcDbCircle
 10
76.24645570356739
 20
114.2973635428345
 30
0.0
 40
2.466999999999997
  0
CIRCLE
  5
2B9
330
23
100
AcDbEntity
  8
Sichtbar (ISO)
100
AcDbCircle
 10
76.24645570356739
 20
114.2973635428344
 30
0.0
 40
2.066999999999997
  0
ARC
  5
2BA
330
23
100
AcDbEntity
  8
Sichtbar schmal (ISO)
100
AcDbCircle
 10
76.24645570356739
 20
114.2973635428345
 30
0.0
 40
2.500000000000006
100
AcDbArc
 50
260.0000000000187
 51
169.9999999999677
  0
LINE
  5
2BB
330
23
100
AcDbEntity
  8
Sichtbar (ISO)
100
AcDbLine
 10
111.5144048959992
 20
117.1473635428423
 30
0.0
 11
119.9474175978933
 21
112.2785613893276
 31
0.0
  0
LINE
  5
2BC
330
23
100
AcDbEntity
  8
Sichtbar (ISO)
100
AcDbLine
 10
32.54549380924306
 20
112.2785613893018
 30
0.0
 11
40.97850651113422
 21
117.1473635428215
 31
0.0
  0
LINE
  5
2BD
330
23
100
AcDbEntity
  8
Sichtbar (ISO)
100
AcDbLine
 10
119.4474175978935
 20
111.4125359855429
 30
0.0
 11
111.2464557035684
 21
116.1473635428421
 31
0.0
  0
LINE
  5
2BE
330
23
100
AcDbEntity
  8
Sichtbar (ISO)
100
AcDbLine
 10
41.24645570356562
 20
116.1473635428215
 30
0.0
 11
33.04549380924333
 21
111.4125359855175
 31
0.0
  0
LINE
  5
2BF
330
23
100
AcDbEntity
  8
Sichtbar (ISO)
100
AcDbLine
 10
40.97850651113421
 20
117.1473635428215
 30
0.0
 11
43.74645570356526
 21
117.1473635428223
 31
0.0
  0
LINE
  5
2C0
330
23
100
AcDbEntity
  8
Sichtbar (ISO)
100
AcDbLine
 10
108.7464557035679
 20
117.1473635428415
 30
0.0
 11
111.5144048959992
 21
117.1473635428423
 31
0.0
  0
LINE
  5
2C1
330
23
100
AcDbEntity
  8
Sichtbar (ISO)
100
AcDbLine
 10
111.2464557035684
 20
116.1473635428421
 30
0.0
 11
108.7464557035681
 21
116.1473635428414
 31
0.0
  0
LINE
  5
2C2
330
23
100
AcDbEntity
  8
Sichtbar (ISO)
100
AcDbLine
 10
77.16840418368909
 20
116.1473635428321
 30
0.0
 11
75.32450722344463
 21
116.1473635428316
 31
0.0
  0
LINE
  5
2C3
330
23
100
AcDbEntity
  8
Sichtbar (ISO)
100
AcDbLine
 10
43.74645570356554
 20
116.1473635428223
 30
0.0
 11
41.24645570356562
 21
116.1473635428215
 31
0.0
  0
LINE
  5
2C4
330
23
100
AcDbEntity
  8
Sichtbar (ISO)
100
AcDbLine
 10
119.9474175978933
 20
112.2785613893276
 30
0.0
 11
121.2464557035702
 21
111.5285613893275
 31
0.0
  0
LINE
  5
2C5
330
23
100
AcDbEntity
  8
Sichtbar (ISO)
100
AcDbLine
 10
31.24645570356656
 20
111.5285613893009
 30
0.0
 11
32.54549380924304
 21
112.2785613893018
 31
0.0
  0
LINE
  5
2C6
330
23
100
AcDbEntity
  8
Sichtbar (ISO)
100
AcDbLine
 10
120.7464557035704
 20
110.6625359855428
 30
0.0
 11
119.4474175978935
 21
111.4125359855429
 31
0.0
  0
LINE
  5
2C7
330
23
100
AcDbEntity
  8
Sichtbar (ISO)
100
AcDbLine
 10
120.7464557035704
 20
110.6625359855428
 30
0.0
 11
121.2464557035702
 21
111.5285613893274
 31
0.0
  0
LINE
  5
2C8
330
23
100
AcDbEntity
  8
Sichtbar (ISO)
100
AcDbLine
 10
31.24645570356657
 20
111.5285613893009
 30
0.0
 11
31.74645570356684
 21
110.6625359855166
 31
0.0
  0
LINE
  5
2C9
330
23
100
AcDbEntity
  8
Sichtbar (ISO)
100
AcDbLine
 10
33.04549380924333
 20
111.4125359855175
 30
0.0
 11
31.74645570356684
 21
110.6625359855166
 31
0.0
  0
ELLIPSE
  5
2CA
330
23
100
AcDbEntity
  8
Sichtbar (ISO)
100
AcDbEllipse
 10
73.28785954689734
 20
78.74460448879561
 30
0.0
 11
1.22687069217971
 21
2.130495377763212
 31
0.0
210
0.0
220
0.0
230
0.9999999999999998
 40
0.5780931159156414
 41
2.451012269498673
 42
6.973765691270711
  0
ELLIPSE
  5
2CB
330
23
100
AcDbEntity
  8
Sichtbar (ISO)
100
AcDbEllipse
 10
73.64141293749066
 20
78.54100663189948
 30
0.0
 11
1.476386797971649
 21
2.563787095835952
 31
0.0
210
0.0
220
0.0
230
1.0
 40
0.5780931159156412
 41
0.0
 42
6.28318530717938
  0
ELLIPSE
  5
2CC
330
23
100
AcDbEntity
  8
Sichtbar (ISO)
100
AcDbEllipse
 10
41.82160778410078
 20
60.21719951124175
 30
0.0
 11
1.476386797971649
 21
2.563787095835952
 31
0.0
210
0.0
220
0.0
230
1.0
 40
0.5780931159156412
 41
0.0
 42
6.28318530717938
  0
ELLIPSE
  5
2CD
330
23
100
AcDbEntity
  8
Sichtbar (ISO)
100
AcDbEllipse
 10
41.46805439350746
 20
60.42079736813788
 30
0.0
 11
1.226870692179711
 21
2.130495377763215
 31
0.0
210
0.0
220
0.0
230
1.0
 40
0.5780931159156414
 41
2.451012269498683
 42
6.973765691270702
  0
LINE
  5
2CE
330
23
100
AcDbEntity
  8
Sichtbar (ISO)
100
AcDbLine
 10
34.96267200659233
 20
48.33719397648295
 30
0.0
 11
34.96267200659229
 21
60.10987257421543
 31
0.0
  0
LINE
  5
2CF
330
23
100
AcDbEntity
  8
Sichtbar (ISO)
100
AcDbLine
 10
32.48779827243911
 20
54.4233442955357
 30
0.0
 11
27.82089351660723
 21
57.11083600656468
 31
0.0
  0
LINE
  5
2D0
330
23
100
AcDbEntity
  8
Sichtbar (ISO)
100
AcDbLine
 10
27.82089351660723
 20
57.11083600656468
 30
0.0
 11
28.24515758531916
 21
56.86557186911196
 31
0.0
  0
LINE
  5
2D1
330
23
100
AcDbEntity
  8
Sichtbar (ISO)
100
AcDbLine
 10
28.24515758531916
 20
56.86557186911196
 30
0.0
 11
32.48779827243905
 21
54.42239758635834
 31
0.0
  0
LINE
  5
2D2
330
23
100
AcDbEntity
  8
Sichtbar (ISO)
100
AcDbLine
 10
34.53840793788036
 20
60.1098725742154
 30
0.0
 11
34.5384079378804
 21
48.33719397648291
 31
0.0
  0
LINE
  5
2D3
330
23
100
AcDbEntity
  8
Sichtbar (ISO)
100
AcDbLine
 10
25.77028385116592
 20
65.15909942523956
 30
0.0
 11
34.53840793788036
 21
60.1098725742154
 31
0.0
  0
LINE
  5
2D4
330
23
100
AcDbEntity
  8
Sichtbar (ISO)
100
AcDbLine
 10
34.75053997223632
 20
60.2325046429418
 30
0.0
 11
34.75053997223628
 21
60.47729542580589
 31
0.0
  0
LINE
  5
2D5
330
23
100
AcDbEntity
  8
Sichtbar (ISO)
100
AcDbLine
 10
34.75053997223628
 20
60.47729542580589
 30
0.0
 11
25.98241588552185
 21
65.52652227683005
 31
0.0
  0
LINE
  5
2D6
330
23
100
AcDbEntity
  8
Sichtbar (ISO)
100
AcDbLine
 10
25.98241588552185
 20
65.52652227683005
 30
0.0
 11
25.77028385116589
 21
65.40389020810365
 31
0.0
  0
LINE
  5
2D7
330
23
100
AcDbEntity
  8
Sichtbar (ISO)
100
AcDbLine
 10
25.77028385116589
 20
65.40389020810365
 30
0.0
 11
25.77028385116592
 21
65.15909942523956
 31
0.0
  0
LINE
  5
2D8
330
23
100
AcDbEntity
  8
Sichtbar (ISO)
100
AcDbLine
 10
34.53840793788036
 20
60.1098725742154
 30
0.0
 11
34.75053997223632
 21
60.2325046429418
 31
0.0
  0
LINE
  5
2D9
330
23
100
AcDbEntity
  8
Sichtbar (ISO)
100
AcDbLine
 10
34.5384079378804
 20
48.33719397648291
 30
0.0
 11
34.75053997223636
 21
48.21456190775655
 31
0.0
  0
LINE
  5
2DA
330
23
100
AcDbEntity
  8
Sichtbar (ISO)
100
AcDbLine
 10
34.75053997223636
 20
48.21456190775655
 30
0.0
 11
34.96267200659233
 21
48.33719397648295
 31
0.0
  0
LINE
  5
2DB
330
23
100
AcDbEntity
  8
Sichtbar (ISO)
100
AcDbLine
 10
34.96267200659229
 20
60.10987257421543
 30
0.0
 11
34.75053997223632
 21
60.2325046429418
 31
0.0
  0
LINE
  5
2DC
330
23
100
AcDbEntity
  8
Sichtbar (ISO)
100
AcDbLine
 10
80.50034871499917
 20
74.56059794471312
 30
0.0
 11
34.96267200659233
 21
48.33719397648295
 31
0.0
  0
LINE
  5
2DD
330
23
100
AcDbEntity
  8
Sichtbar (ISO)
100
AcDbLine
 10
80.50034871499915
 20
86.3332765424456
 30
0.0
 11
80.50034871499917
 21
74.56059794471312
 31
0.0
  0
LINE
  5
2DE
330
23
100
AcDbEntity
  8
Sichtbar (ISO)
100
AcDbLine
 10
34.96267200659229
 20
60.10987257421543
 30
0.0
 11
80.50034871499912
 21
86.33327654244562
 31
0.0
  0
LINE
  5
2DF
330
23
100
AcDbEntity
  8
Sichtbar (ISO)
100
AcDbLine
 10
27.82089351660723
 20
57.11083600656468
 30
0.0
 11
27.82089351660723
 21
56.49909572669891
 31
0.0
  0
LINE
  5
2E0
330
23
100
AcDbEntity
  8
Sichtbar (ISO)
100
AcDbLine
 10
32.48779827243912
 20
49.5180615464805
 30
0.0
 11
32.48779827243911
 21
54.4233442955357
 31
0.0
  0
LINE
  5
2E1
330
23
100
AcDbEntity
  8
Sichtbar (ISO)
100
AcDbLine
 10
34.5384079378804
 20
48.33719397648291
 30
0.0
 11
32.48779827243912
 21
49.5180615464805
 31
0.0
  0
LINE
  5
2E2
330
23
100
AcDbEntity
  8
Sichtbar (ISO)
100
AcDbLine
 10
25.77028385116597
 20
54.67070863592026
 30
0.0
 11
25.77028385116591
 21
65.15909942523956
 31
0.0
  0
LINE
  5
2E3
330
23
100
AcDbEntity
  8
Sichtbar (ISO)
100
AcDbLine
 10
80.28821668064313
 20
86.70069939403605
 30
0.0
 11
80.50034871499915
 21
86.3332765424456
 31
0.0
  0
LINE
  5
2E4
330
23
100
AcDbEntity
  8
Sichtbar (ISO)
100
AcDbLine
 10
80.28821668064313
 20
86.70069939403605
 30
0.0
 11
34.75053997223629
 21
60.47729542580589
 31
0.0
  0
LINE
  5
2E5
330
23
100
AcDbEntity
  8
Sichtbar (ISO)
100
AcDbLine
 10
34.75053997223636
 20
48.21456190775655
 30
0.0
 11
34.75053997223633
 21
48.21408855316786
 31
0.0
  0
LINE
  5
2E6
330
23
100
AcDbEntity
  8
Sichtbar (ISO)
100
AcDbLine
 10
34.75053997223633
 20
48.21408855316786
 30
0.0
 11
80.28821668064317
 21
74.43749252139804
 31
0.0
  0
LINE
  5
2E7
330
23
100
AcDbEntity
  8
Sichtbar (ISO)
100
AcDbLine
 10
80.50034871499917
 20
74.56059794471312
 30
0.0
 11
80.28821668064317
 21
74.43749252139804
 31
0.0
  0
LINE
  5
2E8
330
23
100
AcDbEntity
  8
Sichtbar (ISO)
100
AcDbLine
 10
32.48779827243912
 20
49.5180615464805
 30
0.0
 11
32.69993030679505
 21
49.39495612316544
 31
0.0
  0
LINE
  5
2E9
330
23
100
AcDbEntity
  8
Sichtbar (ISO)
100
AcDbLine
 10
80.50034871499915
 20
86.3332765424456
 30
0.0
 11
80.50034871499907
 21
86.57759397072101
 31
0.0
  0
LINE
  5
2EA
330
23
100
AcDbEntity
  8
Sichtbar (ISO)
100
AcDbLine
 10
80.28821668064313
 20
86.70069939403605
 30
0.0
 11
80.50034871499907
 21
86.57759397072101
 31
0.0
  0
LINE
  5
2EB
330
23
100
AcDbEntity
  8
Sichtbar (ISO)
100
AcDbLine
 10
28.24515758531915
 20
56.74341315497437
 30
0.0
 11
28.24515758531916
 21
56.86557186911196
 31
0.0
  0
LINE
  5
2EC
330
23
100
AcDbEntity
  8
Sichtbar (ISO)
100
AcDbLine
 10
25.98241588552185
 20
65.52652227683005
 30
0.0
 11
71.52009259392869
 21
91.74992624506021
 31
0.0
  0
LINE
  5
2ED
330
23
100
AcDbEntity
  8
Sichtbar (ISO)
100
AcDbLine
 10
71.52009259392869
 20
91.74992624506021
 30
0.0
 11
80.28821668064313
 21
86.70069939403605
 31
0.0
  0
LINE
  5
2EE
330
23
100
AcDbEntity
  8
Sichtbar (ISO)
100
AcDbLine
 10
32.69993030679505
 20
49.39495612316544
 30
0.0
 11
34.75053997223633
 21
48.21408855316786
 31
0.0
  0
ELLIPSE
  5
2EF
330
23
100
AcDbEntity
  8
Sichtbar (ISO)
100
AcDbEllipse
 10
53.13531628308249
 20
76.11361083543305
 30
0.0
 11
2.466999999999992
 21
0.0000000000000086
 31
0.0
210
0.0
220
0.0
230
1.0
 40
0.5758617009853119
 41
0.0000000000000005
 42
6.283185307179586
  0
ELLIPSE
  5
2F0
330
23
100
AcDbEntity
  8
Sichtbar (ISO)
100
AcDbEllipse
 10
53.13531628308249
 20
75.78659198549603
 30
0.0
 11
-2.066999999999993
 21
-0.0000000000000071
 31
0.0
210
0.0
220
0.0
230
1.0
 40
0.5758617009853121
 41
2.453371303060126
 42
6.971406657709255
  0
ELLIPSE
  5
2F1
330
23
100
AcDbEntity
  8
Sichtbar schmal (ISO)
100
AcDbEllipse
 10
29.7831148344
 20
52.5455921278236
 30
0.0
 11
-0.4988069957184379
 21
-0.0345192847886202
 31
0.0
210
0.0
220
0.0
230
1.0
 40
0.5258645152412357
 41
0.0000000000001295
 42
0.7472923436715537
  0
LINE
  5
2F2
330
23
100
AcDbEntity
  8
Sichtbar schmal (ISO)
100
AcDbLine
 10
29.42956144380681
 20
52.3419942709274
 30
0.0
 11
29.19975173992114
 21
55.66276666479575
 31
0.0
  0
ELLIPSE
  5
2F3
330
23
100
AcDbEntity
  8
Sichtbar schmal (ISO)
100
AcDbEllipse
 10
29.55330513051439
 20
55.86636452169196
 30
0.0
 11
-0.4988069957185006
 21
-0.0345192847886287
 31
0.0
210
0.0
220
0.0
230
1.0
 40
0.5258645152412346
 41
0.0
 42
0.7472923436714077
  0
ELLIPSE
  5
2F4
330
23
100
AcDbEntity
  8
Sichtbar schmal (ISO)
100
AcDbEllipse
 10
29.55330513051436
 20
55.86636452169195
 30
0.0
 11
-0.2495161057920669
 21
-0.4332917180726563
 31
0.0
210
0.0
220
0.0
230
1.0
 40
0.5780931159156429
 41
4.272125816824166
 42
5.495853435358982
  0
LINE
  5
2F5
330
23
100
AcDbEntity
  8
Sichtbar schmal (ISO)
100
AcDbLine
 10
29.19975173992114
 20
55.66276666479575
 30
0.0
 11
31.92211284748975
 21
54.09506316669551
 31
0.0
  0
ELLIPSE
  5
2F6
330
23
100
AcDbEntity
  8
Sichtbar schmal (ISO)
100
AcDbEllipse
 10
32.27566623808297
 20
54.2986610235917
 30
0.0
 11
0.2495161057921179
 21
0.433291718072625
 31
0.0
210
0.0
220
0.0
230
1.0
 40
0.5780931159156428
 41
1.130533163234586
 42
2.354260781769582
  0
ELLIPSE
  5
2F7
330
23
100
AcDbEntity
  8
Sichtbar schmal (ISO)
100
AcDbEllipse
 10
32.27566623808298
 20
54.2986610235917
 30
0.0
 11
-0.498592313603522
 21
0.0374927301683736
 31
0.0
210
0.0
220
0.0
230
1.0
 40
0.6218805556639485
 41
0.8303976694590771
 42
2.056485014970466
  0
LINE
  5
2F8
330
23
100
AcDbEntity
  8
Sichtbar schmal (ISO)
100
AcDbLine
 10
31.92211284748975
 20
54.09506316669551
 30
0.0
 11
31.6923031436041
 21
51.03896798679214
 31
0.0
  0
ELLIPSE
  5
2F9
330
23
100
AcDbEntity
  8
Sichtbar schmal (ISO)
100
AcDbEllipse
 10
32.04585653419733
 20
51.24256584368833
 30
0.0
 11
0.4985923136035435
 21
-0.0374927301683103
 31
0.0
210
0.0
220
0.0
230
0.9999999999999998
 40
0.6218805556639501
 41
3.971990323048563
 42
5.542786649843435
  0
LINE
  5
2FA
330
23
100
AcDbEntity
  8
Sichtbar schmal (ISO)
100
AcDbLine
 10
32.39818866590621
 20
51.00572446636795
 30
0.0
 11
32.487798272439
 21
52.197386445682
 31
0.0
  0
ELLIPSE
  5
2FB
330
23
100
AcDbEntity
  8
Sichtbar schmal (ISO)
100
AcDbEllipse
 10
32.04585653419733
 20
51.24256584368833
 30
0.0
 11
-0.2495161057920923
 21
-0.4332917180726501
 31
0.0
210
0.0
220
0.0
230
1.0
 40
0.5780931159156431
 41
5.495853435359077
 42
6.283185307179547
  0
LINE
  5
2FC
330
23
100
AcDbEntity
  8
Sichtbar schmal (ISO)
100
AcDbLine
 10
31.6923031436041
 20
51.03896798679214
 30
0.0
 11
29.42956144380681
 21
52.3419942709274
 31
0.0
  0
ELLIPSE
  5
2FD
330
23
100
AcDbEntity
  8
Sichtbar schmal (ISO)
100
AcDbEllipse
 10
29.78311483440003
 20
52.54559212782361
 30
0.0
 11
-0.2495161057920941
 21
-0.4332917180726439
 31
0.0
210
0.0
220
0.0
230
1.0
 40
0.578093115915643
 41
5.49585343535911
 42
6.283185307179594
  0
ELLIPSE
  5
2FE
330
23
100
AcDbEntity
  8
Sichtbar schmal (ISO)
100
AcDbEllipse
 10
32.04585653419733
 20
51.24256584368833
 30
0.0
 11
0.2495161057922019
 21
-0.4332917180725859
 31
0.0
210
0.0
220
0.0
230
1.0
 40
0.5780931159158076
 41
0.0000000000001065
 42
0.7041906399319822
  0
LINE
  5
2FF
330
23
100
AcDbEntity
  8
Sichtbar (ISO)
100
AcDbLine
 10
29.28430783868157
 20
52.51107284303497
 30
0.0
 11
29.05449813479589
 21
55.83184523690333
 31
0.0
  0
LINE
  5
300
330
23
100
AcDbEntity
  8
Sichtbar (ISO)
100
AcDbLine
 10
31.79634042840523
 20
50.80927412561568
 30
0.0
 11
29.53359872860794
 21
52.11230040975095
 31
0.0
  0
ARC
  5
301
330
23
100
AcDbEntity
  8
Sichtbar (ISO)
100
AcDbCircle
 10
32.04585653419733
 20
51.24256584368833
 30
0.0
 40
0.4999999999999992
100
AcDbArc
 50
240.064007737515
 51
299.9359922625006
  0
ARC
  5
302
330
23
100
AcDbEntity
  8
Sichtbar (ISO)
100
AcDbCircle
 10
29.55330513051436
 20
55.86636452169195
 30
0.0
 40
0.5000000000000008
100
AcDbArc
 50
124.8387865904234
 51
183.9587677127336
  0
ARC
  5
303
330
23
100
AcDbEntity
  8
Sichtbar (ISO)
100
AcDbCircle
 10
29.78311483440003
 20
52.54559212782361
 30
0.0
 40
0.4999999999999999
100
AcDbArc
 50
183.9587677127336
 51
240.064007737514
  0
LINE
  5
304
330
23
100
AcDbEntity
  8
Sichtbar schmal (ISO)
100
AcDbLine
 10
32.39818866590621
 20
51.00572446636795
 30
0.0
 11
32.48779827243902
 21
51.05732720681057
 31
0.0
  0
LINE
  5
305
330
23
100
AcDbEntity
  8
Sichtbar (ISO)
100
AcDbLine
 10
32.48779827243902
 20
50.92008467763132
 30
0.0
 11
32.29537263998953
 21
50.80927412561575
 31
0.0
  0
LINE
  5
306
330
23
100
AcDbEntity
  8
Sichtbar (ISO)
100
AcDbLine
 10
31.94524113843586
 20
50.75279391499522
 30
0.0
 11
32.2933439076127
 21
18.27411021766746
 31
0.0
  0
LINE
  5
307
330
23
100
AcDbEntity
  8
Sichtbar (ISO)
100
AcDbLine
 10
76.91178180047741
 20
43.96815975796756
 30
0.0
 11
32.2933439076127
 21
18.27411021766746
 31
0.0
  0
LINE
  5
308
330
23
100
AcDbEntity
  8
Sichtbar (ISO)
100
AcDbLine
 10
76.91178180047741
 20
43.96815975796756
 30
0.0
 11
76.60792982222893
 21
72.31815627099701
 31
0.0
  0
LINE
  5
309
330
23
100
AcDbEntity
  8
Sichtbar (ISO)
100
AcDbLine
 10
32.2933439076127
 20
18.27411021766746
 30
0.0
 11
30.17202356405274
 21
19.49569735904429
 31
0.0
  0
LINE
  5
30A
330
23
100
AcDbEntity
  8
Sichtbar (ISO)
100
AcDbLine
 10
30.17202356405274
 20
19.49569735904428
 30
0.0
 11
30.51981071557432
 21
51.54437869740458
 31
0.0
  0
ELLIPSE
  5
30B
330
23
100
AcDbEntity
  8
Sichtbar (ISO)
100
AcDbEllipse
 10
76.91237163095898
 20
56.42493728197731
 30
0.0
 11
-1.359985437485097
 21
-0.632802978681856
 31
0.0
210
0.0
220
0.0
230
1.0
 40
0.7896898820937287
 41
1.218666740264481
 42
2.004064903661927
  0
ELLIPSE
  5
30C
330
23
100
AcDbEntity
  8
Sichtbar (ISO)
100
AcDbEllipse
 10
85.46407147555646
 20
84.50216281265362
 30
0.0
 11
1.359985437485024
 21
0.6328029786820263
 31
0.0
210
0.0
220
0.0
230
1.0
 40
0.789689882093727
 41
0.0
 42
1.218666740264341
  0
ELLIPSE
  5
30D
330
23
100
AcDbEntity
  8
Sichtbar (ISO)
100
AcDbEllipse
 10
26.98827572354339
 20
27.67556249257071
 30
0.0
 11
-0.2287454341410092
 21
-1.482455910426929
 31
0.0
210
0.0
220
0.0
230
1.0
 40
0.2115967661779472
 41
6.127859216668724
 42
6.913257380066171
  0
LINE
  5
30E
330
23
100
AcDbEntity
  8
Sichtbar schmal (ISO)
100
AcDbLine
 10
26.71375667070521
 20
26.21844153423772
 30
0.0
 11
25.74783084441607
 21
26.36748550979778
 31
0.0
  0
ELLIPSE
  5
30F
330
23
100
AcDbEntity
  8
Sichtbar (ISO)
100
AcDbEllipse
 10
26.0223498972546
 20
27.82460646813027
 30
0.0
 11
-0.2287454341413818
 21
-1.482455910426428
 31
0.0
210
0.0
220
0.0
230
1.0
 40
0.2115967661779651
 41
6.127859216668771
 42
6.283185307179693
  0
ELLIPSE
  5
310
330
23
100
AcDbEntity
  8
Sichtbar (ISO)
100
AcDbEllipse
 10
23.66157847586113
 20
30.20807529538945
 30
0.0
 11
-0.2287454341410006
 21
-1.482455910426978
 31
0.0
210
0.0
220
0.0
230
1.0
 40
0.2115967661779302
 41
5.342461053271282
 42
6.127859216668699
  0
ELLIPSE
  5
311
330
23
100
AcDbEntity
  8
Sichtbar (ISO)
100
AcDbEllipse
 10
23.66157847586114
 20
48.91247406870578
 30
0.0
 11
-0.228745434140994
 21
-1.482455910426927
 31
0.0
210
0.0
220
0.0
230
1.0
 40
0.211596766177939
 41
3.771664726473471
 42
5.34246105326907
  0
ELLIPSE
  5
312
330
23
100
AcDbEntity
  8
Sichtbar (ISO)
100
AcDbEllipse
 10
85.72289052065913
 20
83.94592312330111
 30
0.0
 11
1.359985437485053
 21
0.6328029786819731
 31
0.0
210
0.0
220
0.0
230
1.0
 40
0.7896898820937284
 41
5.931055720649118
 42
7.501852047444002
  0
LINE
  5
313
330
23
100
AcDbEntity
  8
Sichtbar schmal (ISO)
100
AcDbLine
 10
85.46407147555648
 20
85.72848349991742
 30
0.0
 11
85.72289052065913
 21
85.17224381056493
 31
0.0
  0
ELLIPSE
  5
314
330
23
100
AcDbEntity
  8
Sichtbar (ISO)
100
AcDbEllipse
 10
85.72289052065919
 20
65.24152434998471
 30
0.0
 11
1.359985437484994
 21
0.6328029786819923
 31
0.0
210
0.0
220
0.0
230
1.0
 40
0.7896898820937185
 41
5.145657557251636
 42
5.931055720649099
  0
LINE
  5
315
330
23
100
AcDbEntity
  8
Sichtbar schmal (ISO)
100
AcDbLine
 10
23.27334990820757
 20
48.07811453467701
 30
0.0
 11
24.23927573449672
 21
47.92907055911697
 31
0.0
  0
ELLIPSE
  5
316
330
23
100
AcDbEntity
  8
Sichtbar (ISO)
100
AcDbEllipse
 10
24.62750430215029
 20
48.76343009314573
 30
0.0
 11
0.2287454341410612
 21
1.482455910426917
 31
0.0
210
0.0
220
0.0
230
0.9999999999999998
 40
0.2115967661779412
 41
0.6300720728888019
 42
2.200868399682986
  0
LINE
  5
317
330
23
100
AcDbEntity
  8
Sichtbar schmal (ISO)
100
AcDbLine
 10
24.6275043021503
 20
49.98975078040953
 30
0.0
 11
23.66157847586116
 21
50.13879475596959
 31
0.0
  0
LINE
  5
318
330
23
100
AcDbEntity
  8
Sichtbar schmal (ISO)
100
AcDbLine
 10
24.23927573449671
 20
29.22467178580057
 30
0.0
 11
23.27334990820757
 21
29.37371576136062
 31
0.0
  0
LINE
  5
319
330
23
100
AcDbEntity
  8
Sichtbar schmal (ISO)
100
AcDbLine
 10
23.38705942302296
 20
28.75095433705642
 30
0.0
 11
24.35298524931211
 21
28.60191036149636
 31
0.0
  0
ELLIPSE
  5
31A
330
23
100
AcDbEntity
  8
Sichtbar (ISO)
100
AcDbEllipse
 10
24.62750430215028
 20
30.0590313198294
 30
0.0
 11
-0.2287454341410105
 21
-1.48245591042698
 31
0.0
210
0.0
220
0.0
230
1.0
 40
0.2115967661779322
 41
5.342461053271284
 42
6.127859216668705
  0
LINE
  5
31B
330
23
100
AcDbEntity
  8
Sichtbar (ISO)
100
AcDbLine
 10
25.79360446311325
 20
26.34215055770383
 30
0.0
 11
26.75953028940238
 21
26.19310658214378
 31
0.0
  0
LINE
  5
31C
330
23
100
AcDbEntity
  8
Sichtbar (ISO)
100
AcDbLine
 10
86.82405691304147
 20
85.13496579133562
 30
0.0
 11
87.08287595814416
 21
84.57872610198315
 31
0.0
  0
LINE
  5
31D
330
23
100
AcDbEntity
  8
Sichtbar (ISO)
100
AcDbLine
 10
80.50034871500045
 20
84.96257275017146
 30
0.0
 11
85.46407147555646
 21
85.72848349991742
 31
0.0
  0
LINE
  5
31E
330
23
100
AcDbEntity
  8
Sichtbar (ISO)
100
AcDbLine
 10
76.79161477134858
 20
55.17998360867807
 30
0.0
 11
76.91237163095898
 21
55.1986165947135
 31
0.0
  0
LINE
  5
31F
330
23
100
AcDbEntity
  8
Sichtbar (ISO)
100
AcDbLine
 10
27.07843139636078
 20
26.64299943014267
 30
0.0
 11
30.26952660104469
 21
28.48062894271855
 31
0.0
  0
LINE
  5
320
330
23
100
AcDbEntity
  8
Sichtbar (ISO)
100
AcDbLine
 10
26.9882757235434
 20
26.44924180530688
 30
0.0
 11
27.07843139636079
 21
26.64299943014267
 31
0.0
  0
LINE
  5
321
330
23
100
AcDbEntity
  8
Sichtbar (ISO)
100
AcDbLine
 10
23.27334990820757
 20
29.37371576136062
 30
0.0
 11
23.27334990820757
 21
48.07811453467701
 31
0.0
  0
LINE
  5
322
330
23
100
AcDbEntity
  8
Sichtbar (ISO)
100
AcDbLine
 10
23.66157847586116
 20
50.13879475596959
 30
0.0
 11
26.18185592419262
 21
55.55523675075186
 31
0.0
  0
LINE
  5
323
330
23
100
AcDbEntity
  8
Sichtbar (ISO)
100
AcDbLine
 10
87.17177926009274
 20
65.46509031332506
 30
0.0
 11
87.17177926009274
 21
84.16948908664146
 31
0.0
  0
LINE
  5
324
330
23
100
AcDbEntity
  8
Sichtbar (ISO)
100
AcDbLine
 10
85.72289052065913
 20
85.17224381056493
 30
0.0
 11
80.50034871500045
 21
84.36639684793091
 31
0.0
  0
LINE
  5
325
330
23
100
AcDbEntity
  8
Sichtbar (ISO)
100
AcDbLine
 10
24.23927573449671
 20
29.22467178580057
 30
0.0
 11
24.23927573449672
 21
47.92907055911697
 31
0.0
  0
LINE
  5
326
330
23
100
AcDbEntity
  8
Sichtbar (ISO)
100
AcDbLine
 10
27.07843139636078
 20
26.64299943014267
 30
0.0
 11
27.07843139636078
 21
55.25714879963167
 31
0.0
  0
LINE
  5
327
330
23
100
AcDbEntity
  8
Sichtbar (ISO)
100
AcDbLine
 10
27.07843139636079
 20
55.25714879963167
 30
0.0
 11
24.6275043021503
 21
49.98975078040953
 31
0.0
  0
LINE
  5
328
330
23
100
AcDbEntity
  8
Sichtbar (ISO)
100
AcDbLine
 10
26.18185592419262
 20
55.55523675075186
 30
0.0
 11
28.35122360249611
 21
56.80449251204264
 31
0.0
  0
LINE
  5
329
330
23
100
AcDbEntity
  8
Sichtbar (ISO)
100
AcDbLine
 10
29.05833038368278
 20
56.39729679825034
 30
0.0
 11
27.07843139636079
 21
55.25714879963167
 31
0.0
  0
LINE
  5
32A
330
23
100
AcDbEntity
  8
Sichtbar (ISO)
100
AcDbLine
 10
23.38705942302296
 20
28.75095433705642
 30
0.0
 11
25.74783084441607
 21
26.36748550979778
 31
0.0
  0
LINE
  5
32B
330
23
100
AcDbEntity
  8
Sichtbar (ISO)
100
AcDbLine
 10
86.74740957349747
 20
64.5324696848316
 30
0.0
 11
77.93689068379731
 21
55.71588261682418
 31
0.0
  0
LINE
  5
32C
330
23
100
AcDbEntity
  8
Sichtbar (ISO)
100
AcDbLine
 10
26.71375667070521
 20
26.21844153423772
 30
0.0
 11
24.35298524931211
 21
28.60191036149636
 31
0.0
  0
DIMENSION
  5
32D
330
23
100
AcDbEntity
  8
Bemaßung (ISO)
100
AcDbDimension
  2
*D14
 10
121.2464557035701
 20
123.9447768871603
 30
0.0
 11
76.24645570356839
 21
123.9447768871603
 31
0.0
 70
   160
  1
<>
 42
90.0000000000036
  3
Standard (DIN)
100
AcDbAlignedDimension
 13
31.24645570356656
 23
111.5285613893009
 33
0.0
 14
121.2464557035701
 24
111.5285613893274
 34
0.0
 50
180.0
100
AcDbRotatedDimension
1001
ACAD
1000
DSTYLE
1002
{
1070
   271
1070
     2
1070
   272
1070
     2
1070
    47
1040
0.0
1070
    48
1040
0.0
1002
}
  0
DIMENSION
  5
3E9
330
23
100
AcDbEntity
  8
Bemaßung (ISO)
100
AcDbDimension
  2
*D15
 10
98.7464557036092
 20
192.5460362459801
 30
0.0
 11
76.24645570360931
 21
192.5460362459801
 31
0.0
 70
   160
  1
<>
 42
44.99999999999979
  3
Standard (DIN)
100
AcDbAlignedDimension
 13
53.7464557036094
 23
184.2216438652595
 33
0.0
 14
98.7464557036092
 24
186.2216438652595
 34
0.0
 50
180.0
100
AcDbRotatedDimension
1001
ACAD
1000
DSTYLE
1002
{
1070
   271
1070
     2
1070
   272
1070
     2
1070
    47
1040
0.0
1070
    48
1040
0.0
1002
}
  0
DIMENSION
  5
4A9
330
23
100
AcDbEntity
  8
Bemaßung (ISO)
100
AcDbDimension
  2
*D16
 10
49.23244538839
 20
181.2631438652595
 30
0.0
 11
49.23244538839
 21
183.7631438652595
 31
0.0
 70
   160
  1
<>
 42
4.999999999999943
  3
Standard (DIN)
100
AcDbAlignedDimension
 13
44.0464557036093
 23
186.2631438652595
 33
0.0
 14
50.78795570360941
 24
181.2631438652595
 34
0.0
 50
90.0
100
AcDbRotatedDimension
1001
ACAD
1000
DSTYLE
1002
{
1070
   279
1070
     1
1070
   271
1070
     2
1070
    75
1070
     1
1070
   272
1070
     2
1070
    47
1040
0.0
1070
    48
1040
0.0
1002
}
  0
DIMENSION
  5
584
330
23
100
AcDbEntity
  8
Bemaßung (ISO)
100
AcDbDimension
  2
*D17
 10
147.3249623439903
 20
191.8102204051608
 30
0.0
 11
140.8249623439903
 21
191.8102204051608
 31
0.0
 70
   160
  1
<>
 42
12.99999999999997
  3
Standard (DIN)
100
AcDbAlignedDimension
 13
134.3249623439903
 23
185.9631438652595
 33
0.0
 14
147.3249623439903
 24
185.9631438652595
 34
0.0
 50
180.0000000000001
100
AcDbRotatedDimension
1001
ACAD
1000
DSTYLE
1002
{
1070
   271
1070
     2
1070
   272
1070
     2
1070
    47
1040
0.0
1070
    48
1040
0.0
1002
}
  0
LINE
  5
644
330
23
100
AcDbEntity
  8
Mittelpunktmarkierung (ISO)
  6
CHAIN
 48
12.13095092773437
100
AcDbLine
 10
242.1769465337411
 20
181.2631438652595
 30
0.0
 11
231.2599465337411
 21
181.2631438652595
 31
0.0
  0
LINE
  5
645
330
23
100
AcDbEntity
  8
Mittelpunktmarkierung (ISO)
  6
CHAIN
 48
12.13095092773437
100
AcDbLine
 10
236.7184465337411
 20
186.7216438652595
 30
0.0
 11
236.7184465337411
 21
175.8046438652595
 31
0.0
  0
LINE
  5
646
330
23
100
AcDbEntity
  8
Mittelpunktmarkierung (ISO)
  6
CHAIN
 48
10.04743766784668
100
AcDbLine
 10
218.7394465337411
 20
174.2631438652595
 30
0.0
 11
209.6974465337411
 21
174.2631438652595
 31
0.0
  0
LINE
  5
647
330
23
100
AcDbEntity
  8
Mittelpunktmarkierung (ISO)
  6
CHAIN
 48
10.04743766784668
100
AcDbLine
 10
214.2184465337411
 20
178.7841438652595
 30
0.0
 11
214.2184465337411
 21
169.7421438652596
 31
0.0
  0
LINE
  5
648
330
23
100
AcDbEntity
  8
Mittelpunktmarkierung (ISO)
  6
CHAIN
 48
12.13095092773437
100
AcDbLine
 10
197.1769465337411
 20
181.2631438652595
 30
0.0
 11
186.2599465337411
 21
181.2631438652595
 31
0.0
  0
LINE
  5
649
330
23
100
AcDbEntity
  8
Mittelpunktmarkierung (ISO)
  6
CHAIN
 48
12.13095092773437
100
AcDbLine
 10
191.7184465337411
 20
186.7216438652595
 30
0.0
 11
191.7184465337411
 21
175.8046438652595
 31
0.0
  0
LINE
  5
64A
330
23
100
AcDbEntity
  8
Mittelpunktmarkierung (ISO)
  6
CHAIN
 48
10.04743766784668
100
AcDbLine
 10
241.239446533741
 20
174.2631438652595
 30
0.0
 11
232.1974465337411
 21
174.2631438652595
 31
0.0
  0
LINE
  5
64B
330
23
100
AcDbEntity
  8
Mittelpunktmarkierung (ISO)
  6
CHAIN
 48
10.04743766784668
100
AcDbLine
 10
236.7184465337411
 20
178.7841438652595
 30
0.0
 11
236.7184465337411
 21
169.7421438652596
 31
0.0
  0
LINE
  5
64C
330
23
100
AcDbEntity
  8
Mittelpunktmarkierung (ISO)
  6
CHAIN
 48
10.04743766784668
100
AcDbLine
 10
196.2394465337411
 20
174.2631438652595
 30
0.0
 11
187.1974465337411
 21
174.2631438652595
 31
0.0
  0
LINE
  5
64D
330
23
100
AcDbEntity
  8
Mittelpunktmarkierung (ISO)
  6
CHAIN
 48
10.04743766784668
100
AcDbLine
 10
191.7184465337411
 20
178.7841438652595
 30
0.0
 11
191.7184465337411
 21
169.7421438652596
 31
0.0
  0
DIMENSION
  5
64E
330
23
100
AcDbEntity
  8
Bemaßung (ISO)
100
AcDbDimension
  2
*D18
 10
62.17986740622148
 20
178.2631438652594
 30
0.0
 11
62.17986740622148
 21
181.2631438652594
 31
0.0
 70
   160
  1
M<>
 42
6.0
  3
Standard (DIN)
100
AcDbAlignedDimension
 13
53.74645570360939
 23
184.2631438652594
 33
0.0
 14
53.74645570360939
 24
178.2631438652594
 34
0.0
 50
90.0
100
AcDbRotatedDimension
1001
ACAD
1000
DSTYLE
1002
{
1070
   279
1070
     1
1070
   271
1070
     2
1070
   272
1070
     2
1070
    47
1040
0.0
1070
    48
1040
0.0
1002
}
  0
DIMENSION
  5
730
330
23
100
AcDbEntity
  8
Bemaßung (ISO)
100
AcDbDimension
  2
*D19
 10
246.7184465337411
 20
191.8537825021894
 30
0.0
 11
214.2184465337412
 21
191.8537825021894
 31
0.0
 70
   160
  1
<>
 42
64.99999999999992
  3
Standard (DIN)
100
AcDbAlignedDimension
 13
181.7184465337412
 23
185.9631438652595
 33
0.0
 14
246.7184465337411
 24
185.9631438652595
 34
0.0
 50
179.9999999999998
100
AcDbRotatedDimension
1001
ACAD
1000
DSTYLE
1002
{
1070
   271
1070
     2
1070
   272
1070
     2
1070
    47
1040
0.0
1070
    48
1040
0.0
1002
}
  0
DIMENSION
  5
7F0
330
23
100
AcDbEntity
  8
Bemaßung (ISO)
100
AcDbDimension
  2
*D20
 10
163.9811017080231
 20
132.2631438652601
 30
0.0
 11
163.9811017080231
 21
159.2631438652598
 31
0.0
 70
   160
  1
<>
 42
53.99999999999938
  3
Standard (DIN)
100
AcDbAlignedDimension
 13
182.0184465337412
 23
186.2631438652595
 33
0.0
 14
182.6684465337424
 24
132.2631438652601
 34
0.0
 50
90.00000000000003
100
AcDbRotatedDimension
1001
ACAD
1000
DSTYLE
1002
{
1070
   279
1070
     1
1070
   271
1070
     2
1070
   272
1070
     2
1070
    47
1040
0.0
1070
    48
1040
0.0
1002
}
  0
DIMENSION
  5
8C2
330
23
100
AcDbEntity
  8
Bemaßung (ISO)
100
AcDbDimension
  2
*D21
 10
73.7794557035674
 20
110.5496954350985
 30
0.0
 11
87.42606006918812
 21
110.5496954350985
 31
0.0
 70
   160
  1
 \fArial|b1|i0;\H4.0000;M
 42
4.966999999999984
  3
Standard (DIN)
100
AcDbAlignedDimension
 13
78.74645570356739
 23
114.2973635428345
 33
0.0
 14
73.7794557035674
 24
114.2973635428345
 34
0.0
 50
180.0
100
AcDbRotatedDimension
1001
ACAD
1000
DSTYLE
1002
{
1070
   271
1070
     2
1070
   272
1070
     2
1070
    47
1040
0.0
1070
    48
1040
0.0
1002
}
  0
LINE
  5
98F
330
23
100
AcDbEntity
  8
Mittelpunktmarkierung (ISO)
  6
CHAIN
 48
11.11197376251221
100
AcDbLine
 10
81.2464557035674
 20
114.2973635428345
 30
0.0
 11
71.24645570356739
 21
114.2973635428345
 31
0.0
  0
LINE
  5
990
330
23
100
AcDbEntity
  8
Mittelpunktmarkierung (ISO)
  6
CHAIN
 48
11.11197376251221
100
AcDbLine
 10
76.24645570356739
 20
119.2973635428345
 30
0.0
 11
76.24645570356739
 21
109.2973635428345
 31
0.0
  0
LINE
  5
991
330
23
100
AcDbEntity
  8
Mittelpunktmarkierung (ISO)
  6
CHAIN
 48
11.01974391937256
100
AcDbLine
 10
103.7049557036092
 20
181.2631438652595
 30
0.0
 11
93.78795570360921
 21
181.2631438652595
 31
0.0
  0
LINE
  5
992
330
23
100
AcDbEntity
  8
Mittelpunktmarkierung (ISO)
  6
CHAIN
 48
11.01974391937256
100
AcDbLine
 10
98.7464557036092
 20
186.2216438652595
 30
0.0
 11
98.7464557036092
 21
176.3046438652596
 31
0.0
  0
LINE
  5
993
330
23
100
AcDbEntity
  8
Skizziergeometrie (ISO)
100
AcDbLine
 10
44.71302288612061
 20
132.2582314815868
 30
0.0
 11
46.21302288612063
 21
132.2582314815868
 31
0.0
  0
LINE
  5
994
330
23
100
AcDbEntity
  8
Skizziergeometrie (ISO)
100
AcDbLine
 10
46.21302288612063
 20
132.2582314815868
 30
0.0
 11
46.21302288612063
 21
171.2582314815868
 31
0.0
  0
LINE
  5
995
330
23
100
AcDbEntity
  8
Skizziergeometrie (ISO)
100
AcDbLine
 10
46.21302288612063
 20
171.2582314815868
 30
0.0
 11
44.71302288612061
 21
171.2582314815868
 31
0.0
  0
LINE
  5
996
330
23
100
AcDbEntity
  8
Skizziergeometrie (ISO)
100
AcDbLine
 10
44.71302288612061
 20
171.2582314815868
 30
0.0
 11
44.71302288612061
 21
132.2582314815868
 31
0.0
  0
LINE
  5
997
330
23
100
AcDbEntity
  8
Skizziergeometrie (ISO)
100
AcDbLine
 10
47.71302288612062
 20
171.2582314815868
 30
0.0
 11
46.21302288612063
 21
171.2582314815868
 31
0.0
  0
LINE
  5
998
330
23
100
AcDbEntity
  8
Skizziergeometrie (ISO)
100
AcDbLine
 10
46.21302288612063
 20
171.2582314815868
 30
0.0
 11
46.21302288612063
 21
132.2582314815868
 31
0.0
  0
LINE
  5
999
330
23
100
AcDbEntity
  8
Skizziergeometrie (ISO)
100
AcDbLine
 10
46.21302288612063
 20
132.2582314815868
 30
0.0
 11
47.71302288612063
 21
132.2582314815868
 31
0.0
  0
LINE
  5
99A
330
23
100
AcDbEntity
  8
Skizziergeometrie (ISO)
100
AcDbLine
 10
47.71302288612063
 20
132.2582314815868
 30
0.0
 11
47.71302288612062
 21
171.2582314815868
 31
0.0
  0
LINE
  5
99B
330
23
100
AcDbEntity
  8
Skizziergeometrie (ISO)
100
AcDbLine
 10
49.21302288612062
 20
171.2582314815868
 30
0.0
 11
47.71302288612062
 21
171.2582314815868
 31
0.0
  0
LINE
  5
99C
330
23
100
AcDbEntity
  8
Skizziergeometrie (ISO)
100
AcDbLine
 10
47.71302288612062
 20
171.2582314815868
 30
0.0
 11
47.71302288612063
 21
132.2582314815868
 31
0.0
  0
LINE
  5
99D
330
23
100
AcDbEntity
  8
Skizziergeometrie (ISO)
100
AcDbLine
 10
47.71302288612063
 20
132.2582314815868
 30
0.0
 11
49.21302288612064
 21
132.2582314815868
 31
0.0
  0
LINE
  5
99E
330
23
100
AcDbEntity
  8
Skizziergeometrie (ISO)
100
AcDbLine
 10
49.21302288612064
 20
132.2582314815868
 30
0.0
 11
49.21302288612062
 21
171.2582314815868
 31
0.0
  0
LINE
  5
99F
330
23
100
AcDbEntity
  8
Skizziergeometrie (ISO)
100
AcDbLine
 10
50.71302288612063
 20
171.2582314815868
 30
0.0
 11
49.21302288612062
 21
171.2582314815868
 31
0.0
  0
LINE
  5
9A0
330
23
100
AcDbEntity
  8
Skizziergeometrie (ISO)
100
AcDbLine
 10
49.21302288612062
 20
171.2582314815868
 30
0.0
 11
49.21302288612064
 21
132.2582314815868
 31
0.0
  0
LINE
  5
9A1
330
23
100
AcDbEntity
  8
Skizziergeometrie (ISO)
100
AcDbLine
 10
49.21302288612064
 20
132.2582314815868
 30
0.0
 11
50.71302288612064
 21
132.2582314815868
 31
0.0
  0
LINE
  5
9A2
330
23
100
AcDbEntity
  8
Skizziergeometrie (ISO)
100
AcDbLine
 10
50.71302288612064
 20
132.2582314815868
 30
0.0
 11
50.71302288612063
 21
171.2582314815868
 31
0.0
  0
LINE
  5
9A3
330
23
100
AcDbEntity
  8
Skizziergeometrie (ISO)
100
AcDbLine
 10
52.21302288612064
 20
171.2582314815868
 30
0.0
 11
50.71302288612063
 21
171.2582314815868
 31
0.0
  0
LINE
  5
9A4
330
23
100
AcDbEntity
  8
Skizziergeometrie (ISO)
100
AcDbLine
 10
50.71302288612063
 20
171.2582314815868
 30
0.0
 11
50.71302288612064
 21
132.2582314815868
 31
0.0
  0
LINE
  5
9A5
330
23
100
AcDbEntity
  8
Skizziergeometrie (ISO)
100
AcDbLine
 10
50.71302288612064
 20
132.2582314815868
 30
0.0
 11
52.21302288612065
 21
132.2582314815868
 31
0.0
  0
LINE
  5
9A6
330
23
100
AcDbEntity
  8
Skizziergeometrie (ISO)
100
AcDbLine
 10
52.21302288612065
 20
132.2582314815868
 30
0.0
 11
52.21302288612064
 21
171.2582314815868
 31
0.0
  0
LINE
  5
9A7
330
23
100
AcDbEntity
  8
Skizziergeometrie (ISO)
100
AcDbLine
 10
53.71302288612064
 20
171.2582314815868
 30
0.0
 11
52.21302288612064
 21
171.2582314815868
 31
0.0
  0
LINE
  5
9A8
330
23
100
AcDbEntity
  8
Skizziergeometrie (ISO)
100
AcDbLine
 10
52.21302288612064
 20
171.2582314815868
 30
0.0
 11
52.21302288612065
 21
132.2582314815868
 31
0.0
  0
LINE
  5
9A9
330
23
100
AcDbEntity
  8
Skizziergeometrie (ISO)
100
AcDbLine
 10
52.21302288612065
 20
132.2582314815868
 30
0.0
 11
53.71302288612064
 21
132.2582314815868
 31
0.0
  0
LINE
  5
9AA
330
23
100
AcDbEntity
  8
Skizziergeometrie (ISO)
100
AcDbLine
 10
53.71302288612064
 20
132.2582314815868
 30
0.0
 11
53.71302288612064
 21
171.2582314815868
 31
0.0
  0
LINE
  5
9AB
330
23
100
AcDbEntity
  8
Skizziergeometrie (ISO)
100
AcDbLine
 10
55.21302288612064
 20
171.2582314815868
 30
0.0
 11
53.71302288612064
 21
171.2582314815868
 31
0.0
  0
LINE
  5
9AC
330
23
100
AcDbEntity
  8
Skizziergeometrie (ISO)
100
AcDbLine
 10
53.71302288612064
 20
171.2582314815868
 30
0.0
 11
53.71302288612064
 21
132.2582314815868
 31
0.0
  0
LINE
  5
9AD
330
23
100
AcDbEntity
  8
Skizziergeometrie (ISO)
100
AcDbLine
 10
53.71302288612064
 20
132.2582314815868
 30
0.0
 11
55.21302288612066
 21
132.2582314815868
 31
0.0
  0
LINE
  5
9AE
330
23
100
AcDbEntity
  8
Skizziergeometrie (ISO)
100
AcDbLine
 10
55.21302288612066
 20
132.2582314815868
 30
0.0
 11
55.21302288612064
 21
171.2582314815868
 31
0.0
  0
LINE
  5
9AF
330
23
100
AcDbEntity
  8
Skizziergeometrie (ISO)
100
AcDbLine
 10
56.71302288612064
 20
171.2582314815868
 30
0.0
 11
55.21302288612064
 21
171.2582314815868
 31
0.0
  0
LINE
  5
9B0
330
23
100
AcDbEntity
  8
Skizziergeometrie (ISO)
100
AcDbLine
 10
55.21302288612064
 20
171.2582314815868
 30
0.0
 11
55.21302288612066
 21
132.2582314815868
 31
0.0
  0
LINE
  5
9B1
330
23
100
AcDbEntity
  8
Skizziergeometrie (ISO)
100
AcDbLine
 10
55.21302288612066
 20
132.2582314815868
 30
0.0
 11
56.71302288612065
 21
132.2582314815868
 31
0.0
  0
LINE
  5
9B2
330
23
100
AcDbEntity
  8
Skizziergeometrie (ISO)
100
AcDbLine
 10
56.71302288612065
 20
132.2582314815868
 30
0.0
 11
56.71302288612064
 21
171.2582314815868
 31
0.0
  0
LINE
  5
9B3
330
23
100
AcDbEntity
  8
Skizziergeometrie (ISO)
100
AcDbLine
 10
58.21302288612066
 20
171.2582314815868
 30
0.0
 11
56.71302288612064
 21
171.2582314815868
 31
0.0
  0
LINE
  5
9B4
330
23
100
AcDbEntity
  8
Skizziergeometrie (ISO)
100
AcDbLine
 10
56.71302288612064
 20
171.2582314815868
 30
0.0
 11
56.71302288612065
 21
132.2582314815868
 31
0.0
  0
LINE
  5
9B5
330
23
100
AcDbEntity
  8
Skizziergeometrie (ISO)
100
AcDbLine
 10
56.71302288612065
 20
132.2582314815868
 30
0.0
 11
58.21302288612066
 21
132.2582314815868
 31
0.0
  0
LINE
  5
9B6
330
23
100
AcDbEntity
  8
Skizziergeometrie (ISO)
100
AcDbLine
 10
58.21302288612066
 20
132.2582314815868
 30
0.0
 11
58.21302288612066
 21
171.2582314815868
 31
0.0
  0
LINE
  5
9B7
330
23
100
AcDbEntity
  8
Skizziergeometrie (ISO)
100
AcDbLine
 10
59.71302288612065
 20
171.2582314815868
 30
0.0
 11
58.21302288612066
 21
171.2582314815868
 31
0.0
  0
LINE
  5
9B8
330
23
100
AcDbEntity
  8
Skizziergeometrie (ISO)
100
AcDbLine
 10
58.21302288612066
 20
171.2582314815868
 30
0.0
 11
58.21302288612066
 21
132.2582314815868
 31
0.0
  0
LINE
  5
9B9
330
23
100
AcDbEntity
  8
Skizziergeometrie (ISO)
100
AcDbLine
 10
58.21302288612066
 20
132.2582314815868
 30
0.0
 11
59.71302288612065
 21
132.2582314815868
 31
0.0
  0
LINE
  5
9BA
330
23
100
AcDbEntity
  8
Skizziergeometrie (ISO)
100
AcDbLine
 10
59.71302288612065
 20
132.2582314815868
 30
0.0
 11
59.71302288612065
 21
171.2582314815868
 31
0.0
  0
LINE
  5
9BB
330
23
100
AcDbEntity
  8
Skizziergeometrie (ISO)
100
AcDbLine
 10
61.21302288612065
 20
171.2582314815868
 30
0.0
 11
59.71302288612065
 21
171.2582314815868
 31
0.0
  0
LINE
  5
9BC
330
23
100
AcDbEntity
  8
Skizziergeometrie (ISO)
100
AcDbLine
 10
59.71302288612065
 20
171.2582314815868
 30
0.0
 11
59.71302288612065
 21
132.2582314815868
 31
0.0
  0
LINE
  5
9BD
330
23
100
AcDbEntity
  8
Skizziergeometrie (ISO)
100
AcDbLine
 10
59.71302288612065
 20
132.2582314815868
 30
0.0
 11
61.21302288612065
 21
132.2582314815868
 31
0.0
  0
LINE
  5
9BE
330
23
100
AcDbEntity
  8
Skizziergeometrie (ISO)
100
AcDbLine
 10
61.21302288612065
 20
132.2582314815868
 30
0.0
 11
61.21302288612065
 21
171.2582314815868
 31
0.0
  0
LINE
  5
9BF
330
23
100
AcDbEntity
  8
Skizziergeometrie (ISO)
100
AcDbLine
 10
62.71302288612066
 20
171.2582314815868
 30
0.0
 11
61.21302288612065
 21
171.2582314815868
 31
0.0
  0
LINE
  5
9C0
330
23
100
AcDbEntity
  8
Skizziergeometrie (ISO)
100
AcDbLine
 10
61.21302288612065
 20
171.2582314815868
 30
0.0
 11
61.21302288612065
 21
132.2582314815868
 31
0.0
  0
LINE
  5
9C1
330
23
100
AcDbEntity
  8
Skizziergeometrie (ISO)
100
AcDbLine
 10
61.21302288612065
 20
132.2582314815868
 30
0.0
 11
62.71302288612066
 21
132.2582314815868
 31
0.0
  0
LINE
  5
9C2
330
23
100
AcDbEntity
  8
Skizziergeometrie (ISO)
100
AcDbLine
 10
62.71302288612066
 20
132.2582314815868
 30
0.0
 11
62.71302288612066
 21
171.2582314815868
 31
0.0
  0
LINE
  5
9C3
330
23
100
AcDbEntity
  8
Skizziergeometrie (ISO)
100
AcDbLine
 10
64.21302288612067
 20
171.2582314815868
 30
0.0
 11
62.71302288612066
 21
171.2582314815868
 31
0.0
  0
LINE
  5
9C4
330
23
100
AcDbEntity
  8
Skizziergeometrie (ISO)
100
AcDbLine
 10
62.71302288612066
 20
171.2582314815868
 30
0.0
 11
62.71302288612066
 21
132.2582314815868
 31
0.0
  0
LINE
  5
9C5
330
23
100
AcDbEntity
  8
Skizziergeometrie (ISO)
100
AcDbLine
 10
62.71302288612066
 20
132.2582314815868
 30
0.0
 11
64.21302288612067
 21
132.2582314815868
 31
0.0
  0
LINE
  5
9C6
330
23
100
AcDbEntity
  8
Skizziergeometrie (ISO)
100
AcDbLine
 10
64.21302288612067
 20
132.2582314815868
 30
0.0
 11
64.21302288612067
 21
171.2582314815868
 31
0.0
  0
LINE
  5
9C7
330
23
100
AcDbEntity
  8
Skizziergeometrie (ISO)
100
AcDbLine
 10
65.71302288612066
 20
171.2582314815868
 30
0.0
 11
64.21302288612067
 21
171.2582314815868
 31
0.0
  0
LINE
  5
9C8
330
23
100
AcDbEntity
  8
Skizziergeometrie (ISO)
100
AcDbLine
 10
64.21302288612067
 20
171.2582314815868
 30
0.0
 11
64.21302288612067
 21
132.2582314815868
 31
0.0
  0
LINE
  5
9C9
330
23
100
AcDbEntity
  8
Skizziergeometrie (ISO)
100
AcDbLine
 10
64.21302288612067
 20
132.2582314815868
 30
0.0
 11
65.71302288612068
 21
132.2582314815868
 31
0.0
  0
LINE
  5
9CA
330
23
100
AcDbEntity
  8
Skizziergeometrie (ISO)
100
AcDbLine
 10
65.71302288612068
 20
132.2582314815868
 30
0.0
 11
65.71302288612066
 21
171.2582314815868
 31
0.0
  0
LINE
  5
9CB
330
23
100
AcDbEntity
  8
Skizziergeometrie (ISO)
100
AcDbLine
 10
65.71302288612066
 20
171.2582314815868
 30
0.0
 11
67.21302288612067
 21
171.2582314815868
 31
0.0
  0
LINE
  5
9CC
330
23
100
AcDbEntity
  8
Skizziergeometrie (ISO)
100
AcDbLine
 10
67.21302288612067
 20
171.2582314815868
 30
0.0
 11
67.21302288612067
 21
132.2582314815868
 31
0.0
  0
LINE
  5
9CD
330
23
100
AcDbEntity
  8
Skizziergeometrie (ISO)
100
AcDbLine
 10
67.21302288612067
 20
132.2582314815868
 30
0.0
 11
65.71302288612068
 21
132.2582314815868
 31
0.0
  0
LINE
  5
9CE
330
23
100
AcDbEntity
  8
Skizziergeometrie (ISO)
100
AcDbLine
 10
65.71302288612068
 20
132.2582314815868
 30
0.0
 11
65.71302288612066
 21
171.2582314815868
 31
0.0
  0
LINE
  5
9CF
330
23
100
AcDbEntity
  8
Skizziergeometrie (ISO)
100
AcDbLine
 10
68.71302288612067
 20
171.2582314815868
 30
0.0
 11
67.21302288612067
 21
171.2582314815868
 31
0.0
  0
LINE
  5
9D0
330
23
100
AcDbEntity
  8
Skizziergeometrie (ISO)
100
AcDbLine
 10
67.21302288612067
 20
171.2582314815868
 30
0.0
 11
67.21302288612067
 21
132.2582314815868
 31
0.0
  0
LINE
  5
9D1
330
23
100
AcDbEntity
  8
Skizziergeometrie (ISO)
100
AcDbLine
 10
67.21302288612067
 20
132.2582314815868
 30
0.0
 11
68.71302288612068
 21
132.2582314815868
 31
0.0
  0
LINE
  5
9D2
330
23
100
AcDbEntity
  8
Skizziergeometrie (ISO)
100
AcDbLine
 10
68.71302288612068
 20
132.2582314815868
 30
0.0
 11
68.71302288612067
 21
171.2582314815868
 31
0.0
  0
LINE
  5
9D3
330
23
100
AcDbEntity
  8
Skizziergeometrie (ISO)
100
AcDbLine
 10
70.21302288612067
 20
171.2582314815868
 30
0.0
 11
68.71302288612067
 21
171.2582314815868
 31
0.0
  0
LINE
  5
9D4
330
23
100
AcDbEntity
  8
Skizziergeometrie (ISO)
100
AcDbLine
 10
68.71302288612067
 20
171.2582314815868
 30
0.0
 11
68.71302288612068
 21
132.2582314815868
 31
0.0
  0
LINE
  5
9D5
330
23
100
AcDbEntity
  8
Skizziergeometrie (ISO)
100
AcDbLine
 10
68.71302288612068
 20
132.2582314815868
 30
0.0
 11
70.21302288612068
 21
132.2582314815868
 31
0.0
  0
LINE
  5
9D6
330
23
100
AcDbEntity
  8
Skizziergeometrie (ISO)
100
AcDbLine
 10
70.21302288612068
 20
132.2582314815868
 30
0.0
 11
70.21302288612067
 21
171.2582314815868
 31
0.0
  0
LINE
  5
9D7
330
23
100
AcDbEntity
  8
Skizziergeometrie (ISO)
100
AcDbLine
 10
71.71302288612067
 20
171.2582314815868
 30
0.0
 11
70.21302288612067
 21
171.2582314815868
 31
0.0
  0
LINE
  5
9D8
330
23
100
AcDbEntity
  8
Skizziergeometrie (ISO)
100
AcDbLine
 10
70.21302288612067
 20
171.2582314815868
 30
0.0
 11
70.21302288612068
 21
132.2582314815868
 31
0.0
  0
LINE
  5
9D9
330
23
100
AcDbEntity
  8
Skizziergeometrie (ISO)
100
AcDbLine
 10
70.21302288612068
 20
132.2582314815868
 30
0.0
 11
71.71302288612068
 21
132.2582314815868
 31
0.0
  0
LINE
  5
9DA
330
23
100
AcDbEntity
  8
Skizziergeometrie (ISO)
100
AcDbLine
 10
71.71302288612068
 20
132.2582314815868
 30
0.0
 11
71.71302288612067
 21
171.2582314815868
 31
0.0
  0
LINE
  5
9DB
330
23
100
AcDbEntity
  8
Skizziergeometrie (ISO)
100
AcDbLine
 10
73.21302288612068
 20
171.2582314815868
 30
0.0
 11
71.71302288612067
 21
171.2582314815868
 31
0.0
  0
LINE
  5
9DC
330
23
100
AcDbEntity
  8
Skizziergeometrie (ISO)
100
AcDbLine
 10
71.71302288612067
 20
171.2582314815868
 30
0.0
 11
71.71302288612068
 21
132.2582314815868
 31
0.0
  0
LINE
  5
9DD
330
23
100
AcDbEntity
  8
Skizziergeometrie (ISO)
100
AcDbLine
 10
71.71302288612068
 20
132.2582314815868
 30
0.0
 11
73.21302288612068
 21
132.2582314815868
 31
0.0
  0
LINE
  5
9DE
330
23
100
AcDbEntity
  8
Skizziergeometrie (ISO)
100
AcDbLine
 10
73.21302288612068
 20
132.2582314815868
 30
0.0
 11
73.21302288612068
 21
171.2582314815868
 31
0.0
  0
LINE
  5
9DF
330
23
100
AcDbEntity
  8
Skizziergeometrie (ISO)
100
AcDbLine
 10
73.21302288612068
 20
132.2582314815868
 30
0.0
 11
74.71302288612069
 21
132.2582314815868
 31
0.0
  0
LINE
  5
9E0
330
23
100
AcDbEntity
  8
Skizziergeometrie (ISO)
100
AcDbLine
 10
74.71302288612069
 20
132.2582314815868
 30
0.0
 11
74.71302288612069
 21
171.2582314815868
 31
0.0
  0
LINE
  5
9E1
330
23
100
AcDbEntity
  8
Skizziergeometrie (ISO)
100
AcDbLine
 10
74.71302288612069
 20
171.2582314815868
 30
0.0
 11
73.21302288612068
 21
171.2582314815868
 31
0.0
  0
LINE
  5
9E2
330
23
100
AcDbEntity
  8
Skizziergeometrie (ISO)
100
AcDbLine
 10
73.21302288612068
 20
171.2582314815868
 30
0.0
 11
73.21302288612068
 21
132.2582314815868
 31
0.0
  0
LINE
  5
9E3
330
23
100
AcDbEntity
  8
Skizziergeometrie (ISO)
100
AcDbLine
 10
76.21302288612068
 20
171.2582314815868
 30
0.0
 11
74.71302288612069
 21
171.2582314815868
 31
0.0
  0
LINE
  5
9E4
330
23
100
AcDbEntity
  8
Skizziergeometrie (ISO)
100
AcDbLine
 10
74.71302288612069
 20
171.2582314815868
 30
0.0
 11
74.71302288612069
 21
132.2582314815868
 31
0.0
  0
LINE
  5
9E5
330
23
100
AcDbEntity
  8
Skizziergeometrie (ISO)
100
AcDbLine
 10
74.71302288612069
 20
132.2582314815868
 30
0.0
 11
76.2130228861207
 21
132.2582314815868
 31
0.0
  0
LINE
  5
9E6
330
23
100
AcDbEntity
  8
Skizziergeometrie (ISO)
100
AcDbLine
 10
76.2130228861207
 20
132.2582314815868
 30
0.0
 11
76.21302288612068
 21
171.2582314815868
 31
0.0
  0
LINE
  5
9E7
330
23
100
AcDbEntity
  8
Skizziergeometrie (ISO)
100
AcDbLine
 10
77.71302288612068
 20
171.2582314815868
 30
0.0
 11
76.21302288612068
 21
171.2582314815868
 31
0.0
  0
LINE
  5
9E8
330
23
100
AcDbEntity
  8
Skizziergeometrie (ISO)
100
AcDbLine
 10
76.21302288612068
 20
171.2582314815868
 30
0.0
 11
76.2130228861207
 21
132.2582314815868
 31
0.0
  0
LINE
  5
9E9
330
23
100
AcDbEntity
  8
Skizziergeometrie (ISO)
100
AcDbLine
 10
76.2130228861207
 20
132.2582314815868
 30
0.0
 11
77.71302288612069
 21
132.2582314815868
 31
0.0
  0
LINE
  5
9EA
330
23
100
AcDbEntity
  8
Skizziergeometrie (ISO)
100
AcDbLine
 10
77.71302288612069
 20
132.2582314815868
 30
0.0
 11
77.71302288612068
 21
171.2582314815868
 31
0.0
  0
LINE
  5
9EB
330
23
100
AcDbEntity
  8
Skizziergeometrie (ISO)
100
AcDbLine
 10
79.2130228861207
 20
171.2582314815868
 30
0.0
 11
77.71302288612068
 21
171.2582314815868
 31
0.0
  0
LINE
  5
9EC
330
23
100
AcDbEntity
  8
Skizziergeometrie (ISO)
100
AcDbLine
 10
77.71302288612068
 20
171.2582314815868
 30
0.0
 11
77.71302288612069
 21
132.2582314815868
 31
0.0
  0
LINE
  5
9ED
330
23
100
AcDbEntity
  8
Skizziergeometrie (ISO)
100
AcDbLine
 10
77.71302288612069
 20
132.2582314815868
 30
0.0
 11
79.2130228861207
 21
132.2582314815868
 31
0.0
  0
LINE
  5
9EE
330
23
100
AcDbEntity
  8
Skizziergeometrie (ISO)
100
AcDbLine
 10
79.2130228861207
 20
132.2582314815868
 30
0.0
 11
79.2130228861207
 21
171.2582314815868
 31
0.0
  0
LINE
  5
9EF
330
23
100
AcDbEntity
  8
Skizziergeometrie (ISO)
100
AcDbLine
 10
80.71302288612068
 20
171.2582314815868
 30
0.0
 11
79.2130228861207
 21
171.2582314815868
 31
0.0
  0
LINE
  5
9F0
330
23
100
AcDbEntity
  8
Skizziergeometrie (ISO)
100
AcDbLine
 10
79.2130228861207
 20
171.2582314815868
 30
0.0
 11
79.2130228861207
 21
132.2582314815868
 31
0.0
  0
LINE
  5
9F1
330
23
100
AcDbEntity
  8
Skizziergeometrie (ISO)
100
AcDbLine
 10
79.2130228861207
 20
132.2582314815868
 30
0.0
 11
80.71302288612072
 21
132.2582314815868
 31
0.0
  0
LINE
  5
9F2
330
23
100
AcDbEntity
  8
Skizziergeometrie (ISO)
100
AcDbLine
 10
80.71302288612072
 20
132.2582314815868
 30
0.0
 11
80.71302288612068
 21
171.2582314815868
 31
0.0
  0
LINE
  5
9F3
330
23
100
AcDbEntity
  8
Skizziergeometrie (ISO)
100
AcDbLine
 10
82.21302288612069
 20
171.2582314815868
 30
0.0
 11
80.71302288612068
 21
171.2582314815868
 31
0.0
  0
LINE
  5
9F4
330
23
100
AcDbEntity
  8
Skizziergeometrie (ISO)
100
AcDbLine
 10
80.71302288612068
 20
171.2582314815868
 30
0.0
 11
80.71302288612072
 21
132.2582314815868
 31
0.0
  0
LINE
  5
9F5
330
23
100
AcDbEntity
  8
Skizziergeometrie (ISO)
100
AcDbLine
 10
80.71302288612072
 20
132.2582314815868
 30
0.0
 11
82.2130228861207
 21
132.2582314815868
 31
0.0
  0
LINE
  5
9F6
330
23
100
AcDbEntity
  8
Skizziergeometrie (ISO)
100
AcDbLine
 10
82.2130228861207
 20
132.2582314815868
 30
0.0
 11
82.21302288612069
 21
171.2582314815868
 31
0.0
  0
LINE
  5
9F7
330
23
100
AcDbEntity
  8
Skizziergeometrie (ISO)
100
AcDbLine
 10
83.71302288612069
 20
171.2582314815868
 30
0.0
 11
82.21302288612069
 21
171.2582314815868
 31
0.0
  0
LINE
  5
9F8
330
23
100
AcDbEntity
  8
Skizziergeometrie (ISO)
100
AcDbLine
 10
82.21302288612069
 20
171.2582314815868
 30
0.0
 11
82.2130228861207
 21
132.2582314815868
 31
0.0
  0
LINE
  5
9F9
330
23
100
AcDbEntity
  8
Skizziergeometrie (ISO)
100
AcDbLine
 10
82.2130228861207
 20
132.2582314815868
 30
0.0
 11
83.71302288612071
 21
132.2582314815868
 31
0.0
  0
LINE
  5
9FA
330
23
100
AcDbEntity
  8
Skizziergeometrie (ISO)
100
AcDbLine
 10
83.71302288612071
 20
132.2582314815868
 30
0.0
 11
83.71302288612069
 21
171.2582314815868
 31
0.0
  0
LINE
  5
9FB
330
23
100
AcDbEntity
  8
Skizziergeometrie (ISO)
100
AcDbLine
 10
85.21302288612069
 20
171.2582314815868
 30
0.0
 11
83.71302288612069
 21
171.2582314815868
 31
0.0
  0
LINE
  5
9FC
330
23
100
AcDbEntity
  8
Skizziergeometrie (ISO)
100
AcDbLine
 10
83.71302288612069
 20
171.2582314815868
 30
0.0
 11
83.71302288612071
 21
132.2582314815868
 31
0.0
  0
LINE
  5
9FD
330
23
100
AcDbEntity
  8
Skizziergeometrie (ISO)
100
AcDbLine
 10
83.71302288612071
 20
132.2582314815868
 30
0.0
 11
85.21302288612071
 21
132.2582314815868
 31
0.0
  0
LINE
  5
9FE
330
23
100
AcDbEntity
  8
Skizziergeometrie (ISO)
100
AcDbLine
 10
85.21302288612071
 20
132.2582314815868
 30
0.0
 11
85.21302288612069
 21
171.2582314815868
 31
0.0
  0
LINE
  5
9FF
330
23
100
AcDbEntity
  8
Skizziergeometrie (ISO)
100
AcDbLine
 10
86.7130228861207
 20
171.2582314815868
 30
0.0
 11
85.21302288612069
 21
171.2582314815868
 31
0.0
  0
LINE
  5
A00
330
23
100
AcDbEntity
  8
Skizziergeometrie (ISO)
100
AcDbLine
 10
85.21302288612069
 20
171.2582314815868
 30
0.0
 11
85.21302288612071
 21
132.2582314815868
 31
0.0
  0
LINE
  5
A01
330
23
100
AcDbEntity
  8
Skizziergeometrie (ISO)
100
AcDbLine
 10
85.21302288612071
 20
132.2582314815868
 30
0.0
 11
86.71302288612071
 21
132.2582314815868
 31
0.0
  0
LINE
  5
A02
330
23
100
AcDbEntity
  8
Skizziergeometrie (ISO)
100
AcDbLine
 10
86.71302288612071
 20
132.2582314815868
 30
0.0
 11
86.7130228861207
 21
171.2582314815868
 31
0.0
  0
LINE
  5
A03
330
23
100
AcDbEntity
  8
Skizziergeometrie (ISO)
100
AcDbLine
 10
88.21302288612072
 20
171.2582314815868
 30
0.0
 11
86.7130228861207
 21
171.2582314815868
 31
0.0
  0
LINE
  5
A04
330
23
100
AcDbEntity
  8
Skizziergeometrie (ISO)
100
AcDbLine
 10
86.7130228861207
 20
171.2582314815868
 30
0.0
 11
86.71302288612071
 21
132.2582314815868
 31
0.0
  0
LINE
  5
A05
330
23
100
AcDbEntity
  8
Skizziergeometrie (ISO)
100
AcDbLine
 10
86.71302288612071
 20
132.2582314815868
 30
0.0
 11
88.21302288612072
 21
132.2582314815868
 31
0.0
  0
LINE
  5
A06
330
23
100
AcDbEntity
  8
Skizziergeometrie (ISO)
100
AcDbLine
 10
88.21302288612072
 20
132.2582314815868
 30
0.0
 11
88.21302288612072
 21
171.2582314815868
 31
0.0
  0
LINE
  5
A07
330
23
100
AcDbEntity
  8
Skizziergeometrie (ISO)
100
AcDbLine
 10
89.7130228861207
 20
171.2582314815868
 30
0.0
 11
88.21302288612072
 21
171.2582314815868
 31
0.0
  0
LINE
  5
A08
330
23
100
AcDbEntity
  8
Skizziergeometrie (ISO)
100
AcDbLine
 10
88.21302288612072
 20
171.2582314815868
 30
0.0
 11
88.21302288612072
 21
132.2582314815868
 31
0.0
  0
LINE
  5
A09
330
23
100
AcDbEntity
  8
Skizziergeometrie (ISO)
100
AcDbLine
 10
88.21302288612072
 20
132.2582314815868
 30
0.0
 11
89.71302288612072
 21
132.2582314815868
 31
0.0
  0
LINE
  5
A0A
330
23
100
AcDbEntity
  8
Skizziergeometrie (ISO)
100
AcDbLine
 10
89.71302288612072
 20
132.2582314815868
 30
0.0
 11
89.7130228861207
 21
171.2582314815868
 31
0.0
  0
LINE
  5
A0B
330
23
100
AcDbEntity
  8
Skizziergeometrie (ISO)
100
AcDbLine
 10
91.21302288612071
 20
171.2582314815868
 30
0.0
 11
89.7130228861207
 21
171.2582314815868
 31
0.0
  0
LINE
  5
A0C
330
23
100
AcDbEntity
  8
Skizziergeometrie (ISO)
100
AcDbLine
 10
89.7130228861207
 20
171.2582314815868
 30
0.0
 11
89.71302288612072
 21
132.2582314815868
 31
0.0
  0
LINE
  5
A0D
330
23
100
AcDbEntity
  8
Skizziergeometrie (ISO)
100
AcDbLine
 10
89.71302288612072
 20
132.2582314815868
 30
0.0
 11
91.21302288612072
 21
132.2582314815868
 31
0.0
  0
LINE
  5
A0E
330
23
100
AcDbEntity
  8
Skizziergeometrie (ISO)
100
AcDbLine
 10
91.21302288612072
 20
132.2582314815868
 30
0.0
 11
91.21302288612071
 21
171.2582314815868
 31
0.0
  0
LINE
  5
A0F
330
23
100
AcDbEntity
  8
Skizziergeometrie (ISO)
100
AcDbLine
 10
92.71302288612071
 20
171.2582314815868
 30
0.0
 11
91.21302288612071
 21
171.2582314815868
 31
0.0
  0
LINE
  5
A10
330
23
100
AcDbEntity
  8
Skizziergeometrie (ISO)
100
AcDbLine
 10
91.21302288612071
 20
171.2582314815868
 30
0.0
 11
91.21302288612072
 21
132.2582314815868
 31
0.0
  0
LINE
  5
A11
330
23
100
AcDbEntity
  8
Skizziergeometrie (ISO)
100
AcDbLine
 10
91.21302288612072
 20
132.2582314815868
 30
0.0
 11
92.71302288612075
 21
132.2582314815868
 31
0.0
  0
LINE
  5
A12
330
23
100
AcDbEntity
  8
Skizziergeometrie (ISO)
100
AcDbLine
 10
92.71302288612075
 20
132.2582314815868
 30
0.0
 11
92.71302288612071
 21
171.2582314815868
 31
0.0
  0
LINE
  5
A13
330
23
100
AcDbEntity
  8
Skizziergeometrie (ISO)
100
AcDbLine
 10
94.21302288612071
 20
171.2582314815868
 30
0.0
 11
92.71302288612071
 21
171.2582314815868
 31
0.0
  0
LINE
  5
A14
330
23
100
AcDbEntity
  8
Skizziergeometrie (ISO)
100
AcDbLine
 10
92.71302288612071
 20
171.2582314815868
 30
0.0
 11
92.71302288612075
 21
132.2582314815868
 31
0.0
  0
LINE
  5
A15
330
23
100
AcDbEntity
  8
Skizziergeometrie (ISO)
100
AcDbLine
 10
92.71302288612075
 20
132.2582314815868
 30
0.0
 11
94.21302288612073
 21
132.2582314815868
 31
0.0
  0
LINE
  5
A16
330
23
100
AcDbEntity
  8
Skizziergeometrie (ISO)
100
AcDbLine
 10
94.21302288612073
 20
132.2582314815868
 30
0.0
 11
94.21302288612071
 21
171.2582314815868
 31
0.0
  0
LINE
  5
A17
330
23
100
AcDbEntity
  8
Skizziergeometrie (ISO)
100
AcDbLine
 10
95.71302288612072
 20
171.2582314815868
 30
0.0
 11
94.21302288612071
 21
171.2582314815868
 31
0.0
  0
LINE
  5
A18
330
23
100
AcDbEntity
  8
Skizziergeometrie (ISO)
100
AcDbLine
 10
94.21302288612071
 20
171.2582314815868
 30
0.0
 11
94.21302288612073
 21
132.2582314815868
 31
0.0
  0
LINE
  5
A19
330
23
100
AcDbEntity
  8
Skizziergeometrie (ISO)
100
AcDbLine
 10
94.21302288612073
 20
132.2582314815868
 30
0.0
 11
95.71302288612073
 21
132.2582314815868
 31
0.0
  0
LINE
  5
A1A
330
23
100
AcDbEntity
  8
Skizziergeometrie (ISO)
100
AcDbLine
 10
95.71302288612073
 20
132.2582314815868
 30
0.0
 11
95.71302288612072
 21
171.2582314815868
 31
0.0
  0
LINE
  5
A1B
330
23
100
AcDbEntity
  8
Skizziergeometrie (ISO)
100
AcDbLine
 10
97.21302288612072
 20
171.2582314815868
 30
0.0
 11
95.71302288612072
 21
171.2582314815868
 31
0.0
  0
LINE
  5
A1C
330
23
100
AcDbEntity
  8
Skizziergeometrie (ISO)
100
AcDbLine
 10
95.71302288612072
 20
171.2582314815868
 30
0.0
 11
95.71302288612073
 21
132.2582314815868
 31
0.0
  0
LINE
  5
A1D
330
23
100
AcDbEntity
  8
Skizziergeometrie (ISO)
100
AcDbLine
 10
95.71302288612073
 20
132.2582314815868
 30
0.0
 11
97.21302288612074
 21
132.2582314815868
 31
0.0
  0
LINE
  5
A1E
330
23
100
AcDbEntity
  8
Skizziergeometrie (ISO)
100
AcDbLine
 10
97.21302288612074
 20
132.2582314815868
 30
0.0
 11
97.21302288612072
 21
171.2582314815868
 31
0.0
  0
LINE
  5
A1F
330
23
100
AcDbEntity
  8
Skizziergeometrie (ISO)
100
AcDbLine
 10
98.71302288612072
 20
171.2582314815868
 30
0.0
 11
97.21302288612072
 21
171.2582314815868
 31
0.0
  0
LINE
  5
A20
330
23
100
AcDbEntity
  8
Skizziergeometrie (ISO)
100
AcDbLine
 10
97.21302288612072
 20
171.2582314815868
 30
0.0
 11
97.21302288612074
 21
132.2582314815868
 31
0.0
  0
LINE
  5
A21
330
23
100
AcDbEntity
  8
Skizziergeometrie (ISO)
100
AcDbLine
 10
97.21302288612074
 20
132.2582314815868
 30
0.0
 11
98.71302288612074
 21
132.2582314815868
 31
0.0
  0
LINE
  5
A22
330
23
100
AcDbEntity
  8
Skizziergeometrie (ISO)
100
AcDbLine
 10
98.71302288612074
 20
132.2582314815868
 30
0.0
 11
98.71302288612072
 21
171.2582314815868
 31
0.0
  0
LINE
  5
A23
330
23
100
AcDbEntity
  8
Skizziergeometrie (ISO)
100
AcDbLine
 10
100.2130228861207
 20
171.2582314815868
 30
0.0
 11
98.71302288612072
 21
171.2582314815868
 31
0.0
  0
LINE
  5
A24
330
23
100
AcDbEntity
  8
Skizziergeometrie (ISO)
100
AcDbLine
 10
98.71302288612072
 20
171.2582314815868
 30
0.0
 11
98.71302288612074
 21
132.2582314815868
 31
0.0
  0
LINE
  5
A25
330
23
100
AcDbEntity
  8
Skizziergeometrie (ISO)
100
AcDbLine
 10
98.71302288612074
 20
132.2582314815868
 30
0.0
 11
100.2130228861207
 21
132.2582314815868
 31
0.0
  0
LINE
  5
A26
330
23
100
AcDbEntity
  8
Skizziergeometrie (ISO)
100
AcDbLine
 10
100.2130228861207
 20
132.2582314815868
 30
0.0
 11
100.2130228861207
 21
171.2582314815868
 31
0.0
  0
LINE
  5
A27
330
23
100
AcDbEntity
  8
Skizziergeometrie (ISO)
100
AcDbLine
 10
101.7130228861207
 20
171.2582314815868
 30
0.0
 11
100.2130228861207
 21
171.2582314815868
 31
0.0
  0
LINE
  5
A28
330
23
100
AcDbEntity
  8
Skizziergeometrie (ISO)
100
AcDbLine
 10
100.2130228861207
 20
171.2582314815868
 30
0.0
 11
100.2130228861207
 21
132.2582314815868
 31
0.0
  0
LINE
  5
A29
330
23
100
AcDbEntity
  8
Skizziergeometrie (ISO)
100
AcDbLine
 10
100.2130228861207
 20
132.2582314815868
 30
0.0
 11
101.7130228861207
 21
132.2582314815868
 31
0.0
  0
LINE
  5
A2A
330
23
100
AcDbEntity
  8
Skizziergeometrie (ISO)
100
AcDbLine
 10
101.7130228861207
 20
132.2582314815868
 30
0.0
 11
101.7130228861207
 21
171.2582314815868
 31
0.0
  0
LINE
  5
A2B
330
23
100
AcDbEntity
  8
Skizziergeometrie (ISO)
100
AcDbLine
 10
103.2130228861207
 20
171.2582314815868
 30
0.0
 11
101.7130228861207
 21
171.2582314815868
 31
0.0
  0
LINE
  5
A2C
330
23
100
AcDbEntity
  8
Skizziergeometrie (ISO)
100
AcDbLine
 10
101.7130228861207
 20
171.2582314815868
 30
0.0
 11
101.7130228861207
 21
132.2582314815868
 31
0.0
  0
LINE
  5
A2D
330
23
100
AcDbEntity
  8
Skizziergeometrie (ISO)
100
AcDbLine
 10
101.7130228861207
 20
132.2582314815868
 30
0.0
 11
103.2130228861207
 21
132.2582314815868
 31
0.0
  0
LINE
  5
A2E
330
23
100
AcDbEntity
  8
Skizziergeometrie (ISO)
100
AcDbLine
 10
103.2130228861207
 20
132.2582314815868
 30
0.0
 11
103.2130228861207
 21
171.2582314815868
 31
0.0
  0
LINE
  5
A2F
330
23
100
AcDbEntity
  8
Skizziergeometrie (ISO)
100
AcDbLine
 10
104.7130228861207
 20
171.2582314815868
 30
0.0
 11
103.2130228861207
 21
171.2582314815868
 31
0.0
  0
LINE
  5
A30
330
23
100
AcDbEntity
  8
Skizziergeometrie (ISO)
100
AcDbLine
 10
103.2130228861207
 20
171.2582314815868
 30
0.0
 11
103.2130228861207
 21
132.2582314815868
 31
0.0
  0
LINE
  5
A31
330
23
100
AcDbEntity
  8
Skizziergeometrie (ISO)
100
AcDbLine
 10
103.2130228861207
 20
132.2582314815868
 30
0.0
 11
104.7130228861207
 21
132.2582314815868
 31
0.0
  0
LINE
  5
A32
330
23
100
AcDbEntity
  8
Skizziergeometrie (ISO)
100
AcDbLine
 10
104.7130228861207
 20
132.2582314815868
 30
0.0
 11
104.7130228861207
 21
171.2582314815868
 31
0.0
  0
LINE
  5
A33
330
23
100
AcDbEntity
  8
Skizziergeometrie (ISO)
100
AcDbLine
 10
106.2130228861207
 20
171.2582314815868
 30
0.0
 11
104.7130228861207
 21
171.2582314815868
 31
0.0
  0
LINE
  5
A34
330
23
100
AcDbEntity
  8
Skizziergeometrie (ISO)
100
AcDbLine
 10
104.7130228861207
 20
171.2582314815868
 30
0.0
 11
104.7130228861207
 21
132.2582314815868
 31
0.0
  0
LINE
  5
A35
330
23
100
AcDbEntity
  8
Skizziergeometrie (ISO)
100
AcDbLine
 10
104.7130228861207
 20
132.2582314815868
 30
0.0
 11
106.2130228861208
 21
132.2582314815868
 31
0.0
  0
LINE
  5
A36
330
23
100
AcDbEntity
  8
Skizziergeometrie (ISO)
100
AcDbLine
 10
106.2130228861208
 20
132.2582314815868
 30
0.0
 11
106.2130228861207
 21
171.2582314815868
 31
0.0
  0
LINE
  5
A37
330
23
100
AcDbEntity
  8
Skizziergeometrie (ISO)
100
AcDbLine
 10
182.6464413249963
 20
132.3285837566519
 30
0.0
 11
184.1464413249963
 21
132.3285837566519
 31
0.0
  0
LINE
  5
A38
330
23
100
AcDbEntity
  8
Skizziergeometrie (ISO)
100
AcDbLine
 10
184.1464413249963
 20
132.3285837566519
 30
0.0
 11
184.1464413249963
 21
142.3285837566519
 31
0.0
  0
LINE
  5
A39
330
23
100
AcDbEntity
  8
Skizziergeometrie (ISO)
100
AcDbLine
 10
184.1464413249963
 20
142.3285837566519
 30
0.0
 11
182.6464413249963
 21
142.3285837566519
 31
0.0
  0
LINE
  5
A3A
330
23
100
AcDbEntity
  8
Skizziergeometrie (ISO)
100
AcDbLine
 10
182.6464413249963
 20
142.3285837566519
 30
0.0
 11
182.6464413249963
 21
132.3285837566519
 31
0.0
  0
LINE
  5
A3B
330
23
100
AcDbEntity
  8
Skizziergeometrie (ISO)
100
AcDbLine
 10
185.6464413249963
 20
142.3285837566519
 30
0.0
 11
184.1464413249963
 21
142.3285837566519
 31
0.0
  0
LINE
  5
A3C
330
23
100
AcDbEntity
  8
Skizziergeometrie (ISO)
100
AcDbLine
 10
184.1464413249963
 20
142.3285837566519
 30
0.0
 11
184.1464413249963
 21
132.3285837566519
 31
0.0
  0
LINE
  5
A3D
330
23
100
AcDbEntity
  8
Skizziergeometrie (ISO)
100
AcDbLine
 10
184.1464413249963
 20
132.3285837566519
 30
0.0
 11
185.6464413249963
 21
132.3285837566519
 31
0.0
  0
LINE
  5
A3E
330
23
100
AcDbEntity
  8
Skizziergeometrie (ISO)
100
AcDbLine
 10
185.6464413249963
 20
132.3285837566519
 30
0.0
 11
185.6464413249963
 21
142.3285837566519
 31
0.0
  0
LINE
  5
A3F
330
23
100
AcDbEntity
  8
Skizziergeometrie (ISO)
100
AcDbLine
 10
187.1464413249963
 20
142.3285837566519
 30
0.0
 11
185.6464413249963
 21
142.3285837566519
 31
0.0
  0
LINE
  5
A40
330
23
100
AcDbEntity
  8
Skizziergeometrie (ISO)
100
AcDbLine
 10
185.6464413249963
 20
142.3285837566519
 30
0.0
 11
185.6464413249963
 21
132.3285837566519
 31
0.0
  0
LINE
  5
A41
330
23
100
AcDbEntity
  8
Skizziergeometrie (ISO)
100
AcDbLine
 10
185.6464413249963
 20
132.3285837566519
 30
0.0
 11
187.1464413249963
 21
132.3285837566519
 31
0.0
  0
LINE
  5
A42
330
23
100
AcDbEntity
  8
Skizziergeometrie (ISO)
100
AcDbLine
 10
187.1464413249963
 20
132.3285837566519
 30
0.0
 11
187.1464413249963
 21
142.3285837566519
 31
0.0
  0
LINE
  5
A43
330
23
100
AcDbEntity
  8
Skizziergeometrie (ISO)
100
AcDbLine
 10
188.6464413249962
 20
142.3285837566519
 30
0.0
 11
187.1464413249963
 21
142.3285837566519
 31
0.0
  0
LINE
  5
A44
330
23
100
AcDbEntity
  8
Skizziergeometrie (ISO)
100
AcDbLine
 10
187.1464413249963
 20
142.3285837566519
 30
0.0
 11
187.1464413249963
 21
132.3285837566519
 31
0.0
  0
LINE
  5
A45
330
23
100
AcDbEntity
  8
Skizziergeometrie (ISO)
100
AcDbLine
 10
187.1464413249963
 20
132.3285837566519
 30
0.0
 11
188.6464413249962
 21
132.3285837566519
 31
0.0
  0
LINE
  5
A46
330
23
100
AcDbEntity
  8
Skizziergeometrie (ISO)
100
AcDbLine
 10
188.6464413249962
 20
132.3285837566519
 30
0.0
 11
188.6464413249962
 21
142.3285837566519
 31
0.0
  0
LINE
  5
A47
330
23
100
AcDbEntity
  8
Skizziergeometrie (ISO)
100
AcDbLine
 10
190.1464413249962
 20
142.3285837566519
 30
0.0
 11
188.6464413249962
 21
142.3285837566519
 31
0.0
  0
LINE
  5
A48
330
23
100
AcDbEntity
  8
Skizziergeometrie (ISO)
100
AcDbLine
 10
188.6464413249962
 20
142.3285837566519
 30
0.0
 11
188.6464413249962
 21
132.3285837566519
 31
0.0
  0
LINE
  5
A49
330
23
100
AcDbEntity
  8
Skizziergeometrie (ISO)
100
AcDbLine
 10
188.6464413249962
 20
132.3285837566519
 30
0.0
 11
190.1464413249962
 21
132.3285837566519
 31
0.0
  0
LINE
  5
A4A
330
23
100
AcDbEntity
  8
Skizziergeometrie (ISO)
100
AcDbLine
 10
190.1464413249962
 20
132.3285837566519
 30
0.0
 11
190.1464413249962
 21
142.3285837566519
 31
0.0
  0
LINE
  5
A4B
330
23
100
AcDbEntity
  8
Skizziergeometrie (ISO)
100
AcDbLine
 10
191.6464413249962
 20
142.3285837566519
 30
0.0
 11
190.1464413249962
 21
142.3285837566519
 31
0.0
  0
LINE
  5
A4C
330
23
100
AcDbEntity
  8
Skizziergeometrie (ISO)
100
AcDbLine
 10
190.1464413249962
 20
142.3285837566519
 30
0.0
 11
190.1464413249962
 21
132.3285837566519
 31
0.0
  0
LINE
  5
A4D
330
23
100
AcDbEntity
  8
Skizziergeometrie (ISO)
100
AcDbLine
 10
190.1464413249962
 20
132.3285837566519
 30
0.0
 11
191.6464413249962
 21
132.3285837566519
 31
0.0
  0
LINE
  5
A4E
330
23
100
AcDbEntity
  8
Skizziergeometrie (ISO)
100
AcDbLine
 10
191.6464413249962
 20
132.3285837566519
 30
0.0
 11
191.6464413249962
 21
142.3285837566519
 31
0.0
  0
LINE
  5
A4F
330
23
100
AcDbEntity
  8
Skizziergeometrie (ISO)
100
AcDbLine
 10
191.6464413249962
 20
132.3285837566519
 30
0.0
 11
193.1464413249962
 21
132.3285837566519
 31
0.0
  0
LINE
  5
A50
330
23
100
AcDbEntity
  8
Skizziergeometrie (ISO)
100
AcDbLine
 10
193.1464413249962
 20
132.3285837566519
 30
0.0
 11
193.1464413249962
 21
142.3285837566519
 31
0.0
  0
LINE
  5
A51
330
23
100
AcDbEntity
  8
Skizziergeometrie (ISO)
100
AcDbLine
 10
193.1464413249962
 20
142.3285837566519
 30
0.0
 11
191.6464413249962
 21
142.3285837566519
 31
0.0
  0
LINE
  5
A52
330
23
100
AcDbEntity
  8
Skizziergeometrie (ISO)
100
AcDbLine
 10
191.6464413249962
 20
142.3285837566519
 30
0.0
 11
191.6464413249962
 21
132.3285837566519
 31
0.0
  0
LINE
  5
A53
330
23
100
AcDbEntity
  8
Skizziergeometrie (ISO)
100
AcDbLine
 10
193.1464413249962
 20
142.3285837566519
 30
0.0
 11
194.6464413249962
 21
142.3285837566519
 31
0.0
  0
LINE
  5
A54
330
23
100
AcDbEntity
  8
Skizziergeometrie (ISO)
100
AcDbLine
 10
194.6464413249962
 20
142.3285837566519
 30
0.0
 11
194.6464413249962
 21
132.3285837566519
 31
0.0
  0
LINE
  5
A55
330
23
100
AcDbEntity
  8
Skizziergeometrie (ISO)
100
AcDbLine
 10
194.6464413249962
 20
132.3285837566519
 30
0.0
 11
193.1464413249962
 21
132.3285837566519
 31
0.0
  0
LINE
  5
A56
330
23
100
AcDbEntity
  8
Skizziergeometrie (ISO)
100
AcDbLine
 10
193.1464413249962
 20
132.3285837566519
 30
0.0
 11
193.1464413249962
 21
142.3285837566519
 31
0.0
  0
LINE
  5
A57
330
23
100
AcDbEntity
  8
Skizziergeometrie (ISO)
100
AcDbLine
 10
194.6464413249962
 20
132.3285837566519
 30
0.0
 11
196.1464413249962
 21
132.3285837566519
 31
0.0
  0
LINE
  5
A58
330
23
100
AcDbEntity
  8
Skizziergeometrie (ISO)
100
AcDbLine
 10
196.1464413249962
 20
132.3285837566519
 30
0.0
 11
196.1464413249962
 21
142.3285837566519
 31
0.0
  0
LINE
  5
A59
330
23
100
AcDbEntity
  8
Skizziergeometrie (ISO)
100
AcDbLine
 10
196.1464413249962
 20
142.3285837566519
 30
0.0
 11
194.6464413249962
 21
142.3285837566519
 31
0.0
  0
LINE
  5
A5A
330
23
100
AcDbEntity
  8
Skizziergeometrie (ISO)
100
AcDbLine
 10
194.6464413249962
 20
142.3285837566519
 30
0.0
 11
194.6464413249962
 21
132.3285837566519
 31
0.0
  0
LINE
  5
A5B
330
23
100
AcDbEntity
  8
Skizziergeometrie (ISO)
100
AcDbLine
 10
196.1464413249962
 20
142.3285837566519
 30
0.0
 11
197.6464413249962
 21
142.3285837566519
 31
0.0
  0
LINE
  5
A5C
330
23
100
AcDbEntity
  8
Skizziergeometrie (ISO)
100
AcDbLine
 10
197.6464413249962
 20
142.3285837566519
 30
0.0
 11
197.6464413249962
 21
132.3285837566519
 31
0.0
  0
LINE
  5
A5D
330
23
100
AcDbEntity
  8
Skizziergeometrie (ISO)
100
AcDbLine
 10
197.6464413249962
 20
132.3285837566519
 30
0.0
 11
196.1464413249962
 21
132.3285837566519
 31
0.0
  0
LINE
  5
A5E
330
23
100
AcDbEntity
  8
Skizziergeometrie (ISO)
100
AcDbLine
 10
196.1464413249962
 20
132.3285837566519
 30
0.0
 11
196.1464413249962
 21
142.3285837566519
 31
0.0
  0
LINE
  5
A5F
330
23
100
AcDbEntity
  8
Skizziergeometrie (ISO)
100
AcDbLine
 10
197.6464413249962
 20
132.3285837566519
 30
0.0
 11
199.1464413249961
 21
132.3285837566519
 31
0.0
  0
LINE
  5
A60
330
23
100
AcDbEntity
  8
Skizziergeometrie (ISO)
100
AcDbLine
 10
199.1464413249961
 20
132.3285837566519
 30
0.0
 11
199.1464413249961
 21
142.3285837566519
 31
0.0
  0
LINE
  5
A61
330
23
100
AcDbEntity
  8
Skizziergeometrie (ISO)
100
AcDbLine
 10
199.1464413249961
 20
142.3285837566519
 30
0.0
 11
197.6464413249962
 21
142.3285837566519
 31
0.0
  0
LINE
  5
A62
330
23
100
AcDbEntity
  8
Skizziergeometrie (ISO)
100
AcDbLine
 10
197.6464413249962
 20
142.3285837566519
 30
0.0
 11
197.6464413249962
 21
132.3285837566519
 31
0.0
  0
LINE
  5
A63
330
23
100
AcDbEntity
  8
Skizziergeometrie (ISO)
100
AcDbLine
 10
200.6464413249962
 20
142.3285837566519
 30
0.0
 11
199.1464413249961
 21
142.3285837566519
 31
0.0
  0
LINE
  5
A64
330
23
100
AcDbEntity
  8
Skizziergeometrie (ISO)
100
AcDbLine
 10
199.1464413249961
 20
142.3285837566519
 30
0.0
 11
199.1464413249961
 21
132.3285837566519
 31
0.0
  0
LINE
  5
A65
330
23
100
AcDbEntity
  8
Skizziergeometrie (ISO)
100
AcDbLine
 10
199.1464413249961
 20
132.3285837566519
 30
0.0
 11
200.6464413249962
 21
132.3285837566519
 31
0.0
  0
LINE
  5
A66
330
23
100
AcDbEntity
  8
Skizziergeometrie (ISO)
100
AcDbLine
 10
200.6464413249962
 20
132.3285837566519
 30
0.0
 11
200.6464413249962
 21
142.3285837566519
 31
0.0
  0
LINE
  5
A67
330
23
100
AcDbEntity
  8
Skizziergeometrie (ISO)
100
AcDbLine
 10
202.1464413249961
 20
142.3285837566519
 30
0.0
 11
200.6464413249962
 21
142.3285837566519
 31
0.0
  0
LINE
  5
A68
330
23
100
AcDbEntity
  8
Skizziergeometrie (ISO)
100
AcDbLine
 10
200.6464413249962
 20
142.3285837566519
 30
0.0
 11
200.6464413249962
 21
132.3285837566519
 31
0.0
  0
LINE
  5
A69
330
23
100
AcDbEntity
  8
Skizziergeometrie (ISO)
100
AcDbLine
 10
200.6464413249962
 20
132.3285837566519
 30
0.0
 11
202.1464413249961
 21
132.3285837566519
 31
0.0
  0
LINE
  5
A6A
330
23
100
AcDbEntity
  8
Skizziergeometrie (ISO)
100
AcDbLine
 10
202.1464413249961
 20
132.3285837566519
 30
0.0
 11
202.1464413249961
 21
142.3285837566519
 31
0.0
  0
LINE
  5
A6B
330
23
100
AcDbEntity
  8
Skizziergeometrie (ISO)
100
AcDbLine
 10
203.6464413249961
 20
132.3285837566519
 30
0.0
 11
202.1464413249961
 21
132.3285837566519
 31
0.0
  0
LINE
  5
A6C
330
23
100
AcDbEntity
  8
Skizziergeometrie (ISO)
100
AcDbLine
 10
202.1464413249961
 20
132.3285837566519
 30
0.0
 11
202.1464413249961
 21
142.3285837566519
 31
0.0
  0
LINE
  5
A6D
330
23
100
AcDbEntity
  8
Skizziergeometrie (ISO)
100
AcDbLine
 10
202.1464413249961
 20
142.3285837566519
 30
0.0
 11
203.6464413249961
 21
142.3285837566519
 31
0.0
  0
LINE
  5
A6E
330
23
100
AcDbEntity
  8
Skizziergeometrie (ISO)
100
AcDbLine
 10
203.6464413249961
 20
142.3285837566519
 30
0.0
 11
203.6464413249961
 21
132.3285837566519
 31
0.0
  0
LINE
  5
A6F
330
23
100
AcDbEntity
  8
Skizziergeometrie (ISO)
100
AcDbLine
 10
205.1464413249961
 20
142.3285837566519
 30
0.0
 11
203.6464413249961
 21
142.3285837566519
 31
0.0
  0
LINE
  5
A70
330
23
100
AcDbEntity
  8
Skizziergeometrie (ISO)
100
AcDbLine
 10
203.6464413249961
 20
142.3285837566519
 30
0.0
 11
203.6464413249961
 21
132.3285837566519
 31
0.0
  0
LINE
  5
A71
330
23
100
AcDbEntity
  8
Skizziergeometrie (ISO)
100
AcDbLine
 10
203.6464413249961
 20
132.3285837566519
 30
0.0
 11
205.1464413249961
 21
132.3285837566519
 31
0.0
  0
LINE
  5
A72
330
23
100
AcDbEntity
  8
Skizziergeometrie (ISO)
100
AcDbLine
 10
205.1464413249961
 20
132.3285837566519
 30
0.0
 11
205.1464413249961
 21
142.3285837566519
 31
0.0
  0
LINE
  5
A73
330
23
100
AcDbEntity
  8
Skizziergeometrie (ISO)
100
AcDbLine
 10
205.1464413249961
 20
132.3285837566519
 30
0.0
 11
206.6464413249961
 21
132.3285837566519
 31
0.0
  0
LINE
  5
A74
330
23
100
AcDbEntity
  8
Skizziergeometrie (ISO)
100
AcDbLine
 10
206.6464413249961
 20
132.3285837566519
 30
0.0
 11
206.6464413249961
 21
142.3285837566519
 31
0.0
  0
LINE
  5
A75
330
23
100
AcDbEntity
  8
Skizziergeometrie (ISO)
100
AcDbLine
 10
206.6464413249961
 20
142.3285837566519
 30
0.0
 11
205.1464413249961
 21
142.3285837566519
 31
0.0
  0
LINE
  5
A76
330
23
100
AcDbEntity
  8
Skizziergeometrie (ISO)
100
AcDbLine
 10
205.1464413249961
 20
142.3285837566519
 30
0.0
 11
205.1464413249961
 21
132.3285837566519
 31
0.0
  0
LINE
  5
A77
330
23
100
AcDbEntity
  8
Skizziergeometrie (ISO)
100
AcDbLine
 10
206.6464413249961
 20
142.3285837566519
 30
0.0
 11
208.1464413249961
 21
142.3285837566519
 31
0.0
  0
LINE
  5
A78
330
23
100
AcDbEntity
  8
Skizziergeometrie (ISO)
100
AcDbLine
 10
208.1464413249961
 20
142.3285837566519
 30
0.0
 11
208.1464413249961
 21
132.3285837566519
 31
0.0
  0
LINE
  5
A79
330
23
100
AcDbEntity
  8
Skizziergeometrie (ISO)
100
AcDbLine
 10
208.1464413249961
 20
132.3285837566519
 30
0.0
 11
206.6464413249961
 21
132.3285837566519
 31
0.0
  0
LINE
  5
A7A
330
23
100
AcDbEntity
  8
Skizziergeometrie (ISO)
100
AcDbLine
 10
206.6464413249961
 20
132.3285837566519
 30
0.0
 11
206.6464413249961
 21
142.3285837566519
 31
0.0
  0
LINE
  5
A7B
330
23
100
AcDbEntity
  8
Skizziergeometrie (ISO)
100
AcDbLine
 10
208.1464413249961
 20
132.3285837566519
 30
0.0
 11
209.6464413249961
 21
132.3285837566519
 31
0.0
  0
LINE
  5
A7C
330
23
100
AcDbEntity
  8
Skizziergeometrie (ISO)
100
AcDbLine
 10
209.6464413249961
 20
132.3285837566519
 30
0.0
 11
209.6464413249961
 21
142.3285837566519
 31
0.0
  0
LINE
  5
A7D
330
23
100
AcDbEntity
  8
Skizziergeometrie (ISO)
100
AcDbLine
 10
209.6464413249961
 20
142.3285837566519
 30
0.0
 11
208.1464413249961
 21
142.3285837566519
 31
0.0
  0
LINE
  5
A7E
330
23
100
AcDbEntity
  8
Skizziergeometrie (ISO)
100
AcDbLine
 10
208.1464413249961
 20
142.3285837566519
 30
0.0
 11
208.1464413249961
 21
132.3285837566519
 31
0.0
  0
LINE
  5
A7F
330
23
100
AcDbEntity
  8
Skizziergeometrie (ISO)
100
AcDbLine
 10
209.6464413249961
 20
142.3285837566519
 30
0.0
 11
211.1464413249961
 21
142.3285837566519
 31
0.0
  0
LINE
  5
A80
330
23
100
AcDbEntity
  8
Skizziergeometrie (ISO)
100
AcDbLine
 10
211.1464413249961
 20
142.3285837566519
 30
0.0
 11
211.1464413249961
 21
132.3285837566519
 31
0.0
  0
LINE
  5
A81
330
23
100
AcDbEntity
  8
Skizziergeometrie (ISO)
100
AcDbLine
 10
211.1464413249961
 20
132.3285837566519
 30
0.0
 11
209.6464413249961
 21
132.3285837566519
 31
0.0
  0
LINE
  5
A82
330
23
100
AcDbEntity
  8
Skizziergeometrie (ISO)
100
AcDbLine
 10
209.6464413249961
 20
132.3285837566519
 30
0.0
 11
209.6464413249961
 21
142.3285837566519
 31
0.0
  0
LINE
  5
A83
330
23
100
AcDbEntity
  8
Skizziergeometrie (ISO)
100
AcDbLine
 10
211.1464413249961
 20
132.3285837566519
 30
0.0
 11
212.646441324996
 21
132.3285837566519
 31
0.0
  0
LINE
  5
A84
330
23
100
AcDbEntity
  8
Skizziergeometrie (ISO)
100
AcDbLine
 10
212.646441324996
 20
132.3285837566519
 30
0.0
 11
212.646441324996
 21
142.3285837566519
 31
0.0
  0
LINE
  5
A85
330
23
100
AcDbEntity
  8
Skizziergeometrie (ISO)
100
AcDbLine
 10
212.646441324996
 20
142.3285837566519
 30
0.0
 11
211.1464413249961
 21
142.3285837566519
 31
0.0
  0
LINE
  5
A86
330
23
100
AcDbEntity
  8
Skizziergeometrie (ISO)
100
AcDbLine
 10
211.1464413249961
 20
142.3285837566519
 30
0.0
 11
211.1464413249961
 21
132.3285837566519
 31
0.0
  0
LINE
  5
A87
330
23
100
AcDbEntity
  8
Skizziergeometrie (ISO)
100
AcDbLine
 10
212.646441324996
 20
142.3285837566519
 30
0.0
 11
214.146441324996
 21
142.3285837566519
 31
0.0
  0
LINE
  5
A88
330
23
100
AcDbEntity
  8
Skizziergeometrie (ISO)
100
AcDbLine
 10
214.146441324996
 20
142.3285837566519
 30
0.0
 11
214.146441324996
 21
132.3285837566519
 31
0.0
  0
LINE
  5
A89
330
23
100
AcDbEntity
  8
Skizziergeometrie (ISO)
100
AcDbLine
 10
214.146441324996
 20
132.3285837566519
 30
0.0
 11
212.646441324996
 21
132.3285837566519
 31
0.0
  0
LINE
  5
A8A
330
23
100
AcDbEntity
  8
Skizziergeometrie (ISO)
100
AcDbLine
 10
212.646441324996
 20
132.3285837566519
 30
0.0
 11
212.646441324996
 21
142.3285837566519
 31
0.0
  0
LINE
  5
A8B
330
23
100
AcDbEntity
  8
Skizziergeometrie (ISO)
100
AcDbLine
 10
215.646441324996
 20
132.3285837566519
 30
0.0
 11
214.146441324996
 21
132.3285837566519
 31
0.0
  0
LINE
  5
A8C
330
23
100
AcDbEntity
  8
Skizziergeometrie (ISO)
100
AcDbLine
 10
214.146441324996
 20
132.3285837566519
 30
0.0
 11
214.146441324996
 21
142.3285837566519
 31
0.0
  0
LINE
  5
A8D
330
23
100
AcDbEntity
  8
Skizziergeometrie (ISO)
100
AcDbLine
 10
214.146441324996
 20
142.3285837566519
 30
0.0
 11
215.646441324996
 21
142.3285837566519
 31
0.0
  0
LINE
  5
A8E
330
23
100
AcDbEntity
  8
Skizziergeometrie (ISO)
100
AcDbLine
 10
215.646441324996
 20
142.3285837566519
 30
0.0
 11
215.646441324996
 21
132.3285837566519
 31
0.0
  0
LINE
  5
A8F
330
23
100
AcDbEntity
  8
Skizziergeometrie (ISO)
100
AcDbLine
 10
217.146441324996
 20
142.3285837566519
 30
0.0
 11
215.646441324996
 21
142.3285837566519
 31
0.0
  0
LINE
  5
A90
330
23
100
AcDbEntity
  8
Skizziergeometrie (ISO)
100
AcDbLine
 10
215.646441324996
 20
142.3285837566519
 30
0.0
 11
215.646441324996
 21
132.3285837566519
 31
0.0
  0
LINE
  5
A91
330
23
100
AcDbEntity
  8
Skizziergeometrie (ISO)
100
AcDbLine
 10
215.646441324996
 20
132.3285837566519
 30
0.0
 11
217.146441324996
 21
132.3285837566519
 31
0.0
  0
LINE
  5
A92
330
23
100
AcDbEntity
  8
Skizziergeometrie (ISO)
100
AcDbLine
 10
217.146441324996
 20
132.3285837566519
 30
0.0
 11
217.146441324996
 21
142.3285837566519
 31
0.0
  0
LINE
  5
A93
330
23
100
AcDbEntity
  8
Skizziergeometrie (ISO)
100
AcDbLine
 10
218.646441324996
 20
142.3285837566519
 30
0.0
 11
217.146441324996
 21
142.3285837566519
 31
0.0
  0
LINE
  5
A94
330
23
100
AcDbEntity
  8
Skizziergeometrie (ISO)
100
AcDbLine
 10
217.146441324996
 20
142.3285837566519
 30
0.0
 11
217.146441324996
 21
132.3285837566519
 31
0.0
  0
LINE
  5
A95
330
23
100
AcDbEntity
  8
Skizziergeometrie (ISO)
100
AcDbLine
 10
217.146441324996
 20
132.3285837566519
 30
0.0
 11
218.646441324996
 21
132.3285837566519
 31
0.0
  0
LINE
  5
A96
330
23
100
AcDbEntity
  8
Skizziergeometrie (ISO)
100
AcDbLine
 10
218.646441324996
 20
132.3285837566519
 30
0.0
 11
218.646441324996
 21
142.3285837566519
 31
0.0
  0
LINE
  5
A97
330
23
100
AcDbEntity
  8
Skizziergeometrie (ISO)
100
AcDbLine
 10
220.146441324996
 20
142.3285837566519
 30
0.0
 11
218.646441324996
 21
142.3285837566519
 31
0.0
  0
LINE
  5
A98
330
23
100
AcDbEntity
  8
Skizziergeometrie (ISO)
100
AcDbLine
 10
218.646441324996
 20
142.3285837566519
 30
0.0
 11
218.646441324996
 21
132.3285837566519
 31
0.0
  0
LINE
  5
A99
330
23
100
AcDbEntity
  8
Skizziergeometrie (ISO)
100
AcDbLine
 10
218.646441324996
 20
132.3285837566519
 30
0.0
 11
220.146441324996
 21
132.3285837566519
 31
0.0
  0
LINE
  5
A9A
330
23
100
AcDbEntity
  8
Skizziergeometrie (ISO)
100
AcDbLine
 10
220.146441324996
 20
132.3285837566519
 30
0.0
 11
220.146441324996
 21
142.3285837566519
 31
0.0
  0
LINE
  5
A9B
330
23
100
AcDbEntity
  8
Skizziergeometrie (ISO)
100
AcDbLine
 10
221.646441324996
 20
142.3285837566519
 30
0.0
 11
220.146441324996
 21
142.3285837566519
 31
0.0
  0
LINE
  5
A9C
330
23
100
AcDbEntity
  8
Skizziergeometrie (ISO)
100
AcDbLine
 10
220.146441324996
 20
142.3285837566519
 30
0.0
 11
220.146441324996
 21
132.3285837566519
 31
0.0
  0
LINE
  5
A9D
330
23
100
AcDbEntity
  8
Skizziergeometrie (ISO)
100
AcDbLine
 10
220.146441324996
 20
132.3285837566519
 30
0.0
 11
221.646441324996
 21
132.3285837566519
 31
0.0
  0
LINE
  5
A9E
330
23
100
AcDbEntity
  8
Skizziergeometrie (ISO)
100
AcDbLine
 10
221.646441324996
 20
132.3285837566519
 30
0.0
 11
221.646441324996
 21
142.3285837566519
 31
0.0
  0
LINE
  5
A9F
330
23
100
AcDbEntity
  8
Skizziergeometrie (ISO)
100
AcDbLine
 10
223.1464413249959
 20
142.3285837566519
 30
0.0
 11
221.646441324996
 21
142.3285837566519
 31
0.0
  0
LINE
  5
AA0
330
23
100
AcDbEntity
  8
Skizziergeometrie (ISO)
100
AcDbLine
 10
221.646441324996
 20
142.3285837566519
 30
0.0
 11
221.646441324996
 21
132.3285837566519
 31
0.0
  0
LINE
  5
AA1
330
23
100
AcDbEntity
  8
Skizziergeometrie (ISO)
100
AcDbLine
 10
221.646441324996
 20
132.3285837566519
 30
0.0
 11
223.1464413249959
 21
132.3285837566519
 31
0.0
  0
LINE
  5
AA2
330
23
100
AcDbEntity
  8
Skizziergeometrie (ISO)
100
AcDbLine
 10
223.1464413249959
 20
132.3285837566519
 30
0.0
 11
223.1464413249959
 21
142.3285837566519
 31
0.0
  0
LINE
  5
AA3
330
23
100
AcDbEntity
  8
Skizziergeometrie (ISO)
100
AcDbLine
 10
224.6464413249959
 20
142.3285837566519
 30
0.0
 11
223.1464413249959
 21
142.3285837566519
 31
0.0
  0
LINE
  5
AA4
330
23
100
AcDbEntity
  8
Skizziergeometrie (ISO)
100
AcDbLine
 10
223.1464413249959
 20
142.3285837566519
 30
0.0
 11
223.1464413249959
 21
132.3285837566519
 31
0.0
  0
LINE
  5
AA5
330
23
100
AcDbEntity
  8
Skizziergeometrie (ISO)
100
AcDbLine
 10
223.1464413249959
 20
132.3285837566519
 30
0.0
 11
224.6464413249959
 21
132.3285837566519
 31
0.0
  0
LINE
  5
AA6
330
23
100
AcDbEntity
  8
Skizziergeometrie (ISO)
100
AcDbLine
 10
224.6464413249959
 20
132.3285837566519
 30
0.0
 11
224.6464413249959
 21
142.3285837566519
 31
0.0
  0
LINE
  5
AA7
330
23
100
AcDbEntity
  8
Skizziergeometrie (ISO)
100
AcDbLine
 10
226.1464413249959
 20
142.3285837566519
 30
0.0
 11
224.6464413249959
 21
142.3285837566519
 31
0.0
  0
LINE
  5
AA8
330
23
100
AcDbEntity
  8
Skizziergeometrie (ISO)
100
AcDbLine
 10
224.6464413249959
 20
142.3285837566519
 30
0.0
 11
224.6464413249959
 21
132.3285837566519
 31
0.0
  0
LINE
  5
AA9
330
23
100
AcDbEntity
  8
Skizziergeometrie (ISO)
100
AcDbLine
 10
224.6464413249959
 20
132.3285837566519
 30
0.0
 11
226.1464413249959
 21
132.3285837566519
 31
0.0
  0
LINE
  5
AAA
330
23
100
AcDbEntity
  8
Skizziergeometrie (ISO)
100
AcDbLine
 10
226.1464413249959
 20
132.3285837566519
 30
0.0
 11
226.1464413249959
 21
142.3285837566519
 31
0.0
  0
LINE
  5
AAB
330
23
100
AcDbEntity
  8
Skizziergeometrie (ISO)
100
AcDbLine
 10
227.6464413249959
 20
142.3285837566519
 30
0.0
 11
226.1464413249959
 21
142.3285837566519
 31
0.0
  0
LINE
  5
AAC
330
23
100
AcDbEntity
  8
Skizziergeometrie (ISO)
100
AcDbLine
 10
226.1464413249959
 20
142.3285837566519
 30
0.0
 11
226.1464413249959
 21
132.3285837566519
 31
0.0
  0
LINE
  5
AAD
330
23
100
AcDbEntity
  8
Skizziergeometrie (ISO)
100
AcDbLine
 10
226.1464413249959
 20
132.3285837566519
 30
0.0
 11
227.6464413249959
 21
132.3285837566519
 31
0.0
  0
LINE
  5
AAE
330
23
100
AcDbEntity
  8
Skizziergeometrie (ISO)
100
AcDbLine
 10
227.6464413249959
 20
132.3285837566519
 30
0.0
 11
227.6464413249959
 21
142.3285837566519
 31
0.0
  0
LINE
  5
AAF
330
23
100
AcDbEntity
  8
Skizziergeometrie (ISO)
100
AcDbLine
 10
229.1464413249959
 20
132.3285837566519
 30
0.0
 11
227.6464413249959
 21
132.3285837566519
 31
0.0
  0
LINE
  5
AB0
330
23
100
AcDbEntity
  8
Skizziergeometrie (ISO)
100
AcDbLine
 10
227.6464413249959
 20
132.3285837566519
 30
0.0
 11
227.6464413249959
 21
142.3285837566519
 31
0.0
  0
LINE
  5
AB1
330
23
100
AcDbEntity
  8
Skizziergeometrie (ISO)
100
AcDbLine
 10
227.6464413249959
 20
142.3285837566519
 30
0.0
 11
229.1464413249959
 21
142.3285837566519
 31
0.0
  0
LINE
  5
AB2
330
23
100
AcDbEntity
  8
Skizziergeometrie (ISO)
100
AcDbLine
 10
229.1464413249959
 20
142.3285837566519
 30
0.0
 11
229.1464413249959
 21
132.3285837566519
 31
0.0
  0
LINE
  5
AB3
330
23
100
AcDbEntity
  8
Skizziergeometrie (ISO)
100
AcDbLine
 10
230.6464413249959
 20
142.3285837566519
 30
0.0
 11
229.1464413249959
 21
142.3285837566519
 31
0.0
  0
LINE
  5
AB4
330
23
100
AcDbEntity
  8
Skizziergeometrie (ISO)
100
AcDbLine
 10
229.1464413249959
 20
142.3285837566519
 30
0.0
 11
229.1464413249959
 21
132.3285837566519
 31
0.0
  0
LINE
  5
AB5
330
23
100
AcDbEntity
  8
Skizziergeometrie (ISO)
100
AcDbLine
 10
229.1464413249959
 20
132.3285837566519
 30
0.0
 11
230.6464413249959
 21
132.3285837566519
 31
0.0
  0
LINE
  5
AB6
330
23
100
AcDbEntity
  8
Skizziergeometrie (ISO)
100
AcDbLine
 10
230.6464413249959
 20
132.3285837566519
 30
0.0
 11
230.6464413249959
 21
142.3285837566519
 31
0.0
  0
LINE
  5
AB7
330
23
100
AcDbEntity
  8
Skizziergeometrie (ISO)
100
AcDbLine
 10
232.1464413249959
 20
132.3285837566519
 30
0.0
 11
230.6464413249959
 21
132.3285837566519
 31
0.0
  0
LINE
  5
AB8
330
23
100
AcDbEntity
  8
Skizziergeometrie (ISO)
100
AcDbLine
 10
230.6464413249959
 20
132.3285837566519
 30
0.0
 11
230.6464413249959
 21
142.3285837566519
 31
0.0
  0
LINE
  5
AB9
330
23
100
AcDbEntity
  8
Skizziergeometrie (ISO)
100
AcDbLine
 10
230.6464413249959
 20
142.3285837566519
 30
0.0
 11
232.1464413249959
 21
142.3285837566519
 31
0.0
  0
LINE
  5
ABA
330
23
100
AcDbEntity
  8
Skizziergeometrie (ISO)
100
AcDbLine
 10
232.1464413249959
 20
142.3285837566519
 30
0.0
 11
232.1464413249959
 21
132.3285837566519
 31
0.0
  0
LINE
  5
ABB
330
23
100
AcDbEntity
  8
Skizziergeometrie (ISO)
100
AcDbLine
 10
233.6464413249959
 20
142.3285837566519
 30
0.0
 11
232.1464413249959
 21
142.3285837566519
 31
0.0
  0
LINE
  5
ABC
330
23
100
AcDbEntity
  8
Skizziergeometrie (ISO)
100
AcDbLine
 10
232.1464413249959
 20
142.3285837566519
 30
0.0
 11
232.1464413249959
 21
132.3285837566519
 31
0.0
  0
LINE
  5
ABD
330
23
100
AcDbEntity
  8
Skizziergeometrie (ISO)
100
AcDbLine
 10
232.1464413249959
 20
132.3285837566519
 30
0.0
 11
233.6464413249959
 21
132.3285837566519
 31
0.0
  0
LINE
  5
ABE
330
23
100
AcDbEntity
  8
Skizziergeometrie (ISO)
100
AcDbLine
 10
233.6464413249959
 20
132.3285837566519
 30
0.0
 11
233.6464413249959
 21
142.3285837566519
 31
0.0
  0
LINE
  5
ABF
330
23
100
AcDbEntity
  8
Skizziergeometrie (ISO)
100
AcDbLine
 10
235.1464413249958
 20
142.3285837566519
 30
0.0
 11
233.6464413249959
 21
142.3285837566519
 31
0.0
  0
LINE
  5
AC0
330
23
100
AcDbEntity
  8
Skizziergeometrie (ISO)
100
AcDbLine
 10
233.6464413249959
 20
142.3285837566519
 30
0.0
 11
233.6464413249959
 21
132.3285837566519
 31
0.0
  0
LINE
  5
AC1
330
23
100
AcDbEntity
  8
Skizziergeometrie (ISO)
100
AcDbLine
 10
233.6464413249959
 20
132.3285837566519
 30
0.0
 11
235.1464413249958
 21
132.3285837566519
 31
0.0
  0
LINE
  5
AC2
330
23
100
AcDbEntity
  8
Skizziergeometrie (ISO)
100
AcDbLine
 10
235.1464413249958
 20
132.3285837566519
 30
0.0
 11
235.1464413249958
 21
142.3285837566519
 31
0.0
  0
LINE
  5
AC3
330
23
100
AcDbEntity
  8
Skizziergeometrie (ISO)
100
AcDbLine
 10
235.1464413249958
 20
132.3285837566519
 30
0.0
 11
236.6464413249958
 21
132.3285837566519
 31
0.0
  0
LINE
  5
AC4
330
23
100
AcDbEntity
  8
Skizziergeometrie (ISO)
100
AcDbLine
 10
236.6464413249958
 20
132.3285837566519
 30
0.0
 11
236.6464413249958
 21
142.3285837566519
 31
0.0
  0
LINE
  5
AC5
330
23
100
AcDbEntity
  8
Skizziergeometrie (ISO)
100
AcDbLine
 10
236.6464413249958
 20
142.3285837566519
 30
0.0
 11
235.1464413249958
 21
142.3285837566519
 31
0.0
  0
LINE
  5
AC6
330
23
100
AcDbEntity
  8
Skizziergeometrie (ISO)
100
AcDbLine
 10
235.1464413249958
 20
142.3285837566519
 30
0.0
 11
235.1464413249958
 21
132.3285837566519
 31
0.0
  0
LINE
  5
AC7
330
23
100
AcDbEntity
  8
Skizziergeometrie (ISO)
100
AcDbLine
 10
238.1464413249958
 20
142.3285837566519
 30
0.0
 11
236.6464413249958
 21
142.3285837566519
 31
0.0
  0
LINE
  5
AC8
330
23
100
AcDbEntity
  8
Skizziergeometrie (ISO)
100
AcDbLine
 10
236.6464413249958
 20
142.3285837566519
 30
0.0
 11
236.6464413249958
 21
132.3285837566519
 31
0.0
  0
LINE
  5
AC9
330
23
100
AcDbEntity
  8
Skizziergeometrie (ISO)
100
AcDbLine
 10
236.6464413249958
 20
132.3285837566519
 30
0.0
 11
238.1464413249958
 21
132.3285837566519
 31
0.0
  0
LINE
  5
ACA
330
23
100
AcDbEntity
  8
Skizziergeometrie (ISO)
100
AcDbLine
 10
238.1464413249958
 20
132.3285837566519
 30
0.0
 11
238.1464413249958
 21
142.3285837566519
 31
0.0
  0
LINE
  5
ACB
330
23
100
AcDbEntity
  8
Skizziergeometrie (ISO)
100
AcDbLine
 10
238.1464413249958
 20
132.3285837566519
 30
0.0
 11
239.6464413249958
 21
132.3285837566519
 31
0.0
  0
LINE
  5
ACC
330
23
100
AcDbEntity
  8
Skizziergeometrie (ISO)
100
AcDbLine
 10
239.6464413249958
 20
132.3285837566519
 30
0.0
 11
239.6464413249958
 21
142.3285837566519
 31
0.0
  0
LINE
  5
ACD
330
23
100
AcDbEntity
  8
Skizziergeometrie (ISO)
100
AcDbLine
 10
239.6464413249958
 20
142.3285837566519
 30
0.0
 11
238.1464413249958
 21
142.3285837566519
 31
0.0
  0
LINE
  5
ACE
330
23
100
AcDbEntity
  8
Skizziergeometrie (ISO)
100
AcDbLine
 10
238.1464413249958
 20
142.3285837566519
 30
0.0
 11
238.1464413249958
 21
132.3285837566519
 31
0.0
  0
LINE
  5
ACF
330
23
100
AcDbEntity
  8
Skizziergeometrie (ISO)
100
AcDbLine
 10
241.1464413249958
 20
142.3285837566519
 30
0.0
 11
239.6464413249958
 21
142.3285837566519
 31
0.0
  0
LINE
  5
AD0
330
23
100
AcDbEntity
  8
Skizziergeometrie (ISO)
100
AcDbLine
 10
239.6464413249958
 20
142.3285837566519
 30
0.0
 11
239.6464413249958
 21
132.3285837566519
 31
0.0
  0
LINE
  5
AD1
330
23
100
AcDbEntity
  8
Skizziergeometrie (ISO)
100
AcDbLine
 10
239.6464413249958
 20
132.3285837566519
 30
0.0
 11
241.1464413249958
 21
132.3285837566519
 31
0.0
  0
LINE
  5
AD2
330
23
100
AcDbEntity
  8
Skizziergeometrie (ISO)
100
AcDbLine
 10
241.1464413249958
 20
132.3285837566519
 30
0.0
 11
241.1464413249958
 21
142.3285837566519
 31
0.0
  0
LINE
  5
AD3
330
23
100
AcDbEntity
  8
Skizziergeometrie (ISO)
100
AcDbLine
 10
242.6464413249957
 20
142.3285837566519
 30
0.0
 11
241.1464413249958
 21
142.3285837566519
 31
0.0
  0
LINE
  5
AD4
330
23
100
AcDbEntity
  8
Skizziergeometrie (ISO)
100
AcDbLine
 10
241.1464413249958
 20
142.3285837566519
 30
0.0
 11
241.1464413249958
 21
132.3285837566519
 31
0.0
  0
LINE
  5
AD5
330
23
100
AcDbEntity
  8
Skizziergeometrie (ISO)
100
AcDbLine
 10
241.1464413249958
 20
132.3285837566519
 30
0.0
 11
242.6464413249957
 21
132.3285837566519
 31
0.0
  0
LINE
  5
AD6
330
23
100
AcDbEntity
  8
Skizziergeometrie (ISO)
100
AcDbLine
 10
242.6464413249957
 20
132.3285837566519
 30
0.0
 11
242.6464413249957
 21
142.3285837566519
 31
0.0
  0
LINE
  5
AD7
330
23
100
AcDbEntity
  8
Skizziergeometrie (ISO)
100
AcDbLine
 10
244.1464413249958
 20
142.3285837566519
 30
0.0
 11
242.6464413249957
 21
142.3285837566519
 31
0.0
  0
LINE
  5
AD8
330
23
100
AcDbEntity
  8
Skizziergeometrie (ISO)
100
AcDbLine
 10
242.6464413249957
 20
142.3285837566519
 30
0.0
 11
242.6464413249957
 21
132.3285837566519
 31
0.0
  0
LINE
  5
AD9
330
23
100
AcDbEntity
  8
Skizziergeometrie (ISO)
100
AcDbLine
 10
242.6464413249957
 20
132.3285837566519
 30
0.0
 11
244.1464413249958
 21
132.3285837566519
 31
0.0
  0
LINE
  5
ADA
330
23
100
AcDbEntity
  8
Skizziergeometrie (ISO)
100
AcDbLine
 10
244.1464413249958
 20
132.3285837566519
 30
0.0
 11
244.1464413249958
 21
142.3285837566519
 31
0.0
  0
LINE
  5
ADB
330
23
100
AcDbEntity
  8
Skizziergeometrie (ISO)
100
AcDbLine
 10
245.6464413249957
 20
142.3285837566519
 30
0.0
 11
244.1464413249958
 21
142.3285837566519
 31
0.0
  0
LINE
  5
ADC
330
23
100
AcDbEntity
  8
Skizziergeometrie (ISO)
100
AcDbLine
 10
244.1464413249958
 20
142.3285837566519
 30
0.0
 11
244.1464413249958
 21
132.3285837566519
 31
0.0
  0
LINE
  5
ADD
330
23
100
AcDbEntity
  8
Skizziergeometrie (ISO)
100
AcDbLine
 10
244.1464413249958
 20
132.3285837566519
 30
0.0
 11
245.6464413249957
 21
132.3285837566519
 31
0.0
  0
LINE
  5
ADE
330
23
100
AcDbEntity
  8
Skizziergeometrie (ISO)
100
AcDbLine
 10
245.6464413249957
 20
132.3285837566519
 30
0.0
 11
245.6464413249957
 21
142.3285837566519
 31
0.0
  0
LINE
  5
ADF
330
23
100
AcDbEntity
  8
Skizziergeometrie (ISO)
370
    70
100
AcDbLine
 10
135.0146778872652
 20
95.21136279778108
 30
0.0
 11
240.0146778872652
 21
95.21136279778106
 31
0.0
  0
LINE
  5
AE0
330
23
100
AcDbEntity
  8
Skizziergeometrie (ISO)
370
    70
100
AcDbLine
 10
240.0146778872652
 20
95.21136279778106
 30
0.0
 11
240.0146778872652
 21
85.2113627977811
 31
0.0
  0
LINE
  5
AE1
330
23
100
AcDbEntity
  8
Skizziergeometrie (ISO)
370
    70
100
AcDbLine
 10
240.0146778872652
 20
85.2113627977811
 30
0.0
 11
135.0146778872652
 21
85.21136279778108
 31
0.0
  0
LINE
  5
AE2
330
23
100
AcDbEntity
  8
Skizziergeometrie (ISO)
370
    70
100
AcDbLine
 10
135.0146778872652
 20
85.21136279778108
 30
0.0
 11
135.0146778872652
 21
95.21136279778108
 31
0.0
  0
LINE
  5
AE3
330
23
100
AcDbEntity
  8
Skizziergeometrie (ISO)
370
    70
100
AcDbLine
 10
135.0146778872652
 20
85.21136279778108
 30
0.0
 11
240.0146778872652
 21
85.2113627977811
 31
0.0
  0
LINE
  5
AE4
330
23
100
AcDbEntity
  8
Skizziergeometrie (ISO)
370
    70
100
AcDbLine
 10
240.0146778872652
 20
85.2113627977811
 30
0.0
 11
240.0146778872652
 21
80.21136279778106
 31
0.0
  0
LINE
  5
AE5
330
23
100
AcDbEntity
  8
Skizziergeometrie (ISO)
370
    70
100
AcDbLine
 10
240.0146778872652
 20
80.21136279778106
 30
0.0
 11
135.0146778872652
 21
80.21136279778108
 31
0.0
  0
LINE
  5
AE6
330
23
100
AcDbEntity
  8
Skizziergeometrie (ISO)
370
    70
100
AcDbLine
 10
135.0146778872652
 20
80.21136279778108
 30
0.0
 11
135.0146778872652
 21
85.21136279778108
 31
0.0
  0
LINE
  5
AE7
330
23
100
AcDbEntity
  8
Skizziergeometrie (ISO)
370
    70
100
AcDbLine
 10
240.0146778872652
 20
80.21136279778106
 30
0.0
 11
135.0146778872652
 21
80.21136279778108
 31
0.0
  0
LINE
  5
AE8
330
23
100
AcDbEntity
  8
Skizziergeometrie (ISO)
370
    70
100
AcDbLine
 10
135.0146778872652
 20
80.21136279778108
 30
0.0
 11
135.0146778872652
 21
75.21136279778106
 31
0.0
  0
LINE
  5
AE9
330
23
100
AcDbEntity
  8
Skizziergeometrie (ISO)
370
    70
100
AcDbLine
 10
135.0146778872652
 20
75.21136279778106
 30
0.0
 11
240.0146778872652
 21
75.21136279778106
 31
0.0
  0
LINE
  5
AEA
330
23
100
AcDbEntity
  8
Skizziergeometrie (ISO)
370
    70
100
AcDbLine
 10
240.0146778872652
 20
75.21136279778106
 30
0.0
 11
240.0146778872652
 21
80.21136279778106
 31
0.0
  0
LINE
  5
AEB
330
23
100
AcDbEntity
  8
Skizziergeometrie (ISO)
370
    70
100
AcDbLine
 10
240.0146778872652
 20
75.21136279778106
 30
0.0
 11
135.0146778872652
 21
75.21136279778106
 31
0.0
  0
LINE
  5
AEC
330
23
100
AcDbEntity
  8
Skizziergeometrie (ISO)
370
    70
100
AcDbLine
 10
135.0146778872652
 20
75.21136279778106
 30
0.0
 11
135.0146778872652
 21
70.21136279778106
 31
0.0
  0
LINE
  5
AED
330
23
100
AcDbEntity
  8
Skizziergeometrie (ISO)
370
    70
100
AcDbLine
 10
135.0146778872652
 20
70.21136279778106
 30
0.0
 11
240.0146778872652
 21
70.21136279778106
 31
0.0
  0
LINE
  5
AEE
330
23
100
AcDbEntity
  8
Skizziergeometrie (ISO)
370
    70
100
AcDbLine
 10
240.0146778872652
 20
70.21136279778106
 30
0.0
 11
240.0146778872652
 21
75.21136279778106
 31
0.0
  0
LINE
  5
AEF
330
23
100
AcDbEntity
  8
Skizziergeometrie (ISO)
370
    70
100
AcDbLine
 10
135.0146778872652
 20
95.21136279778108
 30
0.0
 11
165.0146778872652
 21
95.21136279778106
 31
0.0
  0
LINE
  5
AF0
330
23
100
AcDbEntity
  8
Skizziergeometrie (ISO)
370
    70
100
AcDbLine
 10
165.0146778872652
 20
95.21136279778106
 30
0.0
 11
165.0146778872652
 21
70.21136279778106
 31
0.0
  0
LINE
  5
AF1
330
23
100
AcDbEntity
  8
Skizziergeometrie (ISO)
370
    70
100
AcDbLine
 10
165.0146778872652
 20
70.21136279778106
 30
0.0
 11
135.0146778872652
 21
70.21136279778106
 31
0.0
  0
LINE
  5
AF2
330
23
100
AcDbEntity
  8
Skizziergeometrie (ISO)
370
    70
100
AcDbLine
 10
135.0146778872652
 20
70.21136279778106
 30
0.0
 11
135.0146778872652
 21
95.21136279778108
 31
0.0
  0
LINE
  5
AF3
330
23
100
AcDbEntity
  8
Skizziergeometrie (ISO)
370
    70
100
AcDbLine
 10
165.0146778872652
 20
95.21136279778106
 30
0.0
 11
195.0146778872652
 21
95.21136279778106
 31
0.0
  0
LINE
  5
AF4
330
23
100
AcDbEntity
  8
Skizziergeometrie (ISO)
370
    70
100
AcDbLine
 10
195.0146778872652
 20
95.21136279778106
 30
0.0
 11
195.0146778872652
 21
70.21136279778106
 31
0.0
  0
LINE
  5
AF5
330
23
100
AcDbEntity
  8
Skizziergeometrie (ISO)
370
    70
100
AcDbLine
 10
195.0146778872652
 20
70.21136279778106
 30
0.0
 11
165.0146778872652
 21
70.21136279778106
 31
0.0
  0
LINE
  5
AF6
330
23
100
AcDbEntity
  8
Skizziergeometrie (ISO)
370
    70
100
AcDbLine
 10
165.0146778872652
 20
70.21136279778106
 30
0.0
 11
165.0146778872652
 21
95.21136279778106
 31
0.0
  0
LINE
  5
AF7
330
23
100
AcDbEntity
  8
Skizziergeometrie (ISO)
100
AcDbLine
 10
195.0146778872652
 20
70.21136279778106
 30
0.0
 11
240.0146778872652
 21
70.21136279778106
 31
0.0
  0
LINE
  5
AF8
330
23
100
AcDbEntity
  8
Skizziergeometrie (ISO)
370
    70
100
AcDbLine
 10
240.0146778872652
 20
70.21136279778106
 30
0.0
 11
240.0146778872652
 21
95.21136279778106
 31
0.0
  0
LINE
  5
AF9
330
23
100
AcDbEntity
  8
Skizziergeometrie (ISO)
100
AcDbLine
 10
240.0146778872652
 20
95.21136279778106
 30
0.0
 11
195.0146778872652
 21
95.21136279778106
 31
0.0
  0
LINE
  5
AFA
330
23
100
AcDbEntity
  8
Skizziergeometrie (ISO)
100
AcDbLine
 10
195.0146778872652
 20
95.21136279778106
 30
0.0
 11
195.0146778872652
 21
70.21136279778106
 31
0.0
  0
LINE
  5
AFB
330
23
100
AcDbEntity
  8
Skizziergeometrie (ISO)
370
    70
100
AcDbLine
 10
240.0146778872652
 20
70.21136279778106
 30
0.0
 11
282.0146778872652
 21
70.21136279778106
 31
0.0
  0
LINE
  5
AFC
330
23
100
AcDbEntity
  8
Skizziergeometrie (ISO)
370
    70
100
AcDbLine
 10
282.0146778872652
 20
70.21136279778106
 30
0.0
 11
282.0146778872652
 21
95.21136279778108
 31
0.0
  0
LINE
  5
AFD
330
23
100
AcDbEntity
  8
Skizziergeometrie (ISO)
370
    70
100
AcDbLine
 10
282.0146778872652
 20
95.21136279778108
 30
0.0
 11
240.0146778872652
 21
95.21136279778108
 31
0.0
  0
LINE
  5
AFE
330
23
100
AcDbEntity
  8
Skizziergeometrie (ISO)
370
    70
100
AcDbLine
 10
240.0146778872652
 20
95.21136279778108
 30
0.0
 11
240.0146778872652
 21
70.21136279778106
 31
0.0
  0
LINE
  5
AFF
330
23
100
AcDbEntity
  8
Skizziergeometrie (ISO)
370
    70
100
AcDbLine
 10
240.0146778872652
 20
85.2113627977811
 30
0.0
 11
282.0146778872652
 21
85.2113627977811
 31
0.0
  0
LINE
  5
B00
330
23
100
AcDbEntity
  8
Skizziergeometrie (ISO)
370
    70
100
AcDbLine
 10
282.0146778872652
 20
85.2113627977811
 30
0.0
 11
282.0146778872652
 21
95.21136279778108
 31
0.0
  0
LINE
  5
B01
330
23
100
AcDbEntity
  8
Skizziergeometrie (ISO)
370
    70
100
AcDbLine
 10
282.0146778872652
 20
95.21136279778108
 30
0.0
 11
240.0146778872652
 21
95.21136279778108
 31
0.0
  0
LINE
  5
B02
330
23
100
AcDbEntity
  8
Skizziergeometrie (ISO)
370
    70
100
AcDbLine
 10
240.0146778872652
 20
95.21136279778108
 30
0.0
 11
240.0146778872652
 21
85.2113627977811
 31
0.0
  0
LINE
  5
B03
330
23
100
AcDbEntity
  8
Skizziergeometrie (ISO)
370
    70
100
AcDbLine
 10
240.0146778872652
 20
80.21136279778106
 30
0.0
 11
282.0146778872652
 21
80.21136279778108
 31
0.0
  0
LINE
  5
B04
330
23
100
AcDbEntity
  8
Skizziergeometrie (ISO)
370
    70
100
AcDbLine
 10
282.0146778872652
 20
80.21136279778108
 30
0.0
 11
282.0146778872652
 21
85.21136279778112
 31
0.0
  0
LINE
  5
B05
330
23
100
AcDbEntity
  8
Skizziergeometrie (ISO)
370
    70
100
AcDbLine
 10
282.0146778872652
 20
85.2113627977811
 30
0.0
 11
240.0146778872652
 21
85.2113627977811
 31
0.0
  0
LINE
  5
B06
330
23
100
AcDbEntity
  8
Skizziergeometrie (ISO)
370
    70
100
AcDbLine
 10
240.0146778872652
 20
85.2113627977811
 30
0.0
 11
240.0146778872652
 21
80.21136279778106
 31
0.0
  0
LINE
  5
B07
330
23
100
AcDbEntity
  8
Skizziergeometrie (ISO)
370
    70
100
AcDbLine
 10
240.0146778872652
 20
75.21136279778106
 30
0.0
 11
282.0146778872652
 21
75.21136279778106
 31
0.0
  0
LINE
  5
B08
330
23
100
AcDbEntity
  8
Skizziergeometrie (ISO)
370
    70
100
AcDbLine
 10
282.0146778872652
 20
75.21136279778106
 30
0.0
 11
282.0146778872652
 21
80.21136279778108
 31
0.0
  0
LINE
  5
B09
330
23
100
AcDbEntity
  8
Skizziergeometrie (ISO)
370
    70
100
AcDbLine
 10
282.0146778872652
 20
80.21136279778108
 30
0.0
 11
240.0146778872652
 21
80.21136279778108
 31
0.0
  0
LINE
  5
B0A
330
23
100
AcDbEntity
  8
Skizziergeometrie (ISO)
370
    70
100
AcDbLine
 10
240.0146778872652
 20
80.21136279778106
 30
0.0
 11
240.0146778872652
 21
75.21136279778106
 31
0.0
  0
MTEXT
  5
B0B
330
23
100
AcDbEntity
  8
Symbol (ISO)
100
AcDbMText
 10
150.0146778872652
 20
90.21136279778108
 30
0.0
 40
2.5
 41
27.6474838256836
 71
     5
 72
     1
  1
\fArial|b1|i0;\H2.5000;Artikelnummer/\Particle number
  7
Notiztext (DIN)
 73
     2
 44
0.9442214965820312
  0
MTEXT
  5
B0C
330
23
100
AcDbEntity
  8
Symbol (ISO)
100
AcDbMText
 10
180.0146778872652
 20
90.2113627977811
 30
0.0
 40
2.5
 41
35.68368530273439
 71
     5
 72
     1
  1
\fArial|b1|i0;\H2.5000;Besatzmaterial/ \Pbrushmaterial
  7
Notiztext (DIN)
 73
     2
 44
0.9442214965820312
  0
MTEXT
  5
B0D
330
23
100
AcDbEntity
  8
Symbol (ISO)
100
AcDbMText
 10
217.5146778872652
 20
90.21136279778108
 30
0.0
 40
2.5
 41
49.35644557918573
 71
     5
 72
     1
  1
\fArial|b1|i0;\H2.5000;max. Einsatztemperatur/ \Pmax. working temperature
  7
Notiztext (DIN)
 73
     2
 44
0.9442214965820312
  0
MTEXT
  5
B0E
330
23
100
AcDbEntity
  8
Symbol (ISO)
100
AcDbMText
 10
261.0146778872652
 20
90.2113627977811
 30
0.0
 40
2.5
 41
58.40709678146488
 71
     5
 72
     1
  1
\fArial|b1|i0;\H2.5000;Anschlussgewinde "M"/\Pconnecting thread "M"
  7
Notiztext (DIN)
 73
     2
 44
0.9442214965820312
  0
MTEXT
  5
B0F
330
23
100
AcDbEntity
  8
Symbol (ISO)
100
AcDbMText
 10
150.0146778872652
 20
82.71136279778108
 30
0.0
 40
2.5
 41
20.47332215309144
 71
     5
 72
     1
  1
\fArial|b1|i0;\H2.5000;27.005.056
  7
Notiztext (DIN)
 73
     1
 44
1.0
  0
MTEXT
  5
B10
330
23
100
AcDbEntity
  8
Symbol (ISO)
100
AcDbMText
 10
150.0146778872652
 20
77.71136279778106
 30
0.0
 40
2.5
 41
20.47332215309147
 71
     5
 72
     1
  1
\fArial|b1|i0;\H2.5000;27.005.073
  7
Notiztext (DIN)
 73
     1
 44
1.0
  0
MTEXT
  5
B11
330
23
100
AcDbEntity
  8
Symbol (ISO)
100
AcDbMText
 10
150.0146778872652
 20
72.71136279778106
 30
0.0
 40
2.5
 41
20.47332215309147
 71
     5
 72
     1
  1
\fArial|b1|i0;\H2.5000;27.005.075
  7
Notiztext (DIN)
 73
     1
 44
1.0
  0
MTEXT
  5
B12
330
23
100
AcDbEntity
  8
Symbol (ISO)
100
AcDbMText
 10
180.0146778872652
 20
82.71136279778106
 30
0.0
 40
2.5
 41
28.12461709976198
 71
     5
 72
     1
  1
\fArial|b1|i0;\H2.5000;Polypropylen
  7
Notiztext (DIN)
 73
     1
 44
1.0
  0
MTEXT
  5
B13
330
23
100
AcDbEntity
  8
Symbol (ISO)
100
AcDbMText
 10
180.0146778872652
 20
77.71136279778106
 30
0.0
 40
2.5
 41
19.39367270469667
 71
     5
 72
     1
  1
\fArial|b1|i0;\H2.5000;Pekalon
  7
Notiztext (DIN)
 73
     1
 44
1.0
  0
MTEXT
  5
B14
330
23
100
AcDbEntity
  8
Symbol (ISO)
100
AcDbMText
 10
180.0146778872652
 20
72.71136279778106
 30
0.0
 40
2.5
 41
24.44321608543397
 71
     5
 72
     1
  1
\fArial|b1|i0;\H2.5000;V2A 1.4301
  7
Notiztext (DIN)
 73
     1
 44
1.0
  0
MTEXT
  5
B15
330
23
100
AcDbEntity
  8
Symbol (ISO)
100
AcDbMText
 10
261.0146778872652
 20
82.71136279778106
 30
0.0
 40
2.5
 41
22.8513716459274
 71
     5
 72
     1
  1
\fArial|b1|i0;\H2.5000;M5
  7
Notiztext (DIN)
 73
     1
 44
1.0
  0
MTEXT
  5
B16
330
23
100
AcDbEntity
  8
Symbol (ISO)
100
AcDbMText
 10
261.0146778872652
 20
77.71136279778106
 30
0.0
 40
2.5
 41
22.8513716459274
 71
     5
 72
     1
  1
\fArial|b1|i0;\H2.5000;M6
  7
Notiztext (DIN)
 73
     1
 44
1.0
  0
MTEXT
  5
B17
330
23
100
AcDbEntity
  8
Symbol (ISO)
100
AcDbMText
 10
261.0146778872652
 20
72.71136279778106
 30
0.0
 40
2.5
 41
22.8513716459274
 71
     5
 72
     1
  1
\fArial|b1|i0;\H2.5000;M6
  7
Notiztext (DIN)
 73
     1
 44
1.0
  0
MTEXT
  5
B18
330
23
100
AcDbEntity
  8
Symbol (ISO)
100
AcDbMText
 10
217.5146778872652
 20
82.71136279778106
 30
0.0
 40
2.5
 41
30.44730080848057
 71
     5
 72
     1
  1
\fArial|b1|i0;\H2.5000;+80°C
  7
Notiztext (DIN)
 73
     1
 44
1.0
  0
MTEXT
  5
B19
330
23
100
AcDbEntity
  8
Symbol (ISO)
100
AcDbMText
 10
217.5146778872652
 20
77.71136279778108
 30
0.0
 40
2.5
 41
24.80279318073475
 71
     5
 72
     1
  1
\fArial|b1|i0;\H2.5000;+180°C
  7
Notiztext (DIN)
 73
     1
 44
1.0
  0
MTEXT
  5
B1A
330
23
100
AcDbEntity
  8
Symbol (ISO)
100
AcDbMText
 10
217.5146778872652
 20
72.71136279778106
 30
0.0
 40
2.5
 41
28.59589311115044
 71
     5
 72
     1
  1
\fArial|b1|i0;\H2.5000;+350°C
  7
Notiztext (DIN)
 73
     1
 44
1.0
  0
MTEXT
  5
B1B
330
23
100
AcDbEntity
  8
Symbol (ISO)
100
AcDbMText
 10
200.5330159301975
 20
21.6953282879149
 30
0.0
 40
2.000000029802322
 41
68.78506183624267
 71
     1
 72
     1
  1
{\fArial|b1|i0;\H2.0000;ECOSY Sonderbürste mit Befestigungsgewinde M6/\PECOSY special brush with mounting thread M6}
  7
Notiztext (DIN)
 73
     2
 44
0.9442214369773864
  0
MTEXT
  5
B1C
330
23
100
AcDbEntity
  8
Symbol (ISO)
100
AcDbMText
 10
101.7515819679813
 20
57.42160294614106
 30
0.0
 40
3.000000119209289
 41
45.44131278991699
 71
     1
 72
     1
  1
{\fArial|b1|i0;\H3.0000;27.005.056/ 27.005.073/\P27.005.075}
  7
Notiztext (DIN)
 73
     2
 44
0.9442214965820312
  0
MTEXT
  5
B1D
330
23
100
AcDbEntity
  8
Symbol (ISO)
100
AcDbMText
 10
186.5786835765083
 20
57.10132291493855
 30
0.0
 40
1.749999970197677
 41
13.58517527580261
 71
     5
 72
     1
  1
{\fArial|b1|i0;\H1.7500;all\Pdimensions\Pin [mm]}
  7
Notiztext (DIN)
 73
     2
 44
0.9442214965820312
  0
MTEXT
  5
B1E
330
23
100
AcDbEntity
  8
Symbol (ISO)
100
AcDbMText
 10
164.0463991071766
 20
56.89133495185415
 30
0.0
 40
1.749999970197677
 41
21.74294948577883
 71
     5
 72
     1
  1
{\fArial|b1|i0;\H1.7500;Allgemeintoleranz/\Pgeneral tolerance\PDIN 2768-mK}
  7
Notiztext (DIN)
 73
     2
 44
0.9442214965820312
  0
MTEXT
  5
B1F
330
23
100
AcDbEntity
  8
Symbol (ISO)
100
AcDbMText
 10
165.6608081463935
 20
38.72761086857375
 30
0.0
 40
2.000000029802322
 41
8.719926476478576
 71
     1
 72
     1
  1
{\fISOCPEUR|b0|i0;\H2.0000;28.11.06}
  7
Notiztext (DIN)
 73
     1
 44
1.0
  0
MTEXT
  5
B20
330
23
100
AcDbEntity
  8
Symbol (ISO)
100
AcDbMText
 10
183.3219673122547
 20
38.62532889788121
 30
0.0
 40
2.000000029802322
 41
6.934802532196044
 71
     1
 72
     1
  1
{\fISOCPEUR|b0|i0;\H2.0000;Brand}
  7
Notiztext (DIN)
 73
     1
 44
1.0
  0
ENDSEC
  0
SECTION
  2
OBJECTS
  0
DICTIONARY
  5
C
330
0
100
AcDbDictionary
281
     1
  3
ACAD_COLOR
350
1C
  3
ACAD_GROUP
350
D
  3
ACAD_LAYOUT
350
1A
  3
ACAD_MATERIAL
350
1B
  3
ACAD_MLINESTYLE
350
17
  3
ACAD_PLOTSETTINGS
350
19
  3
ACAD_PLOTSTYLENAME
350
E
  3
ACAD_TABLESTYLE
350
1D
  3
AcDbVariableDictionary
350
B83
  0
DICTIONARY
  5
1C
102
{ACAD_REACTORS
330
C
102
}
330
C
100
AcDbDictionary
281
     1
  0
DICTIONARY
  5
D
102
{ACAD_REACTORS
330
C
102
}
330
C
100
AcDbDictionary
281
     1
  0
DICTIONARY
  5
1A
102
{ACAD_REACTORS
330
C
102
}
330
C
100
AcDbDictionary
281
     1
  3
Layout1
350
22
  3
Layout2
350
2A
  3
Model
350
26
  0
DICTIONARY
  5
1B
102
{ACAD_REACTORS
330
C
102
}
330
C
100
AcDbDictionary
281
     1
  0
DICTIONARY
  5
17
102
{ACAD_REACTORS
330
C
102
}
330
C
100
AcDbDictionary
281
     1
  3
Standard
350
18
  0
DICTIONARY
  5
19
102
{ACAD_REACTORS
330
C
102
}
330
C
100
AcDbDictionary
281
     1
  0
ACDBDICTIONARYWDFLT
  5
E
102
{ACAD_REACTORS
330
C
102
}
330
C
100
AcDbDictionary
281
     1
  3
Normal
350
F
100
AcDbDictionaryWithDefault
340
F
  0
DICTIONARY
  5
1D
102
{ACAD_REACTORS
330
C
102
}
330
C
100
AcDbDictionary
281
     1
  3
Standard
350
1E
  0
DICTIONARY
  5
B83
102
{ACAD_REACTORS
330
C
102
}
330
C
100
AcDbDictionary
281
     1
  3
CTABLESTYLE
350
B84
  0
LAYOUT
  5
22
102
{ACAD_REACTORS
330
1A
102
}
330
1A
100
AcDbPlotSettings
  1

  2

  4

  6

 40
0.0
 41
0.0
 42
0.0
 43
0.0
 44
0.0
 45
0.0
 46
0.0
 47
0.0
 48
0.0
 49
0.0
140
0.0
141
0.0
142
1.0
143
1.0
 70
   688
 72
     0
 73
     0
 74
     5
  7

 75
    16
147
1.0
 76
     0
 77
     2
 78
   300
148
0.0
149
0.0
100
AcDbLayout
  1
Layout1
 70
     1
 71
     1
 10
0.0
 20
0.0
 11
12.0
 21
9.0
 12
0.0
 22
0.0
 32
0.0
 14
0.0
 24
0.0
 34
0.0
 15
0.0
 25
0.0
 35
0.0
146
0.0
 13
0.0
 23
0.0
 33
0.0
 16
1.0
 26
0.0
 36
0.0
 17
0.0
 27
1.0
 37
0.0
 76
     0
330
1F
  0
LAYOUT
  5
2A
102
{ACAD_REACTORS
330
1A
102
}
330
1A
100
AcDbPlotSettings
  1

  2

  4

  6

 40
0.0
 41
0.0
 42
0.0
 43
0.0
 44
0.0
 45
0.0
 46
0.0
 47
0.0
 48
0.0
 49
0.0
140
0.0
141
0.0
142
1.0
143
1.0
 70
   688
 72
     0
 73
     0
 74
     5
  7

 75
    16
147
1.0
 76
     0
 77
     2
 78
   300
148
0.0
149
0.0
100
AcDbLayout
  1
Layout2
 70
     1
 71
     2
 10
0.0
 20
0.0
 11
12.0
 21
9.0
 12
0.0
 22
0.0
 32
0.0
 14
0.0
 24
0.0
 34
0.0
 15
0.0
 25
0.0
 35
0.0
146
0.0
 13
0.0
 23
0.0
 33
0.0
 16
1.0
 26
0.0
 36
0.0
 17
0.0
 27
1.0
 37
0.0
 76
     0
330
27
  0
LAYOUT
  5
26
102
{ACAD_REACTORS
330
1A
102
}
330
1A
100
AcDbPlotSettings
  1

  2

  4

  6

 40
0.0
 41
0.0
 42
0.0
 43
0.0
 44
0.0
 45
0.0
 46
0.0
 47
0.0
 48
0.0
 49
0.0
140
0.0
141
0.0
142
1.0
143
1.0
 70
  1712
 72
     0
 73
     0
 74
     0
  7

 75
     0
147
1.0
 76
     0
 77
     2
 78
   300
148
0.0
149
0.0
100
AcDbLayout
  1
Model
 70
     1
 71
     0
 10
0.0
 20
0.0
 11
12.0
 21
9.0
 12
0.0
 22
0.0
 32
0.0
 14
0.0
 24
0.0
 34
0.0
 15
0.0
 25
0.0
 35
0.0
146
0.0
 13
0.0
 23
0.0
 33
0.0
 16
1.0
 26
0.0
 36
0.0
 17
0.0
 27
1.0
 37
0.0
 76
     0
330
23
  0
MLINESTYLE
  5
18
102
{ACAD_REACTORS
330
17
102
}
330
17
100
AcDbMlineStyle
  2
STANDARD
 70
     0
  3

 62
   256
 51
90.0
 52
90.0
 71
     2
 49
0.5
 62
   256
  6
BYLAYER
 49
-0.5
 62
   256
  6
BYLAYER
  0
ACDBPLACEHOLDER
  5
F
102
{ACAD_REACTORS
330
E
102
}
330
E
  0
TABLESTYLE
  5
1E
102
{ACAD_REACTORS
330
1D
102
}
330
1D
100
AcDbTableStyle
  3
Standard
 70
     0
 71
     0
 40
0.06
 41
0.06
280
     0
281
     0
  7
Standard
140
0.18
170
     2
 62
     0
 63
     7
283
     0
274
    -2
284
     1
 64
     0
275
    -2
285
     1
 65
     0
276
    -2
286
     1
 66
     0
277
    -2
287
     1
 67
     0
278
    -2
288
     1
 68
     0
279
    -2
289
     1
 69
     0
  7
Standard
140
0.25
170
     5
 62
     0
 63
     7
283
     0
274
    -2
284
     1
 64
     0
275
    -2
285
     1
 65
     0
276
    -2
286
     1
 66
     0
277
    -2
287
     1
 67
     0
278
    -2
288
     1
 68
     0
279
    -2
289
     1
 69
     0
  7
Standard
140
0.18
170
     5
 62
     0
 63
     7
283
     0
274
    -2
284
     1
 64
     0
275
    -2
285
     1
 65
     0
276
    -2
286
     1
 66
     0
277
    -2
287
     1
 67
     0
278
    -2
288
     1
 68
     0
279
    -2
289
     1
 69
     0
  0
DICTIONARYVAR
  5
B84
102
{ACAD_REACTORS
330
B83
102
}
330
B83
100
DictionaryVariables
280
     0
  1
STANDARD
  0
ENDSEC
  0
EOF
