  0
SECTION
  2
HEADER
  9
$ACADVER
  1
AC1024
  9
$ACADMAINTVER
 70
   108
  9
$DWGCODEPAGE
  3
ANSI_1252
  9
$AUTHOR
  1
sabba3451
  9
$CUSTOMPROPERTYTAG
  1
Manager
  9
$CUSTOMPROPERTY
  1

  9
$CUSTOMPROPERTYTAG
  1
Firma
  9
$CUSTOMPROPERTY
  1

  9
$CUSTOMPROPERTYTAG
  1
Kategorie
  9
$CUSTOMPROPERTY
  1

  9
$CUSTOMPROPERTYTAG
  1
Bauteilnummer
  9
$CUSTOMPROPERTY
  1
angea12b
  9
$CUSTOMPROPERTYTAG
  1
Bezeichnung
  9
$CUSTOMPROPERTY
  1

  9
$CUSTOMPROPERTYTAG
  1
Projekt
  9
$CUSTOMPROPERTY
  1

  9
$CUSTOMPROPERTYTAG
  1
Konstrukteur
  9
$CUSTOMPROPERTY
  1
sabba3451
  9
$CUSTOMPROPERTYTAG
  1
Ingenieur
  9
$CUSTOMPROPERTY
  1

  9
$CUSTOMPROPERTYTAG
  1
Bevollmächtigter
  9
$CUSTOMPROPERTY
  1

  9
$CUSTOMPROPERTYTAG
  1
Kostenstelle
  9
$CUSTOMPROPERTY
  1

  9
$CUSTOMPROPERTYTAG
  1
Zulieferer
  9
$CUSTOMPROPERTY
  1

  9
$CUSTOMPROPERTYTAG
  1
Benutzerstatus
  9
$CUSTOMPROPERTY
  1

  9
$CUSTOMPROPERTYTAG
  1
Konstruktionsstatus
  9
$CUSTOMPROPERTY
  1
InBearbeitung
  9
$CUSTOMPROPERTYTAG
  1
Kontrolliert von
  9
$CUSTOMPROPERTY
  1

  9
$CUSTOMPROPERTYTAG
  1
Konstruktion genehmigt von
  9
$CUSTOMPROPERTY
  1

  9
$CUSTOMPROPERTYTAG
  1
Fertigung genehmigt von
  9
$CUSTOMPROPERTY
  1

  9
$CUSTOMPROPERTYTAG
  1
AmdtFileType
  9
$CUSTOMPROPERTY
  1
84
  9
$INSBASE
 10
0.0
 20
0.0
 30
0.0
  9
$EXTMIN
 10
0.0
 20
0.0
 30
0.0
  9
$EXTMAX
 10
105.0
 20
148.5
 30
0.0
  9
$LIMMIN
 10
0.0
 20
0.0
  9
$LIMMAX
 10
105.0
 20
148.5
  9
$ORTHOMODE
 70
     0
  9
$REGENMODE
 70
     1
  9
$FILLMODE
 70
     1
  9
$QTEXTMODE
 70
     0
  9
$MIRRTEXT
 70
     0
  9
$LTSCALE
 40
0.5
  9
$ATTMODE
 70
     1
  9
$TEXTSIZE
 40
0.2
  9
$TRACEWID
 40
0.05
  9
$TEXTSTYLE
  7
Standard
  9
$CLAYER
  8
0
  9
$CELTYPE
  6
ByLayer
  9
$CECOLOR
 62
   256
  9
$CELTSCALE
 40
1.0
  9
$DISPSILH
 70
     0
  9
$DIMSCALE
 40
1.0
  9
$DIMASZ
 40
1.799999999999999
  9
$DIMEXO
 40
0.0625
  9
$DIMDLI
 40
0.38
  9
$DIMRND
 40
0.0
  9
$DIMDLE
 40
0.0
  9
$DIMEXE
 40
0.18
  9
$DIMTP
 40
0.0
  9
$DIMTM
 40
0.0
  9
$DIMTXT
 40
0.25
  9
$DIMCEN
 40
0.09
  9
$DIMTSZ
 40
0.0
  9
$DIMTOL
 70
     0
  9
$DIMLIM
 70
     0
  9
$DIMTIH
 70
     1
  9
$DIMTOH
 70
     1
  9
$DIMSE1
 70
     0
  9
$DIMSE2
 70
     0
  9
$DIMTAD
 70
     0
  9
$DIMZIN
 70
     0
  9
$DIMBLK
  1

  9
$DIMASO
 70
     1
  9
$DIMSHO
 70
     1
  9
$DIMPOST
  1

  9
$DIMAPOST
  1

  9
$DIMALT
 70
     0
  9
$DIMALTD
 70
     2
  9
$DIMALTF
 40
25.4
  9
$DIMLFAC
 40
1.0
  9
$DIMTOFL
 70
     0
  9
$DIMTVP
 40
0.0
  9
$DIMTIX
 70
     0
  9
$DIMSOXD
 70
     0
  9
$DIMSAH
 70
     0
  9
$DIMBLK1
  1

  9
$DIMBLK2
  1

  9
$DIMSTYLE
  2
Standard
  9
$DIMCLRD
 70
     0
  9
$DIMCLRE
 70
     0
  9
$DIMCLRT
 70
     0
  9
$DIMTFAC
 40
1.0
  9
$DIMGAP
 40
0.09
  9
$DIMJUST
 70
     0
  9
$DIMSD1
 70
     0
  9
$DIMSD2
 70
     0
  9
$DIMTOLJ
 70
     1
  9
$DIMTZIN
 70
     0
  9
$DIMALTZ
 70
     0
  9
$DIMALTTZ
 70
     0
  9
$DIMUPT
 70
     0
  9
$DIMDEC
 70
     4
  9
$DIMTDEC
 70
     4
  9
$DIMALTU
 70
     2
  9
$DIMALTTD
 70
     2
  9
$DIMTXSTY
  7
Standard
  9
$DIMAUNIT
 70
     0
  9
$DIMADEC
 70
     0
  9
$DIMALTRND
 40
0.0
  9
$DIMAZIN
 70
     0
  9
$DIMDSEP
 70
    46
  9
$DIMATFIT
 70
     3
  9
$DIMFRAC
 70
     0
  9
$DIMLDRBLK
  1

  9
$DIMLUNIT
 70
     2
  9
$DIMLWD
 70
    -2
  9
$DIMLWE
 70
    -2
  9
$DIMTMOVE
 70
     0
  9
$DIMFXL
 40
1.0
  9
$DIMFXLON
 70
     0
  9
$DIMJOGANG
 40
0.7853981633974483
  9
$DIMTFILL
 70
     0
  9
$DIMTFILLCLR
 70
     0
  9
$DIMARCSYM
 70
     0
  9
$DIMLTYPE
  6

  9
$DIMLTEX1
  6

  9
$DIMLTEX2
  6

  9
$DIMTXTDIRECTION
 70
     0
  9
$LUNITS
 70
     2
  9
$LUPREC
 70
     4
  9
$SKETCHINC
 40
0.1
  9
$FILLETRAD
 40
0.0
  9
$AUNITS
 70
     0
  9
$AUPREC
 70
     0
  9
$MENU
  1
.
  9
$ELEVATION
 40
0.0
  9
$PELEVATION
 40
0.0
  9
$THICKNESS
 40
0.0
  9
$LIMCHECK
 70
     0
  9
$CHAMFERA
 40
0.0
  9
$CHAMFERB
 40
0.0
  9
$CHAMFERC
 40
0.0
  9
$CHAMFERD
 40
0.0
  9
$SKPOLY
 70
     0
  9
$TDCREATE
 40
2456624.568060324
  9
$TDUCREATE
 40
2456624.526393658
  9
$TDUPDATE
 40
2456624.568060324
  9
$TDUUPDATE
 40
2456624.526393658
  9
$TDINDWG
 40
0.0000613773
  9
$TDUSRTIMER
 40
0.0000613426
  9
$USRTIMER
 70
     1
  9
$ANGBASE
 50
0.0
  9
$ANGDIR
 70
     0
  9
$PDMODE
 70
     0
  9
$PDSIZE
 40
0.0
  9
$PLINEWID
 40
0.0
  9
$SPLFRAME
 70
     0
  9
$SPLINETYPE
 70
     6
  9
$SPLINESEGS
 70
     8
  9
$HANDSEED
  5
98F
  9
$SURFTAB1
 70
     6
  9
$SURFTAB2
 70
     6
  9
$SURFTYPE
 70
     6
  9
$SURFU
 70
     6
  9
$SURFV
 70
     6
  9
$UCSBASE
  2

  9
$UCSNAME
  2

  9
$UCSORG
 10
0.0
 20
0.0
 30
0.0
  9
$UCSXDIR
 10
1.0
 20
0.0
 30
0.0
  9
$UCSYDIR
 10
0.0
 20
1.0
 30
0.0
  9
$UCSORTHOREF
  2

  9
$UCSORTHOVIEW
 70
     0
  9
$UCSORGTOP
 10
0.0
 20
0.0
 30
0.0
  9
$UCSORGBOTTOM
 10
0.0
 20
0.0
 30
0.0
  9
$UCSORGLEFT
 10
0.0
 20
0.0
 30
0.0
  9
$UCSORGRIGHT
 10
0.0
 20
0.0
 30
0.0
  9
$UCSORGFRONT
 10
0.0
 20
0.0
 30
0.0
  9
$UCSORGBACK
 10
0.0
 20
0.0
 30
0.0
  9
$PUCSBASE
  2

  9
$PUCSNAME
  2

  9
$PUCSORG
 10
0.0
 20
0.0
 30
0.0
  9
$PUCSXDIR
 10
1.0
 20
0.0
 30
0.0
  9
$PUCSYDIR
 10
0.0
 20
1.0
 30
0.0
  9
$PUCSORTHOREF
  2

  9
$PUCSORTHOVIEW
 70
     0
  9
$PUCSORGTOP
 10
0.0
 20
0.0
 30
0.0
  9
$PUCSORGBOTTOM
 10
0.0
 20
0.0
 30
0.0
  9
$PUCSORGLEFT
 10
0.0
 20
0.0
 30
0.0
  9
$PUCSORGRIGHT
 10
0.0
 20
0.0
 30
0.0
  9
$PUCSORGFRONT
 10
0.0
 20
0.0
 30
0.0
  9
$PUCSORGBACK
 10
0.0
 20
0.0
 30
0.0
  9
$USERI1
 70
     0
  9
$USERI2
 70
     0
  9
$USERI3
 70
     0
  9
$USERI4
 70
     0
  9
$USERI5
 70
     0
  9
$USERR1
 40
0.0
  9
$USERR2
 40
0.0
  9
$USERR3
 40
0.0
  9
$USERR4
 40
0.0
  9
$USERR5
 40
0.0
  9
$WORLDVIEW
 70
     1
  9
$SHADEDGE
 70
     3
  9
$SHADEDIF
 70
    70
  9
$TILEMODE
 70
     1
  9
$MAXACTVP
 70
    64
  9
$PINSBASE
 10
0.0
 20
0.0
 30
0.0
  9
$PLIMCHECK
 70
     0
  9
$PEXTMIN
 10
0.0
 20
0.0
 30
0.0
  9
$PEXTMAX
 10
105.0
 20
148.5
 30
0.0
  9
$PLIMMIN
 10
0.0
 20
0.0
  9
$PLIMMAX
 10
105.0
 20
148.5
  9
$UNITMODE
 70
     0
  9
$VISRETAIN
 70
     1
  9
$PLINEGEN
 70
     0
  9
$PSLTSCALE
 70
     1
  9
$TREEDEPTH
 70
  3020
  9
$CMLSTYLE
  2
Standard
  9
$CMLJUST
 70
     0
  9
$CMLSCALE
 40
1.0
  9
$PROXYGRAPHICS
 70
     1
  9
$MEASUREMENT
 70
     1
  9
$CELWEIGHT
370
    -1
  9
$ENDCAPS
280
     0
  9
$JOINSTYLE
280
     0
  9
$LWDISPLAY
290
     0
  9
$INSUNITS
 70
     4
  9
$HYPERLINKBASE
  1

  9
$STYLESHEET
  1

  9
$XEDIT
290
     1
  9
$CEPSNTYPE
380
     0
  9
$PSTYLEMODE
290
     1
  9
$FINGERPRINTGUID
  2
{49B91370-2D09-43D8-B563-57564067E0E7}
  9
$VERSIONGUID
  2
{7DD74D93-1FA4-4588-9199-7A118812F6CC}
  9
$EXTNAMES
290
     1
  9
$PSVPSCALE
 40
0.0
  9
$OLESTARTUP
290
     0
  9
$SORTENTS
280
   127
  9
$INDEXCTL
280
     0
  9
$HIDETEXT
280
     1
  9
$XCLIPFRAME
280
     2
  9
$HALOGAP
280
     0
  9
$OBSCOLOR
 70
   257
  9
$OBSLTYPE
280
     0
  9
$INTERSECTIONDISPLAY
280
     0
  9
$INTERSECTIONCOLOR
 70
   257
  9
$DIMASSOC
280
     1
  9
$PROJECTNAME
  1

  9
$CAMERADISPLAY
290
     0
  9
$LENSLENGTH
 40
50.0
  9
$CAMERAHEIGHT
 40
0.0
  9
$STEPSPERSEC
 40
2.0
  9
$STEPSIZE
 40
6.0
  9
$3DDWFPREC
 40
2.0
  9
$PSOLWIDTH
 40
0.25
  9
$PSOLHEIGHT
 40
4.0
  9
$LOFTANG1
 40
1.570796326794896
  9
$LOFTANG2
 40
1.570796326794896
  9
$LOFTMAG1
 40
0.0
  9
$LOFTMAG2
 40
0.0
  9
$LOFTPARAM
 70
     7
  9
$LOFTNORMALS
280
     1
  9
$LATITUDE
 40
37.795
  9
$LONGITUDE
 40
-122.394
  9
$NORTHDIRECTION
 40
0.0
  9
$TIMEZONE
 70
 -8000
  9
$LIGHTGLYPHDISPLAY
280
     1
  9
$TILEMODELIGHTSYNCH
280
     1
  9
$CMATERIAL
347
11
  9
$SOLIDHIST
280
     0
  9
$SHOWHIST
280
     1
  9
$DWFFRAME
280
     2
  9
$DGNFRAME
280
     0
  9
$REALWORLDSCALE
290
     1
  9
$INTERFERECOLOR
 62
     1
  9
$INTERFEREOBJVS
345
33
  9
$INTERFEREVPVS
346
30
  9
$CSHADOW
280
     0
  9
$SHADOWPLANELOCATION
 40
0.0
  0
ENDSEC
  0
SECTION
  2
CLASSES
  0
CLASS
  1
ACDBDICTIONARYWDFLT
  2
AcDbDictionaryWithDefault
  3
ObjectDBX Classes
 90
        0
 91
        1
280
     0
281
     0
  0
CLASS
  1
MATERIAL
  2
AcDbMaterial
  3
ObjectDBX Classes
 90
     1153
 91
        3
280
     0
281
     0
  0
CLASS
  1
VISUALSTYLE
  2
AcDbVisualStyle
  3
ObjectDBX Classes
 90
     4095
 91
       24
280
     0
281
     0
  0
CLASS
  1
SCALE
  2
AcDbScale
  3
ObjectDBX Classes
 90
     1153
 91
       17
280
     0
281
     0
  0
CLASS
  1
TABLESTYLE
  2
AcDbTableStyle
  3
ObjectDBX Classes
 90
     4095
 91
        1
280
     0
281
     0
  0
CLASS
  1
MLEADERSTYLE
  2
AcDbMLeaderStyle
  3
ACDB_MLEADERSTYLE_CLASS
 90
     4095
 91
        1
280
     0
281
     0
  0
CLASS
  1
ACDBSECTIONVIEWSTYLE
  2
AcDbSectionViewStyle
  3
ObjectDBX Classes
 90
     1025
 91
        2
280
     0
281
     0
  0
CLASS
  1
ACDBDETAILVIEWSTYLE
  2
AcDbDetailViewStyle
  3
ObjectDBX Classes
 90
     1025
 91
        2
280
     0
281
     0
  0
CLASS
  1
DICTIONARYVAR
  2
AcDbDictionaryVar
  3
ObjectDBX Classes
 90
        0
 91
        5
280
     0
281
     0
  0
CLASS
  1
CELLSTYLEMAP
  2
AcDbCellStyleMap
  3
ObjectDBX Classes
 90
     1152
 91
        2
280
     0
281
     0
  0
ENDSEC
  0
SECTION
  2
TABLES
  0
TABLE
  2
VPORT
  5
8
330
0
100
AcDbSymbolTable
 70
     1
  0
VPORT
  5
57
330
8
100
AcDbSymbolTableRecord
100
AcDbViewportTableRecord
  2
*Active
 70
     0
 10
0.0
 20
0.0
 11
1.0
 21
1.0
 12
52.5
 22
74.25
 13
0.0
 23
0.0
 14
1.0
 24
1.0
 15
0.0
 25
0.0
 16
0.0
 26
0.0
 36
1.0
 17
0.0
 27
0.0
 37
0.0
 40
148.5
 41
0.7070707070707071
 42
50.0
 43
0.0
 44
0.0
 50
0.0
 51
0.0
 71
     0
 72
   100
 73
     1
 74
     1
 75
     0
 76
     0
 77
     0
 78
     0
281
     0
 65
     1
110
0.0
120
0.0
130
0.0
111
1.0
121
0.0
131
0.0
112
0.0
122
1.0
132
0.0
 79
     0
146
0.0
 60
     3
 61
     5
292
     1
282
     1
141
0.0
142
0.0
 63
   250
421
  3355443
  0
ENDTAB
  0
TABLE
  2
LTYPE
  5
5
330
0
100
AcDbSymbolTable
 70
    59
  0
LTYPE
  5
5B
330
5
100
AcDbSymbolTableRecord
100
AcDbLinetypeTableRecord
  2
ByBlock
 70
     0
  3

 72
    65
 73
     0
 40
0.0
  0
LTYPE
  5
5C
330
5
100
AcDbSymbolTableRecord
100
AcDbLinetypeTableRecord
  2
ByLayer
 70
     0
  3

 72
    65
 73
     0
 40
0.0
  0
LTYPE
  5
5D
330
5
100
AcDbSymbolTableRecord
100
AcDbLinetypeTableRecord
  2
Continuous
 70
     0
  3
Solid line
 72
    65
 73
     0
 40
0.0
  0
LTYPE
  5
69
330
5
100
AcDbSymbolTableRecord
100
AcDbLinetypeTableRecord
  2
PHANTOM2
 70
     0
  3
Phantom (.5x) ___ _ _ ___ _ _ ___ _ _ ___ _ _
 72
    65
 73
     6
 40
1.25
 49
0.625
 74
     0
 49
-0.125
 74
     0
 49
0.125
 74
     0
 49
-0.125
 74
     0
 49
0.125
 74
     0
 49
-0.125
 74
     0
  0
LTYPE
  5
79
330
5
100
AcDbSymbolTableRecord
100
AcDbLinetypeTableRecord
  2
Section_View_Lines
 70
     0
  3
Section View Lines
 72
    65
 73
     4
 40
0.8406
 49
0.6614
 74
     0
 49
-0.0827
 74
     0
 49
0.0138
 74
     0
 49
-0.0827
 74
     0
  0
LTYPE
  5
7A
330
5
100
AcDbSymbolTableRecord
100
AcDbLinetypeTableRecord
  2
CHAIN
 70
     0
  3
Chain ____ _ ____ _ ____ _ ____ _ ____ _ ____
 72
    65
 73
     4
 40
0.3543
 49
0.2362
 74
     0
 49
-0.0295
 74
     0
 49
0.0591
 74
     0
 49
-0.0295
 74
     0
  0
LTYPE
  5
7B
330
5
100
AcDbSymbolTableRecord
100
AcDbLinetypeTableRecord
  2
DASH_DOT
 70
     0
  3
Dash dot _._._._._._._._._._._._._._._.
 72
    65
 73
     4
 40
0.37
 49
0.24
 74
     0
 49
-0.06
 74
     0
 49
0.01
 74
     0
 49
-0.06
 74
     0
  0
LTYPE
  5
7C
330
5
100
AcDbSymbolTableRecord
100
AcDbLinetypeTableRecord
  2
DASH_DOUBLE_DOT
 70
     0
  3
Dash Double Dot __ __ . __ __ . __ __ . __ _
 72
    65
 73
     6
 40
0.4398000000000001
 49
0.24
 74
     0
 49
-0.06
 74
     0
 49
0.0098
 74
     0
 49
-0.06
 74
     0
 49
0.01
 74
     0
 49
-0.06
 74
     0
  0
LTYPE
  5
7D
330
5
100
AcDbSymbolTableRecord
100
AcDbLinetypeTableRecord
  2
DASH_TRIPLE_DOT
 70
     0
  3
Dash Triple-Dot _ . . . _ . . . _ . . . _
 72
    65
 73
     8
 40
0.51
 49
0.24
 74
     0
 49
-0.06
 74
     0
 49
0.01
 74
     0
 49
-0.06
 74
     0
 49
0.01
 74
     0
 49
-0.06
 74
     0
 49
0.01
 74
     0
 49
-0.06
 74
     0
  0
LTYPE
  5
7E
330
5
100
AcDbSymbolTableRecord
100
AcDbLinetypeTableRecord
  2
DASHED
 70
     0
  3
Dashed __ __ __ __ __ __ __ __ __ __ __ __ __ _
 72
    65
 73
     2
 40
0.2067
 49
0.1654
 74
     0
 49
-0.0413
 74
     0
  0
LTYPE
  5
7F
330
5
100
AcDbSymbolTableRecord
100
AcDbLinetypeTableRecord
  2
DASHED_SPACE
 70
     0
  3
Dashed Space _._._._._._._._._._._._._._._.
 72
    65
 73
     2
 40
0.2067
 49
0.1654
 74
     0
 49
-0.0413
 74
     0
  0
LTYPE
  5
80
330
5
100
AcDbSymbolTableRecord
100
AcDbLinetypeTableRecord
  2
DOTTED
 70
     0
  3
Dotted . . . . . . . . . . . . . . . . . . . . 
 72
    65
 73
     2
 40
0.0482
 49
0.0069
 74
     0
 49
-0.0413
 74
     0
  0
LTYPE
  5
81
330
5
100
AcDbSymbolTableRecord
100
AcDbLinetypeTableRecord
  2
DOUBLE_DASH_CHAIN
 70
     0
  3
Double Dash Chain ___ _ _ ___ _ _ ___ _ _ ___ _
 72
    65
 73
     6
 40
1.240299999999998
 49
0.6614
 74
     0
 49
-0.0827
 74
     0
 49
0.1654
 74
     0
 49
-0.0827
 74
     0
 49
0.1654
 74
     0
 49
-0.0827
 74
     0
  0
LTYPE
  5
82
330
5
100
AcDbSymbolTableRecord
100
AcDbLinetypeTableRecord
  2
DOUBLE_DASH_DOT
 70
     0
  3
Double Dash Dot __ __ . __ __ . __ __ . __ _
 72
    65
 73
     6
 40
0.6700000000000001
 49
0.24
 74
     0
 49
-0.06
 74
     0
 49
0.24
 74
     0
 49
-0.06
 74
     0
 49
0.01
 74
     0
 49
-0.06
 74
     0
  0
LTYPE
  5
83
330
5
100
AcDbSymbolTableRecord
100
AcDbLinetypeTableRecord
  2
DOUBLE_DASH_DOUBLE_DOT
 70
     0
  3
Double-dash double-dot _ _ . . _ _ . . _
 72
    65
 73
     8
 40
0.7400000000000002
 49
0.24
 74
     0
 49
-0.06
 74
     0
 49
0.24
 74
     0
 49
-0.06
 74
     0
 49
0.01
 74
     0
 49
-0.06
 74
     0
 49
0.01
 74
     0
 49
-0.06
 74
     0
  0
LTYPE
  5
84
330
5
100
AcDbSymbolTableRecord
100
AcDbLinetypeTableRecord
  2
DOUBLE_DASH_TRIPLE_DOT
 70
     0
  3
Double Dash Triple Dot __ __ . . . __ __ . . .
 72
    65
 73
    10
 40
0.8100000000000001
 49
0.24
 74
     0
 49
-0.06
 74
     0
 49
0.24
 74
     0
 49
-0.06
 74
     0
 49
0.01
 74
     0
 49
-0.06
 74
     0
 49
0.01
 74
     0
 49
-0.06
 74
     0
 49
0.01
 74
     0
 49
-0.06
 74
     0
  0
LTYPE
  5
85
330
5
100
AcDbSymbolTableRecord
100
AcDbLinetypeTableRecord
  2
LONG_DASH_DOTTED
 70
     0
  3
Long-Dash Dot ____ . ____ . ____ . ____ . _
 72
    65
 73
     4
 40
0.3001
 49
0.2362
 74
     0
 49
-0.0295
 74
     0
 49
0.0049
 74
     0
 49
-0.0295
 74
     0
  0
LTYPE
  5
86
330
5
100
AcDbSymbolTableRecord
100
AcDbLinetypeTableRecord
  2
LONG_DASH_DOUBLE_DOT
 70
     0
  3
Long Dash Double Dot ____ . . ____ . . ____ . .
 72
    65
 73
     6
 40
0.3345
 49
0.2362
 74
     0
 49
-0.0295
 74
     0
 49
0.0049
 74
     0
 49
-0.0295
 74
     0
 49
0.0049
 74
     0
 49
-0.0295
 74
     0
  0
LTYPE
  5
87
330
5
100
AcDbSymbolTableRecord
100
AcDbLinetypeTableRecord
  2
LONG_DASH_TRIPLE_DOT
 70
     0
  3
Long Dash Triple Dot ____ ... ____ ... ____
 72
    65
 73
     8
 40
0.75
 49
0.48
 74
     0
 49
-0.06
 74
     0
 49
0.01
 74
     0
 49
-0.06
 74
     0
 49
0.01
 74
     0
 49
-0.06
 74
     0
 49
0.01
 74
     0
 49
-0.06
 74
     0
  0
LTYPE
  5
88
330
5
100
AcDbSymbolTableRecord
100
AcDbLinetypeTableRecord
  2
BORDER
 70
     0
  3
Border __ __ . __ __ . __ __ . __ __ . __ __ .
 72
    65
 73
     6
 40
44.45
 49
12.7
 74
     0
 49
-6.349999999999998
 74
     0
 49
12.7
 74
     0
 49
-6.349999999999998
 74
     0
 49
0.0
 74
     0
 49
-6.349999999999998
 74
     0
  0
LTYPE
  5
89
330
5
100
AcDbSymbolTableRecord
100
AcDbLinetypeTableRecord
  2
BORDER2
 70
     0
  3
Border (.5x) __.__.__.__.__.__.__.__.__.__.__.
 72
    65
 73
     6
 40
22.225
 49
6.349999999999998
 74
     0
 49
-3.174999999999998
 74
     0
 49
6.349999999999998
 74
     0
 49
-3.174999999999998
 74
     0
 49
0.0
 74
     0
 49
-3.174999999999998
 74
     0
  0
LTYPE
  5
8A
330
5
100
AcDbSymbolTableRecord
100
AcDbLinetypeTableRecord
  2
BORDERX2
 70
     0
  3
Border (2x) ____  ____  .  ____  ____  .  ___
 72
    65
 73
     6
 40
88.9
 49
25.4
 74
     0
 49
-12.7
 74
     0
 49
25.4
 74
     0
 49
-12.7
 74
     0
 49
0.0
 74
     0
 49
-12.7
 74
     0
  0
LTYPE
  5
8B
330
5
100
AcDbSymbolTableRecord
100
AcDbLinetypeTableRecord
  2
CENTER
 70
     0
  3
Center ____ _ ____ _ ____ _ ____ _ ____ _ ____
 72
    65
 73
     4
 40
50.8
 49
31.75
 74
     0
 49
-6.349999999999998
 74
     0
 49
6.349999999999998
 74
     0
 49
-6.349999999999998
 74
     0
  0
LTYPE
  5
8C
330
5
100
AcDbSymbolTableRecord
100
AcDbLinetypeTableRecord
  2
CENTER2
 70
     0
  3
Center (.5x) ___ _ ___ _ ___ _ ___ _ ___ _ ___
 72
    65
 73
     4
 40
28.575
 49
19.05
 74
     0
 49
-3.174999999999998
 74
     0
 49
3.174999999999998
 74
     0
 49
-3.174999999999998
 74
     0
  0
LTYPE
  5
8D
330
5
100
AcDbSymbolTableRecord
100
AcDbLinetypeTableRecord
  2
CENTERX2
 70
     0
  3
Center (2x) ________  __  ________  __  _____
 72
    65
 73
     4
 40
101.6
 49
63.5
 74
     0
 49
-12.7
 74
     0
 49
12.7
 74
     0
 49
-12.7
 74
     0
  0
LTYPE
  5
8E
330
5
100
AcDbSymbolTableRecord
100
AcDbLinetypeTableRecord
  2
DASHDOT2
 70
     0
  3
Dash dot (.5x) _._._._._._._._._._._._._._._.
 72
    65
 73
     4
 40
12.7
 49
6.349999999999998
 74
     0
 49
-3.174999999999998
 74
     0
 49
0.0
 74
     0
 49
-3.174999999999998
 74
     0
  0
LTYPE
  5
8F
330
5
100
AcDbSymbolTableRecord
100
AcDbLinetypeTableRecord
  2
DASHDOTX2
 70
     0
  3
Dash dot (2x) ____  .  ____  .  ____  .  ___
 72
    65
 73
     4
 40
50.8
 49
25.4
 74
     0
 49
-12.7
 74
     0
 49
0.0
 74
     0
 49
-12.7
 74
     0
  0
LTYPE
  5
90
330
5
100
AcDbSymbolTableRecord
100
AcDbLinetypeTableRecord
  2
DASHED2
 70
     0
  3
Dashed (.5x) _ _ _ _ _ _ _ _ _ _ _ _ _ _ _ _ _
 72
    65
 73
     2
 40
9.524999999999996
 49
6.349999999999998
 74
     0
 49
-3.174999999999998
 74
     0
  0
LTYPE
  5
91
330
5
100
AcDbSymbolTableRecord
100
AcDbLinetypeTableRecord
  2
DASHEDX2
 70
     0
  3
Dashed (2x) ____  ____  ____  ____  ____  ___
 72
    65
 73
     2
 40
38.1
 49
25.4
 74
     0
 49
-12.7
 74
     0
  0
LTYPE
  5
92
330
5
100
AcDbSymbolTableRecord
100
AcDbLinetypeTableRecord
  2
DIVIDE
 70
     0
  3
Divide ____ . . ____ . . ____ . . ____ . . ____
 72
    65
 73
     6
 40
31.75
 49
12.7
 74
     0
 49
-6.349999999999998
 74
     0
 49
0.0
 74
     0
 49
-6.349999999999998
 74
     0
 49
0.0
 74
     0
 49
-6.349999999999998
 74
     0
  0
LTYPE
  5
93
330
5
100
AcDbSymbolTableRecord
100
AcDbLinetypeTableRecord
  2
DIVIDE2
 70
     0
  3
Divide (.5x) __..__..__..__..__..__..__..__.._
 72
    65
 73
     6
 40
15.875
 49
6.349999999999998
 74
     0
 49
-3.174999999999998
 74
     0
 49
0.0
 74
     0
 49
-3.174999999999998
 74
     0
 49
0.0
 74
     0
 49
-3.174999999999998
 74
     0
  0
LTYPE
  5
94
330
5
100
AcDbSymbolTableRecord
100
AcDbLinetypeTableRecord
  2
DIVIDEX2
 70
     0
  3
Divide (2x) ________  .  .  ________  .  .  _
 72
    65
 73
     6
 40
63.49999999999999
 49
25.4
 74
     0
 49
-12.7
 74
     0
 49
0.0
 74
     0
 49
-12.7
 74
     0
 49
0.0
 74
     0
 49
-12.7
 74
     0
  0
LTYPE
  5
95
330
5
100
AcDbSymbolTableRecord
100
AcDbLinetypeTableRecord
  2
DOT
 70
     0
  3
Dot . . . . . . . . . . . . . . . . . . . . . .
 72
    65
 73
     2
 40
6.349999999999998
 49
0.0
 74
     0
 49
-6.349999999999998
 74
     0
  0
LTYPE
  5
96
330
5
100
AcDbSymbolTableRecord
100
AcDbLinetypeTableRecord
  2
DOT2
 70
     0
  3
Dot (.5x) .....................................
 72
    65
 73
     2
 40
3.174999999999998
 49
0.0
 74
     0
 49
-3.174999999999998
 74
     0
  0
LTYPE
  5
97
330
5
100
AcDbSymbolTableRecord
100
AcDbLinetypeTableRecord
  2
DOTX2
 70
     0
  3
Dot (2x) .  .  .  .  .  .  .  .  .  .  .  .  . 
 72
    65
 73
     2
 40
12.7
 49
0.0
 74
     0
 49
-12.7
 74
     0
  0
LTYPE
  5
98
330
5
100
AcDbSymbolTableRecord
100
AcDbLinetypeTableRecord
  2
HIDDEN
 70
     0
  3
Hidden __ __ __ __ __ __ __ __ __ __ __ __ __ _
 72
    65
 73
     2
 40
9.524999999999996
 49
6.349999999999998
 74
     0
 49
-3.174999999999998
 74
     0
  0
LTYPE
  5
99
330
5
100
AcDbSymbolTableRecord
100
AcDbLinetypeTableRecord
  2
HIDDEN2
 70
     0
  3
Hidden (.5x) _ _ _ _ _ _ _ _ _ _ _ _ _ _ _ _ _
 72
    65
 73
     2
 40
4.762499999999998
 49
3.174999999999998
 74
     0
 49
-1.587499999999999
 74
     0
  0
LTYPE
  5
9A
330
5
100
AcDbSymbolTableRecord
100
AcDbLinetypeTableRecord
  2
HIDDENX2
 70
     0
  3
Hidden (2x) ____ ____ ____ ____ ____ ____ ____
 72
    65
 73
     2
 40
19.05
 49
12.7
 74
     0
 49
-6.349999999999998
 74
     0
  0
LTYPE
  5
9B
330
5
100
AcDbSymbolTableRecord
100
AcDbLinetypeTableRecord
  2
PHANTOM
 70
     0
  3
Phantom ______  __  __  ______  __  __  ______
 72
    65
 73
     6
 40
63.5
 49
31.75
 74
     0
 49
-6.349999999999998
 74
     0
 49
6.349999999999998
 74
     0
 49
-6.349999999999998
 74
     0
 49
6.349999999999998
 74
     0
 49
-6.349999999999998
 74
     0
  0
LTYPE
  5
9D
330
5
100
AcDbSymbolTableRecord
100
AcDbLinetypeTableRecord
  2
PHANTOMX2
 70
     0
  3
Phantom (2x) ____________    ____    ____   _
 72
    65
 73
     6
 40
127.0
 49
63.5
 74
     0
 49
-12.7
 74
     0
 49
12.7
 74
     0
 49
-12.7
 74
     0
 49
12.7
 74
     0
 49
-12.7
 74
     0
  0
LTYPE
  5
9E
330
5
100
AcDbSymbolTableRecord
100
AcDbLinetypeTableRecord
  2
ACAD_ISO02W100
 70
     0
  3
ISO dash __ __ __ __ __ __ __ __ __ __ __ __ __
 72
    65
 73
     2
 40
15.0
 49
12.0
 74
     0
 49
-3.0
 74
     0
  0
LTYPE
  5
9F
330
5
100
AcDbSymbolTableRecord
100
AcDbLinetypeTableRecord
  2
ACAD_ISO03W100
 70
     0
  3
ISO dash space __    __    __    __    __    __
 72
    65
 73
     2
 40
30.0
 49
12.0
 74
     0
 49
-18.0
 74
     0
  0
LTYPE
  5
A0
330
5
100
AcDbSymbolTableRecord
100
AcDbLinetypeTableRecord
  2
ACAD_ISO04W100
 70
     0
  3
ISO long-dash dot ____ . ____ . ____ . ____ . _
 72
    65
 73
     4
 40
30.0
 49
24.0
 74
     0
 49
-3.0
 74
     0
 49
0.0
 74
     0
 49
-3.0
 74
     0
  0
LTYPE
  5
A1
330
5
100
AcDbSymbolTableRecord
100
AcDbLinetypeTableRecord
  2
ACAD_ISO05W100
 70
     0
  3
ISO long-dash double-dot ____ .. ____ .. ____ .
 72
    65
 73
     6
 40
33.0
 49
24.0
 74
     0
 49
-3.0
 74
     0
 49
0.0
 74
     0
 49
-3.0
 74
     0
 49
0.0
 74
     0
 49
-3.0
 74
     0
  0
LTYPE
  5
A2
330
5
100
AcDbSymbolTableRecord
100
AcDbLinetypeTableRecord
  2
ACAD_ISO06W100
 70
     0
  3
ISO long-dash triple-dot ____ ... ____ ... ____
 72
    65
 73
     8
 40
36.0
 49
24.0
 74
     0
 49
-3.0
 74
     0
 49
0.0
 74
     0
 49
-3.0
 74
     0
 49
0.0
 74
     0
 49
-3.0
 74
     0
 49
0.0
 74
     0
 49
-3.0
 74
     0
  0
LTYPE
  5
A3
330
5
100
AcDbSymbolTableRecord
100
AcDbLinetypeTableRecord
  2
ACAD_ISO07W100
 70
     0
  3
ISO dot . . . . . . . . . . . . . . . . . . . .
 72
    65
 73
     2
 40
3.0
 49
0.0
 74
     0
 49
-3.0
 74
     0
  0
LTYPE
  5
A4
330
5
100
AcDbSymbolTableRecord
100
AcDbLinetypeTableRecord
  2
ACAD_ISO08W100
 70
     0
  3
ISO long-dash short-dash ____ __ ____ __ ____ _
 72
    65
 73
     4
 40
36.0
 49
24.0
 74
     0
 49
-3.0
 74
     0
 49
6.0
 74
     0
 49
-3.0
 74
     0
  0
LTYPE
  5
A5
330
5
100
AcDbSymbolTableRecord
100
AcDbLinetypeTableRecord
  2
ACAD_ISO09W100
 70
     0
  3
ISO long-dash double-short-dash ____ __ __ ____
 72
    65
 73
     6
 40
45.0
 49
24.0
 74
     0
 49
-3.0
 74
     0
 49
6.0
 74
     0
 49
-3.0
 74
     0
 49
6.0
 74
     0
 49
-3.0
 74
     0
  0
LTYPE
  5
A6
330
5
100
AcDbSymbolTableRecord
100
AcDbLinetypeTableRecord
  2
ACAD_ISO10W100
 70
     0
  3
ISO dash dot __ . __ . __ . __ . __ . __ . __ .
 72
    65
 73
     4
 40
18.0
 49
12.0
 74
     0
 49
-3.0
 74
     0
 49
0.0
 74
     0
 49
-3.0
 74
     0
  0
LTYPE
  5
A7
330
5
100
AcDbSymbolTableRecord
100
AcDbLinetypeTableRecord
  2
ACAD_ISO11W100
 70
     0
  3
ISO double-dash dot __ __ . __ __ . __ __ . __ 
 72
    65
 73
     6
 40
33.0
 49
12.0
 74
     0
 49
-3.0
 74
     0
 49
12.0
 74
     0
 49
-3.0
 74
     0
 49
0.0
 74
     0
 49
-3.0
 74
     0
  0
LTYPE
  5
A8
330
5
100
AcDbSymbolTableRecord
100
AcDbLinetypeTableRecord
  2
ACAD_ISO12W100
 70
     0
  3
ISO dash double-dot __ . . __ . . __ . . __ . .
 72
    65
 73
     6
 40
21.0
 49
12.0
 74
     0
 49
-3.0
 74
     0
 49
0.0
 74
     0
 49
-3.0
 74
     0
 49
0.0
 74
     0
 49
-3.0
 74
     0
  0
LTYPE
  5
A9
330
5
100
AcDbSymbolTableRecord
100
AcDbLinetypeTableRecord
  2
ACAD_ISO13W100
 70
     0
  3
ISO double-dash double-dot __ __ . . __ __ . . 
 72
    65
 73
     8
 40
36.0
 49
12.0
 74
     0
 49
-3.0
 74
     0
 49
12.0
 74
     0
 49
-3.0
 74
     0
 49
0.0
 74
     0
 49
-3.0
 74
     0
 49
0.0
 74
     0
 49
-3.0
 74
     0
  0
LTYPE
  5
AA
330
5
100
AcDbSymbolTableRecord
100
AcDbLinetypeTableRecord
  2
ACAD_ISO14W100
 70
     0
  3
ISO dash triple-dot __ . . . __ . . . __ . . . 
 72
    65
 73
     8
 40
24.0
 49
12.0
 74
     0
 49
-3.0
 74
     0
 49
0.0
 74
     0
 49
-3.0
 74
     0
 49
0.0
 74
     0
 49
-3.0
 74
     0
 49
0.0
 74
     0
 49
-3.0
 74
     0
  0
LTYPE
  5
AB
330
5
100
AcDbSymbolTableRecord
100
AcDbLinetypeTableRecord
  2
ACAD_ISO15W100
 70
     0
  3
ISO double-dash triple-dot __ __ . . . __ __ . 
 72
    65
 73
    10
 40
39.0
 49
12.0
 74
     0
 49
-3.0
 74
     0
 49
12.0
 74
     0
 49
-3.0
 74
     0
 49
0.0
 74
     0
 49
-3.0
 74
     0
 49
0.0
 74
     0
 49
-3.0
 74
     0
 49
0.0
 74
     0
 49
-3.0
 74
     0
  0
LTYPE
  5
AE
330
5
100
AcDbSymbolTableRecord
100
AcDbLinetypeTableRecord
  2
FENCELINE1
 70
     0
  3
Fenceline circle ----0-----0----0-----0----0---
 72
    65
 73
     4
 40
36.83
 49
6.349999999999998
 74
     0
 49
-2.54
 74
     4
 75
   133
340
AD
 46
2.54
 50
0.0
 44
-2.54
 45
0.0
 49
-2.54
 74
     0
 49
25.4
 74
     0
  0
LTYPE
  5
AF
330
5
100
AcDbSymbolTableRecord
100
AcDbLinetypeTableRecord
  2
FENCELINE2
 70
     0
  3
Fenceline square ----[]-----[]----[]-----[]----
 72
    65
 73
     4
 40
36.83
 49
6.349999999999998
 74
     0
 49
-2.54
 74
     4
 75
   132
340
AD
 46
2.54
 50
0.0
 44
-2.54
 45
0.0
 49
-2.54
 74
     0
 49
25.4
 74
     0
  0
LTYPE
  5
B0
330
5
100
AcDbSymbolTableRecord
100
AcDbLinetypeTableRecord
  2
TRACKS
 70
     0
  3
Tracks -|-|-|-|-|-|-|-|-|-|-|-|-|-|-|-|-|-|-|-|
 72
    65
 73
     2
 40
7.62
 49
3.81
 74
     4
 75
   130
340
AD
 46
6.349999999999998
 50
0.0
 44
0.0
 45
0.0
 49
3.81
 74
     0
  0
LTYPE
  5
B1
330
5
100
AcDbSymbolTableRecord
100
AcDbLinetypeTableRecord
  2
BATTING
 70
     0
  3
Batting SSSSSSSSSSSSSSSSSSSSSSSSSSSSSSSSSSSSSSS
 72
    65
 73
     4
 40
10.16254
 49
0.00254
 74
     0
 49
-2.54
 74
     4
 75
   134
340
AD
 46
2.54
 50
0.0
 44
-2.54
 45
0.0
 49
-5.08
 74
     4
 75
   134
340
AD
 46
2.54
 50
180.0
 44
2.54
 45
0.0
 49
-2.54
 74
     0
  0
LTYPE
  5
B2
330
5
100
AcDbSymbolTableRecord
100
AcDbLinetypeTableRecord
  2
HOT_WATER_SUPPLY
 70
     0
  3
Hot water supply ---- HW ---- HW ---- HW ----
 72
    65
 73
     3
 40
22.86
 49
12.7
 74
     0
 49
-5.08
 74
     2
 75
     0
340
55
 46
2.54
 50
0.0
 44
-2.54
 45
-1.27
  9
HW
 49
-5.08
 74
     0
  0
LTYPE
  5
B3
330
5
100
AcDbSymbolTableRecord
100
AcDbLinetypeTableRecord
  2
GAS_LINE
 70
     0
  3
Gas line ----GAS----GAS----GAS----GAS----GAS---
 72
    65
 73
     3
 40
24.13
 49
12.7
 74
     0
 49
-5.08
 74
     2
 75
     0
340
55
 46
2.54
 50
0.0
 44
-2.54
 45
-1.27
  9
GAS
 49
-6.349999999999998
 74
     0
  0
LTYPE
  5
B4
330
5
100
AcDbSymbolTableRecord
100
AcDbLinetypeTableRecord
  2
ZIGZAG
 70
     0
  3
Zig zag /\/\/\/\/\/\/\/\/\/\/\/\/\/\/\/\/\/\/\/
 72
    65
 73
     4
 40
20.32254
 49
0.00254
 74
     0
 49
-5.08
 74
     4
 75
   131
340
AD
 46
5.08
 50
0.0
 44
-5.08
 45
0.0
 49
-10.16
 74
     4
 75
   131
340
AD
 46
5.08
 50
180.0
 44
5.08
 45
0.0
 49
-5.08
 74
     0
  0
ENDTAB
  0
TABLE
  2
LAYER
  5
2
330
0
100
AcDbSymbolTable
 70
    13
  0
LAYER
  5
54
330
2
100
AcDbSymbolTableRecord
100
AcDbLayerTableRecord
  2
0
 70
     0
 62
     7
  6
Continuous
370
    -3
390
F
347
21
  0
LAYER
  5
B9
330
2
100
AcDbSymbolTableRecord
100
AcDbLayerTableRecord
  2
Bemaßung (ISO)
 70
     0
 62
     7
  6
Continuous
370
    25
390
F
347
21
  0
LAYER
  5
BE
330
2
100
AcDbSymbolTableRecord
100
AcDbLayerTableRecord
  2
Mittellinie (ISO)
 70
     0
 62
     7
  6
Continuous
370
    25
390
F
347
21
  0
LAYER
  5
BF
330
2
100
AcDbSymbolTableRecord
100
AcDbLayerTableRecord
  2
Mittelpunktmarkierung (ISO)
 70
     0
 62
     7
  6
Continuous
370
    25
390
F
347
21
  0
LAYER
  5
C0
330
2
100
AcDbSymbolTableRecord
100
AcDbLayerTableRecord
  2
PERMA_ROT
 70
     0
 62
     1
420
 16711680
  6
Continuous
370
    25
390
F
347
21
  0
LAYER
  5
C2
330
2
100
AcDbSymbolTableRecord
100
AcDbLayerTableRecord
  2
Rahmen (ISO)
 70
     0
 62
     7
  6
Continuous
370
    70
390
F
347
21
  0
LAYER
  5
C6
330
2
100
AcDbSymbolTableRecord
100
AcDbLayerTableRecord
  2
Schraffur (ISO)
 70
     0
 62
     7
  6
Continuous
370
    18
390
F
347
21
  0
LAYER
  5
C7
330
2
100
AcDbSymbolTableRecord
100
AcDbLayerTableRecord
  2
Sichtbar (ISO)
 70
     0
 62
     7
  6
Continuous
370
    50
390
F
347
21
  0
LAYER
  5
C8
330
2
100
AcDbSymbolTableRecord
100
AcDbLayerTableRecord
  2
Sichtbar schmal (ISO)
 70
     0
 62
     7
  6
Continuous
370
    35
390
F
347
21
  0
LAYER
  5
C9
330
2
100
AcDbSymbolTableRecord
100
AcDbLayerTableRecord
  2
Skizziergeometrie (ISO)
 70
     0
 62
     7
  6
Continuous
370
    25
390
F
347
21
  0
LAYER
  5
CA
330
2
100
AcDbSymbolTableRecord
100
AcDbLayerTableRecord
  2
Symbol (ISO)
 70
     0
 62
     7
  6
Continuous
370
    25
390
F
347
21
  0
LAYER
  5
CB
330
2
100
AcDbSymbolTableRecord
100
AcDbLayerTableRecord
  2
Titel (ISO)
 70
     0
 62
     7
  6
Continuous
370
    50
390
F
347
21
  0
LAYER
  5
2D0
330
2
100
AcDbSymbolTableRecord
100
AcDbLayerTableRecord
  2
Defpoints
 70
     0
 62
     7
  6
Continuous
290
     0
370
    -3
390
F
347
21
  0
ENDTAB
  0
TABLE
  2
STYLE
  5
3
330
0
100
AcDbSymbolTable
 70
    14
  0
STYLE
  5
55
330
3
100
AcDbSymbolTableRecord
100
AcDbTextStyleTableRecord
  2
Standard
 70
     0
 40
0.0
 41
1.0
 50
0.0
 71
     0
 42
0.2
  3
arial.ttf
  4

1001
ACAD
1000
Arial
1071
      256
  0
STYLE
  5
5A
330
3
100
AcDbSymbolTableRecord
100
AcDbTextStyleTableRecord
  2
Annotative
 70
     0
 40
0.0
 41
1.0
 50
0.0
 71
     0
 42
0.2
  3
txt
  4

1001
AcadAnnotative
1000
AnnotativeData
1002
{
1070
     1
1070
     1
1002
}
  0
STYLE
  5
AD
330
3
100
AcDbSymbolTableRecord
100
AcDbTextStyleTableRecord
  2

 70
     1
 40
0.0
 41
1.0
 50
0.0
 71
     0
 42
0.2
  3
ltypeshp.shx
  4

  0
STYLE
  5
CF
330
3
100
AcDbSymbolTableRecord
100
AcDbTextStyleTableRecord
  2
Bezeichnungstext (DIN)
 70
     0
 40
0.0
 41
1.0
 50
0.0
 71
     0
 42
0.2
  3
arial.ttf
  4

1001
ACAD
1000
Arial
1071
      256
  0
STYLE
  5
D0
330
3
100
AcDbSymbolTableRecord
100
AcDbTextStyleTableRecord
  2
Notiztext (DIN)
 70
     0
 40
0.0
 41
1.0
 50
0.0
 71
     0
 42
0.2
  3
arial.ttf
  4

1001
ACAD
1000
Arial
1071
      256
  0
STYLE
  5
1B7
330
3
100
AcDbSymbolTableRecord
100
AcDbTextStyleTableRecord
  2
Textstil100
 70
     0
 40
0.0
 41
1.0
 50
0.0
 71
     0
 42
0.2
  3

  4

1001
ACAD
1000
Arial
1071
 33554688
  0
STYLE
  5
1C0
330
3
100
AcDbSymbolTableRecord
100
AcDbTextStyleTableRecord
  2
Textstil103
 70
     0
 40
0.0
 41
1.0
 50
0.0
 71
     0
 42
0.2
  3

  4

1001
ACAD
1000
Arial
1071
 33554688
  0
STYLE
  5
1C3
330
3
100
AcDbSymbolTableRecord
100
AcDbTextStyleTableRecord
  2
Textstil108
 70
     0
 40
0.0
 41
1.0
 50
0.0
 71
     0
 42
0.2
  3

  4

1001
ACAD
1000
Arial
1071
 33554688
  0
STYLE
  5
1CA
330
3
100
AcDbSymbolTableRecord
100
AcDbTextStyleTableRecord
  2
Textstil102
 70
     0
 40
0.0
 41
1.0
 50
0.0
 71
     0
 42
0.2
  3

  4

1001
ACAD
1000
Arial
1071
 33554688
  0
STYLE
  5
1D5
330
3
100
AcDbSymbolTableRecord
100
AcDbTextStyleTableRecord
  2
Textstil143
 70
     0
 40
0.0
 41
1.0
 50
0.0
 71
     0
 42
0.2
  3
arial.ttf
  4

1001
ACAD
1000
Arial
1071
      256
  0
STYLE
  5
1D7
330
3
100
AcDbSymbolTableRecord
100
AcDbTextStyleTableRecord
  2
Textstil104
 70
     0
 40
0.0
 41
1.0
 50
0.0
 71
     0
 42
0.2
  3

  4

1001
ACAD
1000
Arial
1071
 33554688
  0
STYLE
  5
1F8
330
3
100
AcDbSymbolTableRecord
100
AcDbTextStyleTableRecord
  2
Textstil114
 70
     0
 40
0.0
 41
1.0
 50
0.0
 71
     0
 42
0.2
  3

  4

1001
ACAD
1000
Arial
1071
 33554688
  0
STYLE
  5
1FB
330
3
100
AcDbSymbolTableRecord
100
AcDbTextStyleTableRecord
  2
Textstil94
 70
     0
 40
0.0
 41
1.0
 50
0.0
 71
     0
 42
0.2
  3

  4

1001
ACAD
1000
Arial
1071
 33554688
  0
STYLE
  5
200
330
3
100
AcDbSymbolTableRecord
100
AcDbTextStyleTableRecord
  2
Textstil109
 70
     0
 40
0.0
 41
1.0
 50
0.0
 71
     0
 42
0.2
  3

  4

1001
ACAD
1000
Arial
1071
 33554688
  0
ENDTAB
  0
TABLE
  2
VIEW
  5
6
330
0
100
AcDbSymbolTable
 70
     0
  0
ENDTAB
  0
TABLE
  2
UCS
  5
7
330
0
100
AcDbSymbolTable
 70
     0
  0
ENDTAB
  0
TABLE
  2
APPID
  5
9
330
0
100
AcDbSymbolTable
 70
     3
  0
APPID
  5
56
330
9
100
AcDbSymbolTableRecord
100
AcDbRegAppTableRecord
  2
ACAD
 70
     0
  0
APPID
  5
5E
330
9
100
AcDbSymbolTableRecord
100
AcDbRegAppTableRecord
  2
AcadAnnotative
 70
     0
  0
APPID
  5
1D4
330
9
100
AcDbSymbolTableRecord
100
AcDbRegAppTableRecord
  2
AcadAnnoPO
 70
     0
  0
ENDTAB
  0
TABLE
  2
DIMSTYLE
  5
A
330
0
100
AcDbSymbolTable
 70
    11
100
AcDbDimStyleTable
 71
     2
340
D5
340
58
  0
DIMSTYLE
105
58
330
A
100
AcDbSymbolTableRecord
100
AcDbDimStyleTableRecord
  2
Standard
 70
     0
340
55
  0
DIMSTYLE
105
59
330
A
100
AcDbSymbolTableRecord
100
AcDbDimStyleTableRecord
  2
Annotative
 70
     0
340
55
1001
AcadAnnotative
1000
AnnotativeData
1002
{
1070
     1
1070
     1
1002
}
  0
DIMSTYLE
105
D1
330
A
100
AcDbSymbolTableRecord
100
AcDbDimStyleTableRecord
  2
Standard - Methode 2a (DIN)
 70
     0
 40
0.5
 41
2.5
 42
0.8
 43
5.999999999999999
 44
3.174999999999998
 45
0.00000001
 46
10.0
 77
     1
 78
     8
 79
     2
140
2.5
143
0.03937
146
1.399999976158142
147
0.8
170
     1
171
     3
172
     1
176
   256
177
   256
178
   256
179
     2
271
     2
272
     2
274
     3
278
    44
284
     8
286
     8
340
D0
371
    -1
372
    -1
  0
DIMSTYLE
105
D2
330
A
100
AcDbSymbolTableRecord
100
AcDbDimStyleTableRecord
  2
Standard - Methode 2a (DIN)$7
 70
     0
 40
0.5
 41
2.5
 42
0.8
 43
5.999999999999999
 44
3.174999999999998
 45
0.00000001
 46
10.0
 77
     1
 78
     8
 79
     2
140
2.5
143
0.03937
146
1.399999976158142
147
0.8
170
     1
171
     3
172
     1
176
   256
177
   256
178
   256
179
     2
271
     2
272
     2
274
     3
278
    44
284
     8
286
     8
340
D0
371
    -1
372
    -1
  0
DIMSTYLE
105
D3
330
A
100
AcDbSymbolTableRecord
100
AcDbDimStyleTableRecord
  2
Standard - Methode 2b (DIN)
 70
     0
 40
0.5
 41
2.5
 42
0.0
 43
5.999999999999999
 44
3.174999999999998
 45
0.00000001
 46
10.0
 77
     1
 78
     8
 79
     2
140
2.5
143
0.03937
146
1.399999976158142
147
0.8
171
     3
172
     1
176
   256
177
   256
178
   256
271
     2
272
     2
274
     3
278
    44
284
     8
286
     8
340
D0
371
    -1
372
    -1
  0
DIMSTYLE
105
D4
330
A
100
AcDbSymbolTableRecord
100
AcDbDimStyleTableRecord
  2
Standard - Methode 2b (DIN)$7
 70
     0
 40
0.5
 41
2.5
 42
0.0
 43
5.999999999999999
 44
3.174999999999998
 45
0.00000001
 46
10.0
 77
     1
 78
     8
 79
     2
140
2.5
143
0.03937
146
1.399999976158142
147
0.8
171
     3
172
     1
176
   256
177
   256
178
   256
271
     2
272
     2
274
     3
278
    44
284
     8
286
     8
340
D0
371
    -1
372
    -1
  0
DIMSTYLE
105
D5
102
{ACAD_REACTORS
330
2CF
330
3B3
330
495
330
56D
330
657
102
}
330
A
100
AcDbSymbolTableRecord
100
AcDbDimStyleTableRecord
  2
Standard (DIN)
 70
     0
 40
0.5
 41
2.5
 42
0.0
 43
6.999999999999999
 44
2.0
 45
0.00000001
 46
10.0
 73
     0
 74
     0
 77
     1
 78
     8
 79
     2
140
2.5
143
0.03937
146
0.6000000238418579
147
0.4
171
     3
172
     1
176
   256
177
   256
178
   256
271
     2
272
     2
274
     3
284
     8
285
     8
340
D0
371
    -1
372
    -1
  0
DIMSTYLE
105
D6
330
A
100
AcDbSymbolTableRecord
100
AcDbDimStyleTableRecord
  2
Standard (DIN)$7
 70
     0
 40
0.5
 41
2.5
 42
0.0
 43
6.999999999999999
 44
2.0
 45
0.00000001
 46
10.0
 73
     0
 74
     0
 77
     1
 78
     8
 79
     2
140
2.5
143
0.03937
146
0.6000000238418579
147
0.4
171
     3
172
     1
176
   256
177
   256
178
   256
271
     2
272
     2
274
     3
284
     8
285
     8
340
D0
371
    -1
372
    -1
  0
DIMSTYLE
105
D7
330
A
100
AcDbSymbolTableRecord
100
AcDbDimStyleTableRecord
  2
Alternativ (ISO)
 70
     0
 40
0.5
 41
2.5
340
55
  0
DIMSTYLE
105
E3
330
A
100
AcDbSymbolTableRecord
100
AcDbDimStyleTableRecord
  2
Bezug (ISO)
 70
     0
 40
0.5
 41
2.5
340
55
  0
DIMSTYLE
105
F2
330
A
100
AcDbSymbolTableRecord
100
AcDbDimStyleTableRecord
  2
Groß (ISO)
 70
     0
 40
0.5
 41
5.0
340
55
  0
ENDTAB
  0
TABLE
  2
BLOCK_RECORD
  5
1
330
0
100
AcDbSymbolTable
 70
    10
  0
BLOCK_RECORD
  5
71
330
1
100
AcDbSymbolTableRecord
100
AcDbBlockTableRecord
  2
*Model_Space
340
74
 70
     0
280
     1
281
     0
  0
BLOCK_RECORD
  5
6D
330
1
100
AcDbSymbolTableRecord
100
AcDbBlockTableRecord
  2
*Paper_Space
340
70
 70
     0
280
     1
281
     0
  0
BLOCK_RECORD
  5
75
330
1
100
AcDbSymbolTableRecord
100
AcDbBlockTableRecord
  2
*Paper_Space0
340
78
 70
     0
280
     1
281
     0
  0
BLOCK_RECORD
  5
D8
330
1
100
AcDbSymbolTableRecord
100
AcDbBlockTableRecord
  2
DatumFilled45
340
0
 70
     0
280
     1
281
     0
  0
BLOCK_RECORD
  5
E4
330
1
100
AcDbSymbolTableRecord
100
AcDbBlockTableRecord
  2
Filled-1
340
0
 70
     0
280
     1
281
     0
  0
BLOCK_RECORD
  5
F3
330
1
100
AcDbSymbolTableRecord
100
AcDbBlockTableRecord
  2
Ränder Standardrahmen
340
0
102
{BLKREFS
331
119
102
}
 70
     0
280
     1
281
     0
  0
BLOCK_RECORD
  5
11A
330
1
100
AcDbSymbolTableRecord
100
AcDbBlockTableRecord
  2
Schriftfelder perma_schriftfeld
340
0
102
{BLKREFS
331
207
102
}
 70
     0
280
     1
281
     0
  0
BLOCK_RECORD
  5
2D1
330
1
100
AcDbSymbolTableRecord
100
AcDbBlockTableRecord
  2
*D5
340
0
 70
     0
280
     1
281
     0
  0
BLOCK_RECORD
  5
3B4
330
1
100
AcDbSymbolTableRecord
100
AcDbBlockTableRecord
  2
*D6
340
0
 70
     0
280
     1
281
     0
  0
BLOCK_RECORD
  5
496
330
1
100
AcDbSymbolTableRecord
100
AcDbBlockTableRecord
  2
*D7
340
0
 70
     0
280
     1
281
     0
  0
BLOCK_RECORD
  5
56E
330
1
100
AcDbSymbolTableRecord
100
AcDbBlockTableRecord
  2
*D8
340
0
 70
     0
280
     1
281
     0
  0
BLOCK_RECORD
  5
658
330
1
100
AcDbSymbolTableRecord
100
AcDbBlockTableRecord
  2
*D9
340
0
 70
     0
280
     1
281
     0
  0
ENDTAB
  0
ENDSEC
  0
SECTION
  2
BLOCKS
  0
BLOCK
  5
72
330
71
100
AcDbEntity
  8
0
100
AcDbBlockBegin
  2
*Model_Space
 70
     0
 10
0.0
 20
0.0
 30
0.0
  3
*Model_Space
  1

  0
ENDBLK
  5
73
330
71
100
AcDbEntity
  8
0
100
AcDbBlockEnd
  0
BLOCK
  5
6E
330
6D
100
AcDbEntity
 67
     1
  8
0
100
AcDbBlockBegin
  2
*Paper_Space
 70
     0
 10
0.0
 20
0.0
 30
0.0
  3
*Paper_Space
  1

  0
ENDBLK
  5
6F
330
6D
100
AcDbEntity
 67
     1
  8
0
100
AcDbBlockEnd
  0
BLOCK
  5
76
330
75
100
AcDbEntity
 67
     1
  8
0
100
AcDbBlockBegin
  2
*Paper_Space0
 70
     0
 10
0.0
 20
0.0
 30
0.0
  3
*Paper_Space0
  1

  0
ENDBLK
  5
77
330
75
100
AcDbEntity
 67
     1
  8
0
100
AcDbBlockEnd
  0
BLOCK
  5
D9
330
D8
100
AcDbEntity
  8
0
100
AcDbBlockBegin
  2
DatumFilled45
 70
     0
 10
0.0
 20
0.0
 30
0.0
  3
DatumFilled45
  1

  0
POLYLINE
  5
DB
330
D8
100
AcDbEntity
  8
0
 62
     0
100
AcDb2dPolyline
 66
     1
 10
0.0
 20
0.0
 30
0.0
 70
   128
  0
VERTEX
  5
DC
330
DB
100
AcDbEntity
  8
0
 62
     0
100
AcDbVertex
100
AcDb2dVertex
 10
0.0
 20
1.0
 30
0.0
  0
VERTEX
  5
DD
330
DB
100
AcDbEntity
  8
0
 62
     0
100
AcDbVertex
100
AcDb2dVertex
 10
0.0
 20
-1.0
 30
0.0
  0
VERTEX
  5
DF
330
DB
100
AcDbEntity
  8
0
 62
     0
100
AcDbVertex
100
AcDb2dVertex
 10
-1.0
 20
0.0
 30
0.0
  0
VERTEX
  5
E0
330
DB
100
AcDbEntity
  8
0
 62
     0
100
AcDbVertex
100
AcDb2dVertex
 10
0.0
 20
1.0
 30
0.0
  0
SEQEND
  5
DE
330
DB
100
AcDbEntity
  8
0
 62
     0
  0
SOLID
  5
E2
330
D8
100
AcDbEntity
  8
0
 62
     0
100
AcDbTrace
 10
0.0
 20
1.0
 30
0.0
 11
0.0
 21
-1.0
 31
0.0
 12
-1.0
 22
0.0
 32
0.0
 13
0.0
 23
1.0
 33
0.0
  0
ENDBLK
  5
DA
330
D8
100
AcDbEntity
  8
0
100
AcDbBlockEnd
  0
BLOCK
  5
E5
330
E4
100
AcDbEntity
  8
0
100
AcDbBlockBegin
  2
Filled-1
 70
     0
 10
0.0
 20
0.0
 30
0.0
  3
Filled-1
  1

  0
LINE
  5
E7
330
E4
100
AcDbEntity
  8
0
 62
     0
100
AcDbLine
 10
-1.0
 20
0.0
 30
0.0
 11
0.0
 21
0.0
 31
0.0
  0
POLYLINE
  5
E8
330
E4
100
AcDbEntity
  8
0
 62
     0
100
AcDb2dPolyline
 66
     1
 10
0.0
 20
0.0
 30
0.0
 70
   128
  0
VERTEX
  5
E9
330
E8
100
AcDbEntity
  8
0
 62
     0
100
AcDbVertex
100
AcDb2dVertex
 10
-1.0
 20
-0.1
 30
0.0
  0
VERTEX
  5
EA
330
E8
100
AcDbEntity
  8
0
 62
     0
100
AcDbVertex
100
AcDb2dVertex
 10
0.0
 20
0.0
 30
0.0
  0
VERTEX
  5
EC
330
E8
100
AcDbEntity
  8
0
 62
     0
100
AcDbVertex
100
AcDb2dVertex
 10
-1.0
 20
0.1
 30
0.0
  0
VERTEX
  5
ED
330
E8
100
AcDbEntity
  8
0
 62
     0
100
AcDbVertex
100
AcDb2dVertex
 10
-1.0
 20
-0.1
 30
0.0
  0
SEQEND
  5
EB
330
E8
100
AcDbEntity
  8
0
 62
     0
  0
SOLID
  5
EE
330
E4
100
AcDbEntity
  8
0
 62
     0
100
AcDbTrace
 10
-1.0
 20
-0.1
 30
0.0
 11
0.0
 21
0.0
 31
0.0
 12
-1.0
 22
0.1
 32
0.0
 13
-1.0
 23
-0.1
 33
0.0
  0
LINE
  5
EF
330
E4
100
AcDbEntity
  8
0
 62
     0
100
AcDbLine
 10
-1.0
 20
-0.1
 30
0.0
 11
0.0
 21
0.0
 31
0.0
  0
LINE
  5
F0
330
E4
100
AcDbEntity
  8
0
 62
     0
100
AcDbLine
 10
0.0
 20
0.0
 30
0.0
 11
-1.0
 21
0.1
 31
0.0
  0
LINE
  5
F1
330
E4
100
AcDbEntity
  8
0
 62
     0
100
AcDbLine
 10
-1.0
 20
0.1
 30
0.0
 11
-1.0
 21
-0.1
 31
0.0
  0
ENDBLK
  5
E6
330
E4
100
AcDbEntity
  8
0
100
AcDbBlockEnd
  0
BLOCK
  5
F4
330
F3
100
AcDbEntity
  8
0
100
AcDbBlockBegin
  2
Ränder Standardrahmen
 70
     0
 10
0.0
 20
0.0
 30
0.0
  3
Ränder Standardrahmen
  1

  0
POLYLINE
  5
F6
330
F3
100
AcDbEntity
  8
Rahmen (ISO)
100
AcDb2dPolyline
 66
     1
 10
0.0
 20
0.0
 30
0.0
 70
   128
  0
VERTEX
  5
F7
330
F6
100
AcDbEntity
  8
Rahmen (ISO)
100
AcDbVertex
100
AcDb2dVertex
 10
10.0
 20
10.0
 30
0.0
  0
VERTEX
  5
F8
330
F6
100
AcDbEntity
  8
Rahmen (ISO)
100
AcDbVertex
100
AcDb2dVertex
 10
10.0
 20
287.0000076293946
 30
0.0
  0
VERTEX
  5
FA
330
F6
100
AcDbEntity
  8
Rahmen (ISO)
100
AcDbVertex
100
AcDb2dVertex
 10
200.0
 20
287.0000076293946
 30
0.0
  0
VERTEX
  5
FB
330
F6
100
AcDbEntity
  8
Rahmen (ISO)
100
AcDbVertex
100
AcDb2dVertex
 10
200.0
 20
10.0
 30
0.0
  0
VERTEX
  5
FC
330
F6
100
AcDbEntity
  8
Rahmen (ISO)
100
AcDbVertex
100
AcDb2dVertex
 10
10.0
 20
10.0
 30
0.0
  0
SEQEND
  5
F9
330
F6
100
AcDbEntity
  8
Rahmen (ISO)
  0
POLYLINE
  5
FD
330
F3
100
AcDbEntity
  8
Rahmen (ISO)
100
AcDb2dPolyline
 66
     1
 10
0.0
 20
0.0
 30
0.0
 70
   128
  0
VERTEX
  5
FE
330
FD
100
AcDbEntity
  8
Rahmen (ISO)
100
AcDbVertex
100
AcDb2dVertex
 10
105.0
 20
0.0
 30
0.0
  0
VERTEX
  5
FF
330
FD
100
AcDbEntity
  8
Rahmen (ISO)
100
AcDbVertex
100
AcDb2dVertex
 10
105.0
 20
10.0
 30
0.0
  0
VERTEX
  5
101
330
FD
100
AcDbEntity
  8
Rahmen (ISO)
100
AcDbVertex
100
AcDb2dVertex
 10
102.1132469177246
 20
5.0
 30
0.0
  0
VERTEX
  5
102
330
FD
100
AcDbEntity
  8
Rahmen (ISO)
100
AcDbVertex
100
AcDb2dVertex
 10
107.8867530822754
 20
5.0
 30
0.0
  0
VERTEX
  5
103
330
FD
100
AcDbEntity
  8
Rahmen (ISO)
100
AcDbVertex
100
AcDb2dVertex
 10
105.0
 20
10.0
 30
0.0
  0
SEQEND
  5
100
330
FD
100
AcDbEntity
  8
Rahmen (ISO)
  0
POLYLINE
  5
104
330
F3
100
AcDbEntity
  8
Rahmen (ISO)
100
AcDb2dPolyline
 66
     1
 10
0.0
 20
0.0
 30
0.0
 70
   128
  0
VERTEX
  5
105
330
104
100
AcDbEntity
  8
Rahmen (ISO)
100
AcDbVertex
100
AcDb2dVertex
 10
105.0
 20
297.0000076293946
 30
0.0
  0
VERTEX
  5
106
330
104
100
AcDbEntity
  8
Rahmen (ISO)
100
AcDbVertex
100
AcDb2dVertex
 10
105.0
 20
287.0000076293946
 30
0.0
  0
VERTEX
  5
108
330
104
100
AcDbEntity
  8
Rahmen (ISO)
100
AcDbVertex
100
AcDb2dVertex
 10
102.1132469177246
 20
292.0000076293945
 30
0.0
  0
VERTEX
  5
109
330
104
100
AcDbEntity
  8
Rahmen (ISO)
100
AcDbVertex
100
AcDb2dVertex
 10
107.8867530822754
 20
292.0000076293945
 30
0.0
  0
VERTEX
  5
10A
330
104
100
AcDbEntity
  8
Rahmen (ISO)
100
AcDbVertex
100
AcDb2dVertex
 10
105.0
 20
287.0000076293946
 30
0.0
  0
SEQEND
  5
107
330
104
100
AcDbEntity
  8
Rahmen (ISO)
  0
POLYLINE
  5
10B
330
F3
100
AcDbEntity
  8
Rahmen (ISO)
100
AcDb2dPolyline
 66
     1
 10
0.0
 20
0.0
 30
0.0
 70
   128
  0
VERTEX
  5
10C
330
10B
100
AcDbEntity
  8
Rahmen (ISO)
100
AcDbVertex
100
AcDb2dVertex
 10
0.0
 20
148.5000038146973
 30
0.0
  0
VERTEX
  5
10D
330
10B
100
AcDbEntity
  8
Rahmen (ISO)
100
AcDbVertex
100
AcDb2dVertex
 10
10.0
 20
148.5000038146973
 30
0.0
  0
VERTEX
  5
10F
330
10B
100
AcDbEntity
  8
Rahmen (ISO)
100
AcDbVertex
100
AcDb2dVertex
 10
5.0
 20
151.3867473602295
 30
0.0
  0
VERTEX
  5
110
330
10B
100
AcDbEntity
  8
Rahmen (ISO)
100
AcDbVertex
100
AcDb2dVertex
 10
5.0
 20
145.6132507324219
 30
0.0
  0
VERTEX
  5
111
330
10B
100
AcDbEntity
  8
Rahmen (ISO)
100
AcDbVertex
100
AcDb2dVertex
 10
10.0
 20
148.5000038146973
 30
0.0
  0
SEQEND
  5
10E
330
10B
100
AcDbEntity
  8
Rahmen (ISO)
  0
POLYLINE
  5
112
330
F3
100
AcDbEntity
  8
Rahmen (ISO)
100
AcDb2dPolyline
 66
     1
 10
0.0
 20
0.0
 30
0.0
 70
   128
  0
VERTEX
  5
113
330
112
100
AcDbEntity
  8
Rahmen (ISO)
100
AcDbVertex
100
AcDb2dVertex
 10
210.0
 20
148.5000038146973
 30
0.0
  0
VERTEX
  5
114
330
112
100
AcDbEntity
  8
Rahmen (ISO)
100
AcDbVertex
100
AcDb2dVertex
 10
200.0
 20
148.5000038146973
 30
0.0
  0
VERTEX
  5
116
330
112
100
AcDbEntity
  8
Rahmen (ISO)
100
AcDbVertex
100
AcDb2dVertex
 10
205.0
 20
151.3867473602295
 30
0.0
  0
VERTEX
  5
117
330
112
100
AcDbEntity
  8
Rahmen (ISO)
100
AcDbVertex
100
AcDb2dVertex
 10
205.0
 20
145.6132507324219
 30
0.0
  0
VERTEX
  5
118
330
112
100
AcDbEntity
  8
Rahmen (ISO)
100
AcDbVertex
100
AcDb2dVertex
 10
200.0
 20
148.5000038146973
 30
0.0
  0
SEQEND
  5
115
330
112
100
AcDbEntity
  8
Rahmen (ISO)
  0
ENDBLK
  5
F5
330
F3
100
AcDbEntity
  8
0
100
AcDbBlockEnd
  0
BLOCK
  5
11B
330
11A
100
AcDbEntity
  8
0
100
AcDbBlockBegin
  2
Schriftfelder perma_schriftfeld
 70
     2
 10
0.0
 20
0.0
 30
0.0
  3
Schriftfelder perma_schriftfeld
  1

  0
HATCH
  5
124
330
11A
100
AcDbEntity
  8
Schraffur (ISO)
 62
   242
420
 13640771
100
AcDbHatch
 10
0.0
 20
0.0
 30
0.0
210
0.0
220
0.0
230
1.0
  2
SOLID
 70
     1
 71
     0
 91
        2
 92
        0
 93
        1
 72
     2
 10
243.4855390241711
 20
143.7748975342685
 40
1.785530546623793
 50
0.0
 51
360.0
 73
     1
 97
        0
 92
        1
 93
        6
 72
     1
 10
241.6008123360682
 20
146.8003798493811
 11
241.6008123360681
 21
146.3290777908515
 72
     2
 10
243.4855390241711
 20
143.7748975342685
 40
3.174276527331191
 50
233.5764263576677
 51
486.4235736423323
 73
     0
 72
     1
 10
241.6008123360681
 20
141.2207172776856
 11
241.6008123360681
 21
138.0215213284808
 72
     1
 10
241.6008123360681
 20
138.0215213284808
 11
240.2120663553608
 21
138.0215213284808
 72
     1
 10
240.2120663553608
 20
138.0215213284808
 11
240.2120663553608
 21
146.8003798493811
 72
     1
 10
240.2120663553608
 20
146.8003798493811
 11
241.6008123360682
 21
146.8003798493811
 97
        0
 75
     0
 76
     1
 98
        1
 10
0.0
 20
0.0
450
        0
451
        0
460
0.0
461
0.0
452
        0
462
0.0
453
        0
470

  0
HATCH
  5
12C
330
11A
100
AcDbEntity
  8
Schraffur (ISO)
 62
   242
420
 13640771
100
AcDbHatch
 10
0.0
 20
0.0
 30
0.0
210
0.0
220
0.0
230
1.0
  2
SOLID
 70
     1
 71
     0
 91
        1
 92
        1
 93
        7
 72
     2
 10
254.2483203746534
 20
146.3043991419856
 40
0.4959807073954986
 50
90.0
 51
180.0
 73
     1
 72
     1
 10
253.7523396672579
 20
146.3043991419856
 11
253.7523396672579
 21
140.6998171484165
 72
     1
 10
253.7523396672579
 20
140.6998171484165
 11
255.1410856479653
 21
140.6998171484165
 72
     1
 10
255.1410856479653
 20
140.6998171484165
 11
255.1410856479653
 21
145.4116338686737
 72
     1
 10
255.1410856479653
 20
145.4116338686737
 11
257.0258123360682
 21
145.4116338686737
 72
     1
 10
257.0258123360682
 20
145.4116338686737
 11
257.0258123360682
 21
146.8003798493811
 72
     1
 10
257.0258123360682
 20
146.8003798493811
 11
254.2483203746534
 21
146.8003798493811
 97
        0
 75
     0
 76
     1
 98
        1
 10
0.0
 20
0.0
450
        0
451
        0
460
0.0
461
0.0
452
        0
462
0.0
453
        0
470

  0
HATCH
  5
13B
330
11A
100
AcDbEntity
  8
Schraffur (ISO)
 62
   242
420
 13640771
100
AcDbHatch
 10
0.0
 20
0.0
 30
0.0
210
0.0
220
0.0
230
1.0
  2
SOLID
 70
     1
 71
     0
 91
        1
 92
        1
 93
       14
 72
     2
 10
263.6223557444282
 20
146.3043991419856
 40
0.4959807073954986
 50
0.0
 51
90.0
 73
     1
 72
     1
 10
263.6223557444282
 20
146.8003798493811
 11
257.8689795386405
 21
146.8003798493811
 72
     2
 10
257.8689795386405
 20
146.3043991419856
 40
0.4959807073954986
 50
90.0
 51
180.0
 73
     1
 72
     1
 10
257.372998831245
 20
146.3043991419856
 11
257.372998831245
 21
140.6998171484165
 72
     1
 10
257.372998831245
 20
140.6998171484165
 11
258.7617448119524
 21
140.6998171484165
 72
     1
 10
258.7617448119524
 20
140.6998171484165
 11
258.7617448119524
 21
145.4116338686737
 72
     1
 10
258.7617448119524
 20
145.4116338686737
 11
260.0512946511807
 21
145.4116338686737
 72
     1
 10
260.0512946511807
 20
145.4116338686737
 11
260.0512946511807
 21
140.6998171484165
 72
     1
 10
260.0512946511807
 20
140.6998171484165
 11
261.4400406318881
 21
140.6998171484165
 72
     1
 10
261.4400406318881
 20
140.6998171484165
 11
261.4400406318881
 21
145.4116338686737
 72
     1
 10
261.4400406318881
 20
145.4116338686737
 11
262.7295904711163
 21
145.4116338686737
 72
     1
 10
262.7295904711163
 20
145.4116338686737
 11
262.7295904711163
 21
140.6998171484164
 72
     1
 10
262.7295904711163
 20
140.6998171484165
 11
264.1183364518238
 21
140.6998171484165
 72
     1
 10
264.1183364518238
 20
140.6998171484165
 11
264.1183364518237
 21
146.3043991419856
 97
        0
 75
     0
 76
     1
 98
        1
 10
0.0
 20
0.0
450
        0
451
        0
460
0.0
461
0.0
452
        0
462
0.0
453
        0
470

  0
HATCH
  5
143
330
11A
100
AcDbEntity
  8
Schraffur (ISO)
 62
   242
420
 13640771
100
AcDbHatch
 10
0.0
 20
0.0
 30
0.0
210
0.0
220
0.0
230
1.0
  2
SOLID
 70
     1
 71
     0
 91
        2
 92
        0
 93
        1
 72
     2
 10
267.6893975450714
 20
143.7748975342685
 40
1.785530546623792
 50
0.0
 51
360.0
 73
     1
 97
        0
 92
        1
 93
        6
 72
     2
 10
267.6893975450714
 20
143.7748975342685
 40
3.174276527331188
 50
51.31781254651136
 51
308.6821874534886
 73
     1
 72
     1
 10
269.6733203746534
 20
141.2969787143252
 11
269.6733203746534
 21
140.6998171484165
 72
     1
 10
269.6733203746534
 20
140.6998171484165
 11
271.0620663553608
 21
140.6998171484165
 72
     1
 10
271.0620663553608
 20
140.6998171484165
 11
271.0620663553608
 21
146.8003798493811
 72
     1
 10
271.0620663553608
 20
146.8003798493811
 11
269.6733203746534
 21
146.8003798493811
 72
     1
 10
269.6733203746534
 20
146.8003798493811
 11
269.6733203746534
 21
146.2528163542119
 97
        0
 75
     0
 76
     1
 98
        1
 10
0.0
 20
0.0
450
        0
451
        0
460
0.0
461
0.0
452
        0
462
0.0
453
        0
470

  0
HATCH
  5
148
330
11A
100
AcDbEntity
  8
Schraffur (ISO)
 62
   242
420
 13640771
100
AcDbHatch
 10
0.0
 20
0.0
 30
0.0
210
0.0
220
0.0
230
1.0
  2
SOLID
 70
     1
 71
     0
 91
        1
 92
        1
 93
        4
 72
     1
 10
242.49357760938
 20
138.0215213284808
 11
271.0620663553608
 21
138.0215213284808
 72
     1
 10
271.0620663553608
 20
138.0215213284808
 11
271.0620663553608
 21
139.4102673091882
 72
     1
 10
271.0620663553608
 20
139.4102673091882
 11
242.49357760938
 21
139.4102673091882
 72
     1
 10
242.49357760938
 20
139.4102673091882
 11
242.49357760938
 21
138.0215213284808
 97
        0
 75
     0
 76
     1
 98
        1
 10
0.0
 20
0.0
450
        0
451
        0
460
0.0
461
0.0
452
        0
462
0.0
453
        0
470

  0
HATCH
  5
14F
330
11A
100
AcDbEntity
  8
Schraffur (ISO)
 62
   242
420
 13640771
100
AcDbHatch
 10
0.0
 20
0.0
 30
0.0
210
0.0
220
0.0
230
1.0
  2
SOLID
 70
     1
 71
     0
 91
        2
 92
        0
 93
        2
 72
     2
 10
250.2055390241711
 20
143.7748975342685
 40
1.78553054662284
 50
22.88538047613576
 51
157.1146195238642
 73
     1
 72
     1
 10
248.5605571144858
 20
144.4692705246211
 11
251.8505209338564
 21
144.4692705246211
 97
        0
 92
        1
 93
        4
 72
     2
 10
250.2055390241711
 20
143.7748975342685
 40
3.17427652733119
 50
349.193077125136
 51
698.9381823983302
 73
     1
 72
     1
 10
253.1677523978849
 20
142.6341419072579
 11
251.5791459302305
 21
142.6341419072579
 72
     2
 10
250.2055390241711
 20
143.7748975342685
 40
1.78553054662492
 50
39.70901655308167
 51
160.5287793655139
 73
     0
 72
     1
 10
248.5221246807924
 20
143.1797206853938
 11
253.3235184966065
 21
143.1797206853938
 97
        0
 75
     0
 76
     1
 98
        1
 10
0.0
 20
0.0
450
        0
451
        0
460
0.0
461
0.0
452
        0
462
0.0
453
        0
470

  0
LINE
  5
150
330
11A
100
AcDbEntity
  8
Titel (ISO)
100
AcDbLine
 10
137.5127883584022
 20
114.0882056155221
 30
0.0
 11
327.5127883584023
 21
114.0882056155221
 31
0.0
  0
LINE
  5
151
330
11A
100
AcDbEntity
  8
Titel (ISO)
100
AcDbLine
 10
327.5127883584023
 20
114.0882056155221
 30
0.0
 11
327.5127883584023
 21
169.3382056155221
 31
0.0
  0
LINE
  5
152
330
11A
100
AcDbEntity
  8
Titel (ISO)
100
AcDbLine
 10
327.5127883584023
 20
169.3382056155221
 30
0.0
 11
137.5127883584022
 21
169.3382056155221
 31
0.0
  0
LINE
  5
153
330
11A
100
AcDbEntity
  8
Titel (ISO)
100
AcDbLine
 10
137.5127883584022
 20
169.3382056155221
 30
0.0
 11
137.5127883584022
 21
114.0882056155221
 31
0.0
  0
LINE
  5
154
330
11A
100
AcDbEntity
  8
Titel (ISO)
100
AcDbLine
 10
192.1127883584023
 20
114.0882056155221
 30
0.0
 11
192.1127883584023
 21
169.3382056155221
 31
0.0
  0
LINE
  5
155
330
11A
100
AcDbEntity
  8
Titel (ISO)
100
AcDbLine
 10
236.3127883584021
 20
114.0882056155221
 30
0.0
 11
236.3127883584021
 21
169.3382056155221
 31
0.0
  0
LINE
  5
156
330
11A
100
AcDbEntity
  8
Titel (ISO)
100
AcDbLine
 10
137.5127883584022
 20
152.3382056155222
 30
0.0
 11
327.5127883584023
 21
152.3382056155222
 31
0.0
  0
LINE
  5
157
330
11A
100
AcDbEntity
  8
Titel (ISO)
100
AcDbLine
 10
192.1127883584023
 20
131.0882056155222
 30
0.0
 11
327.5127883584023
 21
131.0882056155222
 31
0.0
  0
LINE
  5
158
330
11A
100
AcDbEntity
  8
Titel (ISO)
100
AcDbLine
 10
236.3127883584021
 20
162.5882056155222
 30
0.0
 11
327.5127883584023
 21
162.5882056155222
 31
0.0
  0
LINE
  5
159
330
11A
100
AcDbEntity
  8
Titel (ISO)
100
AcDbLine
 10
137.5127883584022
 20
118.3382056155221
 30
0.0
 11
192.1127883584023
 21
118.3382056155221
 31
0.0
  0
LINE
  5
15A
330
11A
100
AcDbEntity
  8
Titel (ISO)
100
AcDbLine
 10
192.1127883584023
 20
118.3382056155221
 30
0.0
 11
236.3127883584021
 21
118.3382056155221
 31
0.0
  0
LINE
  5
15B
330
11A
100
AcDbEntity
  8
Titel (ISO)
100
AcDbLine
 10
236.3127883584021
 20
118.3382056155221
 30
0.0
 11
327.5127883584023
 21
118.3382056155221
 31
0.0
  0
LINE
  5
15C
330
11A
100
AcDbEntity
  8
Titel (ISO)
100
AcDbLine
 10
311.7127883584024
 20
118.3382056155221
 30
0.0
 11
311.7127883584024
 21
131.0882056155222
 31
0.0
  0
LINE
  5
15D
330
11A
100
AcDbEntity
  8
Titel (ISO)
100
AcDbLine
 10
311.7127883584021
 20
124.0197845628906
 30
0.0
 11
327.5127883584021
 21
124.0197845628906
 31
0.0
  0
LINE
  5
15E
330
11A
100
AcDbEntity
  8
Titel (ISO)
100
AcDbLine
 10
192.1127883584023
 20
122.5882056155221
 30
0.0
 11
137.5127883584022
 21
122.5882056155221
 31
0.0
  0
LINE
  5
15F
330
11A
100
AcDbEntity
  8
Titel (ISO)
100
AcDbLine
 10
137.5127883584022
 20
126.8382056155221
 30
0.0
 11
192.1127883584023
 21
126.8382056155221
 31
0.0
  0
LINE
  5
160
330
11A
100
AcDbEntity
  8
Titel (ISO)
100
AcDbLine
 10
137.5127883584022
 20
131.0882056155222
 30
0.0
 11
192.1127883584023
 21
131.0882056155222
 31
0.0
  0
LINE
  5
161
330
11A
100
AcDbEntity
  8
Titel (ISO)
100
AcDbLine
 10
137.5127883584022
 20
135.3382056155222
 30
0.0
 11
192.1127883584023
 21
135.3382056155222
 31
0.0
  0
LINE
  5
162
330
11A
100
AcDbEntity
  8
Titel (ISO)
100
AcDbLine
 10
192.1127883584023
 20
135.3382056155222
 30
0.0
 11
236.3127883584021
 21
135.3382056155222
 31
0.0
  0
LINE
  5
163
330
11A
100
AcDbEntity
  8
Titel (ISO)
100
AcDbLine
 10
137.5127883584022
 20
139.5882056155222
 30
0.0
 11
192.1127883584023
 21
139.5882056155222
 31
0.0
  0
LINE
  5
164
330
11A
100
AcDbEntity
  8
Titel (ISO)
100
AcDbLine
 10
192.1127883584023
 20
139.5882056155222
 30
0.0
 11
236.3127883584021
 21
139.5882056155222
 31
0.0
  0
LINE
  5
165
330
11A
100
AcDbEntity
  8
Titel (ISO)
100
AcDbLine
 10
137.5127883584022
 20
143.8382056155222
 30
0.0
 11
192.1127883584023
 21
143.8382056155222
 31
0.0
  0
LINE
  5
166
330
11A
100
AcDbEntity
  8
Titel (ISO)
100
AcDbLine
 10
192.1127883584023
 20
143.8382056155222
 30
0.0
 11
236.3127883584021
 21
143.8382056155222
 31
0.0
  0
LINE
  5
167
330
11A
100
AcDbEntity
  8
Titel (ISO)
100
AcDbLine
 10
137.5127883584022
 20
148.0882056155222
 30
0.0
 11
192.1127883584023
 21
148.0882056155222
 31
0.0
  0
LINE
  5
168
330
11A
100
AcDbEntity
  8
Titel (ISO)
100
AcDbLine
 10
192.1127883584023
 20
148.0882056155222
 30
0.0
 11
236.3127883584021
 21
148.0882056155222
 31
0.0
  0
LINE
  5
169
330
11A
100
AcDbEntity
  8
Titel (ISO)
100
AcDbLine
 10
145.0127883584023
 20
114.0882056155222
 30
0.0
 11
145.0127883584023
 21
152.3382056155222
 31
0.0
  0
LINE
  5
16A
330
11A
100
AcDbEntity
  8
Titel (ISO)
100
AcDbLine
 10
172.0127883584021
 20
114.0882056155221
 30
0.0
 11
172.0127883584021
 21
152.3382056155222
 31
0.0
  0
LINE
  5
16B
330
11A
100
AcDbEntity
  8
Titel (ISO)
100
AcDbLine
 10
182.6127883584021
 20
114.0882056155221
 30
0.0
 11
182.6127883584021
 21
152.3382056155222
 31
0.0
  0
LINE
  5
16C
330
11A
100
AcDbEntity
  8
Titel (ISO)
100
AcDbLine
 10
202.5127883584021
 20
135.3382056155222
 30
0.0
 11
202.5127883584021
 21
152.3382056155222
 31
0.0
  0
LINE
  5
16D
330
11A
100
AcDbEntity
  8
Titel (ISO)
100
AcDbLine
 10
218.1127883584023
 20
131.0882056155222
 30
0.0
 11
218.1127883584023
 21
152.3382056155222
 31
0.0
  0
LINE
  5
16E
330
11A
100
AcDbEntity
  8
Titel (ISO)
100
AcDbLine
 10
218.1127883584023
 20
152.3382056155222
 30
0.0
 11
218.1127883584023
 21
169.3382056155221
 31
0.0
  0
LINE
  5
16F
330
11A
100
AcDbEntity
  8
Skizziergeometrie (ISO)
 62
   242
420
 13640771
370
     9
100
AcDbLine
 10
241.6008123360682
 20
146.8003798493811
 30
0.0
 11
240.2120663553608
 21
146.8003798493811
 31
0.0
  0
LINE
  5
170
330
11A
100
AcDbEntity
  8
Skizziergeometrie (ISO)
 62
   242
420
 13640771
370
     9
100
AcDbLine
 10
241.6008123360681
 20
146.3290777908515
 30
0.0
 11
241.6008123360682
 21
146.8003798493811
 31
0.0
  0
LINE
  5
171
330
11A
100
AcDbEntity
  8
Skizziergeometrie (ISO)
 62
   242
420
 13640771
370
     9
100
AcDbLine
 10
240.2120663553608
 20
146.8003798493811
 30
0.0
 11
240.2120663553608
 21
138.0215213284808
 31
0.0
  0
CIRCLE
  5
172
330
11A
100
AcDbEntity
  8
Skizziergeometrie (ISO)
 62
   242
420
 13640771
370
     9
100
AcDbCircle
 10
243.4855390241711
 20
143.7748975342685
 30
0.0
 40
1.785530546623793
  0
LINE
  5
173
330
11A
100
AcDbEntity
  8
Skizziergeometrie (ISO)
 62
   242
420
 13640771
370
     9
100
AcDbLine
 10
240.2120663553608
 20
138.0215213284808
 30
0.0
 11
241.6008123360681
 21
138.0215213284808
 31
0.0
  0
LINE
  5
174
330
11A
100
AcDbEntity
  8
Skizziergeometrie (ISO)
 62
   242
420
 13640771
370
     9
100
AcDbLine
 10
241.6008123360681
 20
138.0215213284808
 30
0.0
 11
241.6008123360681
 21
141.2207172776856
 31
0.0
  0
ARC
  5
175
330
11A
100
AcDbEntity
  8
Skizziergeometrie (ISO)
 62
   242
420
 13640771
370
     9
100
AcDbCircle
 10
243.4855390241711
 20
143.7748975342685
 30
0.0
 40
3.17427652733119
100
AcDbArc
 50
233.5764263576676
 51
126.4235736423323
  0
LINE
  5
176
330
11A
100
AcDbEntity
  8
Skizziergeometrie (ISO)
 62
   242
420
 13640771
370
     9
100
AcDbLine
 10
242.49357760938
 20
139.4102673091882
 30
0.0
 11
242.49357760938
 21
138.0215213284808
 31
0.0
  0
ARC
  5
177
330
11A
100
AcDbEntity
  8
Skizziergeometrie (ISO)
 62
   242
420
 13640771
370
     9
100
AcDbCircle
 10
254.2483203746534
 20
146.3043991419856
 30
0.0
 40
0.4959807073954986
100
AcDbArc
 50
90.0
 51
180.0
  0
LINE
  5
178
330
11A
100
AcDbEntity
  8
Skizziergeometrie (ISO)
 62
   242
420
 13640771
370
     9
100
AcDbLine
 10
255.1410856479653
 20
145.4116338686737
 30
0.0
 11
255.1410856479653
 21
140.6998171484165
 31
0.0
  0
LINE
  5
179
330
11A
100
AcDbEntity
  8
Skizziergeometrie (ISO)
 62
   242
420
 13640771
370
     9
100
AcDbLine
 10
253.7523396672579
 20
140.6998171484165
 30
0.0
 11
253.7523396672579
 21
146.3043991419856
 31
0.0
  0
ARC
  5
17A
330
11A
100
AcDbEntity
  8
Skizziergeometrie (ISO)
 62
   242
420
 13640771
370
     9
100
AcDbCircle
 10
250.2055390241711
 20
143.7748975342685
 30
0.0
 40
3.17427652733119
100
AcDbArc
 50
349.1930771251181
 51
338.9381823983282
  0
LINE
  5
17B
330
11A
100
AcDbEntity
  8
Skizziergeometrie (ISO)
 62
   242
420
 13640771
370
     9
100
AcDbLine
 10
255.1410856479653
 20
140.6998171484165
 30
0.0
 11
253.7523396672579
 21
140.6998171484165
 31
0.0
  0
LINE
  5
17C
330
11A
100
AcDbEntity
  8
Skizziergeometrie (ISO)
 62
   242
420
 13640771
370
     9
100
AcDbLine
 10
269.6733203746534
 20
146.2528163542119
 30
0.0
 11
269.6733203746534
 21
146.8003798493811
 31
0.0
  0
LINE
  5
17D
330
11A
100
AcDbEntity
  8
Skizziergeometrie (ISO)
 62
   242
420
 13640771
370
     9
100
AcDbLine
 10
271.0620663553608
 20
146.8003798493811
 30
0.0
 11
271.0620663553608
 21
140.6998171484165
 31
0.0
  0
LINE
  5
17E
330
11A
100
AcDbEntity
  8
Skizziergeometrie (ISO)
 62
   242
420
 13640771
370
     9
100
AcDbLine
 10
271.0620663553608
 20
140.6998171484165
 30
0.0
 11
269.6733203746534
 21
140.6998171484165
 31
0.0
  0
CIRCLE
  5
17F
330
11A
100
AcDbEntity
  8
Skizziergeometrie (ISO)
 62
   242
420
 13640771
370
     9
100
AcDbCircle
 10
267.6893975450714
 20
143.7748975342685
 30
0.0
 40
1.785530546623792
  0
ARC
  5
180
330
11A
100
AcDbEntity
  8
Skizziergeometrie (ISO)
 62
   242
420
 13640771
370
     9
100
AcDbCircle
 10
263.6223557444282
 20
146.3043991419856
 30
0.0
 40
0.4959807073954986
100
AcDbArc
 50
0.0
 51
90.0
  0
LINE
  5
181
330
11A
100
AcDbEntity
  8
Skizziergeometrie (ISO)
 62
   242
420
 13640771
370
     9
100
AcDbLine
 10
264.1183364518237
 20
146.3043991419856
 30
0.0
 11
264.1183364518238
 21
140.6998171484165
 31
0.0
  0
LINE
  5
182
330
11A
100
AcDbEntity
  8
Skizziergeometrie (ISO)
 62
   242
420
 13640771
370
     9
100
AcDbLine
 10
262.7295904711163
 20
145.4116338686737
 30
0.0
 11
262.7295904711163
 21
140.6998171484165
 31
0.0
  0
LINE
  5
183
330
11A
100
AcDbEntity
  8
Skizziergeometrie (ISO)
 62
   242
420
 13640771
370
     9
100
AcDbLine
 10
261.4400406318881
 20
145.4116338686737
 30
0.0
 11
262.7295904711163
 21
145.4116338686737
 31
0.0
  0
LINE
  5
184
330
11A
100
AcDbEntity
  8
Skizziergeometrie (ISO)
 62
   242
420
 13640771
370
     9
100
AcDbLine
 10
261.4400406318881
 20
145.4116338686737
 30
0.0
 11
261.4400406318881
 21
140.6998171484165
 31
0.0
  0
LINE
  5
185
330
11A
100
AcDbEntity
  8
Skizziergeometrie (ISO)
 62
   242
420
 13640771
370
     9
100
AcDbLine
 10
269.6733203746534
 20
140.6998171484165
 30
0.0
 11
269.6733203746534
 21
141.2969787143252
 31
0.0
  0
LINE
  5
186
330
11A
100
AcDbEntity
  8
Skizziergeometrie (ISO)
 62
   242
420
 13640771
370
     9
100
AcDbLine
 10
257.372998831245
 20
146.3043991419856
 30
0.0
 11
257.372998831245
 21
140.6998171484165
 31
0.0
  0
LINE
  5
187
330
11A
100
AcDbEntity
  8
Skizziergeometrie (ISO)
 62
   242
420
 13640771
370
     9
100
AcDbLine
 10
257.372998831245
 20
140.6998171484165
 30
0.0
 11
258.7617448119524
 21
140.6998171484165
 31
0.0
  0
LINE
  5
188
330
11A
100
AcDbEntity
  8
Skizziergeometrie (ISO)
 62
   242
420
 13640771
370
     9
100
AcDbLine
 10
258.7617448119524
 20
140.6998171484165
 30
0.0
 11
258.7617448119524
 21
145.4116338686737
 31
0.0
  0
LINE
  5
189
330
11A
100
AcDbEntity
  8
Skizziergeometrie (ISO)
 62
   242
420
 13640771
370
     9
100
AcDbLine
 10
260.0512946511807
 20
140.6998171484165
 30
0.0
 11
260.0512946511807
 21
145.4116338686737
 31
0.0
  0
LINE
  5
18A
330
11A
100
AcDbEntity
  8
Skizziergeometrie (ISO)
 62
   242
420
 13640771
370
     9
100
AcDbLine
 10
257.8689795386405
 20
146.8003798493811
 30
0.0
 11
263.6223557444282
 21
146.8003798493811
 31
0.0
  0
LINE
  5
18B
330
11A
100
AcDbEntity
  8
Skizziergeometrie (ISO)
 62
   242
420
 13640771
370
     9
100
AcDbLine
 10
260.0512946511807
 20
140.6998171484165
 30
0.0
 11
261.4400406318881
 21
140.6998171484165
 31
0.0
  0
ARC
  5
18C
330
11A
100
AcDbEntity
  8
Skizziergeometrie (ISO)
 62
   242
420
 13640771
370
     9
100
AcDbCircle
 10
257.8689795386405
 20
146.3043991419856
 30
0.0
 40
0.4959807073954986
100
AcDbArc
 50
90.0
 51
180.0
  0
LINE
  5
18D
330
11A
100
AcDbEntity
  8
Skizziergeometrie (ISO)
 62
   242
420
 13640771
370
     9
100
AcDbLine
 10
257.0258123360682
 20
145.4116338686737
 30
0.0
 11
255.1410856479653
 21
145.4116338686737
 31
0.0
  0
LINE
  5
18E
330
11A
100
AcDbEntity
  8
Skizziergeometrie (ISO)
 62
   242
420
 13640771
370
     9
100
AcDbLine
 10
257.0258123360682
 20
146.8003798493811
 30
0.0
 11
257.0258123360682
 21
145.4116338686737
 31
0.0
  0
LINE
  5
18F
330
11A
100
AcDbEntity
  8
Skizziergeometrie (ISO)
 62
   242
420
 13640771
370
     9
100
AcDbLine
 10
254.2483203746534
 20
146.8003798493811
 30
0.0
 11
257.0258123360682
 21
146.8003798493811
 31
0.0
  0
ARC
  5
190
330
11A
100
AcDbEntity
  8
Skizziergeometrie (ISO)
 62
   242
420
 13640771
370
     9
100
AcDbCircle
 10
267.6893975450714
 20
143.7748975342685
 30
0.0
 40
3.17427652733119
100
AcDbArc
 50
51.31781254651136
 51
308.6821874534886
  0
LINE
  5
191
330
11A
100
AcDbEntity
  8
Skizziergeometrie (ISO)
 62
   242
420
 13640771
370
     9
100
AcDbLine
 10
271.0620663553608
 20
139.4102673091882
 30
0.0
 11
271.0620663553608
 21
138.0215213284808
 31
0.0
  0
LINE
  5
192
330
11A
100
AcDbEntity
  8
Skizziergeometrie (ISO)
 62
   242
420
 13640771
370
     9
100
AcDbLine
 10
269.6733203746534
 20
146.8003798493811
 30
0.0
 11
271.0620663553608
 21
146.8003798493811
 31
0.0
  0
LINE
  5
193
330
11A
100
AcDbEntity
  8
Skizziergeometrie (ISO)
 62
   242
420
 13640771
370
     9
100
AcDbLine
 10
262.7295904711163
 20
140.6998171484165
 30
0.0
 11
264.1183364518238
 21
140.6998171484165
 31
0.0
  0
LINE
  5
194
330
11A
100
AcDbEntity
  8
Skizziergeometrie (ISO)
 62
   242
420
 13640771
370
     9
100
AcDbLine
 10
258.7617448119524
 20
145.4116338686737
 30
0.0
 11
260.0512946511807
 21
145.4116338686737
 31
0.0
  0
LINE
  5
195
330
11A
100
AcDbEntity
  8
Skizziergeometrie (ISO)
 62
   242
420
 13640771
370
     9
100
AcDbLine
 10
242.49357760938
 20
139.4102673091882
 30
0.0
 11
271.0620663553608
 21
139.4102673091882
 31
0.0
  0
LINE
  5
196
330
11A
100
AcDbEntity
  8
Skizziergeometrie (ISO)
 62
   242
420
 13640771
370
     9
100
AcDbLine
 10
242.49357760938
 20
138.0215213284808
 30
0.0
 11
271.0620663553608
 21
138.0215213284808
 31
0.0
  0
LINE
  5
197
330
11A
100
AcDbEntity
  8
Skizziergeometrie (ISO)
 62
   242
420
 13640771
370
     9
100
AcDbLine
 10
251.5791459302305
 20
142.6341419072579
 30
0.0
 11
253.1677523978849
 21
142.6341419072579
 31
0.0
  0
LINE
  5
198
330
11A
100
AcDbEntity
  8
Skizziergeometrie (ISO)
 62
   242
420
 13640771
370
     9
100
AcDbLine
 10
248.5605571144858
 20
144.4692705246211
 30
0.0
 11
251.8505209338564
 21
144.4692705246211
 31
0.0
  0
ARC
  5
199
330
11A
100
AcDbEntity
  8
Skizziergeometrie (ISO)
 62
   242
420
 13640771
370
     9
100
AcDbCircle
 10
250.2055390241711
 20
143.7748975342685
 30
0.0
 40
1.78553054662284
100
AcDbArc
 50
22.88538047613576
 51
157.1146195238642
  0
LINE
  5
19A
330
11A
100
AcDbEntity
  8
Skizziergeometrie (ISO)
 62
   242
420
 13640771
370
     9
100
AcDbLine
 10
248.5221246807924
 20
143.1797206853938
 30
0.0
 11
253.3235184966065
 21
143.1797206853938
 31
0.0
  0
ARC
  5
19B
330
11A
100
AcDbEntity
  8
Skizziergeometrie (ISO)
 62
   242
420
 13640771
370
     9
100
AcDbCircle
 10
250.2055390241711
 20
143.7748975342685
 30
0.0
 40
1.78553054662492
100
AcDbArc
 50
199.471220634486
 51
320.2909834469179
  0
ARC
  5
19C
330
11A
100
AcDbEntity
  8
Skizziergeometrie (ISO)
 62
   242
420
 13640771
370
     9
100
AcDbCircle
 10
250.2055390241711
 20
143.7748975342685
 30
0.0
 40
3.17427652733119
100
AcDbArc
 50
349.1930771251363
 51
338.9381823983304
  0
LINE
  5
19D
330
11A
100
AcDbEntity
  8
Titel (ISO)
100
AcDbLine
 10
281.9127883584023
 20
169.3382056155221
 30
0.0
 11
281.9127883584023
 21
162.5882056155222
 31
0.0
  0
LINE
  5
19E
330
11A
100
AcDbEntity
  8
Titel (ISO)
100
AcDbLine
 10
137.5127883584022
 20
152.3382056155222
 30
0.0
 11
145.0127883584023
 21
152.3382056155222
 31
0.0
  0
LINE
  5
19F
330
11A
100
AcDbEntity
  8
Titel (ISO)
100
AcDbLine
 10
145.0127883584023
 20
152.3382056155222
 30
0.0
 11
172.0127883584021
 21
152.3382056155222
 31
0.0
  0
LINE
  5
1A0
330
11A
100
AcDbEntity
  8
Titel (ISO)
100
AcDbLine
 10
172.0127883584021
 20
152.3382056155222
 30
0.0
 11
182.6127883584021
 21
152.3382056155222
 31
0.0
  0
LINE
  5
1A1
330
11A
100
AcDbEntity
  8
Titel (ISO)
100
AcDbLine
 10
182.6127883584021
 20
152.3382056155222
 30
0.0
 11
182.6127883584021
 21
148.0882056155222
 31
0.0
  0
LINE
  5
1A2
330
11A
100
AcDbEntity
  8
Titel (ISO)
100
AcDbLine
 10
192.1127883584023
 20
148.0882056155222
 30
0.0
 11
182.6127883584021
 21
148.0882056155222
 31
0.0
  0
LINE
  5
1A3
330
11A
100
AcDbEntity
  8
Titel (ISO)
100
AcDbLine
 10
236.3127883584021
 20
118.3382056155221
 30
0.0
 11
311.7127883584024
 21
118.3382056155221
 31
0.0
  0
LINE
  5
1A4
330
11A
100
AcDbEntity
  8
Titel (ISO)
100
AcDbLine
 10
202.5127883584021
 20
152.3382056155222
 30
0.0
 11
202.5127883584022
 21
149.0882056155222
 31
0.0
  0
LINE
  5
1A5
330
11A
100
AcDbEntity
  8
Titel (ISO)
100
AcDbLine
 10
202.5127883584022
 20
149.0882056155222
 30
0.0
 11
202.5127883584022
 21
145.4048899025636
 31
0.0
  0
LINE
  5
1A6
330
11A
100
AcDbEntity
  8
Titel (ISO)
100
AcDbLine
 10
202.5127883584022
 20
142.8382056155222
 30
0.0
 11
202.5127883584022
 21
140.5882056155222
 31
0.0
  0
LINE
  5
1A7
330
11A
100
AcDbEntity
  8
Titel (ISO)
100
AcDbLine
 10
137.5127883584022
 20
152.3382056155222
 30
0.0
 11
137.5127883584022
 21
148.0882056155222
 31
0.0
  0
LINE
  5
1A8
330
11A
100
AcDbEntity
  8
Titel (ISO)
100
AcDbLine
 10
137.5127883584022
 20
148.0882056155222
 30
0.0
 11
137.5127883584022
 21
143.8382056155222
 31
0.0
  0
LINE
  5
1A9
330
11A
100
AcDbEntity
  8
Titel (ISO)
100
AcDbLine
 10
137.5127883584022
 20
143.8382056155222
 30
0.0
 11
137.5127883584022
 21
139.5882056155222
 31
0.0
  0
LINE
  5
1AA
330
11A
100
AcDbEntity
  8
Titel (ISO)
100
AcDbLine
 10
137.5127883584022
 20
139.5882056155222
 30
0.0
 11
137.5127883584022
 21
135.3382056155222
 31
0.0
  0
LINE
  5
1AB
330
11A
100
AcDbEntity
  8
Titel (ISO)
100
AcDbLine
 10
137.5127883584022
 20
135.3382056155222
 30
0.0
 11
137.5127883584022
 21
131.0882056155222
 31
0.0
  0
LINE
  5
1AC
330
11A
100
AcDbEntity
  8
Titel (ISO)
100
AcDbLine
 10
137.5127883584022
 20
131.0882056155222
 30
0.0
 11
137.5127883584022
 21
126.8382056155221
 31
0.0
  0
LINE
  5
1AD
330
11A
100
AcDbEntity
  8
Titel (ISO)
100
AcDbLine
 10
137.5127883584022
 20
126.8382056155221
 30
0.0
 11
137.5127883584022
 21
122.5882056155221
 31
0.0
  0
LINE
  5
1AE
330
11A
100
AcDbEntity
  8
Titel (ISO)
100
AcDbLine
 10
137.5127883584022
 20
122.5882056155221
 30
0.0
 11
137.5127883584022
 21
118.3382056155221
 31
0.0
  0
LINE
  5
1AF
330
11A
100
AcDbEntity
  8
Titel (ISO)
100
AcDbLine
 10
137.5127883584022
 20
118.3382056155221
 30
0.0
 11
137.5127883584022
 21
114.0882056155221
 31
0.0
  0
LINE
  5
1B0
330
11A
100
AcDbEntity
  8
Titel (ISO)
100
AcDbLine
 10
236.3127883584021
 20
131.0882056155222
 30
0.0
 11
236.3127883584021
 21
118.3382056155221
 31
0.0
  0
LINE
  5
1B1
330
11A
100
AcDbEntity
  8
Titel (ISO)
100
AcDbLine
 10
192.1127883584023
 20
118.3382056155221
 30
0.0
 11
192.1127883584023
 21
114.0882056155221
 31
0.0
  0
LINE
  5
1B2
330
11A
100
AcDbEntity
  8
Titel (ISO)
100
AcDbLine
 10
236.3127883584021
 20
169.3382056155221
 30
0.0
 11
236.3127883584021
 21
162.5882056155222
 31
0.0
  0
LINE
  5
1B3
330
11A
100
AcDbEntity
  8
Titel (ISO)
100
AcDbLine
 10
218.1127883584023
 20
169.3382056155221
 30
0.0
 11
236.3127883584021
 21
169.3382056155221
 31
0.0
  0
LINE
  5
1B4
330
11A
100
AcDbEntity
  8
Titel (ISO)
100
AcDbLine
 10
192.1127883584023
 20
148.0882056155222
 30
0.0
 11
202.5127883584021
 21
148.0882056155222
 31
0.0
  0
LINE
  5
1B5
330
11A
100
AcDbEntity
  8
Titel (ISO)
100
AcDbLine
 10
192.1127883584023
 20
148.0882056155222
 30
0.0
 11
192.1127883584023
 21
143.8382056155222
 31
0.0
  0
LINE
  5
1B6
330
11A
100
AcDbEntity
  8
Titel (ISO)
100
AcDbLine
 10
202.5127883584021
 20
143.8382056155222
 30
0.0
 11
202.5127883584021
 21
139.5882056155222
 31
0.0
  0
TEXT
  5
1B8
330
11A
100
AcDbEntity
  8
Titel (ISO)
100
AcDbText
 10
239.0576584647692
 20
126.9673826906516
 30
0.0
 40
2.5
  1
Benennung
  7
Textstil100
 72
     1
 11
248.6611714811056
 21
128.2173826906516
 31
0.0
100
AcDbText
 73
     2
  0
MTEXT
  5
1BB
330
11A
100
AcDbEntity
  8
Titel (ISO)
100
AcDbMText
 10
237.7860525909858
 20
117.5074129338006
 30
0.0
 40
2.000000029802321
 41
26.70426845550537
 46
0.0
 71
     1
 72
     1
  1
\fArial|b1|i0;\H2.0000;Zeichnungsnummer
  7
Notiztext (DIN)
 73
     1
 44
1.0
  0
MTEXT
  5
1BD
330
11A
100
AcDbEntity
  8
Titel (ISO)
100
AcDbMText
 10
288.7221859486278
 20
165.963205690028
 30
0.0
 40
2.5
 41
8.898102374642247
 46
0.0
 71
     5
 72
     1
  1
\fArial|b1|i0;\H2.5000;Mat.:
  7
Notiztext (DIN)
 73
     1
 44
1.0
  0
MTEXT
  5
1BE
330
11A
100
AcDbEntity
  8
Titel (ISO)
100
AcDbMText
 10
244.9733924311281
 20
165.9632056155222
 30
0.0
 40
2.5
 41
15.32774329185486
 46
0.0
 71
     5
 72
     1
  1
\fArial|b1|i0;\H2.5000;Maßstab:
  7
Notiztext (DIN)
 73
     1
 44
1.0
  0
MTEXT
  5
1BF
330
11A
100
AcDbEntity
  8
Titel (ISO)
100
AcDbMText
 10
227.2127883584022
 20
160.8850043886321
 30
0.0
 40
1.800000071525573
 41
14.41225028934489
 46
0.0
 71
     5
 72
     1
  1
\fArial|b1|i0;\H1.8000;all\Pdimensions\P[mm]
  7
Notiztext (DIN)
 73
     2
 44
0.9442214965820312
  0
TEXT
  5
1C1
330
11A
100
AcDbEntity
  8
Titel (ISO)
100
AcDbText
 10
205.9662671223584
 20
149.4531826526857
 30
0.0
 40
2.000000029802321
  1
Datum
  7
Textstil103
 72
     1
 11
210.3127883584022
 21
149.193973916073
 31
0.0
100
AcDbText
 73
     1
  0
TEXT
  5
1C2
330
11A
100
AcDbEntity
  8
Titel (ISO)
100
AcDbText
 10
223.4078769562283
 20
149.4531826526857
 30
0.0
 40
2.000000029802321
  1
Name
  7
Textstil103
 72
     1
 11
227.2127883584022
 21
149.193973916073
 31
0.0
100
AcDbText
 73
     1
  0
TEXT
  5
1C4
330
11A
100
AcDbEntity
  8
Titel (ISO)
100
AcDbText
 10
192.9291407012697
 20
145.3632056289332
 30
0.0
 40
1.199999973177909
  1
Gezeichnet
  7
Textstil108
 72
     1
 11
197.4009005182066
 21
145.9632056155222
 31
0.0
100
AcDbText
 73
     2
  0
TEXT
  5
1C5
330
11A
100
AcDbEntity
  8
Titel (ISO)
100
AcDbText
 10
192.8708276292089
 20
141.0861068043681
 30
0.0
 40
1.199999973177909
  1
Kontrolliert
  7
Textstil108
 11
192.8708276292089
 21
140.9305815681942
 31
0.0
100
AcDbText
 73
     1
  0
TEXT
  5
1C6
330
11A
100
AcDbEntity
  8
Titel (ISO)
100
AcDbText
 10
192.8851600792527
 20
136.8229567039743
 30
0.0
 40
1.199999973177909
  1
Norm
  7
Textstil108
 11
192.8851600792527
 21
136.6674314678004
 31
0.0
100
AcDbText
 73
     1
  0
TEXT
  5
1C7
330
11A
100
AcDbEntity
  8
Titel (ISO)
100
AcDbText
 10
193.8939368309821
 20
126.9673826906517
 30
0.0
 40
2.5
  1
Projekt
  7
Textstil100
 72
     1
 11
199.8139573292884
 21
128.2173826906517
 31
0.0
100
AcDbText
 73
     2
  0
MTEXT
  5
1C8
330
11A
100
AcDbEntity
  8
Titel (ISO)
100
AcDbMText
 10
193.2211565676084
 20
117.2459800067279
 30
0.0
 40
2.000000029802321
 41
9.780488014221331
 46
0.0
 71
     1
 72
     1
  1
\fArial|b1|i0;\H2.0000;Ers. für
  7
Notiztext (DIN)
 73
     1
 44
1.0
  0
MTEXT
  5
1C9
330
11A
100
AcDbEntity
  8
Titel (ISO)
100
AcDbMText
 10
139.0940728591497
 20
167.9495696034075
 30
0.0
 40
2.5
 41
25.80983161926269
 46
0.0
 71
     1
 72
     1
  1
\fArial|b1|i0;\H2.5000;Artikelnummer:
  7
Notiztext (DIN)
 73
     1
 44
1.0
  0
TEXT
  5
1CB
330
11A
100
AcDbEntity
  8
Titel (ISO)
100
AcDbText
 10
184.5091047358997
 20
115.4632055857198
 30
0.0
 40
1.500000059604644
  1
Name
  7
Textstil102
 72
     1
 11
187.3627883584022
 21
116.2132056155221
 31
0.0
100
AcDbText
 73
     2
  0
TEXT
  5
1CC
330
11A
100
AcDbEntity
  8
Titel (ISO)
100
AcDbText
 10
174.0528973504091
 20
115.4632055857198
 30
0.0
 40
1.500000059604644
  1
Datum
  7
Textstil102
 72
     1
 11
177.3127883584022
 21
116.2132056155221
 31
0.0
100
AcDbText
 73
     2
  0
TEXT
  5
1CD
330
11A
100
AcDbEntity
  8
Titel (ISO)
100
AcDbText
 10
152.3429381455341
 20
115.4632055857198
 30
0.0
 40
1.500000059604644
  1
Änderungen
  7
Textstil102
 72
     1
 11
158.5127883584023
 21
116.2132056155221
 31
0.0
100
AcDbText
 73
     2
  0
TEXT
  5
1CE
330
11A
100
AcDbEntity
  8
Titel (ISO)
100
AcDbText
 10
138.060707721392
 20
115.4632055857198
 30
0.0
 40
1.500000059604644
  1
Status
  7
Textstil102
 72
     1
 11
141.2627883584022
 21
116.2132056155221
 31
0.0
100
AcDbText
 73
     2
  0
MTEXT
  5
1CF
330
11A
100
AcDbEntity
  8
Titel (ISO)
100
AcDbMText
 10
205.1127883584022
 20
160.5440745190697
 30
0.0
 40
1.800000071525573
 41
24.15695313319206
 46
0.0
 71
     5
 72
     1
  1
\fArial|b1|i0;\H1.8000;Allgemeintoleranz/\Pgeneral tolerance\PDIN ISO 2768-mK
  7
Notiztext (DIN)
 73
     2
 44
0.9442214965820312
  0
MTEXT
  5
1D0
102
{ACAD_XDICTIONARY
360
74F
102
}
330
11A
100
AcDbEntity
  8
Titel (ISO)
100
AcDbMText
 10
274.2620663553609
 20
145.2581066594439
 30
0.0
 40
2.5
 41
52.19999999999998
 46
0.0
 71
     1
 72
     1
  1
{\fArial|b1|i0|c0|p34;\H0.8x;perma-tec\H0.5x; \fArial|b0|i0|c0|p34;\H1.5x;GmbH & Co. KG\P\H0.96667x;Hammelburger Str.21                      Tel. : +49 9704 609-0\H1.5316x; \H0.65293x;\P97717 EUERDORF / GERMANY    Fax : +49 9704 609-50\H1.3341x; }
  7
Notiztext (DIN)
 73
     1
 44
0.6820859909057618
  0
MTEXT
  5
1D1
330
11A
100
AcDbEntity
  8
Titel (ISO)
 62
     1
420
 16711680
100
AcDbMText
 10
139.5127883584022
 20
194.2450045593993
 30
0.0
 40
2.5
 41
56.20807647705078
 46
0.0
 71
     1
 72
     1
  1
\fArial|b1|i0;\H2.5000;spanfrei, gratfrei, \Ppartikelfrei (größer 0,2 mm)\Pkeine scharfen Kanten/\P\fArial|b1|i1;\H2.5000;free of burrs and swarfs\Pno particles (greater than 0.2 mm)\Pno sharp edges
  7
Notiztext (DIN)
 73
     2
 44
0.9442214965820312
  0
MTEXT
  5
1D2
330
11A
100
AcDbEntity
  8
Titel (ISO)
 62
     1
420
 16711680
100
AcDbMText
 10
232.5127883584023
 20
227.9419352211969
 30
0.0
 40
3.000000119209288
 41
132.5099182128906
 46
0.0
 71
     2
 72
     1
  1
\fArial|b1|i0;\H3.0000;Bauteil kann in Details geringfügig von der Zeichnung abweichen./\P\fArial|b1|i1;\H3.0000;Part may be slightly different than shown in the drawing.
  7
Notiztext (DIN)
 73
     2
 44
0.9442214965820312
  0
ATTDEF
  5
1D3
102
{ACAD_XDICTIONARY
360
751
102
}
330
11A
100
AcDbEntity
  8
Titel (ISO)
100
AcDbText
 10
317.4151665002902
 20
119.9107299359875
 30
0.0
 40
2.5
  1
A4
  7
Notiztext (DIN)
100
AcDbAttributeDefinition
280
     0
  3
Blattgröße
  2
Blattgröße_001
 70
     0
280
     0
  0
ATTDEF
  5
1D6
102
{ACAD_XDICTIONARY
360
754
102
}
330
11A
100
AcDbEntity
  8
Titel (ISO)
100
AcDbText
 10
318.5706223294316
 20
125.0802934428787
 30
0.0
 40
5.0
  1
1
  7
Textstil143
100
AcDbAttributeDefinition
280
     0
  3
Blattnummer
  2
Blattnummer_001
 70
     0
280
     0
  0
ATTDEF
  5
1D8
102
{ACAD_XDICTIONARY
360
757
102
}
330
11A
100
AcDbEntity
  8
Titel (ISO)
100
AcDbText
 10
140.3247255598686
 20
119.5632055745206
 30
0.0
 40
1.800000071525573
  1
B
  7
Textstil104
100
AcDbAttributeDefinition
280
     0
  3
Status1
  2
Status1_001
 70
     0
280
     0
  0
ATTDEF
  5
1D9
102
{ACAD_XDICTIONARY
360
75A
102
}
330
11A
100
AcDbEntity
  8
Titel (ISO)
100
AcDbText
 10
149.4698649476116
 20
119.5625916590766
 30
0.0
 40
1.800000071525573
  1
neuer Lieferant
  7
Textstil104
100
AcDbAttributeDefinition
280
     0
  3
Änderungen1
  2
Änderungen1_001
 70
     0
280
     0
  0
ATTDEF
  5
1DA
102
{ACAD_XDICTIONARY
360
75D
102
}
330
11A
100
AcDbEntity
  8
Titel (ISO)
100
AcDbText
 10
172.4438249715108
 20
119.5754838834019
 30
0.0
 40
1.800000071525573
  1
20.11.08
  7
Textstil104
100
AcDbAttributeDefinition
280
     0
  3
Datum1
  2
Datum1_001
 70
     0
280
     0
  0
ATTDEF
  5
1DB
102
{ACAD_XDICTIONARY
360
760
102
}
330
11A
100
AcDbEntity
  8
Titel (ISO)
100
AcDbText
 10
183.6909600874404
 20
119.5779395451782
 30
0.0
 40
1.800000071525573
  1
Bader
  7
Textstil104
100
AcDbAttributeDefinition
280
     0
  3
Name1
  2
Name1_001
 70
     0
280
     0
  0
ATTDEF
  5
1DC
102
{ACAD_XDICTIONARY
360
763
102
}
330
11A
100
AcDbEntity
  8
Titel (ISO)
100
AcDbText
 10
140.3597187401804
 20
123.8132055745206
 30
0.0
 40
1.800000071525573
  1
C
  7
Textstil104
100
AcDbAttributeDefinition
280
     0
  3
Status2
  2
Status2_001
 70
     0
280
     0
  0
ATTDEF
  5
1DD
102
{ACAD_XDICTIONARY
360
766
102
}
330
11A
100
AcDbEntity
  8
Titel (ISO)
100
AcDbText
 10
151.209087400652
 20
124.0624552448116
 30
0.0
 40
1.800000071525573
  1
Text ergänzt
  7
Textstil104
100
AcDbAttributeDefinition
280
     0
  3
Änderungen2
  2
Änderungen2_001
 70
     0
280
     0
  0
ATTDEF
  5
1DE
102
{ACAD_XDICTIONARY
360
769
102
}
330
11A
100
AcDbEntity
  8
Titel (ISO)
100
AcDbText
 10
172.4413693097345
 20
123.8248699679578
 30
0.0
 40
1.800000071525573
  1
21.11.13
  7
Textstil104
100
AcDbAttributeDefinition
280
     0
  3
Datum2
  2
Datum2_001
 70
     0
280
     0
  0
ATTDEF
  5
1DF
102
{ACAD_XDICTIONARY
360
76C
102
}
330
11A
100
AcDbEntity
  8
Titel (ISO)
100
AcDbText
 10
183.6909600874405
 20
123.8279395451782
 30
0.0
 40
1.800000071525573
  1
Bader
  7
Textstil104
100
AcDbAttributeDefinition
280
     0
  3
Name2
  2
Name2_001
 70
     0
280
     0
  0
ATTDEF
  5
1E0
102
{ACAD_XDICTIONARY
360
76F
102
}
330
11A
100
AcDbEntity
  8
Titel (ISO)
100
AcDbText
 10
140.3597187401804
 20
128.0632055745207
 30
0.0
 40
1.800000071525573
  1
C
  7
Textstil104
100
AcDbAttributeDefinition
280
     0
  3
Status3
  2
Status3_001
 70
     0
280
     0
  0
ATTDEF
  5
1E1
102
{ACAD_XDICTIONARY
360
772
102
}
330
11A
100
AcDbEntity
  8
Titel (ISO)
100
AcDbText
 10
151.5418295713361
 20
128.0638194899647
 30
0.0
 40
1.800000071525573
  1
SW entfernt
  7
Textstil104
100
AcDbAttributeDefinition
280
     0
  3
Änderungen3
  2
Änderungen3_001
 70
     0
280
     0
  0
ATTDEF
  5
1E2
102
{ACAD_XDICTIONARY
360
775
102
}
330
11A
100
AcDbEntity
  8
Titel (ISO)
100
AcDbText
 10
172.4413693097345
 20
128.074869967958
 30
0.0
 40
1.800000071525573
  1
21.11.13
  7
Textstil104
100
AcDbAttributeDefinition
280
     0
  3
Datum3
  2
Datum3_001
 70
     0
280
     0
  0
ATTDEF
  5
1E3
102
{ACAD_XDICTIONARY
360
778
102
}
330
11A
100
AcDbEntity
  8
Titel (ISO)
100
AcDbText
 10
183.6909600874405
 20
128.0779395451783
 30
0.0
 40
1.800000071525573
  1
Bader
  7
Textstil104
100
AcDbAttributeDefinition
280
     0
  3
Name3
  2
Name3_001
 70
     0
280
     0
  0
ATTDEF
  5
1E4
102
{ACAD_XDICTIONARY
360
77B
102
}
330
11A
100
AcDbEntity
  8
Titel (ISO)
100
AcDbText
 10
140.3597187401804
 20
132.3132055745207
 30
0.0
 40
1.800000071525573
  1
C
  7
Textstil104
100
AcDbAttributeDefinition
280
     0
  3
Status4
  2
Status4_001
 70
     0
280
     0
  0
ATTDEF
  5
1E5
102
{ACAD_XDICTIONARY
360
77E
102
}
330
11A
100
AcDbEntity
  8
Titel (ISO)
100
AcDbText
 10
147.4746397543955
 20
132.3125916590766
 30
0.0
 40
1.800000071525573
  1
Maße in max.Maße
  7
Textstil104
100
AcDbAttributeDefinition
280
     0
  3
Änderungen4
  2
Änderungen4_001
 70
     0
280
     0
  0
ATTDEF
  5
1E6
102
{ACAD_XDICTIONARY
360
781
102
}
330
11A
100
AcDbEntity
  8
Titel (ISO)
100
AcDbText
 10
172.4413693097345
 20
132.324869967958
 30
0.0
 40
1.800000071525573
  1
21.11.13
  7
Textstil104
100
AcDbAttributeDefinition
280
     0
  3
Datum4
  2
Datum4_001
 70
     0
280
     0
  0
ATTDEF
  5
1E7
102
{ACAD_XDICTIONARY
360
784
102
}
330
11A
100
AcDbEntity
  8
Titel (ISO)
100
AcDbText
 10
183.6909600874404
 20
132.3279395451783
 30
0.0
 40
1.800000071525573
  1
Bader
  7
Textstil104
100
AcDbAttributeDefinition
280
     0
  3
Name4
  2
Name4_001
 70
     0
280
     0
  0
ATTDEF
  5
1E8
102
{ACAD_XDICTIONARY
360
787
102
}
330
11A
100
AcDbEntity
  8
Titel (ISO)
100
AcDbText
 10
140.3597187401804
 20
136.5632055745207
 30
0.0
 40
1.800000071525573
  1
C
  7
Textstil104
100
AcDbAttributeDefinition
280
     0
  3
Status5
  2
Status5_001
 70
     0
280
     0
  0
ATTDEF
  5
1E9
102
{ACAD_XDICTIONARY
360
78A
102
}
330
11A
100
AcDbEntity
  8
Titel (ISO)
100
AcDbText
 10
148.587054539044
 20
136.5779395451783
 30
0.0
 40
1.800000071525573
  1
Art.Nr. neu hinzu
  7
Textstil104
100
AcDbAttributeDefinition
280
     0
  3
Änderungen5
  2
Änderungen5_001
 70
     0
280
     0
  0
ATTDEF
  5
1EA
102
{ACAD_XDICTIONARY
360
78D
102
}
330
11A
100
AcDbEntity
  8
Titel (ISO)
100
AcDbText
 10
172.4413693097345
 20
136.574869967958
 30
0.0
 40
1.800000071525573
  1
21.11.13
  7
Textstil104
100
AcDbAttributeDefinition
280
     0
  3
Datum5
  2
Datum5_001
 70
     0
280
     0
  0
ATTDEF
  5
1EB
102
{ACAD_XDICTIONARY
360
790
102
}
330
11A
100
AcDbEntity
  8
Titel (ISO)
100
AcDbText
 10
183.6909600874404
 20
136.5779395451783
 30
0.0
 40
1.800000071525573
  1
Bader
  7
Textstil104
100
AcDbAttributeDefinition
280
     0
  3
Name5
  2
Name5_001
 70
     0
280
     0
  0
ATTDEF
  5
1EC
102
{ACAD_XDICTIONARY
360
793
102
}
330
11A
100
AcDbEntity
  8
Titel (ISO)
100
AcDbText
 10
141.2627883584022
 20
140.8132055797594
 30
0.0
 40
1.800000071525573
  1

  7
Textstil104
 72
     1
 11
141.2627883584022
 21
141.7132056155222
 31
0.0
100
AcDbAttributeDefinition
280
     0
  3
Status6
  2
Status6
 70
     0
 74
     2
280
     0
  0
ATTDEF
  5
1ED
102
{ACAD_XDICTIONARY
360
796
102
}
330
11A
100
AcDbEntity
  8
Titel (ISO)
100
AcDbText
 10
158.6264137958634
 20
140.8132055797594
 30
0.0
 40
1.800000071525573
  1

  7
Textstil104
 72
     1
 11
158.6264137958634
 21
141.7132056155222
 31
0.0
100
AcDbAttributeDefinition
280
     0
  3
Änderungen6
  2
Änderungen6
 70
     0
 74
     2
280
     0
  0
ATTDEF
  5
1EE
102
{ACAD_XDICTIONARY
360
799
102
}
330
11A
100
AcDbEntity
  8
Titel (ISO)
100
AcDbText
 10
177.3127883584022
 20
140.8132055797594
 30
0.0
 40
1.800000071525573
  1

  7
Textstil104
 72
     1
 11
177.3127883584022
 21
141.7132056155222
 31
0.0
100
AcDbAttributeDefinition
280
     0
  3
Datum6
  2
Datum6
 70
     0
 74
     2
280
     0
  0
ATTDEF
  5
1EF
102
{ACAD_XDICTIONARY
360
79C
102
}
330
11A
100
AcDbEntity
  8
Titel (ISO)
100
AcDbText
 10
187.3627883584022
 20
140.8132055797594
 30
0.0
 40
1.800000071525573
  1

  7
Textstil104
 72
     1
 11
187.3627883584022
 21
141.7132056155222
 31
0.0
100
AcDbAttributeDefinition
280
     0
  3
Name6
  2
Name6
 70
     0
 74
     2
280
     0
  0
ATTDEF
  5
1F0
102
{ACAD_XDICTIONARY
360
79F
102
}
330
11A
100
AcDbEntity
  8
Titel (ISO)
100
AcDbText
 10
141.2627883584022
 20
145.0632055797594
 30
0.0
 40
1.800000071525573
  1

  7
Textstil104
 72
     1
 11
141.2627883584022
 21
145.9632056155222
 31
0.0
100
AcDbAttributeDefinition
280
     0
  3
Status7
  2
Status7
 70
     0
 74
     2
280
     0
  0
ATTDEF
  5
1F1
102
{ACAD_XDICTIONARY
360
7A2
102
}
330
11A
100
AcDbEntity
  8
Titel (ISO)
100
AcDbText
 10
158.6264137958634
 20
145.0632055797594
 30
0.0
 40
1.800000071525573
  1

  7
Textstil104
 72
     1
 11
158.6264137958634
 21
145.9632056155222
 31
0.0
100
AcDbAttributeDefinition
280
     0
  3
Änderungen7
  2
Änderungen7
 70
     0
 74
     2
280
     0
  0
ATTDEF
  5
1F2
102
{ACAD_XDICTIONARY
360
7A5
102
}
330
11A
100
AcDbEntity
  8
Titel (ISO)
100
AcDbText
 10
177.3127883584022
 20
145.0632055797594
 30
0.0
 40
1.800000071525573
  1

  7
Textstil104
 72
     1
 11
177.3127883584022
 21
145.9632056155222
 31
0.0
100
AcDbAttributeDefinition
280
     0
  3
Datum7
  2
Datum7
 70
     0
 74
     2
280
     0
  0
ATTDEF
  5
1F3
102
{ACAD_XDICTIONARY
360
7A8
102
}
330
11A
100
AcDbEntity
  8
Titel (ISO)
100
AcDbText
 10
187.3627883584022
 20
145.0632055797594
 30
0.0
 40
1.800000071525573
  1

  7
Textstil104
 72
     1
 11
187.3627883584022
 21
145.9632056155222
 31
0.0
100
AcDbAttributeDefinition
280
     0
  3
Name7
  2
Name7
 70
     0
 74
     2
280
     0
  0
ATTDEF
  5
1F4
102
{ACAD_XDICTIONARY
360
7AB
102
}
330
11A
100
AcDbEntity
  8
Titel (ISO)
100
AcDbText
 10
141.2627883584022
 20
149.3132055797594
 30
0.0
 40
1.800000071525573
  1

  7
Textstil104
 72
     1
 11
141.2627883584022
 21
150.2132056155222
 31
0.0
100
AcDbAttributeDefinition
280
     0
  3
Status8
  2
Status8
 70
     0
 74
     2
280
     0
  0
ATTDEF
  5
1F5
102
{ACAD_XDICTIONARY
360
7AE
102
}
330
11A
100
AcDbEntity
  8
Titel (ISO)
100
AcDbText
 10
158.6264137958634
 20
149.3132055797594
 30
0.0
 40
1.800000071525573
  1

  7
Textstil104
 72
     1
 11
158.6264137958634
 21
150.2132056155222
 31
0.0
100
AcDbAttributeDefinition
280
     0
  3
Änderungen8
  2
Änderungen8
 70
     0
 74
     2
280
     0
  0
ATTDEF
  5
1F6
102
{ACAD_XDICTIONARY
360
7B1
102
}
330
11A
100
AcDbEntity
  8
Titel (ISO)
100
AcDbText
 10
177.3127883584022
 20
149.3132055797594
 30
0.0
 40
1.800000071525573
  1

  7
Textstil104
 72
     1
 11
177.3127883584022
 21
150.2132056155222
 31
0.0
100
AcDbAttributeDefinition
280
     0
  3
Datum8
  2
Datum8
 70
     0
 74
     2
280
     0
  0
ATTDEF
  5
1F7
102
{ACAD_XDICTIONARY
360
7B4
102
}
330
11A
100
AcDbEntity
  8
Titel (ISO)
100
AcDbText
 10
187.3627883584022
 20
149.3132055797594
 30
0.0
 40
1.800000071525573
  1

  7
Textstil104
 72
     1
 11
187.3627883584022
 21
150.2132056155222
 31
0.0
100
AcDbAttributeDefinition
280
     0
  3
Name8
  2
Name8
 70
     0
 74
     2
280
     0
  0
ATTDEF
  5
1F9
102
{ACAD_XDICTIONARY
360
7B7
102
}
330
11A
100
AcDbEntity
  8
Titel (ISO)
100
AcDbText
 10
156.5748962270037
 20
158.8620801562781
 30
0.0
 40
3.499999940395355
  1
101509
  7
Textstil114
100
AcDbAttributeDefinition
280
     0
  3
Artikelnummer neu
  2
Artikelnummer_neu_001
 70
     0
280
     0
  0
ATTDEF
  5
1FA
102
{ACAD_XDICTIONARY
360
7BA
102
}
330
11A
100
AcDbEntity
  8
Titel (ISO)
100
AcDbText
 10
154.9091389146708
 20
153.7955725857152
 30
0.0
 40
2.5
  1
(27.005.036)
  7
Textstil100
100
AcDbAttributeDefinition
280
     0
  3
Artikelnummer alt
  2
Artikelnummer_alt_001
 70
     0
280
     0
  0
ATTDEF
  5
1FC
102
{ACAD_XDICTIONARY
360
7BD
102
}
330
11A
100
AcDbEntity
  8
Titel (ISO)
100
AcDbText
 10
296.8571742036791
 20
164.9042014745075
 30
0.0
 40
3.000000119209288
  1
Messing vern.
  7
Textstil94
100
AcDbAttributeDefinition
280
     0
  3
Material
  2
Material_001
 70
     0
280
     0
  0
ATTDEF
  5
1FD
102
{ACAD_XDICTIONARY
360
7C0
102
}
330
11A
100
AcDbEntity
  8
Titel (ISO)
100
AcDbText
 10
258.3187040011579
 20
164.878621664338
 30
0.0
 40
3.000000119209288
  1
2:1 (1:1)
  7
Textstil94
100
AcDbAttributeDefinition
280
     0
  3
Maßstab
  2
Maßstab_001
 70
     0
280
     0
  0
ATTDEF
  5
1FE
102
{ACAD_XDICTIONARY
360
7C3
102
}
330
11A
100
AcDbEntity
  8
Titel (ISO)
100
AcDbText
 10
205.4413693097346
 20
145.074869967958
 30
0.0
 40
1.800000071525573
  1
21.11.13
  7
Textstil104
100
AcDbAttributeDefinition
280
     0
  3
Gezeichnet Datum
  2
Gezeichnet_Datum_001
 70
     0
280
     0
  0
ATTDEF
  5
1FF
102
{ACAD_XDICTIONARY
360
7C6
102
}
330
11A
100
AcDbEntity
  8
Titel (ISO)
100
AcDbText
 10
223.5409600874405
 20
145.0779395451783
 30
0.0
 40
1.800000071525573
  1
Bader
  7
Textstil104
100
AcDbAttributeDefinition
280
     0
  3
Gezeichnet Name
  2
Gezeichnet_Name_001
 70
     0
280
     0
  0
ATTDEF
  5
201
102
{ACAD_XDICTIONARY
360
7C9
102
}
330
11A
100
AcDbEntity
  8
Titel (ISO)
100
AcDbText
 10
274.0127883584021
 20
120.737839611287
 30
0.0
 40
4.000000059604643
  1

  7
Textstil109
 72
     1
 11
274.0127883584021
 21
122.7378396410893
 31
0.0
100
AcDbAttributeDefinition
280
     0
  3
Benennung
  2
Benennung
 70
     0
 74
     2
280
     0
  0
ATTDEF
  5
202
102
{ACAD_XDICTIONARY
360
7CC
102
}
330
11A
100
AcDbEntity
  8
Titel (ISO)
100
AcDbText
 10
267.5016718628334
 20
114.9632056082461
 30
0.0
 40
2.5
  1
AN GEA 12 C
  7
Textstil100
100
AcDbAttributeDefinition
280
     0
  3
Zeichnungsnummer
  2
Zeichnungsnummer_001
 70
     0
280
     0
  0
ATTDEF
  5
203
102
{ACAD_XDICTIONARY
360
7CF
102
}
330
11A
100
AcDbEntity
  8
Titel (ISO)
100
AcDbText
 10
209.2797017957903
 20
114.9632056082461
 30
0.0
 40
2.5
  1
AN GEA 12 B
  7
Textstil100
100
AcDbAttributeDefinition
280
     0
  3
Ers. für
  2
Ers._für_001
 70
     0
280
     0
  0
ATTDEF
  5
204
102
{ACAD_XDICTIONARY
360
7D2
102
}
330
11A
100
AcDbEntity
  8
Titel (ISO)
100
AcDbText
 10
194.5961440228488
 20
120.770581755849
 30
0.0
 40
4.000000059604643
  1
Anschlussteile
  7
Textstil109
100
AcDbAttributeDefinition
280
     0
  3
Projekt
  2
Projekt_001
 70
     0
280
     0
  0
ATTDEF
  5
205
102
{ACAD_XDICTIONARY
360
7D5
102
}
330
11A
100
AcDbEntity
  8
Titel (ISO)
100
AcDbText
 10
205.4413693097347
 20
140.824869967958
 30
0.0
 40
1.800000071525573
  1
22.11.13
  7
Textstil104
100
AcDbAttributeDefinition
280
     0
  3
Kontroll Datum
  2
Kontroll_Datum_001
 70
     0
280
     0
  0
ATTDEF
  5
206
102
{ACAD_XDICTIONARY
360
7D8
102
}
330
11A
100
AcDbEntity
  8
Titel (ISO)
100
AcDbText
 10
219.8660622392585
 20
140.8279395451783
 30
0.0
 40
1.800000071525573
  1
Hildenbrand
  7
Textstil104
100
AcDbAttributeDefinition
280
     0
  3
Kontroll  Name
  2
Kontroll__Name_001
 70
     0
280
     0
  0
ENDBLK
  5
11C
330
11A
100
AcDbEntity
  8
0
100
AcDbBlockEnd
  0
BLOCK
  5
2D2
330
2D1
100
AcDbEntity
  8
0
100
AcDbBlockBegin
  2
*D5
 70
     1
 10
0.0
 20
0.0
 30
0.0
  3
*D5
  1

  0
LINE
  5
3AA
330
2D1
100
AcDbEntity
  8
PERMA_ROT
440
 16777216
100
AcDbLine
 10
52.00129033003634
 20
85.15646988888851
 30
0.0
 11
39.57723299601179
 21
85.15646988888851
 31
0.0
  0
LINE
  5
3AB
330
2D1
100
AcDbEntity
  8
PERMA_ROT
440
 16777216
100
AcDbLine
 10
52.00129033003634
 20
73.1564698888885
 30
0.0
 11
39.57723299601179
 21
73.1564698888885
 31
0.0
  0
LINE
  5
3AC
330
2D1
100
AcDbEntity
  8
PERMA_ROT
440
 16777216
100
AcDbLine
 10
40.57723299601179
 20
83.90646988888851
 30
0.0
 11
40.57723299601177
 21
74.4064698888885
 31
0.0
  0
SOLID
  5
3AD
330
2D1
100
AcDbEntity
  8
PERMA_ROT
440
 16777216
100
AcDbTrace
 10
40.36889966267845
 20
83.90646988888851
 30
0.0
 11
40.78556632934513
 21
83.90646988888851
 31
0.0
 12
40.57723299601179
 22
85.15646988888851
 32
0.0
 13
40.57723299601179
 23
85.15646988888851
 33
0.0
  0
SOLID
  5
3AE
330
2D1
100
AcDbEntity
  8
PERMA_ROT
440
 16777216
100
AcDbTrace
 10
40.36889966267845
 20
74.4064698888885
 30
0.0
 11
40.78556632934511
 21
74.4064698888885
 31
0.0
 12
40.57723299601177
 22
73.1564698888885
 32
0.0
 13
40.57723299601177
 23
73.1564698888885
 33
0.0
  0
MTEXT
  5
3AF
330
2D1
100
AcDbEntity
  8
PERMA_ROT
440
 16777216
100
AcDbMText
 10
38.50596300429791
 20
75.43802232243331
 30
0.0
 40
1.25
 41
0.0
 46
0.0
 71
     1
 72
     1
  1
\A1;max. \fAIGDT|b0|i0;\H1.2437;n\fArial|b0|i0;\H1.2500;12
  7
Notiztext (DIN)
 11
0.0000000000000001
 21
1.0
 31
0.0
 73
     1
 44
1.0
  0
POINT
  5
3B0
330
2D1
100
AcDbEntity
  8
Defpoints
 62
     0
440
 16777216
100
AcDbPoint
 10
52.00129033003634
 20
85.15646988888851
 30
0.0
  0
POINT
  5
3B1
330
2D1
100
AcDbEntity
  8
Defpoints
 62
     0
440
 16777216
100
AcDbPoint
 10
52.00129033003634
 20
73.1564698888885
 30
0.0
  0
POINT
  5
3B2
330
2D1
100
AcDbEntity
  8
Defpoints
 62
     0
440
 16777216
100
AcDbPoint
 10
40.57723299601177
 20
73.1564698888885
 30
0.0
  0
ENDBLK
  5
2D3
330
2D1
100
AcDbEntity
  8
0
100
AcDbBlockEnd
  0
BLOCK
  5
3B5
330
3B4
100
AcDbEntity
  8
0
100
AcDbBlockBegin
  2
*D6
 70
     1
 10
0.0
 20
0.0
 30
0.0
  3
*D6
  1

  0
LINE
  5
48C
330
3B4
100
AcDbEntity
  8
Bemaßung (ISO)
440
 16777216
100
AcDbLine
 10
52.00129033003634
 20
82.15646988888904
 30
0.0
 11
43.00129033003636
 21
82.15646988888904
 31
0.0
  0
LINE
  5
48D
330
3B4
100
AcDbEntity
  8
Bemaßung (ISO)
440
 16777216
100
AcDbLine
 10
52.00129033003634
 20
76.15646988888904
 30
0.0
 11
43.00129033003636
 21
76.15646988888904
 31
0.0
  0
LINE
  5
48E
330
3B4
100
AcDbEntity
  8
Bemaßung (ISO)
440
 16777216
100
AcDbLine
 10
44.00129033003636
 20
80.90646988888904
 30
0.0
 11
44.00129033003636
 21
77.40646988888904
 31
0.0
  0
SOLID
  5
48F
330
3B4
100
AcDbEntity
  8
Bemaßung (ISO)
440
 16777216
100
AcDbTrace
 10
43.79295699670303
 20
80.90646988888904
 30
0.0
 11
44.2096236633697
 21
80.90646988888904
 31
0.0
 12
44.00129033003636
 22
82.15646988888904
 32
0.0
 13
44.00129033003636
 23
82.15646988888904
 33
0.0
  0
SOLID
  5
490
330
3B4
100
AcDbEntity
  8
Bemaßung (ISO)
440
 16777216
100
AcDbTrace
 10
43.79295699670302
 20
77.40646988888904
 30
0.0
 11
44.20962366336968
 21
77.40646988888904
 31
0.0
 12
44.00129033003636
 22
76.15646988888904
 32
0.0
 13
44.00129033003636
 23
76.15646988888904
 33
0.0
  0
MTEXT
  5
491
330
3B4
100
AcDbEntity
  8
Bemaßung (ISO)
440
 16777216
100
AcDbMText
 10
41.9205413635313
 20
78.03585634215259
 30
0.0
 40
1.25
 41
0.0
 46
0.0
 71
     1
 72
     1
  1
\A1;\fAIGDT|b0|i0;\H1.2500;n\fArial|b0|i0;\H1.2500;6
  7
Notiztext (DIN)
 11
0.0000000000000001
 21
1.0
 31
0.0
 73
     1
 44
1.0
  0
POINT
  5
492
330
3B4
100
AcDbEntity
  8
Defpoints
 62
     0
440
 16777216
100
AcDbPoint
 10
52.00129033003634
 20
82.15646988888904
 30
0.0
  0
POINT
  5
493
330
3B4
100
AcDbEntity
  8
Defpoints
 62
     0
440
 16777216
100
AcDbPoint
 10
52.00129033003634
 20
76.15646988888904
 30
0.0
  0
POINT
  5
494
330
3B4
100
AcDbEntity
  8
Defpoints
 62
     0
440
 16777216
100
AcDbPoint
 10
44.00129033003636
 20
76.15646988888904
 30
0.0
  0
ENDBLK
  5
3B6
330
3B4
100
AcDbEntity
  8
0
100
AcDbBlockEnd
  0
BLOCK
  5
497
330
496
100
AcDbEntity
  8
0
100
AcDbBlockBegin
  2
*D7
 70
     1
 10
0.0
 20
0.0
 30
0.0
  3
*D7
  1

  0
LINE
  5
564
330
496
100
AcDbEntity
  8
PERMA_ROT
440
 16777216
100
AcDbLine
 10
46.45129033005246
 20
121.8566751846378
 30
0.0
 11
39.30750813309397
 21
121.8566751846378
 31
0.0
  0
LINE
  5
565
330
496
100
AcDbEntity
  8
PERMA_ROT
440
 16777216
100
AcDbLine
 10
49.50129033005246
 20
98.75667518463785
 30
0.0
 11
39.30750813309396
 21
98.75667518463785
 31
0.0
  0
LINE
  5
566
330
496
100
AcDbEntity
  8
PERMA_ROT
440
 16777216
100
AcDbLine
 10
40.30750813309396
 20
120.6066751846378
 30
0.0
 11
40.30750813309396
 21
100.0066751846378
 31
0.0
  0
SOLID
  5
567
330
496
100
AcDbEntity
  8
PERMA_ROT
440
 16777216
100
AcDbTrace
 10
40.09917479976063
 20
120.6066751846378
 30
0.0
 11
40.5158414664273
 21
120.6066751846378
 31
0.0
 12
40.30750813309396
 22
121.8566751846378
 32
0.0
 13
40.30750813309396
 23
121.8566751846378
 33
0.0
  0
SOLID
  5
568
330
496
100
AcDbEntity
  8
PERMA_ROT
440
 16777216
100
AcDbTrace
 10
40.09917479976063
 20
100.0066751846378
 30
0.0
 11
40.5158414664273
 21
100.0066751846378
 31
0.0
 12
40.30750813309396
 22
98.75667518463785
 32
0.0
 13
40.30750813309396
 23
98.75667518463785
 33
0.0
  0
MTEXT
  5
569
330
496
100
AcDbEntity
  8
PERMA_ROT
440
 16777216
100
AcDbMText
 10
38.8302229960548
 20
107.298063298094
 30
0.0
 40
1.25
 41
0.0
 46
0.0
 71
     1
 72
     1
  1
\A1;max. 23
  7
Notiztext (DIN)
 11
0.0000000000000001
 21
1.0
 31
0.0
 73
     1
 44
1.0
  0
POINT
  5
56A
330
496
100
AcDbEntity
  8
Defpoints
 62
     0
440
 16777216
100
AcDbPoint
 10
46.45129033005246
 20
121.8566751846378
 30
0.0
  0
POINT
  5
56B
330
496
100
AcDbEntity
  8
Defpoints
 62
     0
440
 16777216
100
AcDbPoint
 10
49.50129033005246
 20
98.75667518463785
 30
0.0
  0
POINT
  5
56C
330
496
100
AcDbEntity
  8
Defpoints
 62
     0
440
 16777216
100
AcDbPoint
 10
40.30750813309396
 20
98.75667518463785
 30
0.0
  0
ENDBLK
  5
498
330
496
100
AcDbEntity
  8
0
100
AcDbBlockEnd
  0
BLOCK
  5
56F
330
56E
100
AcDbEntity
  8
0
100
AcDbBlockBegin
  2
*D8
 70
     1
 10
0.0
 20
0.0
 30
0.0
  3
*D8
  1

  0
LINE
  5
64A
330
56E
100
AcDbEntity
  8
Bemaßung (ISO)
440
 16777216
100
AcDbLine
 10
48.45129033005243
 20
103.5566751846378
 30
0.0
 11
42.4512902800525
 21
103.5566751846378
 31
0.0
  0
LINE
  5
64B
330
56E
100
AcDbEntity
  8
Bemaßung (ISO)
440
 16777216
100
AcDbLine
 10
49.50129033005246
 20
98.75667518463785
 30
0.0
 11
42.4512902800525
 21
98.75667518463785
 31
0.0
  0
LINE
  5
64C
330
56E
100
AcDbEntity
  8
Bemaßung (ISO)
440
 16777216
100
AcDbLine
 10
43.45129028005252
 20
102.3066751846378
 30
0.0
 11
43.45129028005252
 21
100.0066751846378
 31
0.0
  0
SOLID
  5
64D
330
56E
100
AcDbEntity
  8
Bemaßung (ISO)
440
 16777216
100
AcDbTrace
 10
43.24295694671918
 20
104.8066751846378
 30
0.0
 11
43.65962361338584
 21
104.8066751846378
 31
0.0
 12
43.45129028005252
 22
103.5566751846378
 32
0.0
 13
43.45129028005252
 23
103.5566751846378
 33
0.0
  0
LINE
  5
64E
330
56E
100
AcDbEntity
  8
Bemaßung (ISO)
440
 16777216
100
AcDbLine
 10
43.45129028005252
 20
104.8066751846378
 30
0.0
 11
43.45129028005252
 21
106.0566751846378
 31
0.0
  0
LINE
  5
64F
330
56E
100
AcDbEntity
  8
Bemaßung (ISO)
440
 16777216
100
AcDbLine
 10
43.45129028005252
 20
103.5566751846378
 30
0.0
 11
43.45129028005252
 21
102.3066751846378
 31
0.0
  0
SOLID
  5
650
330
56E
100
AcDbEntity
  8
Bemaßung (ISO)
440
 16777216
100
AcDbTrace
 10
43.24295694671918
 20
97.50667518463785
 30
0.0
 11
43.65962361338584
 21
97.50667518463785
 31
0.0
 12
43.45129028005252
 22
98.75667518463785
 32
0.0
 13
43.45129028005252
 23
98.75667518463785
 33
0.0
  0
LINE
  5
651
330
56E
100
AcDbEntity
  8
Bemaßung (ISO)
440
 16777216
100
AcDbLine
 10
43.45129028005252
 20
97.50667518463785
 30
0.0
 11
43.45129028005252
 21
96.25667518463785
 31
0.0
  0
LINE
  5
652
330
56E
100
AcDbEntity
  8
Bemaßung (ISO)
440
 16777216
100
AcDbLine
 10
43.45129028005252
 20
98.75667518463785
 30
0.0
 11
43.45129028005252
 21
100.0066751846378
 31
0.0
  0
MTEXT
  5
653
330
56E
100
AcDbEntity
  8
Bemaßung (ISO)
440
 16777216
100
AcDbMText
 10
41.97485780331844
 20
99.99236753802437
 30
0.0
 40
1.25
 41
0.0
 46
0.0
 71
     1
 72
     1
  1
\A1;4.8
  7
Notiztext (DIN)
 11
0.0000000000000001
 21
1.0
 31
0.0
 73
     1
 44
1.0
  0
POINT
  5
654
330
56E
100
AcDbEntity
  8
Defpoints
 62
     0
440
 16777216
100
AcDbPoint
 10
48.45129033005243
 20
103.5566751846378
 30
0.0
  0
POINT
  5
655
330
56E
100
AcDbEntity
  8
Defpoints
 62
     0
440
 16777216
100
AcDbPoint
 10
49.50129033005246
 20
98.75667518463785
 30
0.0
  0
POINT
  5
656
330
56E
100
AcDbEntity
  8
Defpoints
 62
     0
440
 16777216
100
AcDbPoint
 10
43.45129028005252
 20
98.75667518463785
 30
0.0
  0
ENDBLK
  5
570
330
56E
100
AcDbEntity
  8
0
100
AcDbBlockEnd
  0
BLOCK
  5
659
330
658
100
AcDbEntity
  8
0
100
AcDbBlockBegin
  2
*D9
 70
     1
 10
0.0
 20
0.0
 30
0.0
  3
*D9
  1

  0
LINE
  5
730
330
658
100
AcDbEntity
  8
Bemaßung (ISO)
440
 16777216
100
AcDbLine
 10
49.00129033005246
 20
99.25667518463786
 30
0.0
 11
49.00129033005246
 21
93.25667518463786
 31
0.0
  0
LINE
  5
731
330
658
100
AcDbEntity
  8
Bemaßung (ISO)
440
 16777216
100
AcDbLine
 10
55.00129033005245
 20
99.25667518463786
 30
0.0
 11
55.00129033005245
 21
93.25667518463786
 31
0.0
  0
LINE
  5
732
330
658
100
AcDbEntity
  8
Bemaßung (ISO)
440
 16777216
100
AcDbLine
 10
50.25129033005246
 20
94.25667518463786
 30
0.0
 11
53.75129033005245
 21
94.25667518463786
 31
0.0
  0
SOLID
  5
733
330
658
100
AcDbEntity
  8
Bemaßung (ISO)
440
 16777216
100
AcDbTrace
 10
50.25129033005246
 20
94.46500851797116
 30
0.0
 11
50.25129033005246
 21
94.04834185130452
 31
0.0
 12
49.00129033005246
 22
94.25667518463786
 32
0.0
 13
49.00129033005246
 23
94.25667518463786
 33
0.0
  0
SOLID
  5
734
330
658
100
AcDbEntity
  8
Bemaßung (ISO)
440
 16777216
100
AcDbTrace
 10
53.75129033005245
 20
94.46500851797116
 30
0.0
 11
53.75129033005245
 21
94.04834185130452
 31
0.0
 12
55.00129033005245
 22
94.25667518463786
 32
0.0
 13
55.00129033005245
 23
94.25667518463786
 33
0.0
  0
MTEXT
  5
735
330
658
100
AcDbEntity
  8
Bemaßung (ISO)
440
 16777216
100
AcDbMText
 10
50.89325826357558
 20
95.73310766137188
 30
0.0
 40
1.25
 41
0.0
 46
0.0
 71
     1
 72
     1
  1
\A1;M6
  7
Notiztext (DIN)
 73
     1
 44
1.0
  0
POINT
  5
736
330
658
100
AcDbEntity
  8
Defpoints
 62
     0
440
 16777216
100
AcDbPoint
 10
49.00129033005246
 20
99.25667518463786
 30
0.0
  0
POINT
  5
737
330
658
100
AcDbEntity
  8
Defpoints
 62
     0
440
 16777216
100
AcDbPoint
 10
55.00129033005245
 20
99.25667518463786
 30
0.0
  0
POINT
  5
738
330
658
100
AcDbEntity
  8
Defpoints
 62
     0
440
 16777216
100
AcDbPoint
 10
55.00129033005245
 20
94.25667518463786
 30
0.0
  0
ENDBLK
  5
65A
330
658
100
AcDbEntity
  8
0
100
AcDbBlockEnd
  0
ENDSEC
  0
SECTION
  2
ENTITIES
  0
INSERT
  5
119
330
71
100
AcDbEntity
  8
0
100
AcDbBlockReference
  2
Ränder Standardrahmen
 10
0.0
 20
0.0
 30
0.0
 41
0.5
 42
0.5
 43
0.5
  0
INSERT
  5
207
330
71
100
AcDbEntity
  8
0
100
AcDbBlockReference
 66
     1
  2
Schriftfelder perma_schriftfeld
 10
-63.75639417920115
 20
-52.04410280776108
 30
0.0
 41
0.5
 42
0.5
 43
0.5
  0
ATTRIB
  5
209
102
{ACAD_XDICTIONARY
360
7DB
102
}
330
207
100
AcDbEntity
  8
Titel (ISO)
100
AcDbText
 10
94.95118907094392
 20
7.911262160232732
 30
0.0
 40
1.25
  1
A4
  7
Notiztext (DIN)
100
AcDbAttribute
280
     0
  2
Blattgröße_001
 70
     0
280
     0
  0
ATTRIB
  5
20A
102
{ACAD_XDICTIONARY
360
7DE
102
}
330
207
100
AcDbEntity
  8
Titel (ISO)
100
AcDbText
 10
95.52891698551462
 20
10.49604391367835
 30
0.0
 40
2.5
  1
1
  7
Textstil143
100
AcDbAttribute
280
     0
  2
Blattnummer_001
 70
     0
280
     0
  0
ATTRIB
  5
20C
102
{ACAD_XDICTIONARY
360
7E1
102
}
330
207
100
AcDbEntity
  8
Titel (ISO)
100
AcDbText
 10
6.405968600733165
 20
7.737499979499267
 30
0.0
 40
0.9000000357627866
  1
B
  7
Textstil104
100
AcDbAttribute
280
     0
  2
Status1_001
 70
     0
280
     0
  0
ATTRIB
  5
20D
102
{ACAD_XDICTIONARY
360
7E4
102
}
330
207
100
AcDbEntity
  8
Titel (ISO)
100
AcDbText
 10
10.97853829460469
 20
7.737193021777239
 30
0.0
 40
0.9000000357627866
  1
neuer Lieferant
  7
Textstil104
100
AcDbAttribute
280
     0
  2
Änderungen1_001
 70
     0
280
     0
  0
ATTRIB
  5
20E
102
{ACAD_XDICTIONARY
360
7E7
102
}
330
207
100
AcDbEntity
  8
Titel (ISO)
100
AcDbText
 10
22.46551830655428
 20
7.743639133939932
 30
0.0
 40
0.9000000357627866
  1
20.11.08
  7
Textstil104
100
AcDbAttribute
280
     0
  2
Datum1_001
 70
     0
280
     0
  0
ATTRIB
  5
20F
102
{ACAD_XDICTIONARY
360
7EA
102
}
330
207
100
AcDbEntity
  8
Titel (ISO)
100
AcDbText
 10
28.08908586451912
 20
7.744866964828064
 30
0.0
 40
0.9000000357627866
  1
Bader
  7
Textstil104
100
AcDbAttribute
280
     0
  2
Name1_001
 70
     0
280
     0
  0
ATTRIB
  5
210
102
{ACAD_XDICTIONARY
360
7ED
102
}
330
207
100
AcDbEntity
  8
Titel (ISO)
100
AcDbText
 10
6.423465190889059
 20
9.86249997949927
 30
0.0
 40
0.9000000357627866
  1
C
  7
Textstil104
100
AcDbAttribute
280
     0
  2
Status2_001
 70
     0
280
     0
  0
ATTRIB
  5
211
102
{ACAD_XDICTIONARY
360
7F0
102
}
330
207
100
AcDbEntity
  8
Titel (ISO)
100
AcDbText
 10
11.84814952112487
 20
9.987124814644769
 30
0.0
 40
0.9000000357627866
  1
Text ergänzt
  7
Textstil104
100
AcDbAttribute
280
     0
  2
Änderungen2_001
 70
     0
280
     0
  0
ATTRIB
  5
212
102
{ACAD_XDICTIONARY
360
7F3
102
}
330
207
100
AcDbEntity
  8
Titel (ISO)
100
AcDbText
 10
22.46429047566614
 20
9.868332176217903
 30
0.0
 40
0.9000000357627866
  1
21.11.13
  7
Textstil104
100
AcDbAttribute
280
     0
  2
Datum2_001
 70
     0
280
     0
  0
ATTRIB
  5
213
102
{ACAD_XDICTIONARY
360
7F6
102
}
330
207
100
AcDbEntity
  8
Titel (ISO)
100
AcDbText
 10
28.08908586451912
 20
9.869866964828068
 30
0.0
 40
0.9000000357627866
  1
Bader
  7
Textstil104
100
AcDbAttribute
280
     0
  2
Name2_001
 70
     0
280
     0
  0
ATTRIB
  5
214
102
{ACAD_XDICTIONARY
360
7F9
102
}
330
207
100
AcDbEntity
  8
Titel (ISO)
100
AcDbText
 10
6.423465190889059
 20
11.98749997949927
 30
0.0
 40
0.9000000357627866
  1
C
  7
Textstil104
100
AcDbAttribute
280
     0
  2
Status3_001
 70
     0
280
     0
  0
ATTRIB
  5
215
102
{ACAD_XDICTIONARY
360
7FC
102
}
330
207
100
AcDbEntity
  8
Titel (ISO)
100
AcDbText
 10
12.01452060646689
 20
11.9878069372213
 30
0.0
 40
0.9000000357627866
  1
SW entfernt
  7
Textstil104
100
AcDbAttribute
280
     0
  2
Änderungen3_001
 70
     0
280
     0
  0
ATTRIB
  5
216
102
{ACAD_XDICTIONARY
360
7FF
102
}
330
207
100
AcDbEntity
  8
Titel (ISO)
100
AcDbText
 10
22.46429047566614
 20
11.9933321762179
 30
0.0
 40
0.9000000357627866
  1
21.11.13
  7
Textstil104
100
AcDbAttribute
280
     0
  2
Datum3_001
 70
     0
280
     0
  0
ATTRIB
  5
217
102
{ACAD_XDICTIONARY
360
802
102
}
330
207
100
AcDbEntity
  8
Titel (ISO)
100
AcDbText
 10
28.08908586451912
 20
11.99486696482807
 30
0.0
 40
0.9000000357627866
  1
Bader
  7
Textstil104
100
AcDbAttribute
280
     0
  2
Name3_001
 70
     0
280
     0
  0
ATTRIB
  5
218
102
{ACAD_XDICTIONARY
360
805
102
}
330
207
100
AcDbEntity
  8
Titel (ISO)
100
AcDbText
 10
6.42346519088906
 20
14.11249997949927
 30
0.0
 40
0.9000000357627866
  1
C
  7
Textstil104
100
AcDbAttribute
280
     0
  2
Status4_001
 70
     0
280
     0
  0
ATTRIB
  5
219
102
{ACAD_XDICTIONARY
360
808
102
}
330
207
100
AcDbEntity
  8
Titel (ISO)
100
AcDbText
 10
9.98092569799664
 20
14.11219302177723
 30
0.0
 40
0.9000000357627866
  1
Maße in max.Maße
  7
Textstil104
100
AcDbAttribute
280
     0
  2
Änderungen4_001
 70
     0
280
     0
  0
ATTRIB
  5
21A
102
{ACAD_XDICTIONARY
360
80B
102
}
330
207
100
AcDbEntity
  8
Titel (ISO)
100
AcDbText
 10
22.46429047566615
 20
14.1183321762179
 30
0.0
 40
0.9000000357627866
  1
21.11.13
  7
Textstil104
100
AcDbAttribute
280
     0
  2
Datum4_001
 70
     0
280
     0
  0
ATTRIB
  5
21B
102
{ACAD_XDICTIONARY
360
80E
102
}
330
207
100
AcDbEntity
  8
Titel (ISO)
100
AcDbText
 10
28.08908586451912
 20
14.11986696482807
 30
0.0
 40
0.9000000357627866
  1
Bader
  7
Textstil104
100
AcDbAttribute
280
     0
  2
Name4_001
 70
     0
280
     0
  0
ATTRIB
  5
21C
102
{ACAD_XDICTIONARY
360
811
102
}
330
207
100
AcDbEntity
  8
Titel (ISO)
100
AcDbText
 10
6.423465190889059
 20
16.23749997949928
 30
0.0
 40
0.9000000357627866
  1
C
  7
Textstil104
100
AcDbAttribute
280
     0
  2
Status5_001
 70
     0
280
     0
  0
ATTRIB
  5
21D
102
{ACAD_XDICTIONARY
360
814
102
}
330
207
100
AcDbEntity
  8
Titel (ISO)
100
AcDbText
 10
10.53713309032088
 20
16.24486696482807
 30
0.0
 40
0.9000000357627866
  1
Art.Nr. neu hinzu
  7
Textstil104
100
AcDbAttribute
280
     0
  2
Änderungen5_001
 70
     0
280
     0
  0
ATTRIB
  5
21E
102
{ACAD_XDICTIONARY
360
817
102
}
330
207
100
AcDbEntity
  8
Titel (ISO)
100
AcDbText
 10
22.46429047566615
 20
16.24333217621791
 30
0.0
 40
0.9000000357627866
  1
21.11.13
  7
Textstil104
100
AcDbAttribute
280
     0
  2
Datum5_001
 70
     0
280
     0
  0
ATTRIB
  5
21F
102
{ACAD_XDICTIONARY
360
81A
102
}
330
207
100
AcDbEntity
  8
Titel (ISO)
100
AcDbText
 10
28.08908586451912
 20
16.24486696482807
 30
0.0
 40
0.9000000357627866
  1
Bader
  7
Textstil104
100
AcDbAttribute
280
     0
  2
Name5_001
 70
     0
280
     0
  0
ATTRIB
  5
220
102
{ACAD_XDICTIONARY
360
81D
102
}
330
207
100
AcDbEntity
  8
Titel (ISO)
100
AcDbText
 10
6.874999999999964
 20
18.36249998211862
 30
0.0
 40
0.9000000357627866
  1

  7
Textstil104
 72
     1
 11
6.874999999999964
 21
18.81250000000002
 31
0.0
100
AcDbAttribute
280
     0
  2
Status6
 70
     0
 74
     2
280
     0
  0
ATTRIB
  5
221
102
{ACAD_XDICTIONARY
360
820
102
}
330
207
100
AcDbEntity
  8
Titel (ISO)
100
AcDbText
 10
15.55681271873055
 20
18.36249998211862
 30
0.0
 40
0.9000000357627866
  1

  7
Textstil104
 72
     1
 11
15.55681271873055
 21
18.81250000000002
 31
0.0
100
AcDbAttribute
280
     0
  2
Änderungen6
 70
     0
 74
     2
280
     0
  0
ATTRIB
  5
222
102
{ACAD_XDICTIONARY
360
823
102
}
330
207
100
AcDbEntity
  8
Titel (ISO)
100
AcDbText
 10
24.89999999999995
 20
18.36249998211862
 30
0.0
 40
0.9000000357627866
  1

  7
Textstil104
 72
     1
 11
24.89999999999995
 21
18.81250000000002
 31
0.0
100
AcDbAttribute
280
     0
  2
Datum6
 70
     0
 74
     2
280
     0
  0
ATTRIB
  5
223
102
{ACAD_XDICTIONARY
360
826
102
}
330
207
100
AcDbEntity
  8
Titel (ISO)
100
AcDbText
 10
29.92499999999996
 20
18.36249998211862
 30
0.0
 40
0.9000000357627866
  1

  7
Textstil104
 72
     1
 11
29.92499999999996
 21
18.81250000000002
 31
0.0
100
AcDbAttribute
280
     0
  2
Name6
 70
     0
 74
     2
280
     0
  0
ATTRIB
  5
224
102
{ACAD_XDICTIONARY
360
829
102
}
330
207
100
AcDbEntity
  8
Titel (ISO)
100
AcDbText
 10
6.874999999999964
 20
20.48749998211864
 30
0.0
 40
0.9000000357627866
  1

  7
Textstil104
 72
     1
 11
6.874999999999964
 21
20.93750000000003
 31
0.0
100
AcDbAttribute
280
     0
  2
Status7
 70
     0
 74
     2
280
     0
  0
ATTRIB
  5
225
102
{ACAD_XDICTIONARY
360
82C
102
}
330
207
100
AcDbEntity
  8
Titel (ISO)
100
AcDbText
 10
15.55681271873055
 20
20.48749998211864
 30
0.0
 40
0.9000000357627866
  1

  7
Textstil104
 72
     1
 11
15.55681271873055
 21
20.93750000000003
 31
0.0
100
AcDbAttribute
280
     0
  2
Änderungen7
 70
     0
 74
     2
280
     0
  0
ATTRIB
  5
226
102
{ACAD_XDICTIONARY
360
82F
102
}
330
207
100
AcDbEntity
  8
Titel (ISO)
100
AcDbText
 10
24.89999999999995
 20
20.48749998211864
 30
0.0
 40
0.9000000357627866
  1

  7
Textstil104
 72
     1
 11
24.89999999999995
 21
20.93750000000003
 31
0.0
100
AcDbAttribute
280
     0
  2
Datum7
 70
     0
 74
     2
280
     0
  0
ATTRIB
  5
227
102
{ACAD_XDICTIONARY
360
832
102
}
330
207
100
AcDbEntity
  8
Titel (ISO)
100
AcDbText
 10
29.92499999999996
 20
20.48749998211864
 30
0.0
 40
0.9000000357627866
  1

  7
Textstil104
 72
     1
 11
29.92499999999996
 21
20.93750000000003
 31
0.0
100
AcDbAttribute
280
     0
  2
Name7
 70
     0
 74
     2
280
     0
  0
ATTRIB
  5
228
102
{ACAD_XDICTIONARY
360
835
102
}
330
207
100
AcDbEntity
  8
Titel (ISO)
100
AcDbText
 10
6.874999999999964
 20
22.61249998211865
 30
0.0
 40
0.9000000357627866
  1

  7
Textstil104
 72
     1
 11
6.874999999999964
 21
23.06250000000004
 31
0.0
100
AcDbAttribute
280
     0
  2
Status8
 70
     0
 74
     2
280
     0
  0
ATTRIB
  5
229
102
{ACAD_XDICTIONARY
360
838
102
}
330
207
100
AcDbEntity
  8
Titel (ISO)
100
AcDbText
 10
15.55681271873055
 20
22.61249998211865
 30
0.0
 40
0.9000000357627866
  1

  7
Textstil104
 72
     1
 11
15.55681271873055
 21
23.06250000000004
 31
0.0
100
AcDbAttribute
280
     0
  2
Änderungen8
 70
     0
 74
     2
280
     0
  0
ATTRIB
  5
22A
102
{ACAD_XDICTIONARY
360
83B
102
}
330
207
100
AcDbEntity
  8
Titel (ISO)
100
AcDbText
 10
24.89999999999995
 20
22.61249998211865
 30
0.0
 40
0.9000000357627866
  1

  7
Textstil104
 72
     1
 11
24.89999999999995
 21
23.06250000000004
 31
0.0
100
AcDbAttribute
280
     0
  2
Datum8
 70
     0
 74
     2
280
     0
  0
ATTRIB
  5
22B
102
{ACAD_XDICTIONARY
360
83E
102
}
330
207
100
AcDbEntity
  8
Titel (ISO)
100
AcDbText
 10
29.92499999999996
 20
22.61249998211865
 30
0.0
 40
0.9000000357627866
  1

  7
Textstil104
 72
     1
 11
29.92499999999996
 21
23.06250000000004
 31
0.0
100
AcDbAttribute
280
     0
  2
Name8
 70
     0
 74
     2
280
     0
  0
ATTRIB
  5
22C
102
{ACAD_XDICTIONARY
360
841
102
}
330
207
100
AcDbEntity
  8
Titel (ISO)
100
AcDbText
 10
14.53105393430073
 20
27.386937270378
 30
0.0
 40
1.749999970197676
  1
101509
  7
Textstil114
100
AcDbAttribute
280
     0
  2
Artikelnummer_neu_001
 70
     0
280
     0
  0
ATTRIB
  5
22D
102
{ACAD_XDICTIONARY
360
844
102
}
330
207
100
AcDbEntity
  8
Titel (ISO)
100
AcDbText
 10
13.69817527813424
 20
24.85368348509656
 30
0.0
 40
1.25
  1
(27.005.036)
  7
Textstil100
100
AcDbAttribute
280
     0
  2
Artikelnummer_alt_001
 70
     0
280
     0
  0
ATTRIB
  5
22E
102
{ACAD_XDICTIONARY
360
847
102
}
330
207
100
AcDbEntity
  8
Titel (ISO)
100
AcDbText
 10
84.67219292263839
 20
30.40799792949267
 30
0.0
 40
1.500000059604644
  1
Messing vern.
  7
Textstil94
100
AcDbAttribute
280
     0
  2
Material_001
 70
     0
280
     0
  0
ATTRIB
  5
22F
102
{ACAD_XDICTIONARY
360
84A
102
}
330
207
100
AcDbEntity
  8
Titel (ISO)
100
AcDbText
 10
65.40295782137779
 20
30.39520802440795
 30
0.0
 40
1.500000059604644
  1
2:1 (1:1)
  7
Textstil94
100
AcDbAttribute
280
     0
  2
Maßstab_001
 70
     0
280
     0
  0
ATTRIB
  5
230
102
{ACAD_XDICTIONARY
360
84D
102
}
330
207
100
AcDbEntity
  8
Titel (ISO)
100
AcDbText
 10
38.96429047566612
 20
20.49333217621792
 30
0.0
 40
0.9000000357627866
  1
21.11.13
  7
Textstil104
100
AcDbAttribute
280
     0
  2
Gezeichnet_Datum_001
 70
     0
280
     0
  0
ATTRIB
  5
231
102
{ACAD_XDICTIONARY
360
850
102
}
330
207
100
AcDbEntity
  8
Titel (ISO)
100
AcDbText
 10
48.01408586451909
 20
20.49486696482809
 30
0.0
 40
0.9000000357627866
  1
Bader
  7
Textstil104
100
AcDbAttribute
280
     0
  2
Gezeichnet_Name_001
 70
     0
280
     0
  0
ATTRIB
  5
232
102
{ACAD_XDICTIONARY
360
853
102
}
330
207
100
AcDbEntity
  8
Titel (ISO)
100
AcDbText
 10
73.24999999999987
 20
8.324816997882402
 30
0.0
 40
2.000000029802321
  1

  7
Textstil109
 72
     1
 11
73.24999999999987
 21
9.324817012783563
 31
0.0
100
AcDbAttribute
280
     0
  2
Benennung
 70
     0
 74
     2
280
     0
  0
ATTRIB
  5
233
102
{ACAD_XDICTIONARY
360
856
102
}
330
207
100
AcDbEntity
  8
Titel (ISO)
100
AcDbText
 10
69.99444175221552
 20
5.43749999636203
 30
0.0
 40
1.25
  1
AN GEA 12 C
  7
Textstil100
100
AcDbAttribute
280
     0
  2
Zeichnungsnummer_001
 70
     0
280
     0
  0
ATTRIB
  5
234
102
{ACAD_XDICTIONARY
360
859
102
}
330
207
100
AcDbEntity
  8
Titel (ISO)
100
AcDbText
 10
40.88345671869399
 20
5.437499996362022
 30
0.0
 40
1.25
  1
AN GEA 12 B
  7
Textstil100
100
AcDbAttribute
280
     0
  2
Ers._für_001
 70
     0
280
     0
  0
ATTRIB
  5
235
102
{ACAD_XDICTIONARY
360
85C
102
}
330
207
100
AcDbEntity
  8
Titel (ISO)
100
AcDbText
 10
33.54167783222327
 20
8.341188070163488
 30
0.0
 40
2.000000029802321
  1
Anschlussteile
  7
Textstil109
100
AcDbAttribute
280
     0
  2
Projekt_001
 70
     0
280
     0
  0
ATTRIB
  5
236
102
{ACAD_XDICTIONARY
360
85F
102
}
330
207
100
AcDbEntity
  8
Titel (ISO)
100
AcDbText
 10
38.96429047566616
 20
18.36833217621791
 30
0.0
 40
0.9000000357627866
  1
22.11.13
  7
Textstil104
100
AcDbAttribute
280
     0
  2
Kontroll_Datum_001
 70
     0
280
     0
  0
ATTRIB
  5
237
102
{ACAD_XDICTIONARY
360
862
102
}
330
207
100
AcDbEntity
  8
Titel (ISO)
100
AcDbText
 10
46.17663694042807
 20
18.36986696482808
 30
0.0
 40
0.9000000357627866
  1
Hildenbrand
  7
Textstil104
100
AcDbAttribute
280
     0
  2
Kontroll__Name_001
 70
     0
280
     0
  0
SEQEND
  5
208
330
207
100
AcDbEntity
  8
0
  0
LINE
  5
238
330
71
100
AcDbEntity
  8
Sichtbar (ISO)
100
AcDbLine
 10
57.75129033005246
 20
121.6566751846378
 30
0.0
 11
46.25129033005245
 21
121.6566751846378
 31
0.0
  0
LINE
  5
239
330
71
100
AcDbEntity
  8
Sichtbar (ISO)
100
AcDbLine
 10
46.45129033005246
 20
121.8566751846378
 30
0.0
 11
57.55129033005245
 21
121.8566751846378
 31
0.0
  0
LINE
  5
23A
330
71
100
AcDbEntity
  8
Sichtbar (ISO)
100
AcDbLine
 10
57.55129033005245
 20
121.8566751846378
 30
0.0
 11
57.75129033005246
 21
121.6566751846378
 31
0.0
  0
LINE
  5
23B
330
71
100
AcDbEntity
  8
Sichtbar (ISO)
100
AcDbLine
 10
46.45129033005246
 20
121.8566751846378
 30
0.0
 11
46.25129033005245
 21
121.6566751846378
 31
0.0
  0
LINE
  5
23C
330
71
100
AcDbEntity
  8
Sichtbar (ISO)
100
AcDbLine
 10
57.75129033005246
 20
120.8566751846378
 30
0.0
 11
46.25129033005245
 21
120.8566751846378
 31
0.0
  0
LINE
  5
23D
330
71
100
AcDbEntity
  8
Sichtbar (ISO)
100
AcDbLine
 10
58.00129033005243
 20
119.5566751846378
 30
0.0
 11
46.00129033005245
 21
119.5566751846378
 31
0.0
  0
LINE
  5
23E
330
71
100
AcDbEntity
  8
Sichtbar (ISO)
100
AcDbLine
 10
46.25129033005245
 20
120.8566751846378
 30
0.0
 11
46.25129033005245
 21
121.6566751846378
 31
0.0
  0
LINE
  5
23F
330
71
100
AcDbEntity
  8
Sichtbar (ISO)
100
AcDbLine
 10
57.75129033005246
 20
120.8566751846378
 30
0.0
 11
57.75129033005246
 21
121.6566751846378
 31
0.0
  0
LINE
  5
240
330
71
100
AcDbEntity
  8
Sichtbar (ISO)
100
AcDbLine
 10
48.00129033005243
 20
119.5566751846378
 30
0.0
 11
48.00129033005243
 21
120.3566751846378
 31
0.0
  0
LINE
  5
241
330
71
100
AcDbEntity
  8
Sichtbar (ISO)
100
AcDbLine
 10
56.00129033005245
 20
119.5566751846378
 30
0.0
 11
56.00129033005245
 21
120.3566751846378
 31
0.0
  0
LINE
  5
242
330
71
100
AcDbEntity
  8
Sichtbar (ISO)
100
AcDbLine
 10
46.00129033005245
 20
106.5566751846378
 30
0.0
 11
46.00129033005245
 21
119.5566751846378
 31
0.0
  0
LINE
  5
243
330
71
100
AcDbEntity
  8
Sichtbar (ISO)
100
AcDbLine
 10
58.00129033005243
 20
106.5566751846378
 30
0.0
 11
58.00129033005243
 21
119.5566751846378
 31
0.0
  0
LINE
  5
244
330
71
100
AcDbEntity
  8
Sichtbar (ISO)
100
AcDbLine
 10
49.00129033005246
 20
99.25667518463786
 30
0.0
 11
55.00129033005245
 21
99.25667518463786
 31
0.0
  0
LINE
  5
245
330
71
100
AcDbEntity
  8
Sichtbar (ISO)
100
AcDbLine
 10
54.50129033005246
 20
98.75667518463785
 30
0.0
 11
49.50129033005246
 21
98.75667518463785
 31
0.0
  0
LINE
  5
246
330
71
100
AcDbEntity
  8
Sichtbar (ISO)
100
AcDbLine
 10
49.50129033005246
 20
98.75667518463785
 30
0.0
 11
49.00129033005246
 21
99.25667518463786
 31
0.0
  0
LINE
  5
247
330
71
100
AcDbEntity
  8
Sichtbar (ISO)
100
AcDbLine
 10
54.50129033005246
 20
98.75667518463785
 30
0.0
 11
55.00129033005245
 21
99.25667518463786
 31
0.0
  0
LINE
  5
248
330
71
100
AcDbEntity
  8
Sichtbar (ISO)
100
AcDbLine
 10
56.50129033005246
 20
105.0566751846378
 30
0.0
 11
47.50129033005245
 21
105.0566751846378
 31
0.0
  0
LINE
  5
249
330
71
100
AcDbEntity
  8
Sichtbar (ISO)
100
AcDbLine
 10
46.00129033005245
 20
106.5566751846378
 30
0.0
 11
58.00129033005243
 21
106.5566751846378
 31
0.0
  0
LINE
  5
24A
330
71
100
AcDbEntity
  8
Sichtbar (ISO)
100
AcDbLine
 10
47.50129033005245
 20
105.0566751846378
 30
0.0
 11
46.00129033005245
 21
106.5566751846378
 31
0.0
  0
LINE
  5
24B
330
71
100
AcDbEntity
  8
Sichtbar (ISO)
100
AcDbLine
 10
56.50129033005246
 20
105.0566751846378
 30
0.0
 11
58.00129033005243
 21
106.5566751846378
 31
0.0
  0
LINE
  5
24C
330
71
100
AcDbEntity
  8
Sichtbar (ISO)
100
AcDbLine
 10
56.50129033005246
 20
104.2566751846378
 30
0.0
 11
47.50129033005245
 21
104.2566751846378
 31
0.0
  0
ARC
  5
24D
330
71
100
AcDbEntity
  8
Sichtbar (ISO)
100
AcDbCircle
 10
56.50129033005246
 20
120.3566751846378
 30
0.0
 40
0.5
100
AcDbArc
 50
90.0
 51
180.0
  0
ARC
  5
24E
330
71
100
AcDbEntity
  8
Sichtbar (ISO)
100
AcDbCircle
 10
47.50129033005245
 20
120.3566751846378
 30
0.0
 40
0.5
100
AcDbArc
 50
0.0
 51
90.0
  0
LINE
  5
24F
330
71
100
AcDbEntity
  8
Sichtbar (ISO)
100
AcDbLine
 10
49.00129033005246
 20
99.25667518463786
 30
0.0
 11
49.00129033005246
 21
103.5566751846378
 31
0.0
  0
LINE
  5
250
330
71
100
AcDbEntity
  8
Sichtbar (ISO)
100
AcDbLine
 10
55.00129033005245
 20
99.25667518463786
 30
0.0
 11
55.00129033005245
 21
103.5566751846378
 31
0.0
  0
LINE
  5
251
330
71
100
AcDbEntity
  8
Sichtbar (ISO)
100
AcDbLine
 10
56.50129033005246
 20
105.0566751846378
 30
0.0
 11
56.50129033005246
 21
104.2566751846378
 31
0.0
  0
LINE
  5
252
330
71
100
AcDbEntity
  8
Sichtbar (ISO)
100
AcDbLine
 10
47.50129033005245
 20
105.0566751846378
 30
0.0
 11
47.50129033005245
 21
104.2566751846378
 31
0.0
  0
LINE
  5
253
330
71
100
AcDbEntity
  8
Sichtbar schmal (ISO)
100
AcDbLine
 10
49.60029033005245
 20
103.5566751846378
 30
0.0
 11
49.60029033005245
 21
98.75667518463785
 31
0.0
  0
LINE
  5
254
330
71
100
AcDbEntity
  8
Sichtbar schmal (ISO)
100
AcDbLine
 10
54.40229033005245
 20
98.75667518463785
 30
0.0
 11
54.40229033005245
 21
103.5566751846378
 31
0.0
  0
ARC
  5
255
330
71
100
AcDbEntity
  8
Sichtbar (ISO)
100
AcDbCircle
 10
55.5512903300524
 20
104.3066751846378
 30
0.0
 40
0.7500000000000002
100
AcDbArc
 50
269.9999999999993
 51
356.1774462707238
  0
ARC
  5
256
330
71
100
AcDbEntity
  8
Sichtbar (ISO)
100
AcDbCircle
 10
48.4512903300525
 20
104.3066751846378
 30
0.0
 40
0.7500000000000001
100
AcDbArc
 50
183.8225537292749
 51
270.0
  0
LINE
  5
257
330
71
100
AcDbEntity
  8
Sichtbar (ISO)
100
AcDbLine
 10
48.4512903300525
 20
103.5566751846378
 30
0.0
 11
55.5512903300524
 21
103.5566751846378
 31
0.0
  0
CIRCLE
  5
258
330
71
100
AcDbEntity
  8
Sichtbar (ISO)
100
AcDbCircle
 10
52.00129033003634
 20
79.15646988888912
 30
0.0
 40
5.75
  0
CIRCLE
  5
259
330
71
100
AcDbEntity
  8
Sichtbar (ISO)
100
AcDbCircle
 10
52.00129033003634
 20
79.1564698888892
 30
0.0
 40
5.549999999999999
  0
CIRCLE
  5
25A
330
71
100
AcDbEntity
  8
Sichtbar (ISO)
100
AcDbCircle
 10
52.00129033003634
 20
79.1564698888892
 30
0.0
 40
3.5
  0
CIRCLE
  5
25B
330
71
100
AcDbEntity
  8
Sichtbar (ISO)
100
AcDbCircle
 10
52.00129033003634
 20
79.15646988888905
 30
0.0
 40
3.0
  0
CIRCLE
  5
25C
330
71
100
AcDbEntity
  8
Sichtbar (ISO)
100
AcDbCircle
 10
52.00129033003634
 20
79.15646988888851
 30
0.0
 40
6.0
  0
LINE
  5
25D
330
71
100
AcDbEntity
  8
Sichtbar (ISO)
100
AcDbLine
 10
50.40129033003634
 20
78.23270945818105
 30
0.0
 11
50.40129033003634
 21
80.08023031958783
 31
0.0
  0
LINE
  5
25E
330
71
100
AcDbEntity
  8
Sichtbar (ISO)
100
AcDbLine
 10
52.00129033003634
 20
77.30894902747765
 30
0.0
 11
50.40129033003634
 21
78.23270945818105
 31
0.0
  0
LINE
  5
25F
330
71
100
AcDbEntity
  8
Sichtbar (ISO)
100
AcDbLine
 10
53.60129033003635
 20
78.23270945818106
 30
0.0
 11
52.00129033003634
 21
77.30894902747765
 31
0.0
  0
LINE
  5
260
330
71
100
AcDbEntity
  8
Sichtbar (ISO)
100
AcDbLine
 10
53.60129033003635
 20
80.08023031958783
 30
0.0
 11
53.60129033003635
 21
78.23270945818106
 31
0.0
  0
LINE
  5
261
330
71
100
AcDbEntity
  8
Sichtbar (ISO)
100
AcDbLine
 10
52.00129033003634
 20
81.00399075029125
 30
0.0
 11
53.60129033003635
 21
80.08023031958783
 31
0.0
  0
LINE
  5
262
330
71
100
AcDbEntity
  8
Sichtbar (ISO)
100
AcDbLine
 10
50.40129033003634
 20
80.08023031958783
 30
0.0
 11
52.00129033003634
 21
81.00399075029125
 31
0.0
  0
CIRCLE
  5
263
330
71
100
AcDbEntity
  8
Sichtbar (ISO)
100
AcDbCircle
 10
52.00129033003634
 20
79.15646988888356
 30
0.0
 40
1.5
  0
ELLIPSE
  5
264
330
71
100
AcDbEntity
  8
Sichtbar (ISO)
100
AcDbEllipse
 10
77.7094167683218
 20
46.71391102770742
 30
0.0
 11
-2.875
 21
0.0000000000000014
 31
0.0
210
0.0
220
0.0
230
1.0
 40
0.5758617009853118
 41
5.501639689889993
 42
10.20632357805898
  0
ELLIPSE
  5
265
330
71
100
AcDbEntity
  8
Sichtbar (ISO)
100
AcDbEllipse
 10
77.7094167683218
 20
46.79566574019168
 30
0.0
 11
2.774999999999999
 21
-0.0000000000000004
 31
0.0
210
0.0
220
0.0
230
1.0
 40
0.5758617009853119
 41
0.0
 42
6.283185307179585
  0
LINE
  5
266
330
71
100
AcDbEntity
  8
Sichtbar (ISO)
100
AcDbLine
 10
79.67918305377934
 20
47.92127221696014
 30
0.0
 11
79.75016562262465
 21
47.8800799000351
 31
0.0
  0
LINE
  5
267
330
71
100
AcDbEntity
  8
Sichtbar (ISO)
100
AcDbLine
 10
75.73965048286424
 20
47.92127221696014
 30
0.0
 11
75.66866791401891
 21
47.8800799000351
 31
0.0
  0
ELLIPSE
  5
268
330
71
100
AcDbEntity
  8
Sichtbar (ISO)
100
AcDbEllipse
 10
77.7094167683218
 20
46.79566574019168
 30
0.0
 11
1.75
 21
0.000000000000104
 31
0.0
210
0.0
220
0.0
230
1.0
 40
0.5758617009853121
 41
0.0
 42
6.283185307179585
  0
ELLIPSE
  5
269
330
71
100
AcDbEntity
  8
Sichtbar (ISO)
100
AcDbEllipse
 10
77.7094167683218
 20
46.59127895898103
 30
0.0
 11
-1.5
 21
0.0000000000000002
 31
0.0
210
0.0
220
0.0
230
1.0
 40
0.5758617009853119
 41
2.44087331551372
 42
6.983904645255657
  0
ELLIPSE
  5
26A
330
71
100
AcDbEntity
  8
Sichtbar (ISO)
100
AcDbEllipse
 10
77.7094167683218
 20
46.38689217777041
 30
0.0
 11
-2.875
 21
0.0000000000000018
 31
0.0
210
0.0
220
0.0
230
1.0
 40
0.5758617009853115
 41
0.000000000000001
 42
3.141592653589794
  0
ELLIPSE
  5
26B
330
71
100
AcDbEntity
  8
Sichtbar (ISO)
100
AcDbEllipse
 10
77.7094167683218
 20
45.85548654662274
 30
0.0
 11
1.999999999999999
 21
-0.0000000000000017
 31
0.0
210
0.0
220
0.0
230
1.0
 40
0.5758617009853153
 41
4.322414970042415
 42
5.102362990726963
  0
ELLIPSE
  5
26C
330
71
100
AcDbEntity
  8
Sichtbar (ISO)
100
AcDbEllipse
 10
77.7094167683218
 20
45.85548654662274
 30
0.0
 11
-3.0
 21
0.0000000000000009
 31
0.0
210
0.0
220
0.0
230
1.0
 40
0.5758617009853118
 41
5.992681149496754
 42
9.715282118452206
  0
LINE
  5
26D
330
71
100
AcDbEntity
  8
Sichtbar (ISO)
100
AcDbLine
 10
74.83441676832178
 20
46.38689217777041
 30
0.0
 11
74.83441676832178
 21
46.71391102770742
 31
0.0
  0
LINE
  5
26E
330
71
100
AcDbEntity
  8
Sichtbar (ISO)
100
AcDbLine
 10
80.58441676832179
 20
46.38689217777041
 30
0.0
 11
80.58441676832179
 21
46.71391102770742
 31
0.0
  0
LINE
  5
26F
330
71
100
AcDbEntity
  8
Sichtbar (ISO)
100
AcDbLine
 10
74.7094167683218
 20
40.54143023514625
 30
0.0
 11
74.7094167683218
 21
45.85548654662274
 31
0.0
  0
LINE
  5
270
330
71
100
AcDbEntity
  8
Sichtbar (ISO)
100
AcDbLine
 10
80.7094167683218
 20
40.54143023514625
 30
0.0
 11
80.7094167683218
 21
45.85548654662274
 31
0.0
  0
ELLIPSE
  5
271
330
71
100
AcDbEntity
  8
Sichtbar (ISO)
100
AcDbEllipse
 10
77.7094167683218
 20
37.55738322947099
 30
0.0
 11
1.5
 21
-0.0000000000000003
 31
0.0
210
0.0
220
0.0
230
1.0
 40
0.5758617009853121
 41
3.141592653589792
 42
6.283185307179588
  0
ELLIPSE
  5
272
330
71
100
AcDbEntity
  8
Sichtbar (ISO)
100
AcDbEllipse
 10
77.7094167683218
 20
37.35299644826035
 30
0.0
 11
1.25
 21
0.0000000000000742
 31
0.0
210
0.0
220
0.0
230
1.0
 40
0.5758617009853119
 41
3.923138270879156
 42
5.501639689889729
  0
LINE
  5
273
330
71
100
AcDbEntity
  8
Sichtbar (ISO)
100
AcDbLine
 10
76.82213465775531
 20
36.84596650377005
 30
0.0
 11
76.64467823564203
 21
36.94894729608261
 31
0.0
  0
LINE
  5
274
330
71
100
AcDbEntity
  8
Sichtbar (ISO)
100
AcDbLine
 10
78.59669887888824
 20
36.84596650377005
 30
0.0
 11
78.77415530100153
 21
36.94894729608261
 31
0.0
  0
ELLIPSE
  5
275
330
71
100
AcDbEntity
  8
Sichtbar (ISO)
100
AcDbEllipse
 10
77.7094167683218
 20
39.92826989151435
 30
0.0
 11
2.25
 21
0.0000000000001339
 31
0.0
210
0.0
220
0.0
230
1.0
 40
0.5758617009853121
 41
3.923138270879156
 42
5.501639689889726
  0
ELLIPSE
  5
276
330
71
100
AcDbEntity
  8
Sichtbar (ISO)
100
AcDbEllipse
 10
77.7094167683218
 20
40.54143023514625
 30
0.0
 11
3.0
 21
-0.0000000000000003
 31
0.0
210
0.0
220
0.0
230
1.0
 40
0.5758617009853118
 41
3.141592653589792
 42
6.283185307179584
  0
LINE
  5
277
330
71
100
AcDbEntity
  8
Sichtbar (ISO)
100
AcDbLine
 10
76.11230896930219
 20
39.0156159914318
 30
0.0
 11
75.57993970296229
 21
39.32455836836953
 31
0.0
  0
LINE
  5
278
330
71
100
AcDbEntity
  8
Sichtbar (ISO)
100
AcDbLine
 10
79.3065245673414
 20
39.0156159914318
 30
0.0
 11
79.83889383368127
 21
39.32455836836953
 31
0.0
  0
ELLIPSE
  5
279
330
71
100
AcDbEntity
  8
Sichtbar (ISO)
100
AcDbEllipse
 10
77.7094167683218
 20
39.60125104157734
 30
0.0
 11
-2.25
 21
0.0000000000000002
 31
0.0
210
0.0
220
0.0
230
1.0
 40
0.5758617009853121
 41
0.1740055030052586
 42
2.967587150584535
  0
LINE
  5
27A
330
71
100
AcDbEntity
  8
Sichtbar (ISO)
100
AcDbLine
 10
76.20941676832178
 20
37.55738322947099
 30
0.0
 11
76.20941676832178
 21
38.60849873669062
 31
0.0
  0
LINE
  5
27B
330
71
100
AcDbEntity
  8
Sichtbar (ISO)
100
AcDbLine
 10
79.20941676832178
 20
37.55738322947099
 30
0.0
 11
79.20941676832178
 21
38.60849873669062
 31
0.0
  0
POLYLINE
  5
27C
330
71
100
AcDbEntity
  8
Sichtbar (ISO)
100
AcDb2dPolyline
 66
     1
 10
0.0
 20
0.0
 30
0.0
 70
   128
  0
VERTEX
  5
27D
330
27C
100
AcDbEntity
  8
Sichtbar (ISO)
100
AcDbVertex
100
AcDb2dVertex
 10
76.00805638242738
 20
38.75336970053871
 30
0.0
  0
VERTEX
  5
27E
330
27C
100
AcDbEntity
  8
Sichtbar (ISO)
100
AcDbVertex
100
AcDb2dVertex
 10
76.17610324224717
 20
38.62967031496882
 30
0.0
  0
VERTEX
  5
280
330
27C
100
AcDbEntity
  8
Sichtbar (ISO)
100
AcDbVertex
100
AcDb2dVertex
 10
76.3616531082075
 20
38.5227033885616
 30
0.0
  0
VERTEX
  5
281
330
27C
100
AcDbEntity
  8
Sichtbar (ISO)
100
AcDbVertex
100
AcDb2dVertex
 10
76.56232464668135
 20
38.43207018062337
 30
0.0
  0
VERTEX
  5
282
330
27C
100
AcDbEntity
  8
Sichtbar (ISO)
100
AcDbVertex
100
AcDb2dVertex
 10
76.77581543610912
 20
38.35771486861922
 30
0.0
  0
VERTEX
  5
283
330
27C
100
AcDbEntity
  8
Sichtbar (ISO)
100
AcDbVertex
100
AcDb2dVertex
 10
76.99980670708822
 20
38.29963546068099
 30
0.0
  0
VERTEX
  5
284
330
27C
100
AcDbEntity
  8
Sichtbar (ISO)
100
AcDbVertex
100
AcDb2dVertex
 10
77.23182645900799
 20
38.25798308411595
 30
0.0
  0
VERTEX
  5
285
330
27C
100
AcDbEntity
  8
Sichtbar (ISO)
100
AcDbVertex
100
AcDb2dVertex
 10
77.46924709403874
 20
38.23290725177182
 30
0.0
  0
VERTEX
  5
286
330
27C
100
AcDbEntity
  8
Sichtbar (ISO)
100
AcDbVertex
100
AcDb2dVertex
 10
77.70941411018505
 20
38.22454185874618
 30
0.0
  0
VERTEX
  5
287
330
27C
100
AcDbEntity
  8
Sichtbar (ISO)
100
AcDbVertex
100
AcDb2dVertex
 10
77.94958261034597
 20
38.2329180502539
 30
0.0
  0
VERTEX
  5
288
330
27C
100
AcDbEntity
  8
Sichtbar (ISO)
100
AcDbVertex
100
AcDb2dVertex
 10
78.18702363765385
 20
38.25797695645311
 30
0.0
  0
VERTEX
  5
289
330
27C
100
AcDbEntity
  8
Sichtbar (ISO)
100
AcDbVertex
100
AcDb2dVertex
 10
78.41901896196128
 20
38.29962836643746
 30
0.0
  0
VERTEX
  5
28A
330
27C
100
AcDbEntity
  8
Sichtbar (ISO)
100
AcDbVertex
100
AcDb2dVertex
 10
78.64300317646318
 20
38.35771401658901
 30
0.0
  0
VERTEX
  5
28B
330
27C
100
AcDbEntity
  8
Sichtbar (ISO)
100
AcDbVertex
100
AcDb2dVertex
 10
78.85652167191032
 20
38.43210186692632
 30
0.0
  0
VERTEX
  5
28C
330
27C
100
AcDbEntity
  8
Sichtbar (ISO)
100
AcDbVertex
100
AcDb2dVertex
 10
79.05720892760668
 20
38.5226733318324
 30
0.0
  0
VERTEX
  5
28D
330
27C
100
AcDbEntity
  8
Sichtbar (ISO)
100
AcDbVertex
100
AcDb2dVertex
 10
79.24276011890015
 20
38.62963405205447
 30
0.0
  0
VERTEX
  5
28E
330
27C
100
AcDbEntity
  8
Sichtbar (ISO)
100
AcDbVertex
100
AcDb2dVertex
 10
79.41077716198655
 20
38.75336968901082
 30
0.0
  0
SEQEND
  5
27F
330
27C
100
AcDbEntity
  8
Sichtbar (ISO)
  0
ELLIPSE
  5
28F
330
71
100
AcDbEntity
  8
Sichtbar (ISO)
100
AcDbEllipse
 10
92.56719257238293
 20
46.98796218347859
 30
0.0
 11
-2.875
 21
0.0000000000000008
 31
0.0
210
0.0
220
0.0
230
1.0
 40
0.5758617009853123
 41
3.141592674663217
 42
6.283185307179585
  0
ELLIPSE
  5
290
330
71
100
AcDbEntity
  8
Sichtbar (ISO)
100
AcDbEllipse
 10
92.56719257238293
 20
47.06971689596286
 30
0.0
 11
-2.774999999999999
 21
-0.0000000000001653
 31
0.0
210
0.0
220
0.0
230
1.0
 40
0.5758617009853121
 41
3.923138270879142
 42
5.501639689889745
  0
LINE
  5
291
330
71
100
AcDbEntity
  8
Sichtbar (ISO)
100
AcDbLine
 10
94.53695885784048
 20
48.1953233727313
 30
0.0
 11
94.6079414266858
 21
48.15413105580628
 31
0.0
  0
LINE
  5
292
330
71
100
AcDbEntity
  8
Sichtbar (ISO)
100
AcDbLine
 10
90.59742628692536
 20
48.1953233727313
 30
0.0
 11
90.52644371808005
 21
48.15413105580628
 31
0.0
  0
ELLIPSE
  5
293
330
71
100
AcDbEntity
  8
Sichtbar (ISO)
100
AcDbEllipse
 10
92.56719257238293
 20
46.66094333354157
 30
0.0
 11
-2.875
 21
0.0000000000000013
 31
0.0
210
0.0
220
0.0
230
1.0
 40
0.5758617009853123
 41
3.119505674108616
 42
6.305272286660769
  0
ELLIPSE
  5
294
330
71
100
AcDbEntity
  8
Sichtbar (ISO)
100
AcDbEllipse
 10
92.56719257238293
 20
46.12953770239392
 30
0.0
 11
-3.0
 21
0.0000000000000003
 31
0.0
210
0.0
220
0.0
230
1.0
 40
0.5758617009853123
 41
3.141592653589792
 42
6.283185307179584
  0
LINE
  5
295
330
71
100
AcDbEntity
  8
Sichtbar (ISO)
100
AcDbLine
 10
89.69219257238295
 20
46.66094333354157
 30
0.0
 11
89.69219257238295
 21
46.98796218347857
 31
0.0
  0
LINE
  5
296
330
71
100
AcDbEntity
  8
Sichtbar (ISO)
100
AcDbLine
 10
95.44219257238294
 20
46.66094333354157
 30
0.0
 11
95.44219257238294
 21
46.98796218347859
 31
0.0
  0
LINE
  5
297
330
71
100
AcDbEntity
  8
Sichtbar (ISO)
100
AcDbLine
 10
89.56719257238292
 20
40.8154813909174
 30
0.0
 11
89.56719257238292
 21
46.12953770239392
 31
0.0
  0
LINE
  5
298
330
71
100
AcDbEntity
  8
Sichtbar (ISO)
100
AcDbLine
 10
95.56719257238292
 20
40.8154813909174
 30
0.0
 11
95.56719257238292
 21
46.12953770239393
 31
0.0
  0
ELLIPSE
  5
299
330
71
100
AcDbEntity
  8
Sichtbar schmal (ISO)
100
AcDbEllipse
 10
92.56719257238293
 20
46.66094333354157
 30
0.0
 11
-2.25
 21
-0.0000000000001342
 31
0.0
210
0.0
220
0.0
230
1.0
 40
0.5758617009853121
 41
3.97933373346196
 42
5.44544422730699
  0
ELLIPSE
  5
29A
330
71
100
AcDbEntity
  8
Sichtbar (ISO)
100
AcDbEllipse
 10
92.56719257238293
 20
37.83143438524215
 30
0.0
 11
1.5
 21
-0.0000000000000001
 31
0.0
210
0.0
220
0.0
230
1.0
 40
0.5758617009853121
 41
5.501639689889977
 42
10.20632357805898
  0
ELLIPSE
  5
29B
330
71
100
AcDbEntity
  8
Sichtbar (ISO)
100
AcDbEllipse
 10
92.56719257238293
 20
37.6270476040315
 30
0.0
 11
1.25
 21
-0.0000000000000744
 31
0.0
210
0.0
220
0.0
230
1.0
 40
0.5758617009853121
 41
0.0
 42
6.283185307179585
  0
LINE
  5
29C
330
71
100
AcDbEntity
  8
Sichtbar (ISO)
100
AcDbLine
 10
91.67991046181647
 20
37.12001765954121
 30
0.0
 11
91.50245403970318
 21
37.22299845185379
 31
0.0
  0
LINE
  5
29D
330
71
100
AcDbEntity
  8
Sichtbar (ISO)
100
AcDbLine
 10
93.45447468294937
 20
37.12001765954121
 30
0.0
 11
93.63193110506269
 21
37.22299845185379
 31
0.0
  0
ELLIPSE
  5
29E
330
71
100
AcDbEntity
  8
Sichtbar (ISO)
100
AcDbEllipse
 10
92.56719257238293
 20
37.6270476040315
 30
0.0
 11
0.75
 21
-0.0000000000000446
 31
0.0
210
0.0
220
0.0
230
0.9999999999999998
 40
0.5758617009853121
 41
0.0
 42
6.283185307179585
  0
ELLIPSE
  5
29F
330
71
100
AcDbEntity
  8
Sichtbar (ISO)
100
AcDbEllipse
 10
92.56719257238293
 20
40.20232104728551
 30
0.0
 11
-2.25
 21
-0.0000000000000004
 31
0.0
210
0.0
220
0.0
230
1.0
 40
0.5758617009853119
 41
3.141592653589792
 42
6.283185307179584
  0
ELLIPSE
  5
2A0
330
71
100
AcDbEntity
  8
Sichtbar (ISO)
100
AcDbEllipse
 10
92.56719257238293
 20
40.8154813909174
 30
0.0
 11
3.0
 21
-0.0000000000000007
 31
0.0
210
0.0
220
0.0
230
1.0
 40
0.5758617009853123
 41
5.543490632462731
 42
10.16447263548624
  0
ELLIPSE
  5
2A1
330
71
100
AcDbEntity
  8
Sichtbar (ISO)
100
AcDbEllipse
 10
92.56719257238293
 20
39.8753021973485
 30
0.0
 11
-2.25
 21
0.0000000000000001
 31
0.0
210
0.0
220
0.0
230
1.0
 40
0.5758617009853119
 41
2.428221578481739
 42
6.996556382287632
  0
LINE
  5
2A2
330
71
100
AcDbEntity
  8
Sichtbar (ISO)
100
AcDbLine
 10
91.06719257238294
 20
37.83143438524215
 30
0.0
 11
91.06719257238294
 21
39.68730643832687
 31
0.0
  0
LINE
  5
2A3
330
71
100
AcDbEntity
  8
Sichtbar (ISO)
100
AcDbLine
 10
94.06719257238291
 20
37.83143438524215
 30
0.0
 11
94.06719257238291
 21
39.68730643832687
 31
0.0
  0
LINE
  5
2A4
330
71
100
AcDbEntity
  8
Sichtbar (ISO)
100
AcDbLine
 10
94.81719257238294
 20
40.20232104728551
 30
0.0
 11
94.81719257238294
 21
39.8753021973485
 31
0.0
  0
LINE
  5
2A5
330
71
100
AcDbEntity
  8
Sichtbar (ISO)
100
AcDbLine
 10
90.31719257238291
 20
40.20232104728551
 30
0.0
 11
90.31719257238291
 21
39.8753021973485
 31
0.0
  0
POLYLINE
  5
2A6
330
71
100
AcDbEntity
  8
Sichtbar (ISO)
100
AcDb2dPolyline
 66
     1
 10
0.0
 20
0.0
 30
0.0
 70
   128
  0
VERTEX
  5
2A7
330
2A6
100
AcDbEntity
  8
Sichtbar (ISO)
100
AcDbVertex
100
AcDb2dVertex
 10
91.43118720566221
 20
40.2513840299145
 30
0.0
  0
VERTEX
  5
2A8
330
2A6
100
AcDbEntity
  8
Sichtbar (ISO)
100
AcDbVertex
100
AcDb2dVertex
 10
91.53272982646123
 20
40.31215878151074
 30
0.0
  0
VERTEX
  5
2AA
330
2A6
100
AcDbEntity
  8
Sichtbar (ISO)
100
AcDbVertex
100
AcDb2dVertex
 10
91.64982426138314
 20
40.36873186826833
 30
0.0
  0
VERTEX
  5
2AB
330
2A6
100
AcDbEntity
  8
Sichtbar (ISO)
100
AcDbVertex
100
AcDb2dVertex
 10
91.78077856413658
 20
40.4192679568172
 30
0.0
  0
VERTEX
  5
2AC
330
2A6
100
AcDbEntity
  8
Sichtbar (ISO)
100
AcDbVertex
100
AcDb2dVertex
 10
91.9235496382357
 20
40.46238495086975
 30
0.0
  0
VERTEX
  5
2AD
330
2A6
100
AcDbEntity
  8
Sichtbar (ISO)
100
AcDbVertex
100
AcDb2dVertex
 10
92.07591197234746
 20
40.49703680566517
 30
0.0
  0
VERTEX
  5
2AE
330
2A6
100
AcDbEntity
  8
Sichtbar (ISO)
100
AcDbVertex
100
AcDb2dVertex
 10
92.23558782697391
 20
40.52230198374771
 30
0.0
  0
VERTEX
  5
2AF
330
2A6
100
AcDbEntity
  8
Sichtbar (ISO)
100
AcDbVertex
100
AcDb2dVertex
 10
92.40015948956541
 20
40.53770754280079
 30
0.0
  0
VERTEX
  5
2B0
330
2A6
100
AcDbEntity
  8
Sichtbar (ISO)
100
AcDbVertex
100
AcDb2dVertex
 10
92.56719217032213
 20
40.54289082022792
 30
0.0
  0
VERTEX
  5
2B1
330
2A6
100
AcDbEntity
  8
Sichtbar (ISO)
100
AcDbVertex
100
AcDb2dVertex
 10
92.7342251183712
 20
40.5376945016622
 30
0.0
  0
VERTEX
  5
2B2
330
2A6
100
AcDbEntity
  8
Sichtbar (ISO)
100
AcDbVertex
100
AcDb2dVertex
 10
92.89880082110704
 20
40.52231981352939
 30
0.0
  0
VERTEX
  5
2B3
330
2A6
100
AcDbEntity
  8
Sichtbar (ISO)
100
AcDbVertex
100
AcDb2dVertex
 10
93.05846712215865
 20
40.4970205203609
 30
0.0
  0
VERTEX
  5
2B4
330
2A6
100
AcDbEntity
  8
Sichtbar (ISO)
100
AcDbVertex
100
AcDb2dVertex
 10
93.21083541296983
 20
40.46238076387864
 30
0.0
  0
VERTEX
  5
2B5
330
2A6
100
AcDbEntity
  8
Sichtbar (ISO)
100
AcDbVertex
100
AcDb2dVertex
 10
93.35361461258091
 20
40.41928490230145
 30
0.0
  0
VERTEX
  5
2B6
330
2A6
100
AcDbEntity
  8
Sichtbar (ISO)
100
AcDbVertex
100
AcDb2dVertex
 10
93.48453977656857
 20
40.36870588663532
 30
0.0
  0
VERTEX
  5
2B7
330
2A6
100
AcDbEntity
  8
Sichtbar (ISO)
100
AcDbVertex
100
AcDb2dVertex
 10
93.60165658843731
 20
40.3121569518854
 30
0.0
  0
VERTEX
  5
2B8
330
2A6
100
AcDbEntity
  8
Sichtbar (ISO)
100
AcDbVertex
100
AcDb2dVertex
 10
93.70319791157715
 20
40.25138401420632
 30
0.0
  0
SEQEND
  5
2A9
330
2A6
100
AcDbEntity
  8
Sichtbar (ISO)
  0
POLYLINE
  5
2B9
330
71
100
AcDbEntity
  8
Sichtbar (ISO)
100
AcDb2dPolyline
 66
     1
 10
0.0
 20
0.0
 30
0.0
 70
   128
  0
VERTEX
  5
2BA
330
2B9
100
AcDbEntity
  8
Sichtbar (ISO)
100
AcDbVertex
100
AcDb2dVertex
 10
94.71397689885243
 20
39.81705574395491
 30
0.0
  0
VERTEX
  5
2BB
330
2B9
100
AcDbEntity
  8
Sichtbar (ISO)
100
AcDbVertex
100
AcDb2dVertex
 10
94.69116573838505
 20
39.67273680364736
 30
0.0
  0
VERTEX
  5
2BD
330
2B9
100
AcDbEntity
  8
Sichtbar (ISO)
100
AcDbVertex
100
AcDb2dVertex
 10
94.64769768382359
 20
39.53367243534005
 30
0.0
  0
VERTEX
  5
2BE
330
2B9
100
AcDbEntity
  8
Sichtbar (ISO)
100
AcDbVertex
100
AcDb2dVertex
 10
94.58561610311376
 20
39.40229813192671
 30
0.0
  0
VERTEX
  5
2BF
330
2B9
100
AcDbEntity
  8
Sichtbar (ISO)
100
AcDbVertex
100
AcDb2dVertex
 10
94.50714947519186
 20
39.27961686287768
 30
0.0
  0
VERTEX
  5
2C0
330
2B9
100
AcDbEntity
  8
Sichtbar (ISO)
100
AcDbVertex
100
AcDb2dVertex
 10
94.4144976285723
 20
39.16641494323084
 30
0.0
  0
VERTEX
  5
2C1
330
2B9
100
AcDbEntity
  8
Sichtbar (ISO)
100
AcDbVertex
100
AcDb2dVertex
 10
94.30946059481563
 20
39.06268586496529
 30
0.0
  0
VERTEX
  5
2C2
330
2B9
100
AcDbEntity
  8
Sichtbar (ISO)
100
AcDbVertex
100
AcDb2dVertex
 10
94.1932884034402
 20
38.96814609218078
 30
0.0
  0
VERTEX
  5
2C3
330
2B9
100
AcDbEntity
  8
Sichtbar (ISO)
100
AcDbVertex
100
AcDb2dVertex
 10
94.06719250942652
 20
38.88254991849192
 30
0.0
  0
SEQEND
  5
2BC
330
2B9
100
AcDbEntity
  8
Sichtbar (ISO)
  0
POLYLINE
  5
2C4
330
71
100
AcDbEntity
  8
Sichtbar (ISO)
100
AcDb2dPolyline
 66
     1
 10
0.0
 20
0.0
 30
0.0
 70
   128
  0
VERTEX
  5
2C5
330
2C4
100
AcDbEntity
  8
Sichtbar (ISO)
100
AcDbVertex
100
AcDb2dVertex
 10
91.06719257643964
 20
38.88254991561876
 30
0.0
  0
VERTEX
  5
2C6
330
2C4
100
AcDbEntity
  8
Sichtbar (ISO)
100
AcDbVertex
100
AcDb2dVertex
 10
90.94115348218991
 20
38.96814629420704
 30
0.0
  0
VERTEX
  5
2C8
330
2C4
100
AcDbEntity
  8
Sichtbar (ISO)
100
AcDbVertex
100
AcDb2dVertex
 10
90.82491072242751
 20
39.06273807930968
 30
0.0
  0
VERTEX
  5
2C9
330
2C4
100
AcDbEntity
  8
Sichtbar (ISO)
100
AcDbVertex
100
AcDb2dVertex
 10
90.71970057649975
 20
39.16655359313828
 30
0.0
  0
VERTEX
  5
2CA
330
2C4
100
AcDbEntity
  8
Sichtbar (ISO)
100
AcDbVertex
100
AcDb2dVertex
 10
90.62713011944612
 20
39.27966346892453
 30
0.0
  0
VERTEX
  5
2CB
330
2C4
100
AcDbEntity
  8
Sichtbar (ISO)
100
AcDbVertex
100
AcDb2dVertex
 10
90.54880826244678
 20
39.40213729978141
 30
0.0
  0
VERTEX
  5
2CC
330
2C4
100
AcDbEntity
  8
Sichtbar (ISO)
100
AcDbVertex
100
AcDb2dVertex
 10
90.48676988864409
 20
39.53380795870444
 30
0.0
  0
VERTEX
  5
2CD
330
2C4
100
AcDbEntity
  8
Sichtbar (ISO)
100
AcDbVertex
100
AcDb2dVertex
 10
90.44330190422869
 20
39.6728949466182
 30
0.0
  0
VERTEX
  5
2CE
330
2C4
100
AcDbEntity
  8
Sichtbar (ISO)
100
AcDbVertex
100
AcDb2dVertex
 10
90.42040825849916
 20
39.81705574254201
 30
0.0
  0
SEQEND
  5
2C7
330
2C4
100
AcDbEntity
  8
Sichtbar (ISO)
  0
DIMENSION
  5
2CF
330
71
100
AcDbEntity
  8
PERMA_ROT
100
AcDbDimension
280
     0
  2
*D5
 10
40.57723299601177
 20
73.1564698888885
 30
0.0
 11
40.57723299601177
 21
79.15646988888851
 31
0.0
 70
   160
  1
max. \fAIGDT|b0|i0;\H1.2437;n\fArial|b0|i0;\H1.2500;<>
 71
     5
 42
12.00000000000001
 73
     0
 74
     0
 75
     0
  3
Standard (DIN)
100
AcDbAlignedDimension
 13
52.00129033003634
 23
85.15646988888851
 33
0.0
 14
52.00129033003634
 24
73.1564698888885
 34
0.0
 50
90.0
100
AcDbRotatedDimension
1001
ACAD
1000
DSTYLE
1002
{
1070
   172
1070
     0
1070
   289
1070
     1
1070
   271
1070
     2
1070
   272
1070
     2
1070
    48
1040
0.0
1070
    47
1040
0.0
1002
}
  0
DIMENSION
  5
3B3
330
71
100
AcDbEntity
  8
Bemaßung (ISO)
100
AcDbDimension
280
     0
  2
*D6
 10
44.00129033003636
 20
76.15646988888904
 30
0.0
 11
44.00129033003636
 21
79.15646988888902
 31
0.0
 70
   160
  1
\fAIGDT|b0|i0;\H1.2500;n\fArial|b0|i0;\H1.2500;<>
 71
     5
 42
6.0
 73
     0
 74
     0
 75
     0
  3
Standard (DIN)
100
AcDbAlignedDimension
 13
52.00129033003634
 23
82.15646988888904
 33
0.0
 14
52.00129033003634
 24
76.15646988888904
 34
0.0
 50
90.0
100
AcDbRotatedDimension
1001
ACAD
1000
DSTYLE
1002
{
1070
   172
1070
     0
1070
   289
1070
     1
1070
   271
1070
     2
1070
   272
1070
     2
1070
    48
1040
0.0
1070
    47
1040
0.0
1002
}
  0
DIMENSION
  5
495
330
71
100
AcDbEntity
  8
PERMA_ROT
100
AcDbDimension
280
     0
  2
*D7
 10
40.30750813309396
 20
98.75667518463785
 30
0.0
 11
40.30750813309395
 21
110.3066751846378
 31
0.0
 70
   160
  1
max. <>
 71
     5
 42
23.1
 73
     0
 74
     0
 75
     0
  3
Standard (DIN)
100
AcDbAlignedDimension
 13
46.45129033005246
 23
121.8566751846378
 33
0.0
 14
49.50129033005246
 24
98.75667518463785
 34
0.0
 50
270.0
100
AcDbRotatedDimension
1001
ACAD
1000
DSTYLE
1002
{
1070
   172
1070
     0
1070
   289
1070
     1
1070
   271
1070
     0
1070
   272
1070
     2
1070
    48
1040
0.0
1070
    47
1040
0.0
1002
}
  0
DIMENSION
  5
56D
330
71
100
AcDbEntity
  8
Bemaßung (ISO)
100
AcDbDimension
280
     0
  2
*D8
 10
43.45129028005252
 20
98.75667518463785
 30
0.0
 11
43.45129028005249
 21
101.1566751846378
 31
0.0
 70
   160
  1
<>
 71
     5
 42
4.799999999999981
 73
     0
 74
     1
 75
     1
  3
Standard (DIN)
100
AcDbAlignedDimension
 13
48.45129033005243
 23
103.5566751846378
 33
0.0
 14
49.50129033005246
 24
98.75667518463785
 34
0.0
 50
90.0
100
AcDbRotatedDimension
1001
ACAD
1000
DSTYLE
1002
{
1070
   172
1070
     0
1070
   271
1070
     2
1070
   272
1070
     2
1070
    48
1040
0.0
1070
    47
1040
0.0
1002
}
  0
DIMENSION
  5
657
330
71
100
AcDbEntity
  8
Bemaßung (ISO)
100
AcDbDimension
280
     0
  2
*D9
 10
55.00129033005245
 20
94.25667518463786
 30
0.0
 11
52.00129033005246
 21
94.25667518463786
 31
0.0
 70
   160
  1
M<>
 71
     5
 42
5.999999999999992
 73
     0
 74
     0
 75
     0
  3
Standard (DIN)
100
AcDbAlignedDimension
 13
49.00129033005246
 23
99.25667518463786
 33
0.0
 14
55.00129033005245
 24
99.25667518463786
 34
0.0
100
AcDbRotatedDimension
1001
ACAD
1000
DSTYLE
1002
{
1070
   172
1070
     0
1070
   289
1070
     1
1070
   271
1070
     2
1070
   272
1070
     2
1070
    48
1040
0.0
1070
    47
1040
0.0
1002
}
  0
LINE
  5
739
330
71
100
AcDbEntity
  8
Mittelpunktmarkierung (ISO)
  6
CHAIN
 48
23.99096870422363
100
AcDbLine
 10
59.25129033003635
 20
79.15646988888851
 30
0.0
 11
44.75129033003635
 21
79.15646988888851
 31
0.0
  0
LINE
  5
73A
330
71
100
AcDbEntity
  8
Mittelpunktmarkierung (ISO)
  6
CHAIN
 48
23.99096870422363
100
AcDbLine
 10
52.00129033003634
 20
86.40646988888851
 30
0.0
 11
52.00129033003634
 21
71.9064698888885
 31
0.0
  0
LINE
  5
73B
330
71
100
AcDbEntity
  8
Mittellinie (ISO)
  6
CHAIN
 48
23.99096870422363
100
AcDbLine
 10
52.00129033005246
 20
97.30928500600995
 30
0.0
 11
52.00129033005246
 21
123.0280949658749
 31
0.0
  0
MTEXT
  5
73C
330
71
100
AcDbEntity
  8
Symbol (ISO)
 62
     1
420
 16711680
100
AcDbMText
 10
37.90516805264585
 20
115.3565849821394
 30
0.0
 40
1.25
 41
0.0
 46
0.0
 71
     1
 72
     1
  1
{\fArial|b1|i0;\H1.2500;C}
  7
Notiztext (DIN)
 73
     1
 44
1.0
  0
MTEXT
  5
73D
330
71
100
AcDbEntity
  8
Symbol (ISO)
 62
     1
420
 16711680
100
AcDbMText
 10
37.76109760487344
 20
84.62004186879855
 30
0.0
 40
1.25
 41
0.0
 46
0.0
 71
     1
 72
     1
  1
{\fArial|b1|i0;\H1.2500;C}
  7
Notiztext (DIN)
 73
     1
 44
1.0
  0
MTEXT
  5
73E
330
71
100
AcDbEntity
  8
Symbol (ISO)
 62
     1
420
 16711680
100
AcDbMText
 10
16.60366687253751
 20
60.68363749765989
 30
0.0
 40
1.25
 41
0.0
 46
0.0
 71
     1
 72
     1
  1
{\fArial|b1|i0;\H1.2500;C}
  7
Notiztext (DIN)
 73
     1
 44
1.0
  0
MTEXT
  5
73F
330
71
100
AcDbEntity
  8
Symbol (ISO)
 62
     1
420
 16711680
100
AcDbMText
 10
30.24285177358996
 20
39.7002770808135
 30
0.0
 40
1.25
 41
0.0
 46
0.0
 71
     1
 72
     1
  1
{\fArial|b1|i0;\H1.2500;C}
  7
Notiztext (DIN)
 73
     1
 44
1.0
  0
CIRCLE
  5
740
330
71
100
AcDbEntity
  8
Skizziergeometrie (ISO)
100
AcDbCircle
 10
38.50373545044524
 20
114.6917982323609
 30
0.0
 40
0.8750000000000007
  0
CIRCLE
  5
741
330
71
100
AcDbEntity
  8
Skizziergeometrie (ISO)
100
AcDbCircle
 10
38.38040301485673
 20
83.98827600059178
 30
0.0
 40
0.8750000000000053
  0
CIRCLE
  5
742
330
71
100
AcDbEntity
  8
Skizziergeometrie (ISO)
100
AcDbCircle
 10
17.27811472560328
 20
60.01802965618773
 30
0.0
 40
0.8750000000000019
  0
CIRCLE
  5
743
330
71
100
AcDbEntity
  8
Skizziergeometrie (ISO)
100
AcDbCircle
 10
30.83943054898492
 20
39.05506413466434
 30
0.0
 40
0.8749999999999959
  0
MTEXT
  5
744
330
71
100
AcDbEntity
  8
Symbol (ISO)
100
AcDbMText
 10
73.20140798243667
 20
10.78338110975096
 30
0.0
 40
1.00000001490116
 41
35.87195158004761
 46
0.0
 71
     2
 72
     1
  1
{\fArial|b1|i0;\H1.0000;Schlauchanschluss M6a für Schlauch aØ6mm gerade/\P\fArial|b1|i1;\H1.0000;Tube connector M6o for tube oØ6mm straight}
  7
Notiztext (DIN)
 73
     2
 44
0.9442214369773862
  0
ENDSEC
  0
SECTION
  2
OBJECTS
  0
DICTIONARY
  5
C
330
0
100
AcDbDictionary
281
     1
  3
ACAD_CIP_PREVIOUS_PRODUCT_INFO
350
746
  3
ACAD_COLOR
350
63
  3
ACAD_DETAILVIEWSTYLE
350
6B
  3
ACAD_GROUP
350
D
  3
ACAD_LAYOUT
350
62
  3
ACAD_MATERIAL
350
10
  3
ACAD_MLEADERSTYLE
350
66
  3
ACAD_MLINESTYLE
350
5F
  3
ACAD_PLOTSETTINGS
350
61
  3
ACAD_PLOTSTYLENAME
350
E
  3
ACAD_SCALELIST
350
42
  3
ACAD_SECTIONVIEWSTYLE
350
68
  3
ACAD_TABLESTYLE
350
64
  3
ACAD_VISUALSTYLE
350
29
  3
ACDB_RECOMPOSE_DATA
350
95C
  3
AcDbVariableDictionary
350
747
  0
DICTIONARY
  5
74F
330
1D0
100
AcDbDictionary
280
     1
281
     1
  3
ACAD_MTEXT_2008_RT
360
8A1
  0
DICTIONARY
  5
751
330
1D3
100
AcDbDictionary
280
     1
281
     1
  3
ACAD_MLATT
360
8A4
  3
ACAD_XREC_ROUNDTRIP
360
8A3
  0
DICTIONARY
  5
754
330
1D6
100
AcDbDictionary
280
     1
281
     1
  3
ACAD_MLATT
360
8A6
  3
ACAD_XREC_ROUNDTRIP
360
8A5
  0
DICTIONARY
  5
757
330
1D8
100
AcDbDictionary
280
     1
281
     1
  3
ACAD_MLATT
360
8A8
  3
ACAD_XREC_ROUNDTRIP
360
8A7
  0
DICTIONARY
  5
75A
330
1D9
100
AcDbDictionary
280
     1
281
     1
  3
ACAD_MLATT
360
8AA
  3
ACAD_XREC_ROUNDTRIP
360
8A9
  0
DICTIONARY
  5
75D
330
1DA
100
AcDbDictionary
280
     1
281
     1
  3
ACAD_MLATT
360
8AC
  3
ACAD_XREC_ROUNDTRIP
360
8AB
  0
DICTIONARY
  5
760
330
1DB
100
AcDbDictionary
280
     1
281
     1
  3
ACAD_MLATT
360
8AE
  3
ACAD_XREC_ROUNDTRIP
360
8AD
  0
DICTIONARY
  5
763
330
1DC
100
AcDbDictionary
280
     1
281
     1
  3
ACAD_MLATT
360
8B0
  3
ACAD_XREC_ROUNDTRIP
360
8AF
  0
DICTIONARY
  5
766
330
1DD
100
AcDbDictionary
280
     1
281
     1
  3
ACAD_MLATT
360
8B2
  3
ACAD_XREC_ROUNDTRIP
360
8B1
  0
DICTIONARY
  5
769
330
1DE
100
AcDbDictionary
280
     1
281
     1
  3
ACAD_MLATT
360
8B4
  3
ACAD_XREC_ROUNDTRIP
360
8B3
  0
DICTIONARY
  5
76C
330
1DF
100
AcDbDictionary
280
     1
281
     1
  3
ACAD_MLATT
360
8B6
  3
ACAD_XREC_ROUNDTRIP
360
8B5
  0
DICTIONARY
  5
76F
330
1E0
100
AcDbDictionary
280
     1
281
     1
  3
ACAD_MLATT
360
8B8
  3
ACAD_XREC_ROUNDTRIP
360
8B7
  0
DICTIONARY
  5
772
330
1E1
100
AcDbDictionary
280
     1
281
     1
  3
ACAD_MLATT
360
8BA
  3
ACAD_XREC_ROUNDTRIP
360
8B9
  0
DICTIONARY
  5
775
330
1E2
100
AcDbDictionary
280
     1
281
     1
  3
ACAD_MLATT
360
8BC
  3
ACAD_XREC_ROUNDTRIP
360
8BB
  0
DICTIONARY
  5
778
330
1E3
100
AcDbDictionary
280
     1
281
     1
  3
ACAD_MLATT
360
8BE
  3
ACAD_XREC_ROUNDTRIP
360
8BD
  0
DICTIONARY
  5
77B
330
1E4
100
AcDbDictionary
280
     1
281
     1
  3
ACAD_MLATT
360
8C0
  3
ACAD_XREC_ROUNDTRIP
360
8BF
  0
DICTIONARY
  5
77E
330
1E5
100
AcDbDictionary
280
     1
281
     1
  3
ACAD_MLATT
360
8C2
  3
ACAD_XREC_ROUNDTRIP
360
8C1
  0
DICTIONARY
  5
781
330
1E6
100
AcDbDictionary
280
     1
281
     1
  3
ACAD_MLATT
360
8C4
  3
ACAD_XREC_ROUNDTRIP
360
8C3
  0
DICTIONARY
  5
784
330
1E7
100
AcDbDictionary
280
     1
281
     1
  3
ACAD_MLATT
360
8C6
  3
ACAD_XREC_ROUNDTRIP
360
8C5
  0
DICTIONARY
  5
787
330
1E8
100
AcDbDictionary
280
     1
281
     1
  3
ACAD_MLATT
360
8C8
  3
ACAD_XREC_ROUNDTRIP
360
8C7
  0
DICTIONARY
  5
78A
330
1E9
100
AcDbDictionary
280
     1
281
     1
  3
ACAD_MLATT
360
8CA
  3
ACAD_XREC_ROUNDTRIP
360
8C9
  0
DICTIONARY
  5
78D
330
1EA
100
AcDbDictionary
280
     1
281
     1
  3
ACAD_MLATT
360
8CC
  3
ACAD_XREC_ROUNDTRIP
360
8CB
  0
DICTIONARY
  5
790
330
1EB
100
AcDbDictionary
280
     1
281
     1
  3
ACAD_MLATT
360
8CE
  3
ACAD_XREC_ROUNDTRIP
360
8CD
  0
DICTIONARY
  5
793
330
1EC
100
AcDbDictionary
280
     1
281
     1
  3
ACAD_MLATT
360
8D0
  3
ACAD_XREC_ROUNDTRIP
360
8CF
  0
DICTIONARY
  5
796
330
1ED
100
AcDbDictionary
280
     1
281
     1
  3
ACAD_MLATT
360
8D2
  3
ACAD_XREC_ROUNDTRIP
360
8D1
  0
DICTIONARY
  5
799
330
1EE
100
AcDbDictionary
280
     1
281
     1
  3
ACAD_MLATT
360
8D4
  3
ACAD_XREC_ROUNDTRIP
360
8D3
  0
DICTIONARY
  5
79C
330
1EF
100
AcDbDictionary
280
     1
281
     1
  3
ACAD_MLATT
360
8D6
  3
ACAD_XREC_ROUNDTRIP
360
8D5
  0
DICTIONARY
  5
79F
330
1F0
100
AcDbDictionary
280
     1
281
     1
  3
ACAD_MLATT
360
8D8
  3
ACAD_XREC_ROUNDTRIP
360
8D7
  0
DICTIONARY
  5
7A2
330
1F1
100
AcDbDictionary
280
     1
281
     1
  3
ACAD_MLATT
360
8DA
  3
ACAD_XREC_ROUNDTRIP
360
8D9
  0
DICTIONARY
  5
7A5
330
1F2
100
AcDbDictionary
280
     1
281
     1
  3
ACAD_MLATT
360
8DC
  3
ACAD_XREC_ROUNDTRIP
360
8DB
  0
DICTIONARY
  5
7A8
330
1F3
100
AcDbDictionary
280
     1
281
     1
  3
ACAD_MLATT
360
8DE
  3
ACAD_XREC_ROUNDTRIP
360
8DD
  0
DICTIONARY
  5
7AB
330
1F4
100
AcDbDictionary
280
     1
281
     1
  3
ACAD_MLATT
360
8E0
  3
ACAD_XREC_ROUNDTRIP
360
8DF
  0
DICTIONARY
  5
7AE
330
1F5
100
AcDbDictionary
280
     1
281
     1
  3
ACAD_MLATT
360
8E2
  3
ACAD_XREC_ROUNDTRIP
360
8E1
  0
DICTIONARY
  5
7B1
330
1F6
100
AcDbDictionary
280
     1
281
     1
  3
ACAD_MLATT
360
8E4
  3
ACAD_XREC_ROUNDTRIP
360
8E3
  0
DICTIONARY
  5
7B4
330
1F7
100
AcDbDictionary
280
     1
281
     1
  3
ACAD_MLATT
360
8E6
  3
ACAD_XREC_ROUNDTRIP
360
8E5
  0
DICTIONARY
  5
7B7
330
1F9
100
AcDbDictionary
280
     1
281
     1
  3
ACAD_MLATT
360
8E8
  3
ACAD_XREC_ROUNDTRIP
360
8E7
  0
DICTIONARY
  5
7BA
330
1FA
100
AcDbDictionary
280
     1
281
     1
  3
ACAD_MLATT
360
8EA
  3
ACAD_XREC_ROUNDTRIP
360
8E9
  0
DICTIONARY
  5
7BD
330
1FC
100
AcDbDictionary
280
     1
281
     1
  3
ACAD_MLATT
360
8EC
  3
ACAD_XREC_ROUNDTRIP
360
8EB
  0
DICTIONARY
  5
7C0
330
1FD
100
AcDbDictionary
280
     1
281
     1
  3
ACAD_MLATT
360
8EE
  3
ACAD_XREC_ROUNDTRIP
360
8ED
  0
DICTIONARY
  5
7C3
330
1FE
100
AcDbDictionary
280
     1
281
     1
  3
ACAD_MLATT
360
8F0
  3
ACAD_XREC_ROUNDTRIP
360
8EF
  0
DICTIONARY
  5
7C6
330
1FF
100
AcDbDictionary
280
     1
281
     1
  3
ACAD_MLATT
360
8F2
  3
ACAD_XREC_ROUNDTRIP
360
8F1
  0
DICTIONARY
  5
7C9
330
201
100
AcDbDictionary
280
     1
281
     1
  3
ACAD_MLATT
360
8F4
  3
ACAD_XREC_ROUNDTRIP
360
8F3
  0
DICTIONARY
  5
7CC
330
202
100
AcDbDictionary
280
     1
281
     1
  3
ACAD_MLATT
360
8F6
  3
ACAD_XREC_ROUNDTRIP
360
8F5
  0
DICTIONARY
  5
7CF
330
203
100
AcDbDictionary
280
     1
281
     1
  3
ACAD_MLATT
360
8F8
  3
ACAD_XREC_ROUNDTRIP
360
8F7
  0
DICTIONARY
  5
7D2
330
204
100
AcDbDictionary
280
     1
281
     1
  3
ACAD_MLATT
360
8FA
  3
ACAD_XREC_ROUNDTRIP
360
8F9
  0
DICTIONARY
  5
7D5
330
205
100
AcDbDictionary
280
     1
281
     1
  3
ACAD_MLATT
360
8FC
  3
ACAD_XREC_ROUNDTRIP
360
8FB
  0
DICTIONARY
  5
7D8
330
206
100
AcDbDictionary
280
     1
281
     1
  3
ACAD_MLATT
360
8FE
  3
ACAD_XREC_ROUNDTRIP
360
8FD
  0
DICTIONARY
  5
7DB
330
209
100
AcDbDictionary
280
     1
281
     1
  3
ACAD_MLATT
360
900
  3
ACAD_XREC_ROUNDTRIP
360
8FF
  0
DICTIONARY
  5
7DE
330
20A
100
AcDbDictionary
280
     1
281
     1
  3
ACAD_MLATT
360
902
  3
ACAD_XREC_ROUNDTRIP
360
901
  0
DICTIONARY
  5
7E1
330
20C
100
AcDbDictionary
280
     1
281
     1
  3
ACAD_MLATT
360
904
  3
ACAD_XREC_ROUNDTRIP
360
903
  0
DICTIONARY
  5
7E4
330
20D
100
AcDbDictionary
280
     1
281
     1
  3
ACAD_MLATT
360
906
  3
ACAD_XREC_ROUNDTRIP
360
905
  0
DICTIONARY
  5
7E7
330
20E
100
AcDbDictionary
280
     1
281
     1
  3
ACAD_MLATT
360
908
  3
ACAD_XREC_ROUNDTRIP
360
907
  0
DICTIONARY
  5
7EA
330
20F
100
AcDbDictionary
280
     1
281
     1
  3
ACAD_MLATT
360
90A
  3
ACAD_XREC_ROUNDTRIP
360
909
  0
DICTIONARY
  5
7ED
330
210
100
AcDbDictionary
280
     1
281
     1
  3
ACAD_MLATT
360
90C
  3
ACAD_XREC_ROUNDTRIP
360
90B
  0
DICTIONARY
  5
7F0
330
211
100
AcDbDictionary
280
     1
281
     1
  3
ACAD_MLATT
360
90E
  3
ACAD_XREC_ROUNDTRIP
360
90D
  0
DICTIONARY
  5
7F3
330
212
100
AcDbDictionary
280
     1
281
     1
  3
ACAD_MLATT
360
910
  3
ACAD_XREC_ROUNDTRIP
360
90F
  0
DICTIONARY
  5
7F6
330
213
100
AcDbDictionary
280
     1
281
     1
  3
ACAD_MLATT
360
912
  3
ACAD_XREC_ROUNDTRIP
360
911
  0
DICTIONARY
  5
7F9
330
214
100
AcDbDictionary
280
     1
281
     1
  3
ACAD_MLATT
360
914
  3
ACAD_XREC_ROUNDTRIP
360
913
  0
DICTIONARY
  5
7FC
330
215
100
AcDbDictionary
280
     1
281
     1
  3
ACAD_MLATT
360
916
  3
ACAD_XREC_ROUNDTRIP
360
915
  0
DICTIONARY
  5
7FF
330
216
100
AcDbDictionary
280
     1
281
     1
  3
ACAD_MLATT
360
918
  3
ACAD_XREC_ROUNDTRIP
360
917
  0
DICTIONARY
  5
802
330
217
100
AcDbDictionary
280
     1
281
     1
  3
ACAD_MLATT
360
91A
  3
ACAD_XREC_ROUNDTRIP
360
919
  0
DICTIONARY
  5
805
330
218
100
AcDbDictionary
280
     1
281
     1
  3
ACAD_MLATT
360
91C
  3
ACAD_XREC_ROUNDTRIP
360
91B
  0
DICTIONARY
  5
808
330
219
100
AcDbDictionary
280
     1
281
     1
  3
ACAD_MLATT
360
91E
  3
ACAD_XREC_ROUNDTRIP
360
91D
  0
DICTIONARY
  5
80B
330
21A
100
AcDbDictionary
280
     1
281
     1
  3
ACAD_MLATT
360
920
  3
ACAD_XREC_ROUNDTRIP
360
91F
  0
DICTIONARY
  5
80E
330
21B
100
AcDbDictionary
280
     1
281
     1
  3
ACAD_MLATT
360
922
  3
ACAD_XREC_ROUNDTRIP
360
921
  0
DICTIONARY
  5
811
330
21C
100
AcDbDictionary
280
     1
281
     1
  3
ACAD_MLATT
360
924
  3
ACAD_XREC_ROUNDTRIP
360
923
  0
DICTIONARY
  5
814
330
21D
100
AcDbDictionary
280
     1
281
     1
  3
ACAD_MLATT
360
926
  3
ACAD_XREC_ROUNDTRIP
360
925
  0
DICTIONARY
  5
817
330
21E
100
AcDbDictionary
280
     1
281
     1
  3
ACAD_MLATT
360
928
  3
ACAD_XREC_ROUNDTRIP
360
927
  0
DICTIONARY
  5
81A
330
21F
100
AcDbDictionary
280
     1
281
     1
  3
ACAD_MLATT
360
92A
  3
ACAD_XREC_ROUNDTRIP
360
929
  0
DICTIONARY
  5
81D
330
220
100
AcDbDictionary
280
     1
281
     1
  3
ACAD_MLATT
360
92C
  3
ACAD_XREC_ROUNDTRIP
360
92B
  0
DICTIONARY
  5
820
330
221
100
AcDbDictionary
280
     1
281
     1
  3
ACAD_MLATT
360
92E
  3
ACAD_XREC_ROUNDTRIP
360
92D
  0
DICTIONARY
  5
823
330
222
100
AcDbDictionary
280
     1
281
     1
  3
ACAD_MLATT
360
930
  3
ACAD_XREC_ROUNDTRIP
360
92F
  0
DICTIONARY
  5
826
330
223
100
AcDbDictionary
280
     1
281
     1
  3
ACAD_MLATT
360
932
  3
ACAD_XREC_ROUNDTRIP
360
931
  0
DICTIONARY
  5
829
330
224
100
AcDbDictionary
280
     1
281
     1
  3
ACAD_MLATT
360
934
  3
ACAD_XREC_ROUNDTRIP
360
933
  0
DICTIONARY
  5
82C
330
225
100
AcDbDictionary
280
     1
281
     1
  3
ACAD_MLATT
360
936
  3
ACAD_XREC_ROUNDTRIP
360
935
  0
DICTIONARY
  5
82F
330
226
100
AcDbDictionary
280
     1
281
     1
  3
ACAD_MLATT
360
938
  3
ACAD_XREC_ROUNDTRIP
360
937
  0
DICTIONARY
  5
832
330
227
100
AcDbDictionary
280
     1
281
     1
  3
ACAD_MLATT
360
93A
  3
ACAD_XREC_ROUNDTRIP
360
939
  0
DICTIONARY
  5
835
330
228
100
AcDbDictionary
280
     1
281
     1
  3
ACAD_MLATT
360
93C
  3
ACAD_XREC_ROUNDTRIP
360
93B
  0
DICTIONARY
  5
838
330
229
100
AcDbDictionary
280
     1
281
     1
  3
ACAD_MLATT
360
93E
  3
ACAD_XREC_ROUNDTRIP
360
93D
  0
DICTIONARY
  5
83B
330
22A
100
AcDbDictionary
280
     1
281
     1
  3
ACAD_MLATT
360
940
  3
ACAD_XREC_ROUNDTRIP
360
93F
  0
DICTIONARY
  5
83E
330
22B
100
AcDbDictionary
280
     1
281
     1
  3
ACAD_MLATT
360
942
  3
ACAD_XREC_ROUNDTRIP
360
941
  0
DICTIONARY
  5
841
330
22C
100
AcDbDictionary
280
     1
281
     1
  3
ACAD_MLATT
360
944
  3
ACAD_XREC_ROUNDTRIP
360
943
  0
DICTIONARY
  5
844
330
22D
100
AcDbDictionary
280
     1
281
     1
  3
ACAD_MLATT
360
946
  3
ACAD_XREC_ROUNDTRIP
360
945
  0
DICTIONARY
  5
847
330
22E
100
AcDbDictionary
280
     1
281
     1
  3
ACAD_MLATT
360
948
  3
ACAD_XREC_ROUNDTRIP
360
947
  0
DICTIONARY
  5
84A
330
22F
100
AcDbDictionary
280
     1
281
     1
  3
ACAD_MLATT
360
94A
  3
ACAD_XREC_ROUNDTRIP
360
949
  0
DICTIONARY
  5
84D
330
230
100
AcDbDictionary
280
     1
281
     1
  3
ACAD_MLATT
360
94C
  3
ACAD_XREC_ROUNDTRIP
360
94B
  0
DICTIONARY
  5
850
330
231
100
AcDbDictionary
280
     1
281
     1
  3
ACAD_MLATT
360
94E
  3
ACAD_XREC_ROUNDTRIP
360
94D
  0
DICTIONARY
  5
853
330
232
100
AcDbDictionary
280
     1
281
     1
  3
ACAD_MLATT
360
950
  3
ACAD_XREC_ROUNDTRIP
360
94F
  0
DICTIONARY
  5
856
330
233
100
AcDbDictionary
280
     1
281
     1
  3
ACAD_MLATT
360
952
  3
ACAD_XREC_ROUNDTRIP
360
951
  0
DICTIONARY
  5
859
330
234
100
AcDbDictionary
280
     1
281
     1
  3
ACAD_MLATT
360
954
  3
ACAD_XREC_ROUNDTRIP
360
953
  0
DICTIONARY
  5
85C
330
235
100
AcDbDictionary
280
     1
281
     1
  3
ACAD_MLATT
360
956
  3
ACAD_XREC_ROUNDTRIP
360
955
  0
DICTIONARY
  5
85F
330
236
100
AcDbDictionary
280
     1
281
     1
  3
ACAD_MLATT
360
958
  3
ACAD_XREC_ROUNDTRIP
360
957
  0
DICTIONARY
  5
862
330
237
100
AcDbDictionary
280
     1
281
     1
  3
ACAD_MLATT
360
95A
  3
ACAD_XREC_ROUNDTRIP
360
959
  0
XRECORD
  5
746
102
{ACAD_REACTORS
330
C
102
}
330
C
100
AcDbXrecord
280
     1
300
INVPROSA
300
2013
300
85964PDSS_2013_0F
  0
DICTIONARY
  5
63
102
{ACAD_REACTORS
330
C
102
}
330
C
100
AcDbDictionary
281
     1
  0
DICTIONARY
  5
6B
102
{ACAD_REACTORS
330
C
102
}
330
C
100
AcDbDictionary
281
     1
  3
Imperial24
350
6C
  3
Metric50
350
89D
  0
DICTIONARY
  5
D
102
{ACAD_REACTORS
330
C
102
}
330
C
100
AcDbDictionary
281
     1
  0
DICTIONARY
  5
62
102
{ACAD_REACTORS
330
C
102
}
330
C
100
AcDbDictionary
281
     1
  3
Layout1
350
70
  3
Layout2
350
78
  3
Model
350
74
  0
DICTIONARY
  5
10
102
{ACAD_REACTORS
330
C
102
}
330
C
100
AcDbDictionary
281
     1
  3
ByBlock
350
19
  3
ByLayer
350
11
  3
Global
350
21
  0
DICTIONARY
  5
66
102
{ACAD_REACTORS
330
C
102
}
330
C
100
AcDbDictionary
281
     1
  3
Standard
350
67
  0
DICTIONARY
  5
5F
102
{ACAD_REACTORS
330
C
102
}
330
C
100
AcDbDictionary
281
     1
  3
Standard
350
60
  0
DICTIONARY
  5
61
102
{ACAD_REACTORS
330
C
102
}
330
C
100
AcDbDictionary
281
     1
  0
ACDBDICTIONARYWDFLT
  5
E
102
{ACAD_REACTORS
330
C
102
}
330
C
100
AcDbDictionary
281
     1
  3
Normal
350
F
100
AcDbDictionaryWithDefault
340
F
  0
DICTIONARY
  5
42
102
{ACAD_REACTORS
330
C
102
}
330
C
100
AcDbDictionary
281
     1
  3
A0
350
43
  3
A1
350
44
  3
A2
350
45
  3
A3
350
46
  3
A4
350
47
  3
A5
350
48
  3
A6
350
49
  3
A7
350
4A
  3
A8
350
4B
  3
A9
350
4C
  3
B0
350
4D
  3
B1
350
4E
  3
B2
350
4F
  3
B3
350
50
  3
B4
350
51
  3
B5
350
52
  3
B6
350
53
  0
DICTIONARY
  5
68
102
{ACAD_REACTORS
330
C
102
}
330
C
100
AcDbDictionary
281
     1
  3
Imperial24
350
6A
  3
Metric50
350
89C
  0
DICTIONARY
  5
64
102
{ACAD_REACTORS
330
C
102
}
330
C
100
AcDbDictionary
281
     1
  3
Standard
350
65
  0
DICTIONARY
  5
29
102
{ACAD_REACTORS
330
C
102
}
330
C
100
AcDbDictionary
281
     1
  3
2dWireframe
350
2F
  3
Basic
350
2E
  3
Brighten
350
35
  3
ColorChange
350
39
  3
Conceptual
350
32
  3
Dim
350
34
  3
EdgeColorOff
350
41
  3
Facepattern
350
38
  3
Flat
350
2A
  3
FlatWithEdges
350
2B
  3
Gouraud
350
2C
  3
GouraudWithEdges
350
2D
  3
Hidden
350
31
  3
JitterOff
350
3F
  3
Linepattern
350
37
  3
OverhangOff
350
40
  3
Realistic
350
33
  3
Shaded
350
3E
  3
Shaded with edges
350
3D
  3
Shades of Gray
350
3A
  3
Sketchy
350
3B
  3
Thicken
350
36
  3
Wireframe
350
30
  3
X-Ray
350
3C
  0
XRECORD
  5
95C
102
{ACAD_REACTORS
330
C
102
}
330
C
100
AcDbXrecord
280
     1
 90
        1
330
65
330
1D0
330
1D3
330
1D6
330
1D8
330
1D9
330
1DA
330
1DB
330
1DC
330
1DD
330
1DE
330
1DF
330
1E0
330
1E1
330
1E2
330
1E3
330
1E4
330
1E5
330
1E6
330
1E7
330
1E8
330
1E9
330
1EA
330
1EB
330
1EC
330
1ED
330
1EE
330
1EF
330
1F0
330
1F1
330
1F2
330
1F3
330
1F4
330
1F5
330
1F6
330
1F7
330
1F9
330
1FA
330
1FC
330
1FD
330
1FE
330
1FF
330
201
330
202
330
203
330
204
330
205
330
206
330
209
330
20A
330
20C
330
20D
330
20E
330
20F
330
210
330
211
330
212
330
213
330
214
330
215
330
216
330
217
330
218
330
219
330
21A
330
21B
330
21C
330
21D
330
21E
330
21F
330
220
330
221
330
222
330
223
330
224
330
225
330
226
330
227
330
228
330
229
330
22A
330
22B
330
22C
330
22D
330
22E
330
22F
330
230
330
231
330
232
330
233
330
234
330
235
330
236
330
237
  0
DICTIONARY
  5
747
102
{ACAD_REACTORS
330
C
102
}
330
C
100
AcDbDictionary
281
     1
  3
CANNOSCALE
350
74C
  3
CMLEADERSTYLE
350
749
  3
CTABLESTYLE
350
748
  3
CVIEWDETAILSTYLE
350
74A
  3
CVIEWSECTIONSTYLE
350
74B
  0
XRECORD
  5
8A1
102
{ACAD_REACTORS
330
74F
102
}
330
74F
100
AcDbXrecord
280
     1
 40
1889884.0
  1
\pxsm0.94;\fArial|b1|i0;\H2.0000;perma-tec\fArial|b1|i0;\H1.0000; \fArial|b0|i0;\H1.5000;GmbH & Co. KG\P\fArial|b0|i0;\H1.4500;Hammelburger Str.21                      Tel. : +49 9704 609-0\P97717 EUERDORF / GERMANY    Fax : +49 9704 609-50
  0
XRECORD
  5
8A4
102
{ACAD_REACTORS
330
751
102
}
330
751
100
AcDbXrecord
280
     1
 70
     4
 70
     0
 70
     0
 40
1.0
  2
Blattgröße
  1
Embedded Object
 10
319.4666671943597
 20
121.1607299432635
 30
0.0
 40
2.5
 41
19.87483501434326
 46
0.0
 71
     5
 72
     5
  1
A4
  7
Notiztext (DIN)
 73
     1
 44
1.0
  0
XRECORD
  5
8A3
102
{ACAD_REACTORS
330
751
102
}
330
751
100
AcDbXrecord
280
     1
102
ACAD_MATT_HEIGHT
140
2.5
  0
XRECORD
  5
8A6
102
{ACAD_REACTORS
330
754
102
}
330
754
100
AcDbXrecord
280
     1
 70
     4
 70
     0
 70
     0
 40
1.0
  2
Blattnummer
  1
Embedded Object
 10
320.2520684510879
 20
127.5905253810919
 30
0.0
 40
5.0
 41
44.98144626617431
 46
0.0
 71
     5
 72
     5
  1
1 
  7
Textstil143
 73
     1
 44
1.0
  0
XRECORD
  5
8A5
102
{ACAD_REACTORS
330
754
102
}
330
754
100
AcDbXrecord
280
     1
102
ACAD_MATT_HEIGHT
140
5.0
  0
XRECORD
  5
8A8
102
{ACAD_REACTORS
330
757
102
}
330
757
100
AcDbXrecord
280
     1
 70
     4
 70
     0
 70
     0
 40
1.0
  2
Status1
  1
Embedded Object
 10
141.2627883584022
 20
120.4632056155221
 30
0.0
 40
1.800000071525573
 41
6.714345249176076
 46
0.0
 71
     5
 72
     5
  1
B
  7
Textstil104
 73
     1
 44
1.0
  0
XRECORD
  5
8A7
102
{ACAD_REACTORS
330
757
102
}
330
757
100
AcDbXrecord
280
     1
102
ACAD_MATT_HEIGHT
140
1.800000071525573
  0
XRECORD
  5
8AA
102
{ACAD_REACTORS
330
75A
102
}
330
75A
100
AcDbXrecord
280
     1
 70
     4
 70
     0
 70
     0
 40
1.0
  2
Änderungen1
  1
Embedded Object
 10
158.6264137958634
 20
120.4632056155222
 30
0.0
 40
1.800000071525573
 41
25.93241522021302
 46
0.0
 71
     5
 72
     5
  1
neuer Lieferant
  7
Textstil104
 73
     1
 44
1.0
  0
XRECORD
  5
8A9
102
{ACAD_REACTORS
330
75A
102
}
330
75A
100
AcDbXrecord
280
     1
102
ACAD_MATT_HEIGHT
140
1.800000071525573
  0
XRECORD
  5
8AC
102
{ACAD_REACTORS
330
75D
102
}
330
75D
100
AcDbXrecord
280
     1
 70
     4
 70
     0
 70
     0
 40
1.0
  2
Datum1
  1
Embedded Object
 10
177.3127883584022
 20
120.4632056155221
 30
0.0
 40
1.800000071525573
 41
11.34531851480858
 46
0.0
 71
     5
 72
     5
  1
20.11.08
  7
Textstil104
 73
     1
 44
1.0
  0
XRECORD
  5
8AB
102
{ACAD_REACTORS
330
75D
102
}
330
75D
100
AcDbXrecord
280
     1
102
ACAD_MATT_HEIGHT
140
1.800000071525573
  0
XRECORD
  5
8AE
102
{ACAD_REACTORS
330
760
102
}
330
760
100
AcDbXrecord
280
     1
 70
     4
 70
     0
 70
     0
 40
1.0
  2
Name1
  1
Embedded Object
 10
187.3627883584022
 20
120.4632056155221
 30
0.0
 40
1.800000071525573
 41
7.347608624633678
 46
0.0
 71
     5
 72
     5
  1
Bader
  7
Textstil104
 73
     1
 44
1.0
  0
XRECORD
  5
8AD
102
{ACAD_REACTORS
330
760
102
}
330
760
100
AcDbXrecord
280
     1
102
ACAD_MATT_HEIGHT
140
1.800000071525573
  0
XRECORD
  5
8B0
102
{ACAD_REACTORS
330
763
102
}
330
763
100
AcDbXrecord
280
     1
 70
     4
 70
     0
 70
     0
 40
1.0
  2
Status2
  1
Embedded Object
 10
141.2627883584022
 20
124.7132056155221
 30
0.0
 40
1.800000071525573
 41
6.608567028526798
 46
0.0
 71
     5
 72
     5
  1
C
  7
Textstil104
 73
     1
 44
1.0
  0
XRECORD
  5
8AF
102
{ACAD_REACTORS
330
763
102
}
330
763
100
AcDbXrecord
280
     1
102
ACAD_MATT_HEIGHT
140
1.800000071525573
  0
XRECORD
  5
8B2
102
{ACAD_REACTORS
330
766
102
}
330
766
100
AcDbXrecord
280
     1
 70
     4
 70
     0
 70
     0
 40
1.0
  2
Änderungen2
  1
Embedded Object
 10
158.6264137958634
 20
124.7132056155221
 30
0.0
 40
1.800000071525573
 41
25.91460926580964
 46
0.0
 71
     5
 72
     5
  1
Text ergänzt
  7
Textstil104
 73
     1
 44
1.0
  0
XRECORD
  5
8B1
102
{ACAD_REACTORS
330
766
102
}
330
766
100
AcDbXrecord
280
     1
102
ACAD_MATT_HEIGHT
140
1.800000071525573
  0
XRECORD
  5
8B4
102
{ACAD_REACTORS
330
769
102
}
330
769
100
AcDbXrecord
280
     1
 70
     4
 70
     0
 70
     0
 40
1.0
  2
Datum2
  1
Embedded Object
 10
177.3127883584022
 20
124.7132056155221
 30
0.0
 40
1.800000071525573
 41
11.34301548981597
 46
0.0
 71
     5
 72
     5
  1
21.11.13
  7
Textstil104
 73
     1
 44
1.0
  0
XRECORD
  5
8B3
102
{ACAD_REACTORS
330
769
102
}
330
769
100
AcDbXrecord
280
     1
102
ACAD_MATT_HEIGHT
140
1.800000071525573
  0
XRECORD
  5
8B6
102
{ACAD_REACTORS
330
76C
102
}
330
76C
100
AcDbXrecord
280
     1
 70
     4
 70
     0
 70
     0
 40
1.0
  2
Name2
  1
Embedded Object
 10
187.3627883584022
 20
124.7132056155221
 30
0.0
 40
1.800000071525573
 41
5.454410644512249
 46
0.0
 71
     5
 72
     5
  1
Bader
  7
Textstil104
 73
     1
 44
1.0
  0
XRECORD
  5
8B5
102
{ACAD_REACTORS
330
76C
102
}
330
76C
100
AcDbXrecord
280
     1
102
ACAD_MATT_HEIGHT
140
1.800000071525573
  0
XRECORD
  5
8B8
102
{ACAD_REACTORS
330
76F
102
}
330
76F
100
AcDbXrecord
280
     1
 70
     4
 70
     0
 70
     0
 40
1.0
  2
Status3
  1
Embedded Object
 10
141.2627883584022
 20
128.9632056155222
 30
0.0
 40
1.800000071525573
 41
6.632595015006507
 46
0.0
 71
     5
 72
     5
  1
C
  7
Textstil104
 73
     1
 44
1.0
  0
XRECORD
  5
8B7
102
{ACAD_REACTORS
330
76F
102
}
330
76F
100
AcDbXrecord
280
     1
102
ACAD_MATT_HEIGHT
140
1.800000071525573
  0
XRECORD
  5
8BA
102
{ACAD_REACTORS
330
772
102
}
330
772
100
AcDbXrecord
280
     1
 70
     4
 70
     0
 70
     0
 40
1.0
  2
Änderungen3
  1
Embedded Object
 10
158.6264137958634
 20
128.9632056155222
 30
0.0
 40
1.800000071525573
 41
26.06039472470172
 46
0.0
 71
     5
 72
     5
  1
SW entfernt
  7
Textstil104
 73
     1
 44
1.0
  0
XRECORD
  5
8B9
102
{ACAD_REACTORS
330
772
102
}
330
772
100
AcDbXrecord
280
     1
102
ACAD_MATT_HEIGHT
140
1.800000071525573
  0
XRECORD
  5
8BC
102
{ACAD_REACTORS
330
775
102
}
330
775
100
AcDbXrecord
280
     1
 70
     4
 70
     0
 70
     0
 40
1.0
  2
Datum3
  1
Embedded Object
 10
177.3127883584022
 20
128.9632056155222
 30
0.0
 40
1.800000071525573
 41
11.23388242101747
 46
0.0
 71
     5
 72
     5
  1
21.11.13
  7
Textstil104
 73
     1
 44
1.0
  0
XRECORD
  5
8BB
102
{ACAD_REACTORS
330
775
102
}
330
775
100
AcDbXrecord
280
     1
102
ACAD_MATT_HEIGHT
140
1.800000071525573
  0
XRECORD
  5
8BE
102
{ACAD_REACTORS
330
778
102
}
330
778
100
AcDbXrecord
280
     1
 70
     4
 70
     0
 70
     0
 40
1.0
  2
Name3
  1
Embedded Object
 10
187.3627883584022
 20
128.9632056155222
 30
0.0
 40
1.800000071525573
 41
5.3917823903582
 46
0.0
 71
     5
 72
     5
  1
Bader
  7
Textstil104
 73
     1
 44
1.0
  0
XRECORD
  5
8BD
102
{ACAD_REACTORS
330
778
102
}
330
778
100
AcDbXrecord
280
     1
102
ACAD_MATT_HEIGHT
140
1.800000071525573
  0
XRECORD
  5
8C0
102
{ACAD_REACTORS
330
77B
102
}
330
77B
100
AcDbXrecord
280
     1
 70
     4
 70
     0
 70
     0
 40
1.0
  2
Status4
  1
Embedded Object
 10
141.2627883584022
 20
133.2132056155222
 30
0.0
 40
1.800000071525573
 41
6.688366328908267
 46
0.0
 71
     5
 72
     5
  1
C
  7
Textstil104
 73
     1
 44
1.0
  0
XRECORD
  5
8BF
102
{ACAD_REACTORS
330
77B
102
}
330
77B
100
AcDbXrecord
280
     1
102
ACAD_MATT_HEIGHT
140
1.800000071525573
  0
XRECORD
  5
8C2
102
{ACAD_REACTORS
330
77E
102
}
330
77E
100
AcDbXrecord
280
     1
 70
     4
 70
     0
 70
     0
 40
1.0
  2
Änderungen4
  1
Embedded Object
 10
158.6264137958634
 20
133.2132056155222
 30
0.0
 40
1.800000071525573
 41
25.83384786890043
 46
0.0
 71
     5
 72
     5
  1
Maße in max.Maße
  7
Textstil104
 73
     1
 44
1.0
  0
XRECORD
  5
8C1
102
{ACAD_REACTORS
330
77E
102
}
330
77E
100
AcDbXrecord
280
     1
102
ACAD_MATT_HEIGHT
140
1.800000071525573
  0
XRECORD
  5
8C4
102
{ACAD_REACTORS
330
781
102
}
330
781
100
AcDbXrecord
280
     1
 70
     4
 70
     0
 70
     0
 40
1.0
  2
Datum4
  1
Embedded Object
 10
177.3127883584022
 20
133.2132056155222
 30
0.0
 40
1.800000071525573
 41
11.19067108080422
 46
0.0
 71
     5
 72
     5
  1
21.11.13
  7
Textstil104
 73
     1
 44
1.0
  0
XRECORD
  5
8C3
102
{ACAD_REACTORS
330
781
102
}
330
781
100
AcDbXrecord
280
     1
102
ACAD_MATT_HEIGHT
140
1.800000071525573
  0
XRECORD
  5
8C6
102
{ACAD_REACTORS
330
784
102
}
330
784
100
AcDbXrecord
280
     1
 70
     4
 70
     0
 70
     0
 40
1.0
  2
Name4
  1
Embedded Object
 10
187.3627883584022
 20
133.2132056155222
 30
0.0
 40
1.800000071525573
 41
5.278027239458253
 46
0.0
 71
     5
 72
     5
  1
Bader
  7
Textstil104
 73
     1
 44
1.0
  0
XRECORD
  5
8C5
102
{ACAD_REACTORS
330
784
102
}
330
784
100
AcDbXrecord
280
     1
102
ACAD_MATT_HEIGHT
140
1.800000071525573
  0
XRECORD
  5
8C8
102
{ACAD_REACTORS
330
787
102
}
330
787
100
AcDbXrecord
280
     1
 70
     4
 70
     0
 70
     0
 40
1.0
  2
Status5
  1
Embedded Object
 10
141.2627883584022
 20
137.4632056155222
 30
0.0
 40
1.800000071525573
 41
6.699926087567503
 46
0.0
 71
     5
 72
     5
  1
C
  7
Textstil104
 73
     1
 44
1.0
  0
XRECORD
  5
8C7
102
{ACAD_REACTORS
330
787
102
}
330
787
100
AcDbXrecord
280
     1
102
ACAD_MATT_HEIGHT
140
1.800000071525573
  0
XRECORD
  5
8CA
102
{ACAD_REACTORS
330
78A
102
}
330
78A
100
AcDbXrecord
280
     1
 70
     4
 70
     0
 70
     0
 40
1.0
  2
Änderungen5
  1
Embedded Object
 10
158.6264137958634
 20
137.4632056155222
 30
0.0
 40
1.800000071525573
 41
25.86608902356204
 46
0.0
 71
     5
 72
     5
  1
Art.Nr. neu hinzu
  7
Textstil104
 73
     1
 44
1.0
  0
XRECORD
  5
8C9
102
{ACAD_REACTORS
330
78A
102
}
330
78A
100
AcDbXrecord
280
     1
102
ACAD_MATT_HEIGHT
140
1.800000071525573
  0
XRECORD
  5
8CC
102
{ACAD_REACTORS
330
78D
102
}
330
78D
100
AcDbXrecord
280
     1
 70
     4
 70
     0
 70
     0
 40
1.0
  2
Datum5
  1
Embedded Object
 10
177.3127883584022
 20
137.4632056155222
 30
0.0
 40
1.800000071525573
 41
11.09095292449815
 46
0.0
 71
     5
 72
     5
  1
21.11.13
  7
Textstil104
 73
     1
 44
1.0
  0
XRECORD
  5
8CB
102
{ACAD_REACTORS
330
78D
102
}
330
78D
100
AcDbXrecord
280
     1
102
ACAD_MATT_HEIGHT
140
1.800000071525573
  0
XRECORD
  5
8CE
102
{ACAD_REACTORS
330
790
102
}
330
790
100
AcDbXrecord
280
     1
 70
     4
 70
     0
 70
     0
 40
1.0
  2
Name5
  1
Embedded Object
 10
187.3627883584022
 20
137.4632056155222
 30
0.0
 40
1.800000071525573
 41
5.405852104200903
 46
0.0
 71
     5
 72
     5
  1
Bader
  7
Textstil104
 73
     1
 44
1.0
  0
XRECORD
  5
8CD
102
{ACAD_REACTORS
330
790
102
}
330
790
100
AcDbXrecord
280
     1
102
ACAD_MATT_HEIGHT
140
1.800000071525573
  0
XRECORD
  5
8D0
102
{ACAD_REACTORS
330
793
102
}
330
793
100
AcDbXrecord
280
     1
 70
     4
 70
     0
 70
     0
 40
1.0
  2
Status6
  1
Embedded Object
 10
141.2627883584022
 20
141.7132056155222
 30
0.0
 40
1.800000071525573
 41
6.626058417315795
 46
0.0
 71
     5
 72
     5
  1

  7
Textstil104
 73
     1
 44
1.0
  0
XRECORD
  5
8CF
102
{ACAD_REACTORS
330
793
102
}
330
793
100
AcDbXrecord
280
     1
102
ACAD_MATT_HEIGHT
140
1.800000071525573
  0
XRECORD
  5
8D2
102
{ACAD_REACTORS
330
796
102
}
330
796
100
AcDbXrecord
280
     1
 70
     4
 70
     0
 70
     0
 40
1.0
  2
Änderungen6
  1
Embedded Object
 10
158.6264137958634
 20
141.7132056155222
 30
0.0
 40
1.800000071525573
 41
25.88545129259238
 46
0.0
 71
     5
 72
     5
  1

  7
Textstil104
 73
     1
 44
1.0
  0
XRECORD
  5
8D1
102
{ACAD_REACTORS
330
796
102
}
330
796
100
AcDbXrecord
280
     1
102
ACAD_MATT_HEIGHT
140
1.800000071525573
  0
XRECORD
  5
8D4
102
{ACAD_REACTORS
330
799
102
}
330
799
100
AcDbXrecord
280
     1
 70
     4
 70
     0
 70
     0
 40
1.0
  2
Datum6
  1
Embedded Object
 10
177.3127883584022
 20
141.7132056155222
 30
0.0
 40
1.800000071525573
 41
11.11940549376804
 46
0.0
 71
     5
 72
     5
  1

  7
Textstil104
 73
     1
 44
1.0
  0
XRECORD
  5
8D3
102
{ACAD_REACTORS
330
799
102
}
330
799
100
AcDbXrecord
280
     1
102
ACAD_MATT_HEIGHT
140
1.800000071525573
  0
XRECORD
  5
8D6
102
{ACAD_REACTORS
330
79C
102
}
330
79C
100
AcDbXrecord
280
     1
 70
     4
 70
     0
 70
     0
 40
1.0
  2
Name6
  1
Embedded Object
 10
187.3627883584022
 20
141.7132056155222
 30
0.0
 40
1.800000071525573
 41
5.428906415697838
 46
0.0
 71
     5
 72
     5
  1

  7
Textstil104
 73
     1
 44
1.0
  0
XRECORD
  5
8D5
102
{ACAD_REACTORS
330
79C
102
}
330
79C
100
AcDbXrecord
280
     1
102
ACAD_MATT_HEIGHT
140
1.800000071525573
  0
XRECORD
  5
8D8
102
{ACAD_REACTORS
330
79F
102
}
330
79F
100
AcDbXrecord
280
     1
 70
     4
 70
     0
 70
     0
 40
1.0
  2
Status7
  1
Embedded Object
 10
141.2627883584022
 20
145.9632056155222
 30
0.0
 40
1.800000071525573
 41
6.754285458610205
 46
0.0
 71
     5
 72
     5
  1

  7
Textstil104
 73
     1
 44
1.0
  0
XRECORD
  5
8D7
102
{ACAD_REACTORS
330
79F
102
}
330
79F
100
AcDbXrecord
280
     1
102
ACAD_MATT_HEIGHT
140
1.800000071525573
  0
XRECORD
  5
8DA
102
{ACAD_REACTORS
330
7A2
102
}
330
7A2
100
AcDbXrecord
280
     1
 70
     4
 70
     0
 70
     0
 40
1.0
  2
Änderungen7
  1
Embedded Object
 10
158.6264137958634
 20
145.9632056155222
 30
0.0
 40
1.800000071525573
 41
25.83655907845781
 46
0.0
 71
     5
 72
     5
  1

  7
Textstil104
 73
     1
 44
1.0
  0
XRECORD
  5
8D9
102
{ACAD_REACTORS
330
7A2
102
}
330
7A2
100
AcDbXrecord
280
     1
102
ACAD_MATT_HEIGHT
140
1.800000071525573
  0
XRECORD
  5
8DC
102
{ACAD_REACTORS
330
7A5
102
}
330
7A5
100
AcDbXrecord
280
     1
 70
     4
 70
     0
 70
     0
 40
1.0
  2
Datum7
  1
Embedded Object
 10
177.3127883584022
 20
145.9632056155222
 30
0.0
 40
1.800000071525573
 41
11.21532305394055
 46
0.0
 71
     5
 72
     5
  1

  7
Textstil104
 73
     1
 44
1.0
  0
XRECORD
  5
8DB
102
{ACAD_REACTORS
330
7A5
102
}
330
7A5
100
AcDbXrecord
280
     1
102
ACAD_MATT_HEIGHT
140
1.800000071525573
  0
XRECORD
  5
8DE
102
{ACAD_REACTORS
330
7A8
102
}
330
7A8
100
AcDbXrecord
280
     1
 70
     4
 70
     0
 70
     0
 40
1.0
  2
Name7
  1
Embedded Object
 10
187.3627883584022
 20
145.9632056155222
 30
0.0
 40
1.800000071525573
 41
5.420890775717096
 46
0.0
 71
     5
 72
     5
  1

  7
Textstil104
 73
     1
 44
1.0
  0
XRECORD
  5
8DD
102
{ACAD_REACTORS
330
7A8
102
}
330
7A8
100
AcDbXrecord
280
     1
102
ACAD_MATT_HEIGHT
140
1.800000071525573
  0
XRECORD
  5
8E0
102
{ACAD_REACTORS
330
7AB
102
}
330
7AB
100
AcDbXrecord
280
     1
 70
     4
 70
     0
 70
     0
 40
1.0
  2
Status8
  1
Embedded Object
 10
141.2627883584022
 20
150.2132056155222
 30
0.0
 40
1.800000071525573
 41
7.072581688594183
 46
0.0
 71
     5
 72
     5
  1

  7
Textstil104
 73
     1
 44
1.0
  0
XRECORD
  5
8DF
102
{ACAD_REACTORS
330
7AB
102
}
330
7AB
100
AcDbXrecord
280
     1
102
ACAD_MATT_HEIGHT
140
1.800000071525573
  0
XRECORD
  5
8E2
102
{ACAD_REACTORS
330
7AE
102
}
330
7AE
100
AcDbXrecord
280
     1
 70
     4
 70
     0
 70
     0
 40
1.0
  2
Änderungen8
  1
Embedded Object
 10
158.6264137958634
 20
150.2132056155222
 30
0.0
 40
1.800000071525573
 41
25.96818377206723
 46
0.0
 71
     5
 72
     5
  1

  7
Textstil104
 73
     1
 44
1.0
  0
XRECORD
  5
8E1
102
{ACAD_REACTORS
330
7AE
102
}
330
7AE
100
AcDbXrecord
280
     1
102
ACAD_MATT_HEIGHT
140
1.800000071525573
  0
XRECORD
  5
8E4
102
{ACAD_REACTORS
330
7B1
102
}
330
7B1
100
AcDbXrecord
280
     1
 70
     4
 70
     0
 70
     0
 40
1.0
  2
Datum8
  1
Embedded Object
 10
177.3127883584022
 20
150.2132056155222
 30
0.0
 40
1.800000071525573
 41
11.38711363965775
 46
0.0
 71
     5
 72
     5
  1

  7
Textstil104
 73
     1
 44
1.0
  0
XRECORD
  5
8E3
102
{ACAD_REACTORS
330
7B1
102
}
330
7B1
100
AcDbXrecord
280
     1
102
ACAD_MATT_HEIGHT
140
1.800000071525573
  0
XRECORD
  5
8E6
102
{ACAD_REACTORS
330
7B4
102
}
330
7B4
100
AcDbXrecord
280
     1
 70
     4
 70
     0
 70
     0
 40
1.0
  2
Name8
  1
Embedded Object
 10
187.3627883584022
 20
150.2132056155222
 30
0.0
 40
1.800000071525573
 41
5.452682396208246
 46
0.0
 71
     5
 72
     5
  1

  7
Textstil104
 73
     1
 44
1.0
  0
XRECORD
  5
8E5
102
{ACAD_REACTORS
330
7B4
102
}
330
7B4
100
AcDbXrecord
280
     1
102
ACAD_MATT_HEIGHT
140
1.800000071525573
  0
XRECORD
  5
8E8
102
{ACAD_REACTORS
330
7B7
102
}
330
7B7
100
AcDbXrecord
280
     1
 70
     4
 70
     0
 70
     0
 40
1.0
  2
Artikelnummer_neu
  1
Embedded Object
 10
164.8127883584022
 20
160.5882056485259
 30
0.0
 40
3.499999940395355
 41
50.99999999999997
 46
0.0
 71
     5
 72
     5
  1
101509
  7
Textstil114
 73
     1
 44
1.0
  0
XRECORD
  5
8E7
102
{ACAD_REACTORS
330
7B7
102
}
330
7B7
100
AcDbXrecord
280
     1
102
ACAD_MATT_HEIGHT
140
3.499999940395355
  0
XRECORD
  5
8EA
102
{ACAD_REACTORS
330
7BA
102
}
330
7BA
100
AcDbXrecord
280
     1
 70
     4
 70
     0
 70
     0
 40
1.0
  2
Artikelnummer_alt
  1
Embedded Object
 10
164.8127883584022
 20
156.3382056155221
 30
0.0
 40
2.5
 41
43.99999999999997
 46
0.0
 71
     2
 72
     5
  1
(27.005.036)
  7
Textstil100
 73
     1
 44
1.0
  0
XRECORD
  5
8E9
102
{ACAD_REACTORS
330
7BA
102
}
330
7BA
100
AcDbXrecord
280
     1
102
ACAD_MATT_HEIGHT
140
2.5
  0
XRECORD
  5
8EC
102
{ACAD_REACTORS
330
7BD
102
}
330
7BD
100
AcDbXrecord
280
     1
 70
     4
 70
     0
 70
     0
 40
1.0
  2
Material
  1
Embedded Object
 10
310.8360288650731
 20
165.9632056155222
 30
0.0
 40
3.000000119209288
 41
34.74493902527111
 46
0.0
 71
     5
 72
     5
  1
Messing vern.
  7
Textstil94
 73
     1
 44
1.0
  0
XRECORD
  5
8EB
102
{ACAD_REACTORS
330
7BD
102
}
330
7BD
100
AcDbXrecord
280
     1
102
ACAD_MATT_HEIGHT
140
3.000000119209288
  0
XRECORD
  5
8EE
102
{ACAD_REACTORS
330
7C0
102
}
330
7C0
100
AcDbXrecord
280
     1
 70
     4
 70
     0
 70
     0
 40
1.0
  2
Maßstab
  1
Embedded Object
 10
266.2975583892088
 20
165.9632056155222
 30
0.0
 40
3.000000119209288
 41
27.29612920574588
 46
0.0
 71
     5
 72
     5
  1
2:1 (1:1)
  7
Textstil94
 73
     1
 44
1.0
  0
XRECORD
  5
8ED
102
{ACAD_REACTORS
330
7C0
102
}
330
7C0
100
AcDbXrecord
280
     1
102
ACAD_MATT_HEIGHT
140
3.000000119209288
  0
XRECORD
  5
8F0
102
{ACAD_REACTORS
330
7C3
102
}
330
7C3
100
AcDbXrecord
280
     1
 70
     4
 70
     0
 70
     0
 40
1.0
  2
Gezeichnet_Datum
  1
Embedded Object
 10
210.3127883584022
 20
145.9632056155222
 30
0.0
 40
1.800000071525573
 41
10.4471256074499
 46
0.0
 71
     5
 72
     5
  1
21.11.13
  7
Textstil104
 73
     1
 44
1.0
  0
XRECORD
  5
8EF
102
{ACAD_REACTORS
330
7C3
102
}
330
7C3
100
AcDbXrecord
280
     1
102
ACAD_MATT_HEIGHT
140
1.800000071525573
  0
XRECORD
  5
8F2
102
{ACAD_REACTORS
330
7C6
102
}
330
7C6
100
AcDbXrecord
280
     1
 70
     4
 70
     0
 70
     0
 40
1.0
  2
Gezeichnet_Name
  1
Embedded Object
 10
227.2127883584022
 20
145.9632056155222
 30
0.0
 40
1.800000071525573
 41
18.09852783198174
 46
0.0
 71
     5
 72
     5
  1
Bader
  7
Textstil104
 73
     1
 44
1.0
  0
XRECORD
  5
8F1
102
{ACAD_REACTORS
330
7C6
102
}
330
7C6
100
AcDbXrecord
280
     1
102
ACAD_MATT_HEIGHT
140
1.800000071525573
  0
XRECORD
  5
8F4
102
{ACAD_REACTORS
330
7C9
102
}
330
7C9
100
AcDbXrecord
280
     1
 70
     4
 70
     0
 70
     0
 40
1.0
  2
Benennung
  1
Embedded Object
 10
274.0127883584021
 20
122.7378396410893
 30
0.0
 40
4.000000059604643
 41
0.0
 46
0.0
 71
     5
 72
     5
  1

  7
Textstil109
 73
     1
 44
1.0
  0
XRECORD
  5
8F3
102
{ACAD_REACTORS
330
7C9
102
}
330
7C9
100
AcDbXrecord
280
     1
102
ACAD_MATT_HEIGHT
140
4.000000059604643
  0
XRECORD
  5
8F6
102
{ACAD_REACTORS
330
7CC
102
}
330
7CC
100
AcDbXrecord
280
     1
 70
     4
 70
     0
 70
     0
 40
1.0
  2
Zeichnungsnummer
  1
Embedded Object
 10
267.5016718628334
 20
116.2132056155221
 30
0.0
 40
2.5
 41
59.0703335759867
 46
0.0
 71
     4
 72
     5
  1
AN GEA 12 C
  7
Textstil100
 73
     1
 44
1.0
  0
XRECORD
  5
8F5
102
{ACAD_REACTORS
330
7CC
102
}
330
7CC
100
AcDbXrecord
280
     1
102
ACAD_MATT_HEIGHT
140
2.5
  0
XRECORD
  5
8F8
102
{ACAD_REACTORS
330
7CF
102
}
330
7CF
100
AcDbXrecord
280
     1
 70
     4
 70
     0
 70
     0
 40
1.0
  2
Ers._für
  1
Embedded Object
 10
220.1587946285556
 20
116.2132056155221
 30
0.0
 40
2.5
 41
31.93674790530494
 46
0.0
 71
     5
 72
     5
  1
AN GEA 12 B
  7
Textstil100
 73
     1
 44
1.0
  0
XRECORD
  5
8F7
102
{ACAD_REACTORS
330
7CF
102
}
330
7CF
100
AcDbXrecord
280
     1
102
ACAD_MATT_HEIGHT
140
2.5
  0
XRECORD
  5
8FA
102
{ACAD_REACTORS
330
7D2
102
}
330
7D2
100
AcDbXrecord
280
     1
 70
     4
 70
     0
 70
     0
 40
1.0
  2
Projekt
  1
Embedded Object
 10
214.2127883584022
 20
122.7378396410892
 30
0.0
 40
4.000000059604643
 41
42.19412822251534
 46
0.0
 71
     5
 72
     5
  1
Anschlussteile
  7
Textstil109
 73
     1
 44
1.0
  0
XRECORD
  5
8F9
102
{ACAD_REACTORS
330
7D2
102
}
330
7D2
100
AcDbXrecord
280
     1
102
ACAD_MATT_HEIGHT
140
4.000000059604643
  0
XRECORD
  5
8FC
102
{ACAD_REACTORS
330
7D5
102
}
330
7D5
100
AcDbXrecord
280
     1
 70
     4
 70
     0
 70
     0
 40
1.0
  2
Kontroll_Datum
  1
Embedded Object
 10
210.3127883584023
 20
141.7132056155222
 30
0.0
 40
1.800000071525573
 41
9.601114343192731
 46
0.0
 71
     5
 72
     5
  1
22.11.13
  7
Textstil104
 73
     1
 44
1.0
  0
XRECORD
  5
8FB
102
{ACAD_REACTORS
330
7D5
102
}
330
7D5
100
AcDbXrecord
280
     1
102
ACAD_MATT_HEIGHT
140
1.800000071525573
  0
XRECORD
  5
8FE
102
{ACAD_REACTORS
330
7D8
102
}
330
7D8
100
AcDbXrecord
280
     1
 70
     4
 70
     0
 70
     0
 40
1.0
  2
Kontroll__Name
  1
Embedded Object
 10
227.2127883584022
 20
141.7132056155222
 30
0.0
 40
1.800000071525573
 41
17.61893067328372
 46
0.0
 71
     5
 72
     5
  1
Hildenbrand
  7
Textstil104
 73
     1
 44
1.0
  0
XRECORD
  5
8FD
102
{ACAD_REACTORS
330
7D8
102
}
330
7D8
100
AcDbXrecord
280
     1
102
ACAD_MATT_HEIGHT
140
1.800000071525573
  0
XRECORD
  5
900
102
{ACAD_REACTORS
330
7DB
102
}
330
7DB
100
AcDbXrecord
280
     1
 70
     2
 70
     0
 70
     0
 40
1.0
  2
Blattgröße
  1
Embedded Object
 10
95.97693941797869
 20
8.536262163870711
 30
0.0
 40
1.25
 41
9.93741750717163
 46
0.0
 71
     5
 72
     5
  1
A4
  7
Notiztext (DIN)
 73
     1
 44
1.0
  0
XRECORD
  5
8FF
102
{ACAD_REACTORS
330
7DB
102
}
330
7DB
100
AcDbXrecord
280
     1
102
ACAD_MATT_HEIGHT
140
1.25
  0
XRECORD
  5
902
102
{ACAD_REACTORS
330
7DE
102
}
330
7DE
100
AcDbXrecord
280
     1
 70
     2
 70
     0
 70
     0
 40
1.0
  2
Blattnummer
  1
Embedded Object
 10
96.36964004634279
 20
11.75115988278491
 30
0.0
 40
2.5
 41
22.49072313308716
 46
0.0
 71
     5
 72
     5
  1
1 
  7
Textstil143
 73
     1
 44
1.0
  0
XRECORD
  5
901
102
{ACAD_REACTORS
330
7DE
102
}
330
7DE
100
AcDbXrecord
280
     1
102
ACAD_MATT_HEIGHT
140
2.5
  0
XRECORD
  5
904
102
{ACAD_REACTORS
330
7E1
102
}
330
7E1
100
AcDbXrecord
280
     1
 70
     2
 70
     0
 70
     0
 40
1.0
  2
Status1
  1
Embedded Object
 10
6.874999999999964
 20
8.187500000000005
 30
0.0
 40
0.9000000357627866
 41
3.357172624588038
 46
0.0
 71
     5
 72
     5
  1
B
  7
Textstil104
 73
     1
 44
1.0
  0
XRECORD
  5
903
102
{ACAD_REACTORS
330
7E1
102
}
330
7E1
100
AcDbXrecord
280
     1
102
ACAD_MATT_HEIGHT
140
0.9000000357627866
  0
XRECORD
  5
906
102
{ACAD_REACTORS
330
7E4
102
}
330
7E4
100
AcDbXrecord
280
     1
 70
     2
 70
     0
 70
     0
 40
1.0
  2
Änderungen1
  1
Embedded Object
 10
15.55681271873055
 20
8.187500000000012
 30
0.0
 40
0.9000000357627866
 41
12.96620761010651
 46
0.0
 71
     5
 72
     5
  1
neuer Lieferant
  7
Textstil104
 73
     1
 44
1.0
  0
XRECORD
  5
905
102
{ACAD_REACTORS
330
7E4
102
}
330
7E4
100
AcDbXrecord
280
     1
102
ACAD_MATT_HEIGHT
140
0.9000000357627866
  0
XRECORD
  5
908
102
{ACAD_REACTORS
330
7E7
102
}
330
7E7
100
AcDbXrecord
280
     1
 70
     2
 70
     0
 70
     0
 40
1.0
  2
Datum1
  1
Embedded Object
 10
24.89999999999995
 20
8.187500000000005
 30
0.0
 40
0.9000000357627866
 41
5.67265925740429
 46
0.0
 71
     5
 72
     5
  1
20.11.08
  7
Textstil104
 73
     1
 44
1.0
  0
XRECORD
  5
907
102
{ACAD_REACTORS
330
7E7
102
}
330
7E7
100
AcDbXrecord
280
     1
102
ACAD_MATT_HEIGHT
140
0.9000000357627866
  0
XRECORD
  5
90A
102
{ACAD_REACTORS
330
7EA
102
}
330
7EA
100
AcDbXrecord
280
     1
 70
     2
 70
     0
 70
     0
 40
1.0
  2
Name1
  1
Embedded Object
 10
29.92499999999996
 20
8.187500000000005
 30
0.0
 40
0.9000000357627866
 41
3.673804312316839
 46
0.0
 71
     5
 72
     5
  1
Bader
  7
Textstil104
 73
     1
 44
1.0
  0
XRECORD
  5
909
102
{ACAD_REACTORS
330
7EA
102
}
330
7EA
100
AcDbXrecord
280
     1
102
ACAD_MATT_HEIGHT
140
0.9000000357627866
  0
XRECORD
  5
90C
102
{ACAD_REACTORS
330
7ED
102
}
330
7ED
100
AcDbXrecord
280
     1
 70
     2
 70
     0
 70
     0
 40
1.0
  2
Status2
  1
Embedded Object
 10
6.874999999999964
 20
10.31250000000001
 30
0.0
 40
0.9000000357627866
 41
3.304283514263398
 46
0.0
 71
     5
 72
     5
  1
C
  7
Textstil104
 73
     1
 44
1.0
  0
XRECORD
  5
90B
102
{ACAD_REACTORS
330
7ED
102
}
330
7ED
100
AcDbXrecord
280
     1
102
ACAD_MATT_HEIGHT
140
0.9000000357627866
  0
XRECORD
  5
90E
102
{ACAD_REACTORS
330
7F0
102
}
330
7F0
100
AcDbXrecord
280
     1
 70
     2
 70
     0
 70
     0
 40
1.0
  2
Änderungen2
  1
Embedded Object
 10
15.55681271873055
 20
10.31250000000001
 30
0.0
 40
0.9000000357627866
 41
12.95730463290482
 46
0.0
 71
     5
 72
     5
  1
Text ergänzt
  7
Textstil104
 73
     1
 44
1.0
  0
XRECORD
  5
90D
102
{ACAD_REACTORS
330
7F0
102
}
330
7F0
100
AcDbXrecord
280
     1
102
ACAD_MATT_HEIGHT
140
0.9000000357627866
  0
XRECORD
  5
910
102
{ACAD_REACTORS
330
7F3
102
}
330
7F3
100
AcDbXrecord
280
     1
 70
     2
 70
     0
 70
     0
 40
1.0
  2
Datum2
  1
Embedded Object
 10
24.89999999999995
 20
10.31250000000001
 30
0.0
 40
0.9000000357627866
 41
5.671507744907983
 46
0.0
 71
     5
 72
     5
  1
21.11.13
  7
Textstil104
 73
     1
 44
1.0
  0
XRECORD
  5
90F
102
{ACAD_REACTORS
330
7F3
102
}
330
7F3
100
AcDbXrecord
280
     1
102
ACAD_MATT_HEIGHT
140
0.9000000357627866
  0
XRECORD
  5
912
102
{ACAD_REACTORS
330
7F6
102
}
330
7F6
100
AcDbXrecord
280
     1
 70
     2
 70
     0
 70
     0
 40
1.0
  2
Name2
  1
Embedded Object
 10
29.92499999999996
 20
10.31250000000001
 30
0.0
 40
0.9000000357627866
 41
2.727205322256124
 46
0.0
 71
     5
 72
     5
  1
Bader
  7
Textstil104
 73
     1
 44
1.0
  0
XRECORD
  5
911
102
{ACAD_REACTORS
330
7F6
102
}
330
7F6
100
AcDbXrecord
280
     1
102
ACAD_MATT_HEIGHT
140
0.9000000357627866
  0
XRECORD
  5
914
102
{ACAD_REACTORS
330
7F9
102
}
330
7F9
100
AcDbXrecord
280
     1
 70
     2
 70
     0
 70
     0
 40
1.0
  2
Status3
  1
Embedded Object
 10
6.874999999999964
 20
12.43750000000001
 30
0.0
 40
0.9000000357627866
 41
3.316297507503253
 46
0.0
 71
     5
 72
     5
  1
C
  7
Textstil104
 73
     1
 44
1.0
  0
XRECORD
  5
913
102
{ACAD_REACTORS
330
7F9
102
}
330
7F9
100
AcDbXrecord
280
     1
102
ACAD_MATT_HEIGHT
140
0.9000000357627866
  0
XRECORD
  5
916
102
{ACAD_REACTORS
330
7FC
102
}
330
7FC
100
AcDbXrecord
280
     1
 70
     2
 70
     0
 70
     0
 40
1.0
  2
Änderungen3
  1
Embedded Object
 10
15.55681271873055
 20
12.43750000000001
 30
0.0
 40
0.9000000357627866
 41
13.03019736235086
 46
0.0
 71
     5
 72
     5
  1
SW entfernt
  7
Textstil104
 73
     1
 44
1.0
  0
XRECORD
  5
915
102
{ACAD_REACTORS
330
7FC
102
}
330
7FC
100
AcDbXrecord
280
     1
102
ACAD_MATT_HEIGHT
140
0.9000000357627866
  0
XRECORD
  5
918
102
{ACAD_REACTORS
330
7FF
102
}
330
7FF
100
AcDbXrecord
280
     1
 70
     2
 70
     0
 70
     0
 40
1.0
  2
Datum3
  1
Embedded Object
 10
24.89999999999995
 20
12.43750000000001
 30
0.0
 40
0.9000000357627866
 41
5.616941210508733
 46
0.0
 71
     5
 72
     5
  1
21.11.13
  7
Textstil104
 73
     1
 44
1.0
  0
XRECORD
  5
917
102
{ACAD_REACTORS
330
7FF
102
}
330
7FF
100
AcDbXrecord
280
     1
102
ACAD_MATT_HEIGHT
140
0.9000000357627866
  0
XRECORD
  5
91A
102
{ACAD_REACTORS
330
802
102
}
330
802
100
AcDbXrecord
280
     1
 70
     2
 70
     0
 70
     0
 40
1.0
  2
Name3
  1
Embedded Object
 10
29.92499999999996
 20
12.43750000000001
 30
0.0
 40
0.9000000357627866
 41
2.6958911951791
 46
0.0
 71
     5
 72
     5
  1
Bader
  7
Textstil104
 73
     1
 44
1.0
  0
XRECORD
  5
919
102
{ACAD_REACTORS
330
802
102
}
330
802
100
AcDbXrecord
280
     1
102
ACAD_MATT_HEIGHT
140
0.9000000357627866
  0
XRECORD
  5
91C
102
{ACAD_REACTORS
330
805
102
}
330
805
100
AcDbXrecord
280
     1
 70
     2
 70
     0
 70
     0
 40
1.0
  2
Status4
  1
Embedded Object
 10
6.874999999999964
 20
14.56250000000001
 30
0.0
 40
0.9000000357627866
 41
3.344183164454133
 46
0.0
 71
     5
 72
     5
  1
C
  7
Textstil104
 73
     1
 44
1.0
  0
XRECORD
  5
91B
102
{ACAD_REACTORS
330
805
102
}
330
805
100
AcDbXrecord
280
     1
102
ACAD_MATT_HEIGHT
140
0.9000000357627866
  0
XRECORD
  5
91E
102
{ACAD_REACTORS
330
808
102
}
330
808
100
AcDbXrecord
280
     1
 70
     2
 70
     0
 70
     0
 40
1.0
  2
Änderungen4
  1
Embedded Object
 10
15.55681271873055
 20
14.56250000000001
 30
0.0
 40
0.9000000357627866
 41
12.91692393445021
 46
0.0
 71
     5
 72
     5
  1
Maße in max.Maße
  7
Textstil104
 73
     1
 44
1.0
  0
XRECORD
  5
91D
102
{ACAD_REACTORS
330
808
102
}
330
808
100
AcDbXrecord
280
     1
102
ACAD_MATT_HEIGHT
140
0.9000000357627866
  0
XRECORD
  5
920
102
{ACAD_REACTORS
330
80B
102
}
330
80B
100
AcDbXrecord
280
     1
 70
     2
 70
     0
 70
     0
 40
1.0
  2
Datum4
  1
Embedded Object
 10
24.89999999999995
 20
14.56250000000001
 30
0.0
 40
0.9000000357627866
 41
5.595335540402111
 46
0.0
 71
     5
 72
     5
  1
21.11.13
  7
Textstil104
 73
     1
 44
1.0
  0
XRECORD
  5
91F
102
{ACAD_REACTORS
330
80B
102
}
330
80B
100
AcDbXrecord
280
     1
102
ACAD_MATT_HEIGHT
140
0.9000000357627866
  0
XRECORD
  5
922
102
{ACAD_REACTORS
330
80E
102
}
330
80E
100
AcDbXrecord
280
     1
 70
     2
 70
     0
 70
     0
 40
1.0
  2
Name4
  1
Embedded Object
 10
29.92499999999996
 20
14.56250000000001
 30
0.0
 40
0.9000000357627866
 41
2.639013619729126
 46
0.0
 71
     5
 72
     5
  1
Bader
  7
Textstil104
 73
     1
 44
1.0
  0
XRECORD
  5
921
102
{ACAD_REACTORS
330
80E
102
}
330
80E
100
AcDbXrecord
280
     1
102
ACAD_MATT_HEIGHT
140
0.9000000357627866
  0
XRECORD
  5
924
102
{ACAD_REACTORS
330
811
102
}
330
811
100
AcDbXrecord
280
     1
 70
     2
 70
     0
 70
     0
 40
1.0
  2
Status5
  1
Embedded Object
 10
6.874999999999964
 20
16.68750000000002
 30
0.0
 40
0.9000000357627866
 41
3.349963043783751
 46
0.0
 71
     5
 72
     5
  1
C
  7
Textstil104
 73
     1
 44
1.0
  0
XRECORD
  5
923
102
{ACAD_REACTORS
330
811
102
}
330
811
100
AcDbXrecord
280
     1
102
ACAD_MATT_HEIGHT
140
0.9000000357627866
  0
XRECORD
  5
926
102
{ACAD_REACTORS
330
814
102
}
330
814
100
AcDbXrecord
280
     1
 70
     2
 70
     0
 70
     0
 40
1.0
  2
Änderungen5
  1
Embedded Object
 10
15.55681271873055
 20
16.68750000000002
 30
0.0
 40
0.9000000357627866
 41
12.93304451178102
 46
0.0
 71
     5
 72
     5
  1
Art.Nr. neu hinzu
  7
Textstil104
 73
     1
 44
1.0
  0
XRECORD
  5
925
102
{ACAD_REACTORS
330
814
102
}
330
814
100
AcDbXrecord
280
     1
102
ACAD_MATT_HEIGHT
140
0.9000000357627866
  0
XRECORD
  5
928
102
{ACAD_REACTORS
330
817
102
}
330
817
100
AcDbXrecord
280
     1
 70
     2
 70
     0
 70
     0
 40
1.0
  2
Datum5
  1
Embedded Object
 10
24.89999999999995
 20
16.68750000000002
 30
0.0
 40
0.9000000357627866
 41
5.545476462249077
 46
0.0
 71
     5
 72
     5
  1
21.11.13
  7
Textstil104
 73
     1
 44
1.0
  0
XRECORD
  5
927
102
{ACAD_REACTORS
330
817
102
}
330
817
100
AcDbXrecord
280
     1
102
ACAD_MATT_HEIGHT
140
0.9000000357627866
  0
XRECORD
  5
92A
102
{ACAD_REACTORS
330
81A
102
}
330
81A
100
AcDbXrecord
280
     1
 70
     2
 70
     0
 70
     0
 40
1.0
  2
Name5
  1
Embedded Object
 10
29.92499999999996
 20
16.68750000000002
 30
0.0
 40
0.9000000357627866
 41
2.70292605210045
 46
0.0
 71
     5
 72
     5
  1
Bader
  7
Textstil104
 73
     1
 44
1.0
  0
XRECORD
  5
929
102
{ACAD_REACTORS
330
81A
102
}
330
81A
100
AcDbXrecord
280
     1
102
ACAD_MATT_HEIGHT
140
0.9000000357627866
  0
XRECORD
  5
92C
102
{ACAD_REACTORS
330
81D
102
}
330
81D
100
AcDbXrecord
280
     1
 70
     2
 70
     0
 70
     0
 40
1.0
  2
Status6
  1
Embedded Object
 10
6.874999999999964
 20
18.81250000000002
 30
0.0
 40
0.9000000357627866
 41
3.313029208657897
 46
0.0
 71
     5
 72
     5
  1

  7
Textstil104
 73
     1
 44
1.0
  0
XRECORD
  5
92B
102
{ACAD_REACTORS
330
81D
102
}
330
81D
100
AcDbXrecord
280
     1
102
ACAD_MATT_HEIGHT
140
0.9000000357627866
  0
XRECORD
  5
92E
102
{ACAD_REACTORS
330
820
102
}
330
820
100
AcDbXrecord
280
     1
 70
     2
 70
     0
 70
     0
 40
1.0
  2
Änderungen6
  1
Embedded Object
 10
15.55681271873055
 20
18.81250000000002
 30
0.0
 40
0.9000000357627866
 41
12.94272564629619
 46
0.0
 71
     5
 72
     5
  1

  7
Textstil104
 73
     1
 44
1.0
  0
XRECORD
  5
92D
102
{ACAD_REACTORS
330
820
102
}
330
820
100
AcDbXrecord
280
     1
102
ACAD_MATT_HEIGHT
140
0.9000000357627866
  0
XRECORD
  5
930
102
{ACAD_REACTORS
330
823
102
}
330
823
100
AcDbXrecord
280
     1
 70
     2
 70
     0
 70
     0
 40
1.0
  2
Datum6
  1
Embedded Object
 10
24.89999999999995
 20
18.81250000000002
 30
0.0
 40
0.9000000357627866
 41
5.559702746884019
 46
0.0
 71
     5
 72
     5
  1

  7
Textstil104
 73
     1
 44
1.0
  0
XRECORD
  5
92F
102
{ACAD_REACTORS
330
823
102
}
330
823
100
AcDbXrecord
280
     1
102
ACAD_MATT_HEIGHT
140
0.9000000357627866
  0
XRECORD
  5
932
102
{ACAD_REACTORS
330
826
102
}
330
826
100
AcDbXrecord
280
     1
 70
     2
 70
     0
 70
     0
 40
1.0
  2
Name6
  1
Embedded Object
 10
29.92499999999996
 20
18.81250000000002
 30
0.0
 40
0.9000000357627866
 41
2.714453207848919
 46
0.0
 71
     5
 72
     5
  1

  7
Textstil104
 73
     1
 44
1.0
  0
XRECORD
  5
931
102
{ACAD_REACTORS
330
826
102
}
330
826
100
AcDbXrecord
280
     1
102
ACAD_MATT_HEIGHT
140
0.9000000357627866
  0
XRECORD
  5
934
102
{ACAD_REACTORS
330
829
102
}
330
829
100
AcDbXrecord
280
     1
 70
     2
 70
     0
 70
     0
 40
1.0
  2
Status7
  1
Embedded Object
 10
6.874999999999964
 20
20.93750000000003
 30
0.0
 40
0.9000000357627866
 41
3.377142729305102
 46
0.0
 71
     5
 72
     5
  1

  7
Textstil104
 73
     1
 44
1.0
  0
XRECORD
  5
933
102
{ACAD_REACTORS
330
829
102
}
330
829
100
AcDbXrecord
280
     1
102
ACAD_MATT_HEIGHT
140
0.9000000357627866
  0
XRECORD
  5
936
102
{ACAD_REACTORS
330
82C
102
}
330
82C
100
AcDbXrecord
280
     1
 70
     2
 70
     0
 70
     0
 40
1.0
  2
Änderungen7
  1
Embedded Object
 10
15.55681271873055
 20
20.93750000000003
 30
0.0
 40
0.9000000357627866
 41
12.9182795392289
 46
0.0
 71
     5
 72
     5
  1

  7
Textstil104
 73
     1
 44
1.0
  0
XRECORD
  5
935
102
{ACAD_REACTORS
330
82C
102
}
330
82C
100
AcDbXrecord
280
     1
102
ACAD_MATT_HEIGHT
140
0.9000000357627866
  0
XRECORD
  5
938
102
{ACAD_REACTORS
330
82F
102
}
330
82F
100
AcDbXrecord
280
     1
 70
     2
 70
     0
 70
     0
 40
1.0
  2
Datum7
  1
Embedded Object
 10
24.89999999999995
 20
20.93750000000003
 30
0.0
 40
0.9000000357627866
 41
5.607661526970275
 46
0.0
 71
     5
 72
     5
  1

  7
Textstil104
 73
     1
 44
1.0
  0
XRECORD
  5
937
102
{ACAD_REACTORS
330
82F
102
}
330
82F
100
AcDbXrecord
280
     1
102
ACAD_MATT_HEIGHT
140
0.9000000357627866
  0
XRECORD
  5
93A
102
{ACAD_REACTORS
330
832
102
}
330
832
100
AcDbXrecord
280
     1
 70
     2
 70
     0
 70
     0
 40
1.0
  2
Name7
  1
Embedded Object
 10
29.92499999999996
 20
20.93750000000003
 30
0.0
 40
0.9000000357627866
 41
2.710445387858548
 46
0.0
 71
     5
 72
     5
  1

  7
Textstil104
 73
     1
 44
1.0
  0
XRECORD
  5
939
102
{ACAD_REACTORS
330
832
102
}
330
832
100
AcDbXrecord
280
     1
102
ACAD_MATT_HEIGHT
140
0.9000000357627866
  0
XRECORD
  5
93C
102
{ACAD_REACTORS
330
835
102
}
330
835
100
AcDbXrecord
280
     1
 70
     2
 70
     0
 70
     0
 40
1.0
  2
Status8
  1
Embedded Object
 10
6.874999999999964
 20
23.06250000000004
 30
0.0
 40
0.9000000357627866
 41
3.536290844297091
 46
0.0
 71
     5
 72
     5
  1

  7
Textstil104
 73
     1
 44
1.0
  0
XRECORD
  5
93B
102
{ACAD_REACTORS
330
835
102
}
330
835
100
AcDbXrecord
280
     1
102
ACAD_MATT_HEIGHT
140
0.9000000357627866
  0
XRECORD
  5
93E
102
{ACAD_REACTORS
330
838
102
}
330
838
100
AcDbXrecord
280
     1
 70
     2
 70
     0
 70
     0
 40
1.0
  2
Änderungen8
  1
Embedded Object
 10
15.55681271873055
 20
23.06250000000004
 30
0.0
 40
0.9000000357627866
 41
12.98409188603361
 46
0.0
 71
     5
 72
     5
  1

  7
Textstil104
 73
     1
 44
1.0
  0
XRECORD
  5
93D
102
{ACAD_REACTORS
330
838
102
}
330
838
100
AcDbXrecord
280
     1
102
ACAD_MATT_HEIGHT
140
0.9000000357627866
  0
XRECORD
  5
940
102
{ACAD_REACTORS
330
83B
102
}
330
83B
100
AcDbXrecord
280
     1
 70
     2
 70
     0
 70
     0
 40
1.0
  2
Datum8
  1
Embedded Object
 10
24.89999999999995
 20
23.06250000000004
 30
0.0
 40
0.9000000357627866
 41
5.693556819828877
 46
0.0
 71
     5
 72
     5
  1

  7
Textstil104
 73
     1
 44
1.0
  0
XRECORD
  5
93F
102
{ACAD_REACTORS
330
83B
102
}
330
83B
100
AcDbXrecord
280
     1
102
ACAD_MATT_HEIGHT
140
0.9000000357627866
  0
XRECORD
  5
942
102
{ACAD_REACTORS
330
83E
102
}
330
83E
100
AcDbXrecord
280
     1
 70
     2
 70
     0
 70
     0
 40
1.0
  2
Name8
  1
Embedded Object
 10
29.92499999999996
 20
23.06250000000004
 30
0.0
 40
0.9000000357627866
 41
2.726341198104123
 46
0.0
 71
     5
 72
     5
  1

  7
Textstil104
 73
     1
 44
1.0
  0
XRECORD
  5
941
102
{ACAD_REACTORS
330
83E
102
}
330
83E
100
AcDbXrecord
280
     1
102
ACAD_MATT_HEIGHT
140
0.9000000357627866
  0
XRECORD
  5
944
102
{ACAD_REACTORS
330
841
102
}
330
841
100
AcDbXrecord
280
     1
 70
     2
 70
     0
 70
     0
 40
1.0
  2
Artikelnummer_neu
  1
Embedded Object
 10
18.64999999999995
 20
28.2500000165019
 30
0.0
 40
1.749999970197676
 41
25.49999999999999
 46
0.0
 71
     5
 72
     5
  1
101509
  7
Textstil114
 73
     1
 44
1.0
  0
XRECORD
  5
943
102
{ACAD_REACTORS
330
841
102
}
330
841
100
AcDbXrecord
280
     1
102
ACAD_MATT_HEIGHT
140
1.749999970197676
  0
XRECORD
  5
946
102
{ACAD_REACTORS
330
844
102
}
330
844
100
AcDbXrecord
280
     1
 70
     2
 70
     0
 70
     0
 40
1.0
  2
Artikelnummer_alt
  1
Embedded Object
 10
18.64999999999995
 20
26.12500000000001
 30
0.0
 40
1.25
 41
21.99999999999999
 46
0.0
 71
     2
 72
     5
  1
(27.005.036)
  7
Textstil100
 73
     1
 44
1.0
  0
XRECORD
  5
945
102
{ACAD_REACTORS
330
844
102
}
330
844
100
AcDbXrecord
280
     1
102
ACAD_MATT_HEIGHT
140
1.25
  0
XRECORD
  5
948
102
{ACAD_REACTORS
330
847
102
}
330
847
100
AcDbXrecord
280
     1
 70
     2
 70
     0
 70
     0
 40
1.0
  2
Material
  1
Embedded Object
 10
91.66162025333539
 20
30.93750000000002
 30
0.0
 40
1.500000059604644
 41
17.37246951263555
 46
0.0
 71
     5
 72
     5
  1
Messing vern.
  7
Textstil94
 73
     1
 44
1.0
  0
XRECORD
  5
947
102
{ACAD_REACTORS
330
847
102
}
330
847
100
AcDbXrecord
280
     1
102
ACAD_MATT_HEIGHT
140
1.500000059604644
  0
XRECORD
  5
94A
102
{ACAD_REACTORS
330
84A
102
}
330
84A
100
AcDbXrecord
280
     1
 70
     2
 70
     0
 70
     0
 40
1.0
  2
Maßstab
  1
Embedded Object
 10
69.39238501540322
 20
30.93750000000002
 30
0.0
 40
1.500000059604644
 41
13.64806460287294
 46
0.0
 71
     5
 72
     5
  1
2:1 (1:1)
  7
Textstil94
 73
     1
 44
1.0
  0
XRECORD
  5
949
102
{ACAD_REACTORS
330
84A
102
}
330
84A
100
AcDbXrecord
280
     1
102
ACAD_MATT_HEIGHT
140
1.500000059604644
  0
XRECORD
  5
94C
102
{ACAD_REACTORS
330
84D
102
}
330
84D
100
AcDbXrecord
280
     1
 70
     2
 70
     0
 70
     0
 40
1.0
  2
Gezeichnet_Datum
  1
Embedded Object
 10
41.39999999999992
 20
20.93750000000003
 30
0.0
 40
0.9000000357627866
 41
5.223562803724952
 46
0.0
 71
     5
 72
     5
  1
21.11.13
  7
Textstil104
 73
     1
 44
1.0
  0
XRECORD
  5
94B
102
{ACAD_REACTORS
330
84D
102
}
330
84D
100
AcDbXrecord
280
     1
102
ACAD_MATT_HEIGHT
140
0.9000000357627866
  0
XRECORD
  5
94E
102
{ACAD_REACTORS
330
850
102
}
330
850
100
AcDbXrecord
280
     1
 70
     2
 70
     0
 70
     0
 40
1.0
  2
Gezeichnet_Name
  1
Embedded Object
 10
49.84999999999993
 20
20.93750000000003
 30
0.0
 40
0.9000000357627866
 41
9.049263915990868
 46
0.0
 71
     5
 72
     5
  1
Bader
  7
Textstil104
 73
     1
 44
1.0
  0
XRECORD
  5
94D
102
{ACAD_REACTORS
330
850
102
}
330
850
100
AcDbXrecord
280
     1
102
ACAD_MATT_HEIGHT
140
0.9000000357627866
  0
XRECORD
  5
950
102
{ACAD_REACTORS
330
853
102
}
330
853
100
AcDbXrecord
280
     1
 70
     2
 70
     0
 70
     0
 40
1.0
  2
Benennung
  1
Embedded Object
 10
73.24999999999987
 20
9.324817012783563
 30
0.0
 40
2.000000029802321
 41
0.0
 46
0.0
 71
     5
 72
     5
  1

  7
Textstil109
 73
     1
 44
1.0
  0
XRECORD
  5
94F
102
{ACAD_REACTORS
330
853
102
}
330
853
100
AcDbXrecord
280
     1
102
ACAD_MATT_HEIGHT
140
2.000000029802321
  0
XRECORD
  5
952
102
{ACAD_REACTORS
330
856
102
}
330
856
100
AcDbXrecord
280
     1
 70
     2
 70
     0
 70
     0
 40
1.0
  2
Zeichnungsnummer
  1
Embedded Object
 10
69.99444175221552
 20
6.062500000000009
 30
0.0
 40
1.25
 41
29.53516678799335
 46
0.0
 71
     4
 72
     5
  1
AN GEA 12 C
  7
Textstil100
 73
     1
 44
1.0
  0
XRECORD
  5
951
102
{ACAD_REACTORS
330
856
102
}
330
856
100
AcDbXrecord
280
     1
102
ACAD_MATT_HEIGHT
140
1.25
  0
XRECORD
  5
954
102
{ACAD_REACTORS
330
859
102
}
330
859
100
AcDbXrecord
280
     1
 70
     2
 70
     0
 70
     0
 40
1.0
  2
Ers._für
  1
Embedded Object
 10
46.32300313507665
 20
6.0625
 30
0.0
 40
1.25
 41
15.96837395265247
 46
0.0
 71
     5
 72
     5
  1
AN GEA 12 B
  7
Textstil100
 73
     1
 44
1.0
  0
XRECORD
  5
953
102
{ACAD_REACTORS
330
859
102
}
330
859
100
AcDbXrecord
280
     1
102
ACAD_MATT_HEIGHT
140
1.25
  0
XRECORD
  5
956
102
{ACAD_REACTORS
330
85C
102
}
330
85C
100
AcDbXrecord
280
     1
 70
     2
 70
     0
 70
     0
 40
1.0
  2
Projekt
  1
Embedded Object
 10
43.34999999999992
 20
9.324817012783556
 30
0.0
 40
2.000000029802321
 41
21.09706411125767
 46
0.0
 71
     5
 72
     5
  1
Anschlussteile
  7
Textstil109
 73
     1
 44
1.0
  0
XRECORD
  5
955
102
{ACAD_REACTORS
330
85C
102
}
330
85C
100
AcDbXrecord
280
     1
102
ACAD_MATT_HEIGHT
140
2.000000029802321
  0
XRECORD
  5
958
102
{ACAD_REACTORS
330
85F
102
}
330
85F
100
AcDbXrecord
280
     1
 70
     2
 70
     0
 70
     0
 40
1.0
  2
Kontroll_Datum
  1
Embedded Object
 10
41.39999999999997
 20
18.81250000000002
 30
0.0
 40
0.9000000357627866
 41
4.800557171596365
 46
0.0
 71
     5
 72
     5
  1
22.11.13
  7
Textstil104
 73
     1
 44
1.0
  0
XRECORD
  5
957
102
{ACAD_REACTORS
330
85F
102
}
330
85F
100
AcDbXrecord
280
     1
102
ACAD_MATT_HEIGHT
140
0.9000000357627866
  0
XRECORD
  5
95A
102
{ACAD_REACTORS
330
862
102
}
330
862
100
AcDbXrecord
280
     1
 70
     2
 70
     0
 70
     0
 40
1.0
  2
Kontroll__Name
  1
Embedded Object
 10
49.84999999999993
 20
18.81250000000002
 30
0.0
 40
0.9000000357627866
 41
8.809465336641864
 46
0.0
 71
     5
 72
     5
  1
Hildenbrand
  7
Textstil104
 73
     1
 44
1.0
  0
XRECORD
  5
959
102
{ACAD_REACTORS
330
862
102
}
330
862
100
AcDbXrecord
280
     1
102
ACAD_MATT_HEIGHT
140
0.9000000357627866
  0
ACDBDETAILVIEWSTYLE
  5
6C
102
{ACAD_REACTORS
330
6B
102
}
330
6B
100
AcDbModelDocViewStyle
 70
     0
  3
Imperial24
290
     0
100
AcDbDetailViewStyle
 70
     0
 71
     0
 90
        3
 71
     1
340
55
 62
   256
 40
0.24
340
0
 62
   256
 40
0.24
300

 40
0.36
280
     3
 71
     2
340
5D
 90
       25
 62
   256
 71
     3
340
55
 62
   256
 40
0.24
 90
        1
 40
0.75
 90
        1
300
%<\AcVar ViewType \f "%tc1">% %<\AcVar ViewDetailId>%\PVARIA %<\AcVar ViewScale \f "%sn">%
 71
     4
340
5D
 90
       25
 62
   256
340
5D
 90
       25
 62
   256
280
     0
  0
ACDBDETAILVIEWSTYLE
  5
89D
102
{ACAD_REACTORS
330
6B
102
}
330
6B
100
AcDbModelDocViewStyle
 70
     0
  3
Metric50
290
     0
100
AcDbDetailViewStyle
 70
     0
 71
     0
 90
        3
 71
     1
340
55
 62
   256
 40
5.0
340
0
 62
   256
 40
5.0
300

 40
0.0
280
     1
 71
     2
340
5D
 90
       25
 62
   256
 71
     3
340
55
 62
   256
 40
5.0
 90
        0
 40
15.0
 90
        1
300
%<\AcVar ViewDetailId>% (%<\AcVar ViewScale \f "%sn">%)
 71
     4
340
5D
 90
       25
 62
   256
340
5D
 90
       25
 62
   256
280
     0
  0
LAYOUT
  5
70
102
{ACAD_REACTORS
330
62
102
}
330
62
100
AcDbPlotSettings
  1

  2

  4

  6

 40
0.0
 41
0.0
 42
0.0
 43
0.0
 44
0.0
 45
0.0
 46
0.0
 47
0.0
 48
0.0
 49
0.0
140
0.0
141
0.0
142
1.0
143
1.0
 70
   688
 72
     0
 73
     0
 74
     5
  7

 75
    16
147
1.0
 76
     0
 77
     2
 78
   300
148
0.0
149
0.0
100
AcDbLayout
  1
Layout1
 70
     1
 71
     1
 10
0.0
 20
0.0
 11
12.0
 21
9.0
 12
0.0
 22
0.0
 32
0.0
 14
0.0
 24
0.0
 34
0.0
 15
0.0
 25
0.0
 35
0.0
146
0.0
 13
0.0
 23
0.0
 33
0.0
 16
1.0
 26
0.0
 36
0.0
 17
0.0
 27
1.0
 37
0.0
 76
     0
330
6D
  0
LAYOUT
  5
78
102
{ACAD_REACTORS
330
62
102
}
330
62
100
AcDbPlotSettings
  1

  2

  4

  6

 40
0.0
 41
0.0
 42
0.0
 43
0.0
 44
0.0
 45
0.0
 46
0.0
 47
0.0
 48
0.0
 49
0.0
140
0.0
141
0.0
142
1.0
143
1.0
 70
   688
 72
     0
 73
     0
 74
     5
  7

 75
    16
147
1.0
 76
     0
 77
     2
 78
   300
148
0.0
149
0.0
100
AcDbLayout
  1
Layout2
 70
     1
 71
     2
 10
0.0
 20
0.0
 11
12.0
 21
9.0
 12
0.0
 22
0.0
 32
0.0
 14
0.0
 24
0.0
 34
0.0
 15
0.0
 25
0.0
 35
0.0
146
0.0
 13
0.0
 23
0.0
 33
0.0
 16
1.0
 26
0.0
 36
0.0
 17
0.0
 27
1.0
 37
0.0
 76
     0
330
75
  0
LAYOUT
  5
74
102
{ACAD_REACTORS
330
62
102
}
330
62
100
AcDbPlotSettings
  1

  2

  4

  6

 40
0.0
 41
0.0
 42
0.0
 43
0.0
 44
0.0
 45
0.0
 46
0.0
 47
0.0
 48
0.0
 49
0.0
140
0.0
141
0.0
142
1.0
143
1.0
 70
  1712
 72
     0
 73
     0
 74
     0
  7

 75
     0
147
1.0
 76
     0
 77
     2
 78
   300
148
0.0
149
0.0
100
AcDbLayout
  1
Model
 70
     1
 71
     0
 10
0.0
 20
0.0
 11
12.0
 21
9.0
 12
0.0
 22
0.0
 32
0.0
 14
0.0
 24
0.0
 34
0.0
 15
0.0
 25
0.0
 35
0.0
146
0.0
 13
0.0
 23
0.0
 33
0.0
 16
1.0
 26
0.0
 36
0.0
 17
0.0
 27
1.0
 37
0.0
 76
     0
330
71
  0
MATERIAL
  5
19
102
{ACAD_XDICTIONARY
360
1A
102
}
102
{ACAD_REACTORS
330
10
102
}
330
10
100
AcDbMaterial
  1
ByBlock
 72
     0
 43
0.0208333333333333
 43
0.0
 43
0.0
 43
0.0
 43
0.0
 43
0.0208333333333333
 43
0.0
 43
0.0
 43
0.0
 43
0.0
 43
1.0
 43
0.0
 43
0.0
 43
0.0
 43
0.0
 43
1.0
 77
     0
 47
0.0208333333333333
 47
0.0
 47
0.0
 47
0.0
 47
0.0
 47
0.0208333333333333
 47
0.0
 47
0.0
 47
0.0
 47
0.0
 47
1.0
 47
0.0
 47
0.0
 47
0.0
 47
0.0
 47
1.0
171
     0
 49
0.0208333333333333
 49
0.0
 49
0.0
 49
0.0
 49
0.0
 49
0.0208333333333333
 49
0.0
 49
0.0
 49
0.0
 49
0.0
 49
1.0
 49
0.0
 49
0.0
 49
0.0
 49
0.0
 49
1.0
175
     0
142
0.0208333333333333
142
0.0
142
0.0
142
0.0
142
0.0
142
0.0208333333333333
142
0.0
142
0.0
142
0.0
142
0.0
142
1.0
142
0.0
142
0.0
142
0.0
142
0.0
142
1.0
179
     0
144
0.0208333333333333
144
0.0
144
0.0
144
0.0
144
0.0
144
0.0208333333333333
144
0.0
144
0.0
144
0.0
144
0.0
144
1.0
144
0.0
144
0.0
144
0.0
144
0.0
144
1.0
147
0.0208333333333333
147
0.0
147
0.0
147
0.0
147
0.0
147
0.0208333333333333
147
0.0
147
0.0
147
0.0
147
0.0
147
1.0
147
0.0
147
0.0
147
0.0
147
0.0
147
1.0
  0
MATERIAL
  5
11
102
{ACAD_XDICTIONARY
360
12
102
}
102
{ACAD_REACTORS
330
10
102
}
330
10
100
AcDbMaterial
  1
ByLayer
 72
     0
 43
0.0208333333333333
 43
0.0
 43
0.0
 43
0.0
 43
0.0
 43
0.0208333333333333
 43
0.0
 43
0.0
 43
0.0
 43
0.0
 43
1.0
 43
0.0
 43
0.0
 43
0.0
 43
0.0
 43
1.0
 77
     0
 47
0.0208333333333333
 47
0.0
 47
0.0
 47
0.0
 47
0.0
 47
0.0208333333333333
 47
0.0
 47
0.0
 47
0.0
 47
0.0
 47
1.0
 47
0.0
 47
0.0
 47
0.0
 47
0.0
 47
1.0
171
     0
 49
0.0208333333333333
 49
0.0
 49
0.0
 49
0.0
 49
0.0
 49
0.0208333333333333
 49
0.0
 49
0.0
 49
0.0
 49
0.0
 49
1.0
 49
0.0
 49
0.0
 49
0.0
 49
0.0
 49
1.0
175
     0
142
0.0208333333333333
142
0.0
142
0.0
142
0.0
142
0.0
142
0.0208333333333333
142
0.0
142
0.0
142
0.0
142
0.0
142
1.0
142
0.0
142
0.0
142
0.0
142
0.0
142
1.0
179
     0
144
0.0208333333333333
144
0.0
144
0.0
144
0.0
144
0.0
144
0.0208333333333333
144
0.0
144
0.0
144
0.0
144
0.0
144
1.0
144
0.0
144
0.0
144
0.0
144
0.0
144
1.0
147
0.0208333333333333
147
0.0
147
0.0
147
0.0
147
0.0
147
0.0208333333333333
147
0.0
147
0.0
147
0.0
147
0.0
147
1.0
147
0.0
147
0.0
147
0.0
147
0.0
147
1.0
  0
MATERIAL
  5
21
102
{ACAD_XDICTIONARY
360
22
102
}
102
{ACAD_REACTORS
330
10
102
}
330
10
100
AcDbMaterial
  1
Global
 72
     0
 43
0.0208333333333333
 43
0.0
 43
0.0
 43
0.0
 43
0.0
 43
0.0208333333333333
 43
0.0
 43
0.0
 43
0.0
 43
0.0
 43
1.0
 43
0.0
 43
0.0
 43
0.0
 43
0.0
 43
1.0
 77
     0
 47
0.0208333333333333
 47
0.0
 47
0.0
 47
0.0
 47
0.0
 47
0.0208333333333333
 47
0.0
 47
0.0
 47
0.0
 47
0.0
 47
1.0
 47
0.0
 47
0.0
 47
0.0
 47
0.0
 47
1.0
171
     0
 49
0.0208333333333333
 49
0.0
 49
0.0
 49
0.0
 49
0.0
 49
0.0208333333333333
 49
0.0
 49
0.0
 49
0.0
 49
0.0
 49
1.0
 49
0.0
 49
0.0
 49
0.0
 49
0.0
 49
1.0
175
     0
142
0.0208333333333333
142
0.0
142
0.0
142
0.0
142
0.0
142
0.0208333333333333
142
0.0
142
0.0
142
0.0
142
0.0
142
1.0
142
0.0
142
0.0
142
0.0
142
0.0
142
1.0
179
     0
144
0.0208333333333333
144
0.0
144
0.0
144
0.0
144
0.0
144
0.0208333333333333
144
0.0
144
0.0
144
0.0
144
0.0
144
1.0
144
0.0
144
0.0
144
0.0
144
0.0
144
1.0
147
0.0208333333333333
147
0.0
147
0.0
147
0.0
147
0.0
147
0.0208333333333333
147
0.0
147
0.0
147
0.0
147
0.0
147
1.0
147
0.0
147
0.0
147
0.0
147
0.0
147
1.0
  0
MLEADERSTYLE
  5
67
102
{ACAD_XDICTIONARY
360
98D
102
}
102
{ACAD_REACTORS
330
66
102
}
330
66
100
AcDbMLeaderStyle
179
     2
170
     2
171
     1
172
     0
 90
        2
 40
0.0
 41
0.0
173
     1
 91
-1056964608
340
5B
 92
       -2
290
     1
 42
0.09
291
     1
 43
0.36
  3
Standard
 44
0.18
300

342
55
174
     1
178
     6
175
     1
176
     0
 93
-1056964608
 45
0.18
292
     0
297
     0
 46
0.18
 94
-1056964608
 47
1.0
 49
1.0
140
1.0
293
     1
141
0.0
294
     1
177
     0
142
1.0
295
     0
296
     0
143
0.125
271
     0
272
     9
273
     9
  0
MLINESTYLE
  5
60
102
{ACAD_REACTORS
330
5F
102
}
330
5F
100
AcDbMlineStyle
  2
STANDARD
 70
     0
  3

 62
   256
 51
90.0
 52
90.0
 71
     2
 49
0.5
 62
   256
  6
BYLAYER
 49
-0.5
 62
   256
  6
BYLAYER
  0
ACDBPLACEHOLDER
  5
F
102
{ACAD_REACTORS
330
E
102
}
330
E
  0
SCALE
  5
43
102
{ACAD_REACTORS
330
42
102
}
330
42
100
AcDbScale
 70
     0
300
1:1
140
1.0
141
1.0
290
     1
  0
SCALE
  5
44
102
{ACAD_REACTORS
330
42
102
}
330
42
100
AcDbScale
 70
     0
300
1/128" = 1'-0"
140
0.0078125
141
12.0
290
     0
  0
SCALE
  5
45
102
{ACAD_REACTORS
330
42
102
}
330
42
100
AcDbScale
 70
     0
300
1/64" = 1'-0"
140
0.015625
141
12.0
290
     0
  0
SCALE
  5
46
102
{ACAD_REACTORS
330
42
102
}
330
42
100
AcDbScale
 70
     0
300
1/32" = 1'-0"
140
0.03125
141
12.0
290
     0
  0
SCALE
  5
47
102
{ACAD_REACTORS
330
42
102
}
330
42
100
AcDbScale
 70
     0
300
1/16" = 1'-0"
140
0.0625
141
12.0
290
     0
  0
SCALE
  5
48
102
{ACAD_REACTORS
330
42
102
}
330
42
100
AcDbScale
 70
     0
300
3/32" = 1'-0"
140
0.09375
141
12.0
290
     0
  0
SCALE
  5
49
102
{ACAD_REACTORS
330
42
102
}
330
42
100
AcDbScale
 70
     0
300
1/8" = 1'-0"
140
0.125
141
12.0
290
     0
  0
SCALE
  5
4A
102
{ACAD_REACTORS
330
42
102
}
330
42
100
AcDbScale
 70
     0
300
3/16" = 1'-0"
140
0.1875
141
12.0
290
     0
  0
SCALE
  5
4B
102
{ACAD_REACTORS
330
42
102
}
330
42
100
AcDbScale
 70
     0
300
1/4" = 1'-0"
140
0.25
141
12.0
290
     0
  0
SCALE
  5
4C
102
{ACAD_REACTORS
330
42
102
}
330
42
100
AcDbScale
 70
     0
300
3/8" = 1'-0"
140
0.375
141
12.0
290
     0
  0
SCALE
  5
4D
102
{ACAD_REACTORS
330
42
102
}
330
42
100
AcDbScale
 70
     0
300
1/2" = 1'-0"
140
0.5
141
12.0
290
     0
  0
SCALE
  5
4E
102
{ACAD_REACTORS
330
42
102
}
330
42
100
AcDbScale
 70
     0
300
3/4" = 1'-0"
140
0.75
141
12.0
290
     0
  0
SCALE
  5
4F
102
{ACAD_REACTORS
330
42
102
}
330
42
100
AcDbScale
 70
     0
300
1" = 1'-0"
140
1.0
141
12.0
290
     0
  0
SCALE
  5
50
102
{ACAD_REACTORS
330
42
102
}
330
42
100
AcDbScale
 70
     0
300
1-1/2" = 1'-0"
140
1.5
141
12.0
290
     0
  0
SCALE
  5
51
102
{ACAD_REACTORS
330
42
102
}
330
42
100
AcDbScale
 70
     0
300
3" = 1'-0"
140
3.0
141
12.0
290
     0
  0
SCALE
  5
52
102
{ACAD_REACTORS
330
42
102
}
330
42
100
AcDbScale
 70
     0
300
6" = 1'-0"
140
6.0
141
12.0
290
     0
  0
SCALE
  5
53
102
{ACAD_REACTORS
330
42
102
}
330
42
100
AcDbScale
 70
     0
300
1'-0" = 1'-0"
140
12.0
141
12.0
290
     0
  0
ACDBSECTIONVIEWSTYLE
  5
6A
102
{ACAD_REACTORS
330
68
102
}
330
68
100
AcDbModelDocViewStyle
 70
     0
  3
Imperial24
290
     0
100
AcDbSectionViewStyle
 70
     0
 71
     0
 90
       78
 71
     1
340
55
 62
   256
 40
0.24
340
0
340
0
 62
   256
 40
0.24
300
I, O, Q, S, X, Z
 40
0.48
 90
        3
 40
0.18
 90
        1
 71
     2
340
69
 90
       25
 62
   256
340
5D
 90
       50
 62
   256
 40
0.24
 40
0.0
 40
0.24
 71
     3
340
55
 62
   256
 40
0.24
 90
        1
 40
0.75
 90
        1
300
%<\AcVar ViewType \f "%tc1">% %<\AcVar ViewSectionStartId>%-%<\AcVar ViewSectionEndId>%\PVARIA %<\AcVar ViewScale \f "%sn">%
 71
     4
 62
   256
 62
   257
300
ANSI31
 40
1.0
 90
        0
290
     0
290
     0
 90
        6
 40
0.0
 40
1.570796326794896
 40
0.2617993877991494
 40
1.308996938995747
 40
-0.2617993877991494
 40
1.832595714594045
  0
ACDBSECTIONVIEWSTYLE
  5
89C
102
{ACAD_REACTORS
330
68
102
}
330
68
100
AcDbModelDocViewStyle
 70
     0
  3
Metric50
290
     0
100
AcDbSectionViewStyle
 70
     0
 71
     0
 90
      102
 71
     1
340
55
 62
   256
 40
5.0
340
0
340
0
 62
   256
 40
5.0
300
I, O, Q, S, X, Z
 40
10.0
 90
        0
 40
2.5
 90
        0
 71
     2
340
5D
 90
       25
 62
   256
340
5D
 90
       50
 62
   256
 40
5.0
 40
2.5
 40
5.0
 71
     3
340
55
 62
   256
 40
5.0
 90
        0
 40
15.0
 90
        1
300
%<\AcVar ViewSectionStartId>%-%<\AcVar ViewSectionEndId>% (%<\AcVar ViewScale \f "%sn">%)
 71
     4
 62
   256
 62
   257
300
ANSI31
 40
1.0
 90
        0
290
     0
290
     0
 90
        6
 40
0.0
 40
1.570796326794896
 40
0.2617993877991494
 40
1.308996938995747
 40
-0.2617993877991494
 40
1.832595714594046
  0
TABLESTYLE
  5
65
102
{ACAD_XDICTIONARY
360
74D
102
}
102
{ACAD_REACTORS
330
64
102
}
330
64
100
AcDbTableStyle
280
     0
  3
Standard
 70
     0
 71
     0
 40
0.06
 41
0.06
280
     0
281
     0
  7
Standard
140
0.18
170
     2
 62
     0
 63
     7
283
     0
 90
      512
 91
        0
  1

274
    -2
284
     1
 64
     0
275
    -2
285
     1
 65
     0
276
    -2
286
     1
 66
     0
277
    -2
287
     1
 67
     0
278
    -2
288
     1
 68
     0
279
    -2
289
     1
 69
     0
  7
Standard
140
0.25
170
     5
 62
     0
 63
     7
283
     0
 90
      512
 91
        0
  1

274
    -2
284
     1
 64
     0
275
    -2
285
     1
 65
     0
276
    -2
286
     1
 66
     0
277
    -2
287
     1
 67
     0
278
    -2
288
     1
 68
     0
279
    -2
289
     1
 69
     0
  7
Standard
140
0.18
170
     5
 62
     0
 63
     7
283
     0
 90
      512
 91
        0
  1

274
    -2
284
     1
 64
     0
275
    -2
285
     1
 65
     0
276
    -2
286
     1
 66
     0
277
    -2
287
     1
 67
     0
278
    -2
288
     1
 68
     0
279
    -2
289
     1
 69
     0
  0
VISUALSTYLE
  5
2F
102
{ACAD_XDICTIONARY
360
967
102
}
102
{ACAD_REACTORS
330
29
102
}
330
29
100
AcDbVisualStyle
  2
2dWireframe
 70
     4
177
     2
291
     0
 71
     0
176
     1
 72
     2
176
     1
 73
     0
176
     1
 90
        0
176
     1
 40
0.6
176
     1
 41
30.0
176
     1
 63
     7
421
 16777215
176
     1
 74
     1
176
     1
 91
        4
176
     1
 64
     7
176
     1
 65
   257
176
     1
 75
     1
176
     1
175
     1
176
     1
 42
1.0
176
     1
 92
        0
176
     1
 66
   257
176
     1
 43
1.0
176
     1
 76
     1
176
     1
 77
     6
176
     1
 78
     2
176
     1
 67
     7
176
     1
 79
     5
176
     1
170
     0
176
     1
171
     0
176
     1
290
     0
176
     1
 93
        1
176
     1
 44
0.0
176
     1
173
     0
176
     1
1001
ACAD
1000
AcDbSavedByObjectVersion
1070
     0
  0
VISUALSTYLE
  5
2E
102
{ACAD_XDICTIONARY
360
965
102
}
102
{ACAD_REACTORS
330
29
102
}
330
29
100
AcDbVisualStyle
  2
Basic
 70
     7
177
     2
291
     1
 71
     1
176
     1
 72
     0
176
     1
 73
     1
176
     1
 90
        0
176
     1
 40
0.6
176
     1
 41
30.0
176
     1
 63
     7
421
 16777215
176
     1
 74
     0
176
     1
 91
        4
176
     1
 64
     7
176
     1
 65
   257
176
     1
 75
     1
176
     1
175
     1
176
     1
 42
1.0
176
     1
 92
        8
176
     1
 66
     7
176
     1
 43
1.0
176
     1
 76
     1
176
     1
 77
     6
176
     1
 78
     2
176
     1
 67
     7
176
     1
 79
     5
176
     1
170
     0
176
     1
171
     0
176
     1
290
     0
176
     1
 93
        1
176
     1
 44
0.0
176
     1
173
     0
176
     1
1001
ACAD
1000
AcDbSavedByObjectVersion
1070
     0
  0
VISUALSTYLE
  5
35
102
{ACAD_XDICTIONARY
360
973
102
}
102
{ACAD_REACTORS
330
29
102
}
330
29
100
AcDbVisualStyle
  2
Brighten
 70
    12
177
     2
291
     1
 71
     2
176
     1
 72
     2
176
     1
 73
     0
176
     1
 90
        0
176
     1
 40
0.6
176
     1
 41
30.0
176
     1
 63
     7
421
 16777215
176
     1
 74
     1
176
     1
 91
        4
176
     1
 64
     7
176
     1
 65
   257
176
     1
 75
     1
176
     1
175
     1
176
     1
 42
1.0
176
     1
 92
        8
176
     1
 66
     7
176
     1
 43
1.0
176
     1
 76
     1
176
     1
 77
     6
176
     1
 78
     2
176
     1
 67
     7
176
     1
 79
     5
176
     1
170
     0
176
     1
171
     0
176
     1
290
     0
176
     1
 93
        1
176
     1
 44
50.0
176
     1
173
     0
176
     1
1001
ACAD
1000
AcDbSavedByObjectVersion
1070
     0
  0
VISUALSTYLE
  5
39
102
{ACAD_XDICTIONARY
360
97B
102
}
102
{ACAD_REACTORS
330
29
102
}
330
29
100
AcDbVisualStyle
  2
ColorChange
 70
    16
177
     2
291
     1
 71
     2
176
     1
 72
     2
176
     1
 73
     3
176
     1
 90
        0
176
     1
 40
0.6
176
     1
 41
30.0
176
     1
 63
     8
421
  8421504
176
     1
 74
     1
176
     1
 91
        4
176
     1
 64
     7
176
     1
 65
   257
176
     1
 75
     1
176
     1
175
     1
176
     1
 42
1.0
176
     1
 92
        8
176
     1
 66
     8
424
  8421504
176
     1
 43
1.0
176
     1
 76
     1
176
     1
 77
     6
176
     1
 78
     2
176
     1
 67
     7
176
     1
 79
     5
176
     1
170
     0
176
     1
171
     0
176
     1
290
     0
176
     1
 93
        1
176
     1
 44
0.0
176
     1
173
     0
176
     1
1001
ACAD
1000
AcDbSavedByObjectVersion
1070
     0
  0
VISUALSTYLE
  5
32
102
{ACAD_XDICTIONARY
360
96D
102
}
102
{ACAD_REACTORS
330
29
102
}
330
29
100
AcDbVisualStyle
  2
Conceptual
 70
     9
177
     2
291
     0
 71
     3
176
     1
 72
     2
176
     1
 73
     0
176
     1
 90
        0
176
     1
 40
0.6
176
     1
 41
30.0
176
     1
 63
     7
421
 16777215
176
     1
 74
     2
176
     1
 91
        2
176
     1
 64
     7
176
     1
 65
   257
176
     1
 75
     1
176
     1
175
     1
176
     1
 42
179.0
176
     1
 92
        8
176
     1
 66
     7
176
     1
 43
1.0
176
     1
 76
     1
176
     1
 77
     6
176
     1
 78
     2
176
     1
 67
     7
176
     1
 79
     3
176
     1
170
     0
176
     1
171
     0
176
     1
290
     0
176
     1
 93
        1
176
     1
 44
0.0
176
     1
173
     0
176
     1
1001
ACAD
1000
AcDbSavedByObjectVersion
1070
     0
  0
VISUALSTYLE
  5
34
102
{ACAD_XDICTIONARY
360
971
102
}
102
{ACAD_REACTORS
330
29
102
}
330
29
100
AcDbVisualStyle
  2
Dim
 70
    11
177
     2
291
     1
 71
     2
176
     1
 72
     2
176
     1
 73
     0
176
     1
 90
        0
176
     1
 40
0.6
176
     1
 41
30.0
176
     1
 63
     7
421
 16777215
176
     1
 74
     1
176
     1
 91
        4
176
     1
 64
     7
176
     1
 65
   257
176
     1
 75
     1
176
     1
175
     1
176
     1
 42
1.0
176
     1
 92
        8
176
     1
 66
     7
176
     1
 43
1.0
176
     1
 76
     1
176
     1
 77
     6
176
     1
 78
     2
176
     1
 67
     7
176
     1
 79
     5
176
     1
170
     0
176
     1
171
     0
176
     1
290
     0
176
     1
 93
        1
176
     1
 44
-50.0
176
     1
173
     0
176
     1
1001
ACAD
1000
AcDbSavedByObjectVersion
1070
     0
  0
VISUALSTYLE
  5
41
102
{ACAD_XDICTIONARY
360
98B
102
}
102
{ACAD_REACTORS
330
29
102
}
330
29
100
AcDbVisualStyle
  2
EdgeColorOff
 70
    22
177
     2
291
     1
 71
     2
176
     0
 72
     2
176
     0
 73
     0
176
     0
 90
        0
176
     0
 40
0.6
176
     0
 41
30.0
176
     0
 63
     7
421
 16777215
176
     0
 74
     1
176
     0
 91
        4
176
     0
 64
     7
176
     0
 65
   257
176
     0
 75
     1
176
     0
175
     1
176
     0
 42
1.0
176
     0
 92
        8
176
     2
 66
     7
176
     0
 43
1.0
176
     0
 76
     1
176
     0
 77
     6
176
     0
 78
     2
176
     0
 67
     7
176
     0
 79
     5
176
     0
170
     0
176
     0
171
     0
176
     0
290
     0
176
     0
 93
        1
176
     0
 44
0.0
176
     0
173
     0
176
     0
1001
ACAD
1000
AcDbSavedByObjectVersion
1070
     0
  0
VISUALSTYLE
  5
38
102
{ACAD_XDICTIONARY
360
979
102
}
102
{ACAD_REACTORS
330
29
102
}
330
29
100
AcDbVisualStyle
  2
Facepattern
 70
    15
177
     2
291
     1
 71
     2
176
     1
 72
     2
176
     1
 73
     0
176
     1
 90
        0
176
     1
 40
0.6
176
     1
 41
30.0
176
     1
 63
     7
421
 16777215
176
     1
 74
     1
176
     1
 91
        4
176
     1
 64
     7
176
     1
 65
   257
176
     1
 75
     1
176
     1
175
     1
176
     1
 42
1.0
176
     1
 92
        8
176
     1
 66
     7
176
     1
 43
1.0
176
     1
 76
     1
176
     1
 77
     6
176
     1
 78
     2
176
     1
 67
     7
176
     1
 79
     5
176
     1
170
     0
176
     1
171
     0
176
     1
290
     0
176
     1
 93
        1
176
     1
 44
0.0
176
     1
173
     0
176
     1
1001
ACAD
1000
AcDbSavedByObjectVersion
1070
     0
  0
VISUALSTYLE
  5
2A
102
{ACAD_XDICTIONARY
360
95D
102
}
102
{ACAD_REACTORS
330
29
102
}
330
29
100
AcDbVisualStyle
  2
Flat
 70
     0
177
     2
291
     1
 71
     2
176
     1
 72
     1
176
     1
 73
     1
176
     1
 90
        2
176
     1
 40
0.6
176
     1
 41
30.0
176
     1
 63
     7
421
 16777215
176
     1
 74
     0
176
     1
 91
        0
176
     1
 64
     7
176
     1
 65
   257
176
     1
 75
     1
176
     1
175
     1
176
     1
 42
1.0
176
     1
 92
        8
176
     1
 66
     7
176
     1
 43
1.0
176
     1
 76
     1
176
     1
 77
     6
176
     1
 78
     2
176
     1
 67
     7
176
     1
 79
     5
176
     1
170
     0
176
     1
171
     0
176
     1
290
     0
176
     1
 93
       13
176
     1
 44
0.0
176
     1
173
     0
176
     1
1001
ACAD
1000
AcDbSavedByObjectVersion
1070
     0
  0
VISUALSTYLE
  5
2B
102
{ACAD_XDICTIONARY
360
95F
102
}
102
{ACAD_REACTORS
330
29
102
}
330
29
100
AcDbVisualStyle
  2
FlatWithEdges
 70
     1
177
     2
291
     1
 71
     2
176
     1
 72
     1
176
     1
 73
     1
176
     1
 90
        2
176
     1
 40
0.6
176
     1
 41
30.0
176
     1
 63
     7
421
 16777215
176
     1
 74
     1
176
     1
 91
        0
176
     1
 64
     7
176
     1
 65
   257
176
     1
 75
     1
176
     1
175
     1
176
     1
 42
1.0
176
     1
 92
        0
176
     1
 66
   257
176
     1
 43
1.0
176
     1
 76
     1
176
     1
 77
     6
176
     1
 78
     2
176
     1
 67
     7
176
     1
 79
     5
176
     1
170
     0
176
     1
171
     0
176
     1
290
     0
176
     1
 93
       13
176
     1
 44
0.0
176
     1
173
     0
176
     1
1001
ACAD
1000
AcDbSavedByObjectVersion
1070
     0
  0
VISUALSTYLE
  5
2C
102
{ACAD_XDICTIONARY
360
961
102
}
102
{ACAD_REACTORS
330
29
102
}
330
29
100
AcDbVisualStyle
  2
Gouraud
 70
     2
177
     2
291
     1
 71
     2
176
     1
 72
     2
176
     1
 73
     1
176
     1
 90
        2
176
     1
 40
0.6
176
     1
 41
30.0
176
     1
 63
     7
421
 16777215
176
     1
 74
     0
176
     1
 91
        0
176
     1
 64
     7
176
     1
 65
   257
176
     1
 75
     1
176
     1
175
     1
176
     1
 42
1.0
176
     1
 92
        0
176
     1
 66
     7
176
     1
 43
1.0
176
     1
 76
     1
176
     1
 77
     6
176
     1
 78
     2
176
     1
 67
     7
176
     1
 79
     5
176
     1
170
     0
176
     1
171
     0
176
     1
290
     0
176
     1
 93
       13
176
     1
 44
0.0
176
     1
173
     0
176
     1
1001
ACAD
1000
AcDbSavedByObjectVersion
1070
     0
  0
VISUALSTYLE
  5
2D
102
{ACAD_XDICTIONARY
360
963
102
}
102
{ACAD_REACTORS
330
29
102
}
330
29
100
AcDbVisualStyle
  2
GouraudWithEdges
 70
     3
177
     2
291
     1
 71
     2
176
     1
 72
     2
176
     1
 73
     1
176
     1
 90
        2
176
     1
 40
0.6
176
     1
 41
30.0
176
     1
 63
     7
421
 16777215
176
     1
 74
     1
176
     1
 91
        0
176
     1
 64
     7
176
     1
 65
   257
176
     1
 75
     1
176
     1
175
     1
176
     1
 42
1.0
176
     1
 92
        0
176
     1
 66
   257
176
     1
 43
1.0
176
     1
 76
     1
176
     1
 77
     6
176
     1
 78
     2
176
     1
 67
     7
176
     1
 79
     5
176
     1
170
     0
176
     1
171
     0
176
     1
290
     0
176
     1
 93
       13
176
     1
 44
0.0
176
     1
173
     0
176
     1
1001
ACAD
1000
AcDbSavedByObjectVersion
1070
     0
  0
VISUALSTYLE
  5
31
102
{ACAD_XDICTIONARY
360
96B
102
}
102
{ACAD_REACTORS
330
29
102
}
330
29
100
AcDbVisualStyle
  2
Hidden
 70
     6
177
     2
291
     0
 71
     1
176
     1
 72
     2
176
     1
 73
     2
176
     1
 90
        0
176
     1
 40
0.6
176
     1
 41
30.0
176
     1
 63
     7
421
 16777215
176
     1
 74
     2
176
     1
 91
        2
176
     1
 64
     7
176
     1
 65
   257
176
     1
 75
     2
176
     1
175
     1
176
     1
 42
40.0
176
     1
 92
        0
176
     1
 66
   257
176
     1
 43
1.0
176
     1
 76
     1
176
     1
 77
     6
176
     1
 78
     2
176
     1
 67
     7
176
     1
 79
     3
176
     1
170
     0
176
     1
171
     0
176
     1
290
     0
176
     1
 93
        1
176
     1
 44
0.0
176
     1
173
     0
176
     1
1001
ACAD
1000
AcDbSavedByObjectVersion
1070
     0
  0
VISUALSTYLE
  5
3F
102
{ACAD_XDICTIONARY
360
987
102
}
102
{ACAD_REACTORS
330
29
102
}
330
29
100
AcDbVisualStyle
  2
JitterOff
 70
    20
177
     2
291
     1
 71
     2
176
     0
 72
     2
176
     0
 73
     0
176
     0
 90
        0
176
     0
 40
0.6
176
     0
 41
30.0
176
     0
 63
     7
421
 16777215
176
     0
 74
     1
176
     0
 91
        4
176
     0
 64
     7
176
     0
 65
   257
176
     0
 75
     1
176
     0
175
     1
176
     0
 42
1.0
176
     0
 92
       10
176
     2
 66
     7
176
     0
 43
1.0
176
     0
 76
     1
176
     0
 77
     6
176
     0
 78
     2
176
     0
 67
     7
176
     0
 79
     5
176
     0
170
     0
176
     0
171
     0
176
     0
290
     0
176
     0
 93
        1
176
     0
 44
0.0
176
     0
173
     0
176
     0
1001
ACAD
1000
AcDbSavedByObjectVersion
1070
     0
  0
VISUALSTYLE
  5
37
102
{ACAD_XDICTIONARY
360
977
102
}
102
{ACAD_REACTORS
330
29
102
}
330
29
100
AcDbVisualStyle
  2
Linepattern
 70
    14
177
     2
291
     1
 71
     2
176
     1
 72
     2
176
     1
 73
     0
176
     1
 90
        0
176
     1
 40
0.6
176
     1
 41
30.0
176
     1
 63
     7
421
 16777215
176
     1
 74
     1
176
     1
 91
        4
176
     1
 64
     7
176
     1
 65
   257
176
     1
 75
     7
176
     1
175
     7
176
     1
 42
1.0
176
     1
 92
        8
176
     1
 66
     7
176
     1
 43
1.0
176
     1
 76
     1
176
     1
 77
     6
176
     1
 78
     2
176
     1
 67
     7
176
     1
 79
     5
176
     1
170
     0
176
     1
171
     0
176
     1
290
     0
176
     1
 93
        1
176
     1
 44
0.0
176
     1
173
     0
176
     1
1001
ACAD
1000
AcDbSavedByObjectVersion
1070
     0
  0
VISUALSTYLE
  5
40
102
{ACAD_XDICTIONARY
360
989
102
}
102
{ACAD_REACTORS
330
29
102
}
330
29
100
AcDbVisualStyle
  2
OverhangOff
 70
    21
177
     2
291
     1
 71
     2
176
     0
 72
     2
176
     0
 73
     0
176
     0
 90
        0
176
     0
 40
0.6
176
     0
 41
30.0
176
     0
 63
     7
421
 16777215
176
     0
 74
     1
176
     0
 91
        4
176
     0
 64
     7
176
     0
 65
   257
176
     0
 75
     1
176
     0
175
     1
176
     0
 42
1.0
176
     0
 92
        9
176
     2
 66
     7
176
     0
 43
1.0
176
     0
 76
     1
176
     0
 77
     6
176
     0
 78
     2
176
     0
 67
     7
176
     0
 79
     5
176
     0
170
     0
176
     0
171
     0
176
     0
290
     0
176
     0
 93
        1
176
     0
 44
0.0
176
     0
173
     0
176
     0
1001
ACAD
1000
AcDbSavedByObjectVersion
1070
     0
  0
VISUALSTYLE
  5
33
102
{ACAD_XDICTIONARY
360
96F
102
}
102
{ACAD_REACTORS
330
29
102
}
330
29
100
AcDbVisualStyle
  2
Realistic
 70
     8
177
     2
291
     0
 71
     2
176
     1
 72
     3
176
     1
 73
     0
176
     1
 90
        2
176
     1
 40
0.6
176
     1
 41
30.0
176
     1
 63
     7
421
 16777215
176
     1
 74
     0
176
     1
 91
        0
176
     1
 64
     7
176
     1
 65
   257
176
     1
 75
     1
176
     1
175
     1
176
     1
 42
1.0
176
     1
 92
        8
176
     1
 66
   257
176
     1
 43
1.0
176
     1
 76
     1
176
     1
 77
     6
176
     1
 78
     2
176
     1
 67
     7
176
     1
 79
     3
176
     1
170
     0
176
     1
171
     0
176
     1
290
     0
176
     1
 93
       13
176
     1
 44
0.0
176
     1
173
     0
176
     1
1001
ACAD
1000
AcDbSavedByObjectVersion
1070
     0
  0
VISUALSTYLE
  5
3E
102
{ACAD_XDICTIONARY
360
985
102
}
102
{ACAD_REACTORS
330
29
102
}
330
29
100
AcDbVisualStyle
  2
Shaded
 70
    27
177
     2
291
     0
 71
     2
176
     1
 72
     2
176
     1
 73
     1
176
     1
 90
        2
176
     1
 40
0.6
176
     1
 41
30.0
176
     1
 63
     7
421
 16777215
176
     1
 74
     0
176
     1
 91
        4
176
     1
 64
     7
176
     1
 65
   257
176
     1
 75
     1
176
     1
175
     1
176
     1
 42
1.0
176
     1
 92
        8
176
     1
 66
   257
176
     1
 43
1.0
176
     1
 76
     1
176
     1
 77
     6
176
     1
 78
     2
176
     1
 67
     8
425
  7895160
176
     1
 79
     3
176
     1
170
     0
176
     1
171
     0
176
     1
290
     0
176
     1
 93
        5
176
     1
 44
0.0
176
     1
173
     0
176
     1
1001
ACAD
1000
AcDbSavedByObjectVersion
1070
     0
  0
VISUALSTYLE
  5
3D
102
{ACAD_XDICTIONARY
360
983
102
}
102
{ACAD_REACTORS
330
29
102
}
330
29
100
AcDbVisualStyle
  2
Shaded with edges
 70
    26
177
     2
291
     0
 71
     2
176
     1
 72
     2
176
     1
 73
     1
176
     1
 90
        2
176
     1
 40
0.6
176
     1
 41
30.0
176
     1
 63
     7
421
 16777215
176
     1
 74
     1
176
     1
 91
       10
176
     1
 64
     7
176
     1
 65
   257
176
     1
 75
     2
176
     1
175
     1
176
     1
 42
1.0
176
     1
 92
        8
176
     1
 66
   257
176
     1
 43
1.0
176
     1
 76
     1
176
     1
 77
     6
176
     1
 78
     2
176
     1
 67
     7
176
     1
 79
     3
176
     1
170
     0
176
     1
171
     0
176
     1
290
     0
176
     1
 93
        5
176
     1
 44
0.0
176
     1
173
     0
176
     1
1001
ACAD
1000
AcDbSavedByObjectVersion
1070
     0
  0
VISUALSTYLE
  5
3A
102
{ACAD_XDICTIONARY
360
97D
102
}
102
{ACAD_REACTORS
330
29
102
}
330
29
100
AcDbVisualStyle
  2
Shades of Gray
 70
    23
177
     2
291
     0
 71
     2
176
     1
 72
     2
176
     1
 73
     3
176
     1
 90
        0
176
     1
 40
0.6
176
     1
 41
30.0
176
     1
 63
     7
421
 16777215
176
     1
 74
     2
176
     1
 91
        2
176
     1
 64
     7
176
     1
 65
     7
176
     1
 75
     1
176
     1
175
     1
176
     1
 42
40.0
176
     1
 92
        8
176
     1
 66
     7
176
     1
 43
1.0
176
     1
 76
     1
176
     1
 77
     6
176
     1
 78
     2
176
     1
 67
     7
176
     1
 79
     3
176
     1
170
     0
176
     1
171
     0
176
     1
290
     0
176
     1
 93
        1
176
     1
 44
0.0
176
     1
173
     0
176
     1
1001
ACAD
1000
AcDbSavedByObjectVersion
1070
     0
  0
VISUALSTYLE
  5
3B
102
{ACAD_XDICTIONARY
360
97F
102
}
102
{ACAD_REACTORS
330
29
102
}
330
29
100
AcDbVisualStyle
  2
Sketchy
 70
    24
177
     2
291
     0
 71
     1
176
     1
 72
     2
176
     1
 73
     2
176
     1
 90
        0
176
     1
 40
0.6
176
     1
 41
30.0
176
     1
 63
     7
421
 16777215
176
     1
 74
     2
176
     1
 91
        2
176
     1
 64
     7
176
     1
 65
     7
176
     1
 75
     1
176
     1
175
     1
176
     1
 42
40.0
176
     1
 92
       11
176
     1
 66
     7
176
     1
 43
1.0
176
     1
 76
     1
176
     1
 77
     6
176
     1
 78
     2
176
     1
 67
     7
176
     1
 79
     6
176
     1
170
     0
176
     1
171
     0
176
     1
290
     0
176
     1
 93
        1
176
     1
 44
0.0
176
     1
173
     0
176
     1
1001
ACAD
1000
AcDbSavedByObjectVersion
1070
     0
  0
VISUALSTYLE
  5
36
102
{ACAD_XDICTIONARY
360
975
102
}
102
{ACAD_REACTORS
330
29
102
}
330
29
100
AcDbVisualStyle
  2
Thicken
 70
    13
177
     2
291
     1
 71
     2
176
     1
 72
     2
176
     1
 73
     0
176
     1
 90
        0
176
     1
 40
0.6
176
     1
 41
30.0
176
     1
 63
     7
421
 16777215
176
     1
 74
     1
176
     1
 91
        4
176
     1
 64
     7
176
     1
 65
   257
176
     1
 75
     1
176
     1
175
     1
176
     1
 42
1.0
176
     1
 92
       12
176
     1
 66
     7
176
     1
 43
1.0
176
     1
 76
     1
176
     1
 77
     6
176
     1
 78
     2
176
     1
 67
     7
176
     1
 79
     5
176
     1
170
     0
176
     1
171
     0
176
     1
290
     0
176
     1
 93
        1
176
     1
 44
0.0
176
     1
173
     0
176
     1
1001
ACAD
1000
AcDbSavedByObjectVersion
1070
     0
  0
VISUALSTYLE
  5
30
102
{ACAD_XDICTIONARY
360
969
102
}
102
{ACAD_REACTORS
330
29
102
}
330
29
100
AcDbVisualStyle
  2
Wireframe
 70
     5
177
     2
291
     0
 71
     0
176
     1
 72
     2
176
     1
 73
     0
176
     1
 90
        0
176
     1
 40
0.6
176
     1
 41
30.0
176
     1
 63
     7
421
 16777215
176
     1
 74
     1
176
     1
 91
        4
176
     1
 64
     7
176
     1
 65
   257
176
     1
 75
     1
176
     1
175
     1
176
     1
 42
1.0
176
     1
 92
        0
176
     1
 66
   257
176
     1
 43
1.0
176
     1
 76
     1
176
     1
 77
     6
176
     1
 78
     2
176
     1
 67
     7
176
     1
 79
     3
176
     1
170
     0
176
     1
171
     0
176
     1
290
     0
176
     1
 93
        1
176
     1
 44
0.0
176
     1
173
     0
176
     1
1001
ACAD
1000
AcDbSavedByObjectVersion
1070
     0
  0
VISUALSTYLE
  5
3C
102
{ACAD_XDICTIONARY
360
981
102
}
102
{ACAD_REACTORS
330
29
102
}
330
29
100
AcDbVisualStyle
  2
X-Ray
 70
    25
177
     2
291
     0
 71
     2
176
     1
 72
     2
176
     1
 73
     1
176
     1
 90
        1
176
     1
 40
0.5
176
     1
 41
30.0
176
     1
 63
     7
421
 16777215
176
     1
 74
     1
176
     1
 91
        0
176
     1
 64
     7
176
     1
 65
   257
176
     1
 75
     1
176
     1
175
     1
176
     1
 42
1.0
176
     1
 92
        8
176
     1
 66
     7
176
     1
 43
1.0
176
     1
 76
     1
176
     1
 77
     6
176
     1
 78
     2
176
     1
 67
     7
176
     1
 79
     3
176
     1
170
     0
176
     1
171
     0
176
     1
290
     0
176
     1
 93
       13
176
     1
 44
0.0
176
     1
173
     0
176
     1
1001
ACAD
1000
AcDbSavedByObjectVersion
1070
     0
  0
DICTIONARYVAR
  5
74C
102
{ACAD_REACTORS
330
747
102
}
330
747
100
DictionaryVariables
280
     0
  1
1:1
  0
DICTIONARYVAR
  5
749
102
{ACAD_REACTORS
330
747
102
}
330
747
100
DictionaryVariables
280
     0
  1
STANDARD
  0
DICTIONARYVAR
  5
748
102
{ACAD_REACTORS
330
747
102
}
330
747
100
DictionaryVariables
280
     0
  1
STANDARD
  0
DICTIONARYVAR
  5
74A
102
{ACAD_REACTORS
330
747
102
}
330
747
100
DictionaryVariables
280
     0
  1
Imperial24
  0
DICTIONARYVAR
  5
74B
102
{ACAD_REACTORS
330
747
102
}
330
747
100
DictionaryVariables
280
     0
  1
Imperial24
  0
DICTIONARY
  5
1A
330
19
100
AcDbDictionary
280
     1
281
     1
  3
BUMPTILE
360
1C
  3
DIFFUSETILE
360
1B
  3
OPACITYTILE
360
1F
  3
REFLECTIONTILE
360
1E
  3
REFRACTIONTILE
360
20
  3
SPECULARTILE
360
1D
  0
DICTIONARY
  5
12
330
11
100
AcDbDictionary
280
     1
281
     1
  3
BUMPTILE
360
14
  3
DIFFUSETILE
360
13
  3
FBXASSET
360
E1
  3
OPACITYTILE
360
17
  3
REFLECTIONTILE
360
16
  3
REFRACTIONTILE
360
18
  3
SPECULARTILE
360
15
  0
DICTIONARY
  5
22
330
21
100
AcDbDictionary
280
     1
281
     1
  3
BUMPTILE
360
24
  3
DIFFUSETILE
360
23
  3
OPACITYTILE
360
27
  3
REFLECTIONTILE
360
26
  3
REFRACTIONTILE
360
28
  3
SPECULARTILE
360
25
  0
DICTIONARY
  5
98D
330
67
100
AcDbDictionary
280
     1
281
     1
  3
ACAD_XREC_ROUNDTRIP
360
98E
  0
DICTIONARY
  5
74D
330
65
100
AcDbDictionary
280
     1
281
     1
  3
ACAD_ROUNDTRIP_2008_TABLESTYLE_CELLSTYLEMAP
360
8A0
  0
DICTIONARY
  5
967
330
2F
100
AcDbDictionary
280
     1
281
     1
  3
ACAD_XREC_ROUNDTRIP
360
968
  0
DICTIONARY
  5
965
330
2E
100
AcDbDictionary
280
     1
281
     1
  3
ACAD_XREC_ROUNDTRIP
360
966
  0
DICTIONARY
  5
973
330
35
100
AcDbDictionary
280
     1
281
     1
  3
ACAD_XREC_ROUNDTRIP
360
974
  0
DICTIONARY
  5
97B
330
39
100
AcDbDictionary
280
     1
281
     1
  3
ACAD_XREC_ROUNDTRIP
360
97C
  0
DICTIONARY
  5
96D
330
32
100
AcDbDictionary
280
     1
281
     1
  3
ACAD_XREC_ROUNDTRIP
360
96E
  0
DICTIONARY
  5
971
330
34
100
AcDbDictionary
280
     1
281
     1
  3
ACAD_XREC_ROUNDTRIP
360
972
  0
DICTIONARY
  5
98B
330
41
100
AcDbDictionary
280
     1
281
     1
  3
ACAD_XREC_ROUNDTRIP
360
98C
  0
DICTIONARY
  5
979
330
38
100
AcDbDictionary
280
     1
281
     1
  3
ACAD_XREC_ROUNDTRIP
360
97A
  0
DICTIONARY
  5
95D
330
2A
100
AcDbDictionary
280
     1
281
     1
  3
ACAD_XREC_ROUNDTRIP
360
95E
  0
DICTIONARY
  5
95F
330
2B
100
AcDbDictionary
280
     1
281
     1
  3
ACAD_XREC_ROUNDTRIP
360
960
  0
DICTIONARY
  5
961
330
2C
100
AcDbDictionary
280
     1
281
     1
  3
ACAD_XREC_ROUNDTRIP
360
962
  0
DICTIONARY
  5
963
330
2D
100
AcDbDictionary
280
     1
281
     1
  3
ACAD_XREC_ROUNDTRIP
360
964
  0
DICTIONARY
  5
96B
330
31
100
AcDbDictionary
280
     1
281
     1
  3
ACAD_XREC_ROUNDTRIP
360
96C
  0
DICTIONARY
  5
987
330
3F
100
AcDbDictionary
280
     1
281
     1
  3
ACAD_XREC_ROUNDTRIP
360
988
  0
DICTIONARY
  5
977
330
37
100
AcDbDictionary
280
     1
281
     1
  3
ACAD_XREC_ROUNDTRIP
360
978
  0
DICTIONARY
  5
989
330
40
100
AcDbDictionary
280
     1
281
     1
  3
ACAD_XREC_ROUNDTRIP
360
98A
  0
DICTIONARY
  5
96F
330
33
100
AcDbDictionary
280
     1
281
     1
  3
ACAD_XREC_ROUNDTRIP
360
970
  0
DICTIONARY
  5
985
330
3E
100
AcDbDictionary
280
     1
281
     1
  3
ACAD_XREC_ROUNDTRIP
360
986
  0
DICTIONARY
  5
983
330
3D
100
AcDbDictionary
280
     1
281
     1
  3
ACAD_XREC_ROUNDTRIP
360
984
  0
DICTIONARY
  5
97D
330
3A
100
AcDbDictionary
280
     1
281
     1
  3
ACAD_XREC_ROUNDTRIP
360
97E
  0
DICTIONARY
  5
97F
330
3B
100
AcDbDictionary
280
     1
281
     1
  3
ACAD_XREC_ROUNDTRIP
360
980
  0
DICTIONARY
  5
975
330
36
100
AcDbDictionary
280
     1
281
     1
  3
ACAD_XREC_ROUNDTRIP
360
976
  0
DICTIONARY
  5
969
330
30
100
AcDbDictionary
280
     1
281
     1
  3
ACAD_XREC_ROUNDTRIP
360
96A
  0
DICTIONARY
  5
981
330
3C
100
AcDbDictionary
280
     1
281
     1
  3
ACAD_XREC_ROUNDTRIP
360
982
  0
XRECORD
  5
1C
102
{ACAD_REACTORS
330
1A
102
}
330
1A
100
AcDbXrecord
280
     1
270
     1
271
     1
  0
XRECORD
  5
1B
102
{ACAD_REACTORS
330
1A
102
}
330
1A
100
AcDbXrecord
280
     1
270
     1
271
     1
  0
XRECORD
  5
1F
102
{ACAD_REACTORS
330
1A
102
}
330
1A
100
AcDbXrecord
280
     1
270
     1
271
     1
  0
XRECORD
  5
1E
102
{ACAD_REACTORS
330
1A
102
}
330
1A
100
AcDbXrecord
280
     1
270
     1
271
     1
  0
XRECORD
  5
20
102
{ACAD_REACTORS
330
1A
102
}
330
1A
100
AcDbXrecord
280
     1
270
     1
271
     1
  0
XRECORD
  5
1D
102
{ACAD_REACTORS
330
1A
102
}
330
1A
100
AcDbXrecord
280
     1
270
     1
271
     1
  0
XRECORD
  5
14
102
{ACAD_REACTORS
330
12
102
}
330
12
100
AcDbXrecord
280
     1
270
     1
271
     1
  0
XRECORD
  5
13
102
{ACAD_REACTORS
330
12
102
}
330
12
100
AcDbXrecord
280
     1
270
     1
271
     1
  0
XRECORD
  5
E1
102
{ACAD_REACTORS
330
12
102
}
330
12
100
AcDbXrecord
280
     1
 70
     1
 90
1959938040
 71
     1
  1
DC892143-D488-48B6-8890-10D1F1376EEB
311
504B03040A0000080000C16C7B433DEE336E79000000790000001B0000006175746F6465736B2D64657369676E2D7061636B6167652E786D6C3C3F786D6C2076657273696F6E3D22312E302220656E636F64696E673D227574662D3822203F3E3C666F726D6174733E3C666F726D61743E687474703A2F2F736368656D612E
311
6175746F6465736B2E636F6D2F64657369676E2D7061636B6167652F323030393C2F666F726D61743E3C2F666F726D6174733E504B0304140006080800C16C7B43FAA28935A700000035010000130000005B436F6E74656E745F54797065735D2E786D6CA58FC10E823010447FA5D93B143D1863281ED43FE0076ADD4223DD
311
36ED62F0EF2DE16ABC78DC9DC99B99F6BCF849BC30651748C1AE6E402099F070342898D9564710E7AEEDDF11B3285ECA0A46E67892329B11BDCE75884845B12179CDE54C838CDA3CF58072DF34076902311257BC32A06BAF68F53CB1B82DE5BDE5DE1D81B86CBEBED814E818276734975A321846AE3227D41EE4578023FB1F
311
A00CF80158D5122CD76EB9FB00504B0304140006080800C16C7B431CD9C503FA0000009701000008000000636F72652E786D6C8D905D6EC3201084AF82F6B5C206EC34B1858912B739412F8030715062B0F8897AFCE2C491DAB73EED6A988F1D0DDF7F4F3774D73E18673BA00501A4AD7283B16307299EF10ED05E70EF5CFC
311
650364E5A43B5864107CF42ECDABA49C8DDAC6AC5A37E8559421E80848DDF2D24150173DC942A6981DE15ACC525DE5A80BFADA329C9219D0F38819F27FE66CB407417ACAEA4F76C027F6B1C1F591EC7053BFF7B8D934FD71DB1F4E55DFF07281058F667ADD575ECBA807108CD00A538AD9F68B566DB56B097B23B42584978B
311
FD0F94E6E19F503236566C8DFBC402089A833C1E040FD1E74257432E21A220EF394F2978B9D494C7A3C33C974AC50F504B0304140006080800C16C7B435A8716717E0000009D00000007000000636E782E786D6C4DCCDF0A83201C86E15B91DFB9EBCF2C12D470CEEE239685643A9C8E5DFE6A74B0A30F1E3E5ED67F3687DE
311
26BE6CF01CAA4B09C8F84798AC5F38E434E30E502F580C21FDDD00F971331C0E06C19618F2F3A4C9CC6376695767FD7A62AB2B25497BC794D61A135937B823A4C3E5D05C6F520F4AD1120AC18A5F69DF232CBE504B0304140006080800C16C7B4308CD98AB2B0100001E0200002D00000036453143413436442D393932452D
311
344132352D383434382D3046353342414546434339302F636F72652E786D6C8D515B72C22014DD0AC3979D0E4948A24687E058AB2BE806305C2DA3810C8F8ECB2F34D1B67FFE84CCB9F73CE0B0CDADBFA22FB04E19DD629A151881EE8C54FADCE2E04FA4C168C39935C6FF59C3488B1E5A9C60CCD9D99A304C5067B407ED23
311
AA8D840914CE81C7A8BBC69F16BBEE137A9189E0E386BB6483E82EE20C19CDE238EE71E6BC8D01D06892BE982FF674B7AD17EF64B52AF7A4DE9673D2D475438AC3BC7ADBEE0FBBDDAA60F948E42C042527BA92318E3A29B0CF8A2432675EF5F7F89D05E141625E16B422949272F941AB75D5AC8BF2B5A0EB223AA7F57FA430
311
C8274941695F9553DC91E630A72C1F079C49138ED77B18B80DC67A94FC660EBA179CC7EB4685453D29386F6C7CCED9E5F8983DD4A13F824466F0B16ECCE7BF16796A8BB3FCA7CA78A666F937504B0304140006080800C16C7B436A77868595000000F50000002C00000036453143413436442D393932452D344132352D3834
311
34382D3046353342414546434339302F636E782E786D6C5D8E4B0EC2300C44AF12795F023B164E2A246EC00942E396887C503E88E313438550375EBC9979328EAFE0C5937271292A38ECF620284EC9BAB82868751E8E20468D39A5FA5703114D20058C41E392537BACC8D26C9AAF9D7A17EF2B3C9542F56CAAE99897C2A7C9
311
F82EA038B402FA97A3E458A3E4B146BEABE232DD2898DE456E6C0514AE642D5951BEB58D477E3EEC5A7E58BF01504B0304140006080800C16C7B435FCEF9D8FE000000A00100003700000036453143413436442D393932452D344132352D383434382D3046353342414546434339302F4173736574446174612F636F72652E
311
786D6C8D504B6E833010BD0A9A6D65B00D4900194709694ED00B58E0102BC146FE543D7EED40A576D78DC77A9F99A7C78E5FF333FB94D629A33B2039864CEAC18C4A4F1D047F43356447CEAC31FE970C322D66D9418281B3C99AB06CD060B497DA47549B516EA0704E7AC88667FC74E086BB9C452E828F0AF7C817313CC424
311
7392473AEA3873DEC600D97A24BDC04F69C54578C18A95E52C04356E1A35C69BEAA6A4058E7B42AB77DAA02BBDEC5075C6356AAA7D8F9A5DD39F0FFDE95AF60D2B929933AFE69F8C8395C2CB1138C5A44484207AF820655BD62DA66F98B418B322C9FF98C232FED31494F625DDE2AE36077C1F83BC08CE8AD4571CAF32E34C
311
DDF26F504B0304140006080800C16C7B438318177C76010000860500003600000036453143413436442D393932452D344132352D383434382D3046353342414546434339302F4173736574446174612F636E782E786D6CD5543D6FC32010FD2B88B5F25732348A3051D52E9952A9517782CF290A060BCE55FBEF0B36912355
311
9932B459001DEFBD3B9E8E639BAF4E934F705E5953D32A2F2901236DA3CCB1A603B6D98A920D67CE5ABC8051624407358D61CAD9D1D9A14FA1065A31680C51ADCC29055FA0554661C8B1457002AD7B75B607870A3C25520BEF6BEAE50774221703DA06FC296F048ABCCA1D783B380941312625DA4AA1436E30D9E0299FA5C9
311
599BCCE2AC881CCE06A7483CD534AE97AC3369E6E407655811189C7974C188C4C4EF3E1421FA5E2B29E25B0A2B11300B20101D2BC21EC09CA1EA2051A40381D050BE28AB655655D9E2715F2DD7CBD5BA5C3C94D5BA2C5911E19C1DACD589A44CF0C8F644DA7030487900C56BCE8A682967714DD8ADF1288C84B9FA3FB1F377
311
19F764E293F7807B71D0B06B9F27D36FEDCA51928C9A64D792B3EAB5761CE1237AAEE09E1C7CC3D0E8DDFB3446C677DCD8869320498A7E72F29A7B133861C7ECB932EDBFFEC2C53832C38F7661B0F21F504B0304140006080800C16C7B4389EB2B6484000000200100004F00000036453143413436442D393932452D344132
311
352D383434382D3046353342414546434339302F4173736574446174612F446566696E6974696F6E4974657261746F7250726F706572746965732E62696EEB6058C5F21F0A18808011881B1818197881B47B6A5E6A5166727072466A6E22033B50C4A9D227B132B508C4844A320145415C97D4B4C4D29C129036DFCCE2E4D4
311
9C9CC4BCD4FCD26241A03C54A9426E6209D0BCC41C3D90264EA0044CA01864423AC43646A0B8040303C849924026836F6249718C3B442E261D42EB15E4A583E4E88001504B0304140006080800C16C7B435DB0FFB3F3000000300200004500000036453143413436442D393932452D344132352D383434382D304635334241
311
4546434339302F4173736574446174612F496E7374616E636550726F706572746965732E62696EEB6058C5F21F0A18808011881B1818197881B47B6A5E6A5166727072466A6EA20A50C0C5D9C2D2C8D0C458D7C5C4C242D7C4C2C94CD7C2C2D240D7D0C0C5D0CDD0D8DCCCD5D5891DA80EAA11A4C5D8D0C4C5D5C8D452D7D4
311
04A8CFC4CCC850D7C9CDC945D7D0DCD8C0D9CCD9D9D2D1D512642783664CFFA1AF1A57ECA13413D0980606060618DF1EC806A20FF640B701690606010706010638507160C00F801A210AE00C081793842B003398810A1A18C0E001D40D3C601E3A010A4384CC07A85A74550C0C293B1D18F002EC5A41C683C213A4F5833D0B
311
906204623E200E2E4F2C49CED0752A4ACC4B494D01B9172848330400504B0304140006080800C16C7B4394C7C64851000000570000004700000036453143413436442D393932452D344132352D383434382D3046353342414546434339302F4173736574446174612F41737365745461626C654F66436F6E74656E74732E62
311
696E536160607071B6B034323431D67531B1B0D035B17032D3B5B0B034D03534703174333436377375751202AACB4D2C492DCA4CCC492C28484D2C4ACC4B4E050A82112F90744FCD03CA26072767A4E6260200504B0304140006080800C16C7B43F865834058000000680000004500000036453143413436442D393932452D
311
344132352D383434382D3046353342414546434339302F4173736574446174612F53747265616D56657273696F6E5461626C652E696E66558CBD0A80300C06F73E4B117FB66E451741D041DC5BF98480A492E4FDD18EAEC7DD4555D89EF28DF51A0B1BD8340C4DE7DD848B988C0ACF0649566493F2408C508DDEBB99D5129F
311
F8F1AF8CF5B9503E20FAE5A16B5AF702504B0304140006080800C16C7B438F0F4035FC0000009E0100003500000036453143413436442D393932452D344132352D383434382D3046353342414546434339302F536368656D61732F636F72652E786D6C8D50596E833010BD0A9ADFCA601BD200328E12DA5CA0BD80851D6A25
311
D8C84BD5E3D72C95DABFFECC8CDEA2797AECF4353DB24FE5BCB6A6039263C89419ACD466EC20861BAA213B71E6AC0DBF64901931A90E1618381B9D8DF30E0DD6046542428D956A0785F72A40363CD2D1811F3ED42472114352F87B3E8BE12E4695933CD149C7990F2E05C8B627CB04FEB69A3C2B368EB318B5DC155AA68FFA
311
A695038E7B42AB577A4657FA7240D505D7A8A99E7BD41C9AFE72ECCFD7B26F58B198390B7AFA493838258292C02926252204D1E33B29DBB26E317DC2A4C598158BFC8F29CEF29FA6A84D28E91E77B379E024055909CE8AA5ADB4D62AD35E9AE5DF504B0304140006080800C16C7B435EA2188727010000D303000034000000
311
36453143413436442D393932452D344132352D383434382D3046353342414546434339302F536368656D61732F636E782E786D6CD593CF4E032110C65F857035FB87EDC1A661E9A1074F5EAC2F80ECB492B2CC6600A36F2F6C39D4C4AB462F84197EC397F960E4FE7D76EC0D2858F423176DCF19788393F5E791A7786AB69C
311
ED9524C4788371E6F50C232F69AEE499302D3535C149271773D6597FA9C903CE33FAA379855973669C0E61E4610D5B9D224E102EEDA4A36E454B103091817C4311610E8D76590B7C930257C7B58A9DAC03D91540C944B6EA9498AB5BB536F727BB4C281922E5AE2A193F96ACA097C559A3636EBE5BC12BA364B43354D210E8
311
081357432F368D10CD70FF2C36BBCD76D70F77BDD8F5BDEC0AAEE40BA2AB45D647205C98C1BCF191AB0C956325BB628B9265ADEC0378206BAE8DFDBC3B5FE4FE813D4FE027A0C7FC0664B5FB2D97BE53FDAB6675EBFCE5AF45794AD527504B0304140006080800C16C7B432F7B2A8D8D0100005E0600003D00000036453143
311
413436442D393932452D344132352D383434382D3046353342414546434339302F536368656D61732F436F6D6D6F6E536368656D612E786D6CC5944D6EC2301085F79C22F20550BB4E90A0486D24D44551BA1FE201AC3A76E43841B97D9D716A151228B448CD2A9267BE37CF3F2F9E5715DA75BEC702669388BE384B975103
311
32614FBA28B4F2AB6C3689A76E2554ADAD116A17099EB00554D8574565BD91224FD81664852CE2B8154A58A1556AD180D566091612664DED569B4E85C89E16E0A9B2B84343744F7E4753390A3B1530085C2BD91E211F89D94302D46B10936CAFC4265D326F95451236E83C7F5BE91CFB9E3104743B67DBD2D938F13C3A124D
311
749E26750EF22A1A551EB9BD06ADA0F879D09BD159FA3AC6BD7CE837AB7C607BD0860F8E1EA4D487A296569412DD55AAB1FADA973B4F9083BB8EDAB4FF3802C72A37A2EC5ED2608A7BB8CDDE56F432ECBE2E360A841CA8FC7ABBDDD1248C2EA913094F69A1B5445024FA2238473550BCEC8BB05B8A99EEA5F6BCC0CF6AC109
311
DE27C7B30BAFDF28F8C11D2C90FB5C21787326969A2ED91EA8B72F1F6D37D888D158BBD0EF3691A49D9F10AE0363E733C8B58751DC3FA1E6BC019523FF2B329ECEBB54F4893D9B7C02504B0304140006080800C16C7B437229482E27050000001600003E00000036453143413436442D393932452D344132352D383434382D
311
3046353342414546434339302F536368656D61732F47656E65726963536368656D612E786D6CDD586D4FE33810FECEAFB0F27D4BCB1DAB5BA9456A41F4FA0171A2705F2D37718AEF9CA4B29D42EFD7DF783C3549CBB601F676B587549197F1CC3CF3F278E2E1D85AE9E6E9A32CC4C509C3BFE1C3EC8AAD851E2553594AA3D2
311
F03AB938199EC2AB2836115606B93B5966D2DC0807D24237C4BD4894779B15C9172429562B298C285389CABD40949E954E2EA5612A1B2541E39FD2585595095BD50BADD251920B6D65C28C145955EACD2871A686FBB5777D801A4949543A7746954BD4A9AB54686FF1A83E946C291FB7FD0E5ABF6AA414057875C4E97D2314
311
7CC4B1636152555A8A1271A495AE0C5F6C78B5F84BA62E0919C94368B45848C8E3A59761930DBB0D323E93A4237A1D647CB49721EB3C53795EFB000BADABA7B42A4BD02F33E12BC68E120B91D4006C2DF4DD28E9F77E199CA3F169F366D2BC198F9241C29A3E2138B41CFDB8D69570886CC70FAE0AB1943C1799443B4D6533
311
FF8A5DFB57172754C68C0D27555D6696ADA44965E960F5368BAA4C8D2CE09955FF485454A852157501EE268CAE15204C756DD51A44426915E23948010EBADE970AD1F59623A85344156FF1AE85D1C85C4374D55AB90D178EF733B94CD8D1C0A3BB14D0BB860A8C2B5A7983CD2FDFC3E8525716E22AADED06AF771E2B66FAB2
311
D487B80D8FCAB915546579219DD0542E79AB277E57CB470D3F673158B4FE40B81C10955D0923CB74D3CDF7E8F97D73E9CF59A0AE01E1FFDE8946A40E361AAE60577BA6E219F4CECF623EA1D548066AE720DD50CD1DE29B5EDF9349A09F7D32614433A3041A81AEF7A57C3F04B28B05DC85720804C7E4EA1A4832DDF027E9BB
311
E23D154E1A8EC52450E9A190FC100A4E6B57D58E572B91020977C20F8923F2BDC4C5814A8E13D342A47FE722953CADF5EBEC34210976E925427A71CF8FF9452B2DBAB352E75C695D171C7EAAC4B92A8C03FD58BA731062332F0402BECA215BC3A3B5626115A94EFD2CC19D2C605715AE36921AE4F379FFC5CAA51762F70D21
311
0F015D8E00824C73E06858C9958661921762D5211177B883AF8586D10352021793ED93D6C8718D4A191A46D878151D42F75A115DD4C58A8B02A60898ABBA6CC6BDB32F3B7F31F0E3A0E608FBE7618F3AD01C9F06FD7EBF5B8304C130B2BC8733303CFB01E99C1470738D490917909470D14ACA0462FC4A32683F6E591715AF
311
60FC079D71F6A7F61B170B05D31CBB4D716003295F6FA4232698BE0676755A51ACB4847904150F3EC794CDE9C58773063B478799F2EC1C4CBF89E2095004B85FC110B24C59D7A0825F23BC1BF1CCAEB62F7DBC70795446D1DB8D56061395D2DB68052EA72C3CC0F760A8996B5315ECD63DC2F7DB0D7DEB056E24A5D1089A6C
311
9930D06D595A19F8F2B4DC884CD560AB4BEF455C775E037439AAC0D2422BD126F9F075AB680D3F7F244C7B0E5808B848416712D5E57009B447A8275A96197B52EEB11362CA59DB3A8CEE3C932BF74816A04F483B8C1AF8615095CCE7EBDEC0B6C1AE50F4C3650956BA94A5177B0B8910C2186FBADF456C5A883F017113E4DB
311
B534466592017680EB37A96F85D85BF9819029937CE9BF6436DC12BF843D7A002C411100E024CAA628CAE624FA9D723E38FB0DB698FF22E9345A2F11D6C1086C533F45D19F3B0245150F2D1AFCEB1F7ADEA506890D532BEC15386B93397C17F806387A48B5F6875EC0B5F6741A8E6FB6FF1F66BDE742230DD66AD7C4385BFB
311
AD21FB36A65EB4BD6652F95DD69FB9080F0811CE5A8F6E600787B324015FD7470ECBF6C186B5780C146DAB96F608BDFDF8153F6EA7F377841B567DD8F21F46AE957C7A87755A89BBEF413786A7637F7E174E542F4EFE05504B0304140006080800C16C7B430A3355BE74010000170400004500000036453143413436442D39
311
3932452D344132352D383434382D3046353342414546434339302F536368656D61732F52656E6465724D6174657269616C536368656D612E786D6CAD93DF6AC23014C6EF7D8A90075895B1BB54D00EA430D968A7B725B6C73690269244C5B75FFED955866C0C7B9593F3E577724EBE9285D660CABA839ECE27C87F6493BFA2
311
13E5292E4034A0D6D480629407159E4F486215837A4935047926FB5E8A91CCA5065D2E0CB4A0106B521C345B509A4981D1E1B8E3AC4EF19E720D1829A08D14FC9262A38E363EB9BBCC7CE10819A09BE2CD03F3FEC0A10761A8B1C4B55BF0825EFE86F6644BFA85FABE2A1FCAFB507062707E287305C2BE55FD4F66691413AD
311
1FA83E5353773F38FE29FCBC82761859D64956833F5A7B1B54654715349537180E068919ED331871BA03EBB2D286B6ACA546032244026E4BF9F186A9AD149A489BDE10ECB673E6E8E0F56EF771CCDAFBE03C2E4C64CE06663ECADD01932454BB16224B293950319EC22713A632B26DF9D5C8FB60F2D8BCCBDBCE4912CF0EAC
311
4C72197E963835A7AC6AB7EBEF5AA478FAF43C7BF1C16A1C2CC7C122C5DF3D3904CA3CC2B7E456A12049FC3B85FF723EF902504B010214000A0000080000C16C7B433DEE336E79000000790000001B00000000000000000000000000000000006175746F6465736B2D64657369676E2D7061636B6167652E786D6C504B0102
311
1400140006080800C16C7B43FAA28935A7000000350100001300000000000000000000000000B20000005B436F6E74656E745F54797065735D2E786D6C504B01021400140006080800C16C7B431CD9C503FA0000009701000008000000000000000000000000008A010000636F72652E786D6C504B01021400140006080800
311
C16C7B435A8716717E0000009D0000000700000000000000000000000000AA020000636E782E786D6C504B01021400140006080800C16C7B4308CD98AB2B0100001E0200002D000000000000000000000000004D03000036453143413436442D393932452D344132352D383434382D3046353342414546434339302F636F72
311
652E786D6C504B01021400140006080800C16C7B436A77868595000000F50000002C00000000000000000000000000C304000036453143413436442D393932452D344132352D383434382D3046353342414546434339302F636E782E786D6C504B01021400140006080800C16C7B435FCEF9D8FE000000A001000037000000
311
00000000000000000000A205000036453143413436442D393932452D344132352D383434382D3046353342414546434339302F4173736574446174612F636F72652E786D6C504B01021400140006080800C16C7B438318177C76010000860500003600000000000000000000000000F506000036453143413436442D393932
311
452D344132352D383434382D3046353342414546434339302F4173736574446174612F636E782E786D6C504B01021400140006080800C16C7B4389EB2B6484000000200100004F00000000000000000000000000BF08000036453143413436442D393932452D344132352D383434382D3046353342414546434339302F4173
311
736574446174612F446566696E6974696F6E4974657261746F7250726F706572746965732E62696E504B01021400140006080800C16C7B435DB0FFB3F3000000300200004500000000000000000000000000B009000036453143413436442D393932452D344132352D383434382D3046353342414546434339302F41737365
311
74446174612F496E7374616E636550726F706572746965732E62696E504B01021400140006080800C16C7B4394C7C64851000000570000004700000000000000000000000000060B000036453143413436442D393932452D344132352D383434382D3046353342414546434339302F4173736574446174612F417373657454
311
61626C654F66436F6E74656E74732E62696E504B01021400140006080800C16C7B43F865834058000000680000004500000000000000000000000000BC0B000036453143413436442D393932452D344132352D383434382D3046353342414546434339302F4173736574446174612F53747265616D56657273696F6E546162
311
6C652E696E66504B01021400140006080800C16C7B438F0F4035FC0000009E0100003500000000000000000000000000770C000036453143413436442D393932452D344132352D383434382D3046353342414546434339302F536368656D61732F636F72652E786D6C504B01021400140006080800C16C7B435EA218872701
311
0000D30300003400000000000000000000000000C60D000036453143413436442D393932452D344132352D383434382D3046353342414546434339302F536368656D61732F636E782E786D6C504B01021400140006080800C16C7B432F7B2A8D8D0100005E0600003D000000000000000000000000003F0F00003645314341
311
3436442D393932452D344132352D383434382D3046353342414546434339302F536368656D61732F436F6D6D6F6E536368656D612E786D6C504B01021400140006080800C16C7B437229482E27050000001600003E000000000000000000000000002711000036453143413436442D393932452D344132352D383434382D30
311
46353342414546434339302F536368656D61732F47656E65726963536368656D612E786D6C504B01021400140006080800C16C7B430A3355BE74010000170400004500000000000000000000000000AA16000036453143413436442D393932452D344132352D383434382D3046353342414546434339302F536368656D6173
311
2F52656E6465724D6174657269616C536368656D612E786D6C504B050600000000110011005A060000811800000000
310
504B03040A0000080000C16C7B433DEE336E79000000790000001B0000006175746F6465736B2D64657369676E2D7061636B6167652E786D6C3C3F786D6C2076657273696F6E3D22312E302220656E636F64696E673D227574662D3822203F3E3C666F726D6174733E3C666F726D61743E687474703A2F2F736368656D612E
310
6175746F6465736B2E636F6D2F64657369676E2D7061636B6167652F323030393C2F666F726D61743E3C2F666F726D6174733E504B0304140006080800C16C7B43D486FD9CA0000000F4000000130000005B436F6E74656E745F54797065735D2E786D6C7D8EC10E82300C865F65E91D8A1E8C310C0EEA1BF002731658846E
310
D98AC1B77784ABF1D8FE5FBFBF75BBCE937A534CCEB38643598122B6FEE978D0B0485F9C41B54DDD7D022595594E1A469170414C76A4D9A4D207E29CF43ECE46F218070CC6BECC4078ACAA135ACF422C856C0E68EA1BF5669944DDD7BCDE7B1F8E415D77AECB980613C2E4AC91FC167A2B244592486606FC29C8FD7F045B9A
310
EF7053A7E60B504B0304140006080800C16C7B43E80C29DBEB0000007C01000008000000636F72652E786D6C8D90416EC3201045AF82665B6183B112DBC24495DD9CA01740401C94182C03558F5F9C3852BBEB6A467FFE9B197D7EFA9EEFE8CBACC17AD7032D0820E394D7D64D3DA478C10DA093E0ABF7F1970D9093B3E961
310
9341F069F569D925E55D342E66D5796D76518660222075CF4D0F415DCD2C0B996276845BB14875939329E8ABCB704A56A3E711ABF33E7BB16605510FE3F9D812826B3A7CE0BAAD086EDAC388493B30FACE0E643C9E79B9C182473BBFEEABD5C86834888A508629C5D5F193B28E351DA9DE08ED08E1E566FF03A545FF134AD6
310
4556EDEF3EB10082E6471E03C1CB2D8B5C1E41E5BAE5267E00504B0304140006080800C16C7B4355019EA25F0000007C00000007000000636E782E786D6C4DCB3B0E80201045D1AD90E915ED2CF8AC45050C11660C8261F98AB1B07AC9C97D42D718D865D3E909258CFD00CCE24AC6E326A164D74DC0B4128928FF32603847
310
2BA13128B1252AC747C6BAB984FC68F0B87FE8960A5C09FE86CFB69FBA01504B0304140006080800C16C7B432CF9E30B66010000020300000C0000006662782F636F72652E786D6C8D52ED8E8320107C15C2DF0B026AFA15A4B9B4D727B817A04A3D53058360FAF8B77E345E2F4DD3982099D9D99D1D15FB5B53A35EBBAEB2
310
26C33C62186993DBA232658683BF900D467B299CB5FE4F194646353AC3038CA5289D0DED0CE5D6786D3CA0C6167A0655D7698F515EC325C35DFEA31B15A9E0A1A2BB46ADCAAFAAD4118F80863A293AEFC0009A860C279697F34DD009972284AA98D9AA8069D5A5D20ECBF4703CADB78C91941FBE48BA8D19D96C5747C2B687
310
847F262B765C9F041DC452F8AAB9BBCB9D565E1758C68C27847312AFBF79B24B363B167F30BE634CD0A1FC4114DAE24D51A88C4FE2D9EE24EBB0E4606424FE6D0B1179D4A91EFC5029E81022BCC6841F8386402064AFCEF57D8F2B40BDCEBD752930850D0BD5AB3A6898CAD0F8083AB1D0796C009B3DED13BFE8F3BA077C40
310
654AB0A63C5CCFC10FD3C534758EA2D58EF4FE868C758DAA177393C5E55C063D95E7B6B6EE1D359D57A5739874F87BE52F504B0304140006080800C16C7B43691558CC7E0000009D0000000B0000006662782F636E782E786D6C4DCCD10E82201886E15B61FF3949038103C065D07DB844C7426884ADCB4F9B071D7DDBB36F
310
AFEA3E4B446F5F5E21270DE71301E4D33D8F21CD1AD63A6109A833AAE45CFF6E80D2B0780D3B835173C9EBF3A0D14FC31AEBA631A4C7816D6BFB9B730C5F2C9798394B714FC9155BCE05938E502118344635BFD2B67BD87C01504B0304140006080800C16C7B434815AA1A2D01000015020000310000006662782F35354442
310
464545342D414436382D344544332D423330432D4436363734384530333737342F636F72652E786D6C8D515B6E833010BC0AF257AA0AB031011419474DA127E8058871A89560233FAA1CBFEB42A4F62F3F5E6B766676B4CB8EF7F9967C4BEB94D12D22194689D4C28C4A4F2D0AFE9236283972668DF17F6828D1C32C5B1461
310
C4D9644D58364818EDA5F6806A33CA0D1C9C931E25E2069F1639F125E7211B820786BB66CB20AEC3243392411B789C396F2140B20E892FE2FB7D77FAE8FB327DEBAA262DFB8EA6278ADFD3AEAAEAB2E931ADEB92E5AB90B310D4B8C9D50871D44549FBAC491473E6D5FC882FAC1CBC1C112F30A1292169517F127AA0CD0117
310
AF981C306679A4FF1385657C521494F6B4D8E2AE32873861F9DAE06C34E17C7B8491F7C5589FC4793B27C50BE238C3B8DA97458D41B3726103605A959BA9F3C6C28677D733D029B0A273557296C72341F9BD20D47850FE03504B0304140006080800C16C7B4333C873A85601000033030000300000006662782F3535444246
310
4545342D414436382D344544332D423330432D4436363734384530333737342F636E782E786D6CBD93CD6EC32010845F0571ADFC831DA5568489D4439FA0875E316C121A1B2CC055F3F65D1292E69243A5AA1764CD0E33AB4F986FBFA6917C820FC6D99EB2B2A604AC72DAD87D4F97B82B3A4AB6827BE7E29D8D122B27E869
310
92A9E07BEF96394B1A76721923AAA3B1C72C7A086EF10A02CAE926199D922306802D1614611A406BD0E466C4AF1D785C05C5E144E201C8EBCB3B71C307A81878955204AF5287E0E9CC4D77264AD42843E869500798642997E8348463A96594252BAF5D0F76FA4922E9C2B572F186A4F29EA6938ABC51891C798543C143F448
310
2F9BE269062AE43C8F46C98890ABB3F1E2117C3136AE57D96B10BC4777DBACBB0EC3CE33C1A399203B9407194153D1D4AC2D182B9AE737D66EDA6E53374F35DBD435AF925DF0C1B9315FC218F06E26CAD9083652C17895C68FF0651FD1C6236BE74FBF00890072EB85CE2DE32FF9B075BB5AFD239FEAFCBE1197C7BF407C03
310
504B0304140006080800C16C7B43BB3DDB85500700004F1C0000340000006662782F35354442464545342D414436382D344544332D423330432D4436363734384530333737342F6F626A656374732E786D6CED595B6FA3481AFD2B887DD97D3036B69371568451C7EE44D64C665A13756B1F22A13294496DB8585590B6F7D7
310
EFA90B18B049E39DECDB3CD8D85075BEFBA53EBC9FF76962BD512E589EDDDAAE33B12D9A8579C4B2F8D62E8BED68615B3FFB1ECFF3A2B1CCB63292D25B5BDEB67D2FE679B933B722BA25655274EEDEDFFDCB1221CDA86D850911E2D616E10B4D8943CA228FA8787522521027DEEE1DD7D10BDBB03127BB970EE88E709A15E0
310
14F733A0589A29B7FD77628F7D6F2C9FFB9EFC36ABA68356CDFA578D95D46D2E59260A9285272C7560A683589AB9F3D5E7E9D5CDE86A3E9F8DE6D7537774777FB71AB93FCD26CBEBE5F2E6D3E71BB0B7C9F3C4C814D11DCD22D8EF60FBAE37964F6AD18D06CE711DE6594643A548A84A89D50564548054437D93F65F574AD4
310
78AC246CFC9FC9E78685C6ED8E117A560D54440B1782187295C4D5B5295FBEF9370417439C920B2A9D5A141CD635EAE1880ADB9F78637DD7F736475B3061A5A4A09C91C44AD886130EA360A95CE27B7A838191C1C10165490994E5F4E3B66F21327F1C3AE7B8DC96492223C3F6556005083F5A08C519FB0FE547EE9B9A014F
310
B070C9B26261B82C0E3B6AFB37DE58DDF43D79994DCD43AD486B9B90188E0231F5D38EA04B19FAEB95EDFF72BFD93FC974709EF88EE73BCA0BE974D28E8A2F38B2B94A2D19B2EE20CBC90D10462BD5EC3C2AE50F68FE37648F232BB01B67FBF97E6ED6169C64629BF314B6B126D66882AF89E5AA6FF9BBF1CB1BD79BDBD6EB
310
D327C254AA6AF1E7F5D99641E9CAF0DF50A7EFBDC1E1733E338F9E4292C09F1F5906054927B1921CB790DAB79BBDEDAF913891E8B18B24BE0B91C1EE1B7E7A630373B44A155E26EA3268D4D0980E3112D4A63C126CF4D8E901D583B3F068A6A6887DEABDFA1077FDB47AFAE5A9E45B12D24713D32BBA65192B5035CF33D4D2
310
794B2254BB90B39DDC6AFB46A83A553847B4D6A6577AF89EF308DA3935D253D348A9E14FC044D250D25A71A539F9A78740887D712E7394F7030A905C16F806FE2313214D1292D1BCACE8D629517A779D264CA361FB336D97D9B4E3F79CBE31D98A20D28E2B5A9AF8A67B9587AF328FF408F375FD1BBCD646BDC7E51D8F7E18
310
A018F19D14E1CB8FB19ED4BAD11D72454423A39D5A0B9B636108F324E7C1E610E89C7916F95B2BF0904EB5E5240A62514570959C622D4310B1EDB614C8D067ECF76DBD6CFAC8C499B95756F3BB13D673E46D6401C24D047768042C25310DB624EA23D7A456630B05D903CDE936815CEC8D15878014C124A2F125AAB908FCE6
310
43D1E32417826554A0F29D557E531B130729495BB362595AB5A3682682941624B9440312A647B9AA80A96E394413F2631E6BEF7DCF624DD0FF93477082AE34CF0286A6763F4017AE73351DC43BBCADC2566224259A91F0107CA72C7E290650AA43B232A2BE76CC18E270531641BE2321DC7A00EC49AC48A3764037247C9595
310
2808CBE4A31C44D0641BB02429D3001F96E10C3324B48769A101AE735F4153B477A428F91022D75793133ABAFBE8A6C006A12D4BD07B0729D9F568BD9510556763D5CA37E83DC1B429D35D40D2BCCC06398A33EB7AA481EF9A55C20EE457369D68402B6003E87BE8D6EB525BE56CB87A12E06058BCF468A2959D2A4885D40F
310
283335E25265BE432048BA4BF401F1A4DEB62B995B87E7FB04B809FC8F2590E6830AD6BCA384AAB36DF69BD0AACCF62567C68CC54B996E32C2CE4764AB9C3F92423C3FE8B2FD1CEBABB3CBE28A2C40D115D5C86874EA5EF3AC09FBC11F34F8D7B583294F0FFC5ADA2EA559416447FA287F247F90F365A29F92DEB7967DC160
310
5ABF3F3C5D280F760C46FF225B49FAFD420A66D752F66827A42A47A8AFF2908326136E65BC60F6D751A7391FF9EBA8836335F2BF3E0321A855D633BE22FDF382A38E89E53F79E2B93BFC4A0E72E6635A5065ADD6DC2A94AE7FD1F1A4AE9BB259F988E3891AACD4A875753BDB62211157C56270975865420DD8C7F1FFDC4DF4
310
55674DCE583FD6A939B8AC9B704F3AA1D6D9581D89B3931ADC4ADBABE5E266EA62A0BC9A2F16A3F9E2EE7AB458DC4C46EE64E5DEBBB39FAE3F7FBEAB1564DCA34E78AA04FAE81890F270317F651A346261942CF28445982644564C739C6230531830F3E72915AA4301B2C18ACC9B8401BBDFF470B6209B849ADDE10BC1543B
310
112800D0511916EDFBD6DF304F9523CD5B1B932EE7155FC6D16C0B05F8D67E9303C8900A6783D9989C422AF04E0C433F248B65EFA337D5FFEB5D5237AD12512F19522A8C5C3A7F1801D023EE30B26B4D48146FE6F9658257EC58A4C0CF4D59A08FD3B21C6FD4C22832B0BB16CA4CFA1296BD1AD27B44E3FB62B98E5AD3D2C8
310
A0F1FEBB4EA0514705E1B11AD24BFE0C4B9F565FC6180E5AEBDFAD5D52C6B0E570A411A770E652F645F0227885C1DC11D94C2FFFF9FC85E7782F955AF70C2E60FD7DBFB8FEC7F3324FD33CD3B79E3FE10018E1ED96F5F4827755D1335A3F2ADF0888E7E9C49D3DAB49BC7939106C88A00E89C42B6E78E392B35AD12DF3C32F
310
4FAA86B1C4589AA2E3A1EB9565F222DA5A0D743298D66FE62CC4907C07242346057625EDBBC3F8B15A0A5639C6E8FE7F01504B0304140006080000C16C7B43000000000000000000000000350000006662782F35354442464545342D414436382D344544332D423330432D4436363734384530333737342F76657274696365
310
732E62696E504B0304140006080800C16C7B43F270F1330600000004000000360000006662782F35354442464545342D414436382D344544332D423330432D4436363734384530333737342F747269616E676C65732E62696E636660600000504B0304140006080000C16C7B43000000000000000000000000370000006662
310
782F35354442464545342D414436382D344544332D423330432D4436363734384530333737342F617474726962757465732E62696E504B0304140006080800C16C7B43B28BD8DE8F00000041010000360000006662782F35354442464545342D414436382D344544332D423330432D4436363734384530333737342F646972
310
6563746F72792E786D6C858F410EC2201045AF4266AF15DDB800BA74E7C21B903225242D6328188F2FA5C4183471359997F9FF81E89FF3C41E1816475E02DF1F80A11FC8386F25A438EECEC07A250251FC3803E6F58C12560C4AD840E95E91C151A72936F496F35732D860FE635F62C8F2DA16B505C545B74125BAA2FA9E05
310
D7CC053D063734D5A7665FD55B6B8D15D5F1BFEAFD8490FFA45E504B0304140006080800C16C7B43CD17A312FD000000A00100003B0000006662782F35354442464545342D414436382D344544332D423330432D4436363734384530333737342F7265736F75726365732F636F72652E786D6C8D504B6E833010BD0A9A6D65
310
B0210A101947152927E8052C33A156821DF953F5F8B50395DA5D3733A3F7D13C3D7EFE5AEFC5273AAFAD198095140A34CACEDA2C03C470251D1467C19DB5E1970C0A23571C20C320F8E26C7CEC90B226A009093576C61D94DE638042DDD33180571FB8CA52C69014FE563EA4BAC9054B56263AE904F7C1A500C5F6244F100E
310
BD8D4EA1E7D5C60A1EA39E778D9ED34F7DD5E8401CC6CBD476D3440E6C7C2387BEA6A4EB8F1742FBB161AFCD915EDA8957D92C78D0EB4F46E550069C41D49435843152B7EFAC3935DD89D62F949D28E55596FF31C5C7FC4F53D42634F51E77B379102C0579128257B9AFB49E65A69DBB15DF504B010214000A0000080000C1
310
6C7B433DEE336E79000000790000001B00000000000000000000000000000000006175746F6465736B2D64657369676E2D7061636B6167652E786D6C504B01021400140006080800C16C7B43D486FD9CA0000000F40000001300000000000000000000000000B20000005B436F6E74656E745F54797065735D2E786D6C504B
310
01021400140006080800C16C7B43E80C29DBEB0000007C010000080000000000000000000000000083010000636F72652E786D6C504B01021400140006080800C16C7B4355019EA25F0000007C000000070000000000000000000000000094020000636E782E786D6C504B01021400140006080800C16C7B432CF9E30B6601
310
0000020300000C00000000000000000000000000180300006662782F636F72652E786D6C504B01021400140006080800C16C7B43691558CC7E0000009D0000000B00000000000000000000000000A80400006662782F636E782E786D6C504B01021400140006080800C16C7B434815AA1A2D01000015020000310000000000
310
00000000000000004F0500006662782F35354442464545342D414436382D344544332D423330432D4436363734384530333737342F636F72652E786D6C504B01021400140006080800C16C7B4333C873A856010000330300003000000000000000000000000000CB0600006662782F35354442464545342D414436382D3445
310
44332D423330432D4436363734384530333737342F636E782E786D6C504B01021400140006080800C16C7B43BB3DDB85500700004F1C000034000000000000000000000000006F0800006662782F35354442464545342D414436382D344544332D423330432D4436363734384530333737342F6F626A656374732E786D6C50
310
4B01021400140006080000C16C7B430000000000000000000000003500000000000000000000000000111000006662782F35354442464545342D414436382D344544332D423330432D4436363734384530333737342F76657274696365732E62696E504B01021400140006080800C16C7B43F270F133060000000400000036
310
00000000000000000000000000641000006662782F35354442464545342D414436382D344544332D423330432D4436363734384530333737342F747269616E676C65732E62696E504B01021400140006080000C16C7B430000000000000000000000003700000000000000000000000000BE1000006662782F353544424645
310
45342D414436382D344544332D423330432D4436363734384530333737342F617474726962757465732E62696E504B01021400140006080800C16C7B43B28BD8DE8F000000410100003600000000000000000000000000131100006662782F35354442464545342D414436382D344544332D423330432D4436363734384530
310
333737342F6469726563746F72792E786D6C504B01021400140006080800C16C7B43CD17A312FD000000A00100003B00000000000000000000000000F61100006662782F35354442464545342D414436382D344544332D423330432D4436363734384530333737342F7265736F75726365732F636F72652E786D6C504B0506
310
000000000E000E00800400004C1300000000
  0
XRECORD
  5
17
102
{ACAD_REACTORS
330
12
102
}
330
12
100
AcDbXrecord
280
     1
270
     1
271
     1
  0
XRECORD
  5
16
102
{ACAD_REACTORS
330
12
102
}
330
12
100
AcDbXrecord
280
     1
270
     1
271
     1
  0
XRECORD
  5
18
102
{ACAD_REACTORS
330
12
102
}
330
12
100
AcDbXrecord
280
     1
270
     1
271
     1
  0
XRECORD
  5
15
102
{ACAD_REACTORS
330
12
102
}
330
12
100
AcDbXrecord
280
     1
270
     1
271
     1
  0
XRECORD
  5
24
102
{ACAD_REACTORS
330
22
102
}
330
22
100
AcDbXrecord
280
     1
270
     1
271
     1
  0
XRECORD
  5
23
102
{ACAD_REACTORS
330
22
102
}
330
22
100
AcDbXrecord
280
     1
270
     1
271
     1
  0
XRECORD
  5
27
102
{ACAD_REACTORS
330
22
102
}
330
22
100
AcDbXrecord
280
     1
270
     1
271
     1
  0
XRECORD
  5
26
102
{ACAD_REACTORS
330
22
102
}
330
22
100
AcDbXrecord
280
     1
270
     1
271
     1
  0
XRECORD
  5
28
102
{ACAD_REACTORS
330
22
102
}
330
22
100
AcDbXrecord
280
     1
270
     1
271
     1
  0
XRECORD
  5
25
102
{ACAD_REACTORS
330
22
102
}
330
22
100
AcDbXrecord
280
     1
270
     1
271
     1
  0
XRECORD
  5
98E
102
{ACAD_REACTORS
330
98D
102
}
330
98D
100
AcDbXrecord
280
     1
102
ACAD_ROUNDTRIP_2012_MLEADER_STYLE
298
     1
  0
CELLSTYLEMAP
  5
8A0
102
{ACAD_REACTORS
330
74D
102
}
330
74D
100
AcDbCellStyleMap
 90
        3
300
CELLSTYLE
  1
TABLEFORMAT_BEGIN
 90
        5
170
     1
 91
        0
 92
    32768
 62
   257
 93
        1
300
CONTENTFORMAT
  1
CONTENTFORMAT_BEGIN
 90
        0
 91
        0
 92
      512
 93
        0
300

 40
0.0
140
1.0
 94
        5
 62
     0
340
55
144
0.25
309
CONTENTFORMAT_END
171
     1
301
MARGIN
  1
CELLMARGIN_BEGIN
 40
0.06
 40
0.06
 40
0.06
 40
0.06
 40
0.18
 40
0.18
309
CELLMARGIN_END
 94
        6
 95
        1
302
GRIDFORMAT
  1
GRIDFORMAT_BEGIN
 90
        0
 91
        1
 62
     0
 92
       -2
340
0
 93
        0
 40
0.045
309
GRIDFORMAT_END
 95
        2
302
GRIDFORMAT
  1
GRIDFORMAT_BEGIN
 90
        0
 91
        1
 62
     0
 92
       -2
340
0
 93
        0
 40
0.045
309
GRIDFORMAT_END
 95
        4
302
GRIDFORMAT
  1
GRIDFORMAT_BEGIN
 90
        0
 91
        1
 62
     0
 92
       -2
340
0
 93
        0
 40
0.045
309
GRIDFORMAT_END
 95
        8
302
GRIDFORMAT
  1
GRIDFORMAT_BEGIN
 90
        0
 91
        1
 62
     0
 92
       -2
340
0
 93
        0
 40
0.045
309
GRIDFORMAT_END
 95
       16
302
GRIDFORMAT
  1
GRIDFORMAT_BEGIN
 90
        0
 91
        1
 62
     0
 92
       -2
340
0
 93
        0
 40
0.045
309
GRIDFORMAT_END
 95
       32
302
GRIDFORMAT
  1
GRIDFORMAT_BEGIN
 90
        0
 91
        1
 62
     0
 92
       -2
340
0
 93
        0
 40
0.045
309
GRIDFORMAT_END
309
TABLEFORMAT_END
  1
CELLSTYLE_BEGIN
 90
        1
 91
        1
300
_TITLE
309
CELLSTYLE_END
300
CELLSTYLE
  1
TABLEFORMAT_BEGIN
 90
        5
170
     1
 91
        0
 92
        0
 62
   257
 93
        1
300
CONTENTFORMAT
  1
CONTENTFORMAT_BEGIN
 90
        0
 91
        0
 92
      512
 93
        0
300

 40
0.0
140
1.0
 94
        5
 62
     0
340
55
144
0.18
309
CONTENTFORMAT_END
171
     1
301
MARGIN
  1
CELLMARGIN_BEGIN
 40
0.06
 40
0.06
 40
0.06
 40
0.06
 40
0.18
 40
0.18
309
CELLMARGIN_END
 94
        6
 95
        1
302
GRIDFORMAT
  1
GRIDFORMAT_BEGIN
 90
        0
 91
        1
 62
     0
 92
       -2
340
0
 93
        0
 40
0.045
309
GRIDFORMAT_END
 95
        2
302
GRIDFORMAT
  1
GRIDFORMAT_BEGIN
 90
        0
 91
        1
 62
     0
 92
       -2
340
0
 93
        0
 40
0.045
309
GRIDFORMAT_END
 95
        4
302
GRIDFORMAT
  1
GRIDFORMAT_BEGIN
 90
        0
 91
        1
 62
     0
 92
       -2
340
0
 93
        0
 40
0.045
309
GRIDFORMAT_END
 95
        8
302
GRIDFORMAT
  1
GRIDFORMAT_BEGIN
 90
        0
 91
        1
 62
     0
 92
       -2
340
0
 93
        0
 40
0.045
309
GRIDFORMAT_END
 95
       16
302
GRIDFORMAT
  1
GRIDFORMAT_BEGIN
 90
        0
 91
        1
 62
     0
 92
       -2
340
0
 93
        0
 40
0.045
309
GRIDFORMAT_END
 95
       32
302
GRIDFORMAT
  1
GRIDFORMAT_BEGIN
 90
        0
 91
        1
 62
     0
 92
       -2
340
0
 93
        0
 40
0.045
309
GRIDFORMAT_END
309
TABLEFORMAT_END
  1
CELLSTYLE_BEGIN
 90
        2
 91
        1
300
_HEADER
309
CELLSTYLE_END
300
CELLSTYLE
  1
TABLEFORMAT_BEGIN
 90
        5
170
     1
 91
        0
 92
        0
 62
   257
 93
        1
300
CONTENTFORMAT
  1
CONTENTFORMAT_BEGIN
 90
        0
 91
        0
 92
      512
 93
        0
300

 40
0.0
140
1.0
 94
        2
 62
     0
340
55
144
0.18
309
CONTENTFORMAT_END
171
     1
301
MARGIN
  1
CELLMARGIN_BEGIN
 40
0.06
 40
0.06
 40
0.06
 40
0.06
 40
0.18
 40
0.18
309
CELLMARGIN_END
 94
        6
 95
        1
302
GRIDFORMAT
  1
GRIDFORMAT_BEGIN
 90
        0
 91
        1
 62
     0
 92
       -2
340
0
 93
        0
 40
0.045
309
GRIDFORMAT_END
 95
        2
302
GRIDFORMAT
  1
GRIDFORMAT_BEGIN
 90
        0
 91
        1
 62
     0
 92
       -2
340
0
 93
        0
 40
0.045
309
GRIDFORMAT_END
 95
        4
302
GRIDFORMAT
  1
GRIDFORMAT_BEGIN
 90
        0
 91
        1
 62
     0
 92
       -2
340
0
 93
        0
 40
0.045
309
GRIDFORMAT_END
 95
        8
302
GRIDFORMAT
  1
GRIDFORMAT_BEGIN
 90
        0
 91
        1
 62
     0
 92
       -2
340
0
 93
        0
 40
0.045
309
GRIDFORMAT_END
 95
       16
302
GRIDFORMAT
  1
GRIDFORMAT_BEGIN
 90
        0
 91
        1
 62
     0
 92
       -2
340
0
 93
        0
 40
0.045
309
GRIDFORMAT_END
 95
       32
302
GRIDFORMAT
  1
GRIDFORMAT_BEGIN
 90
        0
 91
        1
 62
     0
 92
       -2
340
0
 93
        0
 40
0.045
309
GRIDFORMAT_END
309
TABLEFORMAT_END
  1
CELLSTYLE_BEGIN
 90
        3
 91
        2
300
_DATA
309
CELLSTYLE_END
  0
XRECORD
  5
968
102
{ACAD_REACTORS
330
967
102
}
330
967
100
AcDbXrecord
280
     1
102
RTVSPost2010Prop28
280
     1
102
RTVSPost2010PropOp28
 70
     1
102
RTVSPost2010Prop29
280
     1
102
RTVSPost2010PropOp29
 70
     1
102
RTVSPost2010Prop30
280
     0
102
RTVSPost2010PropOp30
 70
     1
102
RTVSPost2010Prop31
280
     0
102
RTVSPost2010PropOp31
 70
     1
102
RTVSPost2010Prop32
280
     0
102
RTVSPost2010PropOp32
 70
     1
102
RTVSPost2010Prop33
280
     0
102
RTVSPost2010PropOp33
 70
     1
102
RTVSPost2010Prop34
280
     0
102
RTVSPost2010PropOp34
 70
     1
102
RTVSPost2010Prop35
280
     0
102
RTVSPost2010PropOp35
 70
     1
102
RTVSPost2010Prop36
280
     0
102
RTVSPost2010PropOp36
 70
     1
102
RTVSPost2010Prop37
 90
       50
102
RTVSPost2010PropOp37
 70
     1
102
RTVSPost2010Prop38
140
0.0
102
RTVSPost2010PropOp38
 70
     1
102
RTVSPost2010Prop39
140
1.0
102
RTVSPost2010PropOp39
 70
     1
102
RTVSPost2010Prop40
 90
        0
102
RTVSPost2010PropOp40
 70
     1
102
RTVSPost2010Prop41ColorIndex
 90
       18
102
RTVSPost2010Prop41ColorRGB
 90
        0
102
RTVSPost2010PropOp41
 70
     1
102
RTVSPost2010Prop42
 90
       50
102
RTVSPost2010PropOp42
 70
     1
102
RTVSPost2010Prop43
 90
        3
102
RTVSPost2010PropOp43
 70
     1
102
RTVSPost2010Prop44ColorIndex
 90
        5
102
RTVSPost2010Prop44ColorRGB
 90
      255
102
RTVSPost2010PropOp44
 70
     1
102
RTVSPost2010Prop45
280
     0
102
RTVSPost2010PropOp45
 70
     1
102
RTVSPost2010Prop46
 90
       50
102
RTVSPost2010PropOp46
 70
     1
102
RTVSPost2010Prop47
 90
       50
102
RTVSPost2010PropOp47
 70
     1
102
RTVSPost2010Prop48
 90
       50
102
RTVSPost2010PropOp48
 70
     1
102
RTVSPost2010Prop49
280
     0
102
RTVSPost2010PropOp49
 70
     1
102
RTVSPost2010Prop50
 90
       50
102
RTVSPost2010PropOp50
 70
     1
102
RTVSPost2010Prop51ColorIndex
 90
      256
102
RTVSPost2010Prop51ColorRGB
 90
-16777216
102
RTVSPost2010PropOp51
 70
     0
102
RTVSPost2010Prop52
140
1.0
102
RTVSPost2010PropOp52
 70
     0
102
RTVSPost2010Prop53
 90
        2
102
RTVSPost2010PropOp53
 70
     1
102
RTVSPost2010Prop54
  1
strokes_ogs.tif
102
RTVSPost2010PropOp54
 70
     1
102
RTVSPost2010Prop55
280
     0
102
RTVSPost2010PropOp55
 70
     1
102
RTVSPost2010Prop56
140
1.0
102
RTVSPost2010PropOp56
 70
     1
102
RTVSPost2010Prop57
140
1.0
102
RTVSPost2010PropOp57
 70
     1
  0
XRECORD
  5
966
102
{ACAD_REACTORS
330
965
102
}
330
965
100
AcDbXrecord
280
     1
102
RTVSPost2010Prop28
280
     0
102
RTVSPost2010PropOp28
 70
     1
102
RTVSPost2010Prop29
280
     1
102
RTVSPost2010PropOp29
 70
     1
102
RTVSPost2010Prop30
280
     1
102
RTVSPost2010PropOp30
 70
     1
102
RTVSPost2010Prop31
280
     0
102
RTVSPost2010PropOp31
 70
     1
102
RTVSPost2010Prop32
280
     0
102
RTVSPost2010PropOp32
 70
     1
102
RTVSPost2010Prop33
280
     0
102
RTVSPost2010PropOp33
 70
     1
102
RTVSPost2010Prop34
280
     0
102
RTVSPost2010PropOp34
 70
     1
102
RTVSPost2010Prop35
280
     0
102
RTVSPost2010PropOp35
 70
     1
102
RTVSPost2010Prop36
280
     0
102
RTVSPost2010PropOp36
 70
     1
102
RTVSPost2010Prop37
 90
       50
102
RTVSPost2010PropOp37
 70
     1
102
RTVSPost2010Prop38
140
0.0
102
RTVSPost2010PropOp38
 70
     1
102
RTVSPost2010Prop39
140
1.0
102
RTVSPost2010PropOp39
 70
     1
102
RTVSPost2010Prop40
 90
        0
102
RTVSPost2010PropOp40
 70
     1
102
RTVSPost2010Prop41ColorIndex
 90
       18
102
RTVSPost2010Prop41ColorRGB
 90
        0
102
RTVSPost2010PropOp41
 70
     1
102
RTVSPost2010Prop42
 90
       50
102
RTVSPost2010PropOp42
 70
     1
102
RTVSPost2010Prop43
 90
        3
102
RTVSPost2010PropOp43
 70
     1
102
RTVSPost2010Prop44ColorIndex
 90
        5
102
RTVSPost2010Prop44ColorRGB
 90
      255
102
RTVSPost2010PropOp44
 70
     1
102
RTVSPost2010Prop45
280
     0
102
RTVSPost2010PropOp45
 70
     1
102
RTVSPost2010Prop46
 90
       50
102
RTVSPost2010PropOp46
 70
     1
102
RTVSPost2010Prop47
 90
       50
102
RTVSPost2010PropOp47
 70
     1
102
RTVSPost2010Prop48
 90
       50
102
RTVSPost2010PropOp48
 70
     1
102
RTVSPost2010Prop49
280
     0
102
RTVSPost2010PropOp49
 70
     1
102
RTVSPost2010Prop50
 90
       50
102
RTVSPost2010PropOp50
 70
     1
102
RTVSPost2010Prop51ColorIndex
 90
      256
102
RTVSPost2010Prop51ColorRGB
 90
-16777216
102
RTVSPost2010PropOp51
 70
     0
102
RTVSPost2010Prop52
140
1.0
102
RTVSPost2010PropOp52
 70
     0
102
RTVSPost2010Prop53
 90
        2
102
RTVSPost2010PropOp53
 70
     1
102
RTVSPost2010Prop54
  1
strokes_ogs.tif
102
RTVSPost2010PropOp54
 70
     1
102
RTVSPost2010Prop55
280
     0
102
RTVSPost2010PropOp55
 70
     1
102
RTVSPost2010Prop56
140
1.0
102
RTVSPost2010PropOp56
 70
     1
102
RTVSPost2010Prop57
140
1.0
102
RTVSPost2010PropOp57
 70
     1
  0
XRECORD
  5
974
102
{ACAD_REACTORS
330
973
102
}
330
973
100
AcDbXrecord
280
     1
102
RTVSPost2010Prop28
280
     0
102
RTVSPost2010PropOp28
 70
     1
102
RTVSPost2010Prop29
280
     1
102
RTVSPost2010PropOp29
 70
     1
102
RTVSPost2010Prop30
280
     1
102
RTVSPost2010PropOp30
 70
     1
102
RTVSPost2010Prop31
280
     0
102
RTVSPost2010PropOp31
 70
     1
102
RTVSPost2010Prop32
280
     0
102
RTVSPost2010PropOp32
 70
     1
102
RTVSPost2010Prop33
280
     0
102
RTVSPost2010PropOp33
 70
     1
102
RTVSPost2010Prop34
280
     0
102
RTVSPost2010PropOp34
 70
     1
102
RTVSPost2010Prop35
280
     0
102
RTVSPost2010PropOp35
 70
     1
102
RTVSPost2010Prop36
280
     0
102
RTVSPost2010PropOp36
 70
     1
102
RTVSPost2010Prop37
 90
       50
102
RTVSPost2010PropOp37
 70
     1
102
RTVSPost2010Prop38
140
0.0
102
RTVSPost2010PropOp38
 70
     1
102
RTVSPost2010Prop39
140
1.0
102
RTVSPost2010PropOp39
 70
     1
102
RTVSPost2010Prop40
 90
        0
102
RTVSPost2010PropOp40
 70
     1
102
RTVSPost2010Prop41ColorIndex
 90
       18
102
RTVSPost2010Prop41ColorRGB
 90
        0
102
RTVSPost2010PropOp41
 70
     1
102
RTVSPost2010Prop42
 90
       50
102
RTVSPost2010PropOp42
 70
     1
102
RTVSPost2010Prop43
 90
        3
102
RTVSPost2010PropOp43
 70
     1
102
RTVSPost2010Prop44ColorIndex
 90
        5
102
RTVSPost2010Prop44ColorRGB
 90
      255
102
RTVSPost2010PropOp44
 70
     1
102
RTVSPost2010Prop45
280
     0
102
RTVSPost2010PropOp45
 70
     1
102
RTVSPost2010Prop46
 90
       50
102
RTVSPost2010PropOp46
 70
     1
102
RTVSPost2010Prop47
 90
       50
102
RTVSPost2010PropOp47
 70
     1
102
RTVSPost2010Prop48
 90
       50
102
RTVSPost2010PropOp48
 70
     1
102
RTVSPost2010Prop49
280
     0
102
RTVSPost2010PropOp49
 70
     1
102
RTVSPost2010Prop50
 90
       50
102
RTVSPost2010PropOp50
 70
     1
102
RTVSPost2010Prop51ColorIndex
 90
      256
102
RTVSPost2010Prop51ColorRGB
 90
-16777216
102
RTVSPost2010PropOp51
 70
     0
102
RTVSPost2010Prop52
140
1.0
102
RTVSPost2010PropOp52
 70
     0
102
RTVSPost2010Prop53
 90
        2
102
RTVSPost2010PropOp53
 70
     1
102
RTVSPost2010Prop54
  1
strokes_ogs.tif
102
RTVSPost2010PropOp54
 70
     1
102
RTVSPost2010Prop55
280
     0
102
RTVSPost2010PropOp55
 70
     1
102
RTVSPost2010Prop56
140
1.0
102
RTVSPost2010PropOp56
 70
     1
102
RTVSPost2010Prop57
140
1.0
102
RTVSPost2010PropOp57
 70
     1
  0
XRECORD
  5
97C
102
{ACAD_REACTORS
330
97B
102
}
330
97B
100
AcDbXrecord
280
     1
102
RTVSPost2010Prop28
280
     0
102
RTVSPost2010PropOp28
 70
     1
102
RTVSPost2010Prop29
280
     1
102
RTVSPost2010PropOp29
 70
     1
102
RTVSPost2010Prop30
280
     1
102
RTVSPost2010PropOp30
 70
     1
102
RTVSPost2010Prop31
280
     0
102
RTVSPost2010PropOp31
 70
     1
102
RTVSPost2010Prop32
280
     0
102
RTVSPost2010PropOp32
 70
     1
102
RTVSPost2010Prop33
280
     0
102
RTVSPost2010PropOp33
 70
     1
102
RTVSPost2010Prop34
280
     0
102
RTVSPost2010PropOp34
 70
     1
102
RTVSPost2010Prop35
280
     0
102
RTVSPost2010PropOp35
 70
     1
102
RTVSPost2010Prop36
280
     0
102
RTVSPost2010PropOp36
 70
     1
102
RTVSPost2010Prop37
 90
       50
102
RTVSPost2010PropOp37
 70
     1
102
RTVSPost2010Prop38
140
0.0
102
RTVSPost2010PropOp38
 70
     1
102
RTVSPost2010Prop39
140
1.0
102
RTVSPost2010PropOp39
 70
     1
102
RTVSPost2010Prop40
 90
        0
102
RTVSPost2010PropOp40
 70
     1
102
RTVSPost2010Prop41ColorIndex
 90
       18
102
RTVSPost2010Prop41ColorRGB
 90
        0
102
RTVSPost2010PropOp41
 70
     1
102
RTVSPost2010Prop42
 90
       50
102
RTVSPost2010PropOp42
 70
     1
102
RTVSPost2010Prop43
 90
        3
102
RTVSPost2010PropOp43
 70
     1
102
RTVSPost2010Prop44ColorIndex
 90
        5
102
RTVSPost2010Prop44ColorRGB
 90
      255
102
RTVSPost2010PropOp44
 70
     1
102
RTVSPost2010Prop45
280
     0
102
RTVSPost2010PropOp45
 70
     1
102
RTVSPost2010Prop46
 90
       50
102
RTVSPost2010PropOp46
 70
     1
102
RTVSPost2010Prop47
 90
       50
102
RTVSPost2010PropOp47
 70
     1
102
RTVSPost2010Prop48
 90
       50
102
RTVSPost2010PropOp48
 70
     1
102
RTVSPost2010Prop49
280
     0
102
RTVSPost2010PropOp49
 70
     1
102
RTVSPost2010Prop50
 90
       50
102
RTVSPost2010PropOp50
 70
     1
102
RTVSPost2010Prop51ColorIndex
 90
      256
102
RTVSPost2010Prop51ColorRGB
 90
-16777216
102
RTVSPost2010PropOp51
 70
     0
102
RTVSPost2010Prop52
140
1.0
102
RTVSPost2010PropOp52
 70
     0
102
RTVSPost2010Prop53
 90
        2
102
RTVSPost2010PropOp53
 70
     1
102
RTVSPost2010Prop54
  1
strokes_ogs.tif
102
RTVSPost2010PropOp54
 70
     1
102
RTVSPost2010Prop55
280
     0
102
RTVSPost2010PropOp55
 70
     1
102
RTVSPost2010Prop56
140
1.0
102
RTVSPost2010PropOp56
 70
     1
102
RTVSPost2010Prop57
140
1.0
102
RTVSPost2010PropOp57
 70
     1
  0
XRECORD
  5
96E
102
{ACAD_REACTORS
330
96D
102
}
330
96D
100
AcDbXrecord
280
     1
102
RTVSPost2010Prop28
280
     0
102
RTVSPost2010PropOp28
 70
     1
102
RTVSPost2010Prop29
280
     1
102
RTVSPost2010PropOp29
 70
     1
102
RTVSPost2010Prop30
280
     1
102
RTVSPost2010PropOp30
 70
     1
102
RTVSPost2010Prop31
280
     0
102
RTVSPost2010PropOp31
 70
     1
102
RTVSPost2010Prop32
280
     0
102
RTVSPost2010PropOp32
 70
     1
102
RTVSPost2010Prop33
280
     0
102
RTVSPost2010PropOp33
 70
     1
102
RTVSPost2010Prop34
280
     0
102
RTVSPost2010PropOp34
 70
     1
102
RTVSPost2010Prop35
280
     0
102
RTVSPost2010PropOp35
 70
     1
102
RTVSPost2010Prop36
280
     0
102
RTVSPost2010PropOp36
 70
     1
102
RTVSPost2010Prop37
 90
       50
102
RTVSPost2010PropOp37
 70
     1
102
RTVSPost2010Prop38
140
0.0
102
RTVSPost2010PropOp38
 70
     1
102
RTVSPost2010Prop39
140
1.0
102
RTVSPost2010PropOp39
 70
     1
102
RTVSPost2010Prop40
 90
        0
102
RTVSPost2010PropOp40
 70
     1
102
RTVSPost2010Prop41ColorIndex
 90
       18
102
RTVSPost2010Prop41ColorRGB
 90
        0
102
RTVSPost2010PropOp41
 70
     1
102
RTVSPost2010Prop42
 90
       50
102
RTVSPost2010PropOp42
 70
     1
102
RTVSPost2010Prop43
 90
        3
102
RTVSPost2010PropOp43
 70
     1
102
RTVSPost2010Prop44ColorIndex
 90
        5
102
RTVSPost2010Prop44ColorRGB
 90
      255
102
RTVSPost2010PropOp44
 70
     1
102
RTVSPost2010Prop45
280
     0
102
RTVSPost2010PropOp45
 70
     1
102
RTVSPost2010Prop46
 90
       50
102
RTVSPost2010PropOp46
 70
     1
102
RTVSPost2010Prop47
 90
       50
102
RTVSPost2010PropOp47
 70
     1
102
RTVSPost2010Prop48
 90
       50
102
RTVSPost2010PropOp48
 70
     1
102
RTVSPost2010Prop49
280
     0
102
RTVSPost2010PropOp49
 70
     1
102
RTVSPost2010Prop50
 90
       50
102
RTVSPost2010PropOp50
 70
     1
102
RTVSPost2010Prop51ColorIndex
 90
      256
102
RTVSPost2010Prop51ColorRGB
 90
-16777216
102
RTVSPost2010PropOp51
 70
     0
102
RTVSPost2010Prop52
140
1.0
102
RTVSPost2010PropOp52
 70
     0
102
RTVSPost2010Prop53
 90
        2
102
RTVSPost2010PropOp53
 70
     1
102
RTVSPost2010Prop54
  1
strokes_ogs.tif
102
RTVSPost2010PropOp54
 70
     1
102
RTVSPost2010Prop55
280
     0
102
RTVSPost2010PropOp55
 70
     1
102
RTVSPost2010Prop56
140
1.0
102
RTVSPost2010PropOp56
 70
     1
102
RTVSPost2010Prop57
140
1.0
102
RTVSPost2010PropOp57
 70
     1
  0
XRECORD
  5
972
102
{ACAD_REACTORS
330
971
102
}
330
971
100
AcDbXrecord
280
     1
102
RTVSPost2010Prop28
280
     0
102
RTVSPost2010PropOp28
 70
     1
102
RTVSPost2010Prop29
280
     1
102
RTVSPost2010PropOp29
 70
     1
102
RTVSPost2010Prop30
280
     1
102
RTVSPost2010PropOp30
 70
     1
102
RTVSPost2010Prop31
280
     0
102
RTVSPost2010PropOp31
 70
     1
102
RTVSPost2010Prop32
280
     0
102
RTVSPost2010PropOp32
 70
     1
102
RTVSPost2010Prop33
280
     0
102
RTVSPost2010PropOp33
 70
     1
102
RTVSPost2010Prop34
280
     0
102
RTVSPost2010PropOp34
 70
     1
102
RTVSPost2010Prop35
280
     0
102
RTVSPost2010PropOp35
 70
     1
102
RTVSPost2010Prop36
280
     0
102
RTVSPost2010PropOp36
 70
     1
102
RTVSPost2010Prop37
 90
       50
102
RTVSPost2010PropOp37
 70
     1
102
RTVSPost2010Prop38
140
0.0
102
RTVSPost2010PropOp38
 70
     1
102
RTVSPost2010Prop39
140
1.0
102
RTVSPost2010PropOp39
 70
     1
102
RTVSPost2010Prop40
 90
        0
102
RTVSPost2010PropOp40
 70
     1
102
RTVSPost2010Prop41ColorIndex
 90
       18
102
RTVSPost2010Prop41ColorRGB
 90
        0
102
RTVSPost2010PropOp41
 70
     1
102
RTVSPost2010Prop42
 90
       50
102
RTVSPost2010PropOp42
 70
     1
102
RTVSPost2010Prop43
 90
        3
102
RTVSPost2010PropOp43
 70
     1
102
RTVSPost2010Prop44ColorIndex
 90
        5
102
RTVSPost2010Prop44ColorRGB
 90
      255
102
RTVSPost2010PropOp44
 70
     1
102
RTVSPost2010Prop45
280
     0
102
RTVSPost2010PropOp45
 70
     1
102
RTVSPost2010Prop46
 90
       50
102
RTVSPost2010PropOp46
 70
     1
102
RTVSPost2010Prop47
 90
       50
102
RTVSPost2010PropOp47
 70
     1
102
RTVSPost2010Prop48
 90
       50
102
RTVSPost2010PropOp48
 70
     1
102
RTVSPost2010Prop49
280
     0
102
RTVSPost2010PropOp49
 70
     1
102
RTVSPost2010Prop50
 90
       50
102
RTVSPost2010PropOp50
 70
     1
102
RTVSPost2010Prop51ColorIndex
 90
      256
102
RTVSPost2010Prop51ColorRGB
 90
-16777216
102
RTVSPost2010PropOp51
 70
     0
102
RTVSPost2010Prop52
140
1.0
102
RTVSPost2010PropOp52
 70
     0
102
RTVSPost2010Prop53
 90
        2
102
RTVSPost2010PropOp53
 70
     1
102
RTVSPost2010Prop54
  1
strokes_ogs.tif
102
RTVSPost2010PropOp54
 70
     1
102
RTVSPost2010Prop55
280
     0
102
RTVSPost2010PropOp55
 70
     1
102
RTVSPost2010Prop56
140
1.0
102
RTVSPost2010PropOp56
 70
     1
102
RTVSPost2010Prop57
140
1.0
102
RTVSPost2010PropOp57
 70
     1
  0
XRECORD
  5
98C
102
{ACAD_REACTORS
330
98B
102
}
330
98B
100
AcDbXrecord
280
     1
102
RTVSPost2010Prop28
280
     0
102
RTVSPost2010PropOp28
 70
     0
102
RTVSPost2010Prop29
280
     1
102
RTVSPost2010PropOp29
 70
     0
102
RTVSPost2010Prop30
280
     1
102
RTVSPost2010PropOp30
 70
     0
102
RTVSPost2010Prop31
280
     0
102
RTVSPost2010PropOp31
 70
     0
102
RTVSPost2010Prop32
280
     0
102
RTVSPost2010PropOp32
 70
     0
102
RTVSPost2010Prop33
280
     0
102
RTVSPost2010PropOp33
 70
     0
102
RTVSPost2010Prop34
280
     0
102
RTVSPost2010PropOp34
 70
     0
102
RTVSPost2010Prop35
280
     0
102
RTVSPost2010PropOp35
 70
     0
102
RTVSPost2010Prop36
280
     0
102
RTVSPost2010PropOp36
 70
     0
102
RTVSPost2010Prop37
 90
       50
102
RTVSPost2010PropOp37
 70
     0
102
RTVSPost2010Prop38
140
0.0
102
RTVSPost2010PropOp38
 70
     0
102
RTVSPost2010Prop39
140
1.0
102
RTVSPost2010PropOp39
 70
     0
102
RTVSPost2010Prop40
 90
        0
102
RTVSPost2010PropOp40
 70
     0
102
RTVSPost2010Prop41ColorIndex
 90
       18
102
RTVSPost2010Prop41ColorRGB
 90
        0
102
RTVSPost2010PropOp41
 70
     0
102
RTVSPost2010Prop42
 90
       50
102
RTVSPost2010PropOp42
 70
     0
102
RTVSPost2010Prop43
 90
        3
102
RTVSPost2010PropOp43
 70
     0
102
RTVSPost2010Prop44ColorIndex
 90
        5
102
RTVSPost2010Prop44ColorRGB
 90
      255
102
RTVSPost2010PropOp44
 70
     0
102
RTVSPost2010Prop45
280
     0
102
RTVSPost2010PropOp45
 70
     0
102
RTVSPost2010Prop46
 90
       50
102
RTVSPost2010PropOp46
 70
     0
102
RTVSPost2010Prop47
 90
       50
102
RTVSPost2010PropOp47
 70
     0
102
RTVSPost2010Prop48
 90
       50
102
RTVSPost2010PropOp48
 70
     0
102
RTVSPost2010Prop49
280
     0
102
RTVSPost2010PropOp49
 70
     0
102
RTVSPost2010Prop50
 90
       50
102
RTVSPost2010PropOp50
 70
     0
102
RTVSPost2010Prop51ColorIndex
 90
      256
102
RTVSPost2010Prop51ColorRGB
 90
-16777216
102
RTVSPost2010PropOp51
 70
     0
102
RTVSPost2010Prop52
140
1.0
102
RTVSPost2010PropOp52
 70
     0
102
RTVSPost2010Prop53
 90
        2
102
RTVSPost2010PropOp53
 70
     0
102
RTVSPost2010Prop54
  1
strokes_ogs.tif
102
RTVSPost2010PropOp54
 70
     0
102
RTVSPost2010Prop55
280
     0
102
RTVSPost2010PropOp55
 70
     0
102
RTVSPost2010Prop56
140
1.0
102
RTVSPost2010PropOp56
 70
     0
102
RTVSPost2010Prop57
140
1.0
102
RTVSPost2010PropOp57
 70
     0
  0
XRECORD
  5
97A
102
{ACAD_REACTORS
330
979
102
}
330
979
100
AcDbXrecord
280
     1
102
RTVSPost2010Prop28
280
     0
102
RTVSPost2010PropOp28
 70
     1
102
RTVSPost2010Prop29
280
     1
102
RTVSPost2010PropOp29
 70
     1
102
RTVSPost2010Prop30
280
     1
102
RTVSPost2010PropOp30
 70
     1
102
RTVSPost2010Prop31
280
     0
102
RTVSPost2010PropOp31
 70
     1
102
RTVSPost2010Prop32
280
     0
102
RTVSPost2010PropOp32
 70
     1
102
RTVSPost2010Prop33
280
     0
102
RTVSPost2010PropOp33
 70
     1
102
RTVSPost2010Prop34
280
     0
102
RTVSPost2010PropOp34
 70
     1
102
RTVSPost2010Prop35
280
     0
102
RTVSPost2010PropOp35
 70
     1
102
RTVSPost2010Prop36
280
     0
102
RTVSPost2010PropOp36
 70
     1
102
RTVSPost2010Prop37
 90
       50
102
RTVSPost2010PropOp37
 70
     1
102
RTVSPost2010Prop38
140
0.0
102
RTVSPost2010PropOp38
 70
     1
102
RTVSPost2010Prop39
140
1.0
102
RTVSPost2010PropOp39
 70
     1
102
RTVSPost2010Prop40
 90
        0
102
RTVSPost2010PropOp40
 70
     1
102
RTVSPost2010Prop41ColorIndex
 90
       18
102
RTVSPost2010Prop41ColorRGB
 90
        0
102
RTVSPost2010PropOp41
 70
     1
102
RTVSPost2010Prop42
 90
       50
102
RTVSPost2010PropOp42
 70
     1
102
RTVSPost2010Prop43
 90
        3
102
RTVSPost2010PropOp43
 70
     1
102
RTVSPost2010Prop44ColorIndex
 90
        5
102
RTVSPost2010Prop44ColorRGB
 90
      255
102
RTVSPost2010PropOp44
 70
     1
102
RTVSPost2010Prop45
280
     0
102
RTVSPost2010PropOp45
 70
     1
102
RTVSPost2010Prop46
 90
       50
102
RTVSPost2010PropOp46
 70
     1
102
RTVSPost2010Prop47
 90
       50
102
RTVSPost2010PropOp47
 70
     1
102
RTVSPost2010Prop48
 90
       50
102
RTVSPost2010PropOp48
 70
     1
102
RTVSPost2010Prop49
280
     0
102
RTVSPost2010PropOp49
 70
     1
102
RTVSPost2010Prop50
 90
       50
102
RTVSPost2010PropOp50
 70
     1
102
RTVSPost2010Prop51ColorIndex
 90
      256
102
RTVSPost2010Prop51ColorRGB
 90
-16777216
102
RTVSPost2010PropOp51
 70
     0
102
RTVSPost2010Prop52
140
1.0
102
RTVSPost2010PropOp52
 70
     0
102
RTVSPost2010Prop53
 90
        2
102
RTVSPost2010PropOp53
 70
     1
102
RTVSPost2010Prop54
  1
strokes_ogs.tif
102
RTVSPost2010PropOp54
 70
     1
102
RTVSPost2010Prop55
280
     0
102
RTVSPost2010PropOp55
 70
     1
102
RTVSPost2010Prop56
140
1.0
102
RTVSPost2010PropOp56
 70
     1
102
RTVSPost2010Prop57
140
1.0
102
RTVSPost2010PropOp57
 70
     1
  0
XRECORD
  5
95E
102
{ACAD_REACTORS
330
95D
102
}
330
95D
100
AcDbXrecord
280
     1
102
RTVSPost2010Prop28
280
     0
102
RTVSPost2010PropOp28
 70
     1
102
RTVSPost2010Prop29
280
     1
102
RTVSPost2010PropOp29
 70
     1
102
RTVSPost2010Prop30
280
     1
102
RTVSPost2010PropOp30
 70
     1
102
RTVSPost2010Prop31
280
     0
102
RTVSPost2010PropOp31
 70
     1
102
RTVSPost2010Prop32
280
     0
102
RTVSPost2010PropOp32
 70
     1
102
RTVSPost2010Prop33
280
     0
102
RTVSPost2010PropOp33
 70
     1
102
RTVSPost2010Prop34
280
     0
102
RTVSPost2010PropOp34
 70
     1
102
RTVSPost2010Prop35
280
     0
102
RTVSPost2010PropOp35
 70
     1
102
RTVSPost2010Prop36
280
     0
102
RTVSPost2010PropOp36
 70
     1
102
RTVSPost2010Prop37
 90
       50
102
RTVSPost2010PropOp37
 70
     1
102
RTVSPost2010Prop38
140
0.0
102
RTVSPost2010PropOp38
 70
     1
102
RTVSPost2010Prop39
140
1.0
102
RTVSPost2010PropOp39
 70
     1
102
RTVSPost2010Prop40
 90
        0
102
RTVSPost2010PropOp40
 70
     1
102
RTVSPost2010Prop41ColorIndex
 90
       18
102
RTVSPost2010Prop41ColorRGB
 90
        0
102
RTVSPost2010PropOp41
 70
     1
102
RTVSPost2010Prop42
 90
       50
102
RTVSPost2010PropOp42
 70
     1
102
RTVSPost2010Prop43
 90
        3
102
RTVSPost2010PropOp43
 70
     1
102
RTVSPost2010Prop44ColorIndex
 90
        5
102
RTVSPost2010Prop44ColorRGB
 90
      255
102
RTVSPost2010PropOp44
 70
     1
102
RTVSPost2010Prop45
280
     0
102
RTVSPost2010PropOp45
 70
     1
102
RTVSPost2010Prop46
 90
       50
102
RTVSPost2010PropOp46
 70
     1
102
RTVSPost2010Prop47
 90
       50
102
RTVSPost2010PropOp47
 70
     1
102
RTVSPost2010Prop48
 90
       50
102
RTVSPost2010PropOp48
 70
     1
102
RTVSPost2010Prop49
280
     0
102
RTVSPost2010PropOp49
 70
     1
102
RTVSPost2010Prop50
 90
       50
102
RTVSPost2010PropOp50
 70
     1
102
RTVSPost2010Prop51ColorIndex
 90
      256
102
RTVSPost2010Prop51ColorRGB
 90
-16777216
102
RTVSPost2010PropOp51
 70
     0
102
RTVSPost2010Prop52
140
1.0
102
RTVSPost2010PropOp52
 70
     0
102
RTVSPost2010Prop53
 90
        2
102
RTVSPost2010PropOp53
 70
     1
102
RTVSPost2010Prop54
  1
strokes_ogs.tif
102
RTVSPost2010PropOp54
 70
     1
102
RTVSPost2010Prop55
280
     0
102
RTVSPost2010PropOp55
 70
     1
102
RTVSPost2010Prop56
140
1.0
102
RTVSPost2010PropOp56
 70
     1
102
RTVSPost2010Prop57
140
1.0
102
RTVSPost2010PropOp57
 70
     1
  0
XRECORD
  5
960
102
{ACAD_REACTORS
330
95F
102
}
330
95F
100
AcDbXrecord
280
     1
102
RTVSPost2010Prop28
280
     0
102
RTVSPost2010PropOp28
 70
     1
102
RTVSPost2010Prop29
280
     1
102
RTVSPost2010PropOp29
 70
     1
102
RTVSPost2010Prop30
280
     1
102
RTVSPost2010PropOp30
 70
     1
102
RTVSPost2010Prop31
280
     0
102
RTVSPost2010PropOp31
 70
     1
102
RTVSPost2010Prop32
280
     0
102
RTVSPost2010PropOp32
 70
     1
102
RTVSPost2010Prop33
280
     0
102
RTVSPost2010PropOp33
 70
     1
102
RTVSPost2010Prop34
280
     0
102
RTVSPost2010PropOp34
 70
     1
102
RTVSPost2010Prop35
280
     0
102
RTVSPost2010PropOp35
 70
     1
102
RTVSPost2010Prop36
280
     0
102
RTVSPost2010PropOp36
 70
     1
102
RTVSPost2010Prop37
 90
       50
102
RTVSPost2010PropOp37
 70
     1
102
RTVSPost2010Prop38
140
0.0
102
RTVSPost2010PropOp38
 70
     1
102
RTVSPost2010Prop39
140
1.0
102
RTVSPost2010PropOp39
 70
     1
102
RTVSPost2010Prop40
 90
        0
102
RTVSPost2010PropOp40
 70
     1
102
RTVSPost2010Prop41ColorIndex
 90
       18
102
RTVSPost2010Prop41ColorRGB
 90
        0
102
RTVSPost2010PropOp41
 70
     1
102
RTVSPost2010Prop42
 90
       50
102
RTVSPost2010PropOp42
 70
     1
102
RTVSPost2010Prop43
 90
        3
102
RTVSPost2010PropOp43
 70
     1
102
RTVSPost2010Prop44ColorIndex
 90
        5
102
RTVSPost2010Prop44ColorRGB
 90
      255
102
RTVSPost2010PropOp44
 70
     1
102
RTVSPost2010Prop45
280
     0
102
RTVSPost2010PropOp45
 70
     1
102
RTVSPost2010Prop46
 90
       50
102
RTVSPost2010PropOp46
 70
     1
102
RTVSPost2010Prop47
 90
       50
102
RTVSPost2010PropOp47
 70
     1
102
RTVSPost2010Prop48
 90
       50
102
RTVSPost2010PropOp48
 70
     1
102
RTVSPost2010Prop49
280
     0
102
RTVSPost2010PropOp49
 70
     1
102
RTVSPost2010Prop50
 90
       50
102
RTVSPost2010PropOp50
 70
     1
102
RTVSPost2010Prop51ColorIndex
 90
      256
102
RTVSPost2010Prop51ColorRGB
 90
-16777216
102
RTVSPost2010PropOp51
 70
     0
102
RTVSPost2010Prop52
140
1.0
102
RTVSPost2010PropOp52
 70
     0
102
RTVSPost2010Prop53
 90
        2
102
RTVSPost2010PropOp53
 70
     1
102
RTVSPost2010Prop54
  1
strokes_ogs.tif
102
RTVSPost2010PropOp54
 70
     1
102
RTVSPost2010Prop55
280
     0
102
RTVSPost2010PropOp55
 70
     1
102
RTVSPost2010Prop56
140
1.0
102
RTVSPost2010PropOp56
 70
     1
102
RTVSPost2010Prop57
140
1.0
102
RTVSPost2010PropOp57
 70
     1
  0
XRECORD
  5
962
102
{ACAD_REACTORS
330
961
102
}
330
961
100
AcDbXrecord
280
     1
102
RTVSPost2010Prop28
280
     0
102
RTVSPost2010PropOp28
 70
     1
102
RTVSPost2010Prop29
280
     1
102
RTVSPost2010PropOp29
 70
     1
102
RTVSPost2010Prop30
280
     1
102
RTVSPost2010PropOp30
 70
     1
102
RTVSPost2010Prop31
280
     0
102
RTVSPost2010PropOp31
 70
     1
102
RTVSPost2010Prop32
280
     0
102
RTVSPost2010PropOp32
 70
     1
102
RTVSPost2010Prop33
280
     0
102
RTVSPost2010PropOp33
 70
     1
102
RTVSPost2010Prop34
280
     0
102
RTVSPost2010PropOp34
 70
     1
102
RTVSPost2010Prop35
280
     0
102
RTVSPost2010PropOp35
 70
     1
102
RTVSPost2010Prop36
280
     0
102
RTVSPost2010PropOp36
 70
     1
102
RTVSPost2010Prop37
 90
       50
102
RTVSPost2010PropOp37
 70
     1
102
RTVSPost2010Prop38
140
0.0
102
RTVSPost2010PropOp38
 70
     1
102
RTVSPost2010Prop39
140
1.0
102
RTVSPost2010PropOp39
 70
     1
102
RTVSPost2010Prop40
 90
        0
102
RTVSPost2010PropOp40
 70
     1
102
RTVSPost2010Prop41ColorIndex
 90
       18
102
RTVSPost2010Prop41ColorRGB
 90
        0
102
RTVSPost2010PropOp41
 70
     1
102
RTVSPost2010Prop42
 90
       50
102
RTVSPost2010PropOp42
 70
     1
102
RTVSPost2010Prop43
 90
        3
102
RTVSPost2010PropOp43
 70
     1
102
RTVSPost2010Prop44ColorIndex
 90
        5
102
RTVSPost2010Prop44ColorRGB
 90
      255
102
RTVSPost2010PropOp44
 70
     1
102
RTVSPost2010Prop45
280
     0
102
RTVSPost2010PropOp45
 70
     1
102
RTVSPost2010Prop46
 90
       50
102
RTVSPost2010PropOp46
 70
     1
102
RTVSPost2010Prop47
 90
       50
102
RTVSPost2010PropOp47
 70
     1
102
RTVSPost2010Prop48
 90
       50
102
RTVSPost2010PropOp48
 70
     1
102
RTVSPost2010Prop49
280
     0
102
RTVSPost2010PropOp49
 70
     1
102
RTVSPost2010Prop50
 90
       50
102
RTVSPost2010PropOp50
 70
     1
102
RTVSPost2010Prop51ColorIndex
 90
      256
102
RTVSPost2010Prop51ColorRGB
 90
-16777216
102
RTVSPost2010PropOp51
 70
     0
102
RTVSPost2010Prop52
140
1.0
102
RTVSPost2010PropOp52
 70
     0
102
RTVSPost2010Prop53
 90
        2
102
RTVSPost2010PropOp53
 70
     1
102
RTVSPost2010Prop54
  1
strokes_ogs.tif
102
RTVSPost2010PropOp54
 70
     1
102
RTVSPost2010Prop55
280
     0
102
RTVSPost2010PropOp55
 70
     1
102
RTVSPost2010Prop56
140
1.0
102
RTVSPost2010PropOp56
 70
     1
102
RTVSPost2010Prop57
140
1.0
102
RTVSPost2010PropOp57
 70
     1
  0
XRECORD
  5
964
102
{ACAD_REACTORS
330
963
102
}
330
963
100
AcDbXrecord
280
     1
102
RTVSPost2010Prop28
280
     0
102
RTVSPost2010PropOp28
 70
     1
102
RTVSPost2010Prop29
280
     1
102
RTVSPost2010PropOp29
 70
     1
102
RTVSPost2010Prop30
280
     1
102
RTVSPost2010PropOp30
 70
     1
102
RTVSPost2010Prop31
280
     0
102
RTVSPost2010PropOp31
 70
     1
102
RTVSPost2010Prop32
280
     0
102
RTVSPost2010PropOp32
 70
     1
102
RTVSPost2010Prop33
280
     0
102
RTVSPost2010PropOp33
 70
     1
102
RTVSPost2010Prop34
280
     0
102
RTVSPost2010PropOp34
 70
     1
102
RTVSPost2010Prop35
280
     0
102
RTVSPost2010PropOp35
 70
     1
102
RTVSPost2010Prop36
280
     0
102
RTVSPost2010PropOp36
 70
     1
102
RTVSPost2010Prop37
 90
       50
102
RTVSPost2010PropOp37
 70
     1
102
RTVSPost2010Prop38
140
0.0
102
RTVSPost2010PropOp38
 70
     1
102
RTVSPost2010Prop39
140
1.0
102
RTVSPost2010PropOp39
 70
     1
102
RTVSPost2010Prop40
 90
        0
102
RTVSPost2010PropOp40
 70
     1
102
RTVSPost2010Prop41ColorIndex
 90
       18
102
RTVSPost2010Prop41ColorRGB
 90
        0
102
RTVSPost2010PropOp41
 70
     1
102
RTVSPost2010Prop42
 90
       50
102
RTVSPost2010PropOp42
 70
     1
102
RTVSPost2010Prop43
 90
        3
102
RTVSPost2010PropOp43
 70
     1
102
RTVSPost2010Prop44ColorIndex
 90
        5
102
RTVSPost2010Prop44ColorRGB
 90
      255
102
RTVSPost2010PropOp44
 70
     1
102
RTVSPost2010Prop45
280
     0
102
RTVSPost2010PropOp45
 70
     1
102
RTVSPost2010Prop46
 90
       50
102
RTVSPost2010PropOp46
 70
     1
102
RTVSPost2010Prop47
 90
       50
102
RTVSPost2010PropOp47
 70
     1
102
RTVSPost2010Prop48
 90
       50
102
RTVSPost2010PropOp48
 70
     1
102
RTVSPost2010Prop49
280
     0
102
RTVSPost2010PropOp49
 70
     1
102
RTVSPost2010Prop50
 90
       50
102
RTVSPost2010PropOp50
 70
     1
102
RTVSPost2010Prop51ColorIndex
 90
      256
102
RTVSPost2010Prop51ColorRGB
 90
-16777216
102
RTVSPost2010PropOp51
 70
     0
102
RTVSPost2010Prop52
140
1.0
102
RTVSPost2010PropOp52
 70
     0
102
RTVSPost2010Prop53
 90
        2
102
RTVSPost2010PropOp53
 70
     1
102
RTVSPost2010Prop54
  1
strokes_ogs.tif
102
RTVSPost2010PropOp54
 70
     1
102
RTVSPost2010Prop55
280
     0
102
RTVSPost2010PropOp55
 70
     1
102
RTVSPost2010Prop56
140
1.0
102
RTVSPost2010PropOp56
 70
     1
102
RTVSPost2010Prop57
140
1.0
102
RTVSPost2010PropOp57
 70
     1
  0
XRECORD
  5
96C
102
{ACAD_REACTORS
330
96B
102
}
330
96B
100
AcDbXrecord
280
     1
102
RTVSPost2010Prop28
280
     0
102
RTVSPost2010PropOp28
 70
     1
102
RTVSPost2010Prop29
280
     1
102
RTVSPost2010PropOp29
 70
     1
102
RTVSPost2010Prop30
280
     1
102
RTVSPost2010PropOp30
 70
     1
102
RTVSPost2010Prop31
280
     0
102
RTVSPost2010PropOp31
 70
     1
102
RTVSPost2010Prop32
280
     0
102
RTVSPost2010PropOp32
 70
     1
102
RTVSPost2010Prop33
280
     0
102
RTVSPost2010PropOp33
 70
     1
102
RTVSPost2010Prop34
280
     0
102
RTVSPost2010PropOp34
 70
     1
102
RTVSPost2010Prop35
280
     0
102
RTVSPost2010PropOp35
 70
     1
102
RTVSPost2010Prop36
280
     0
102
RTVSPost2010PropOp36
 70
     1
102
RTVSPost2010Prop37
 90
       50
102
RTVSPost2010PropOp37
 70
     1
102
RTVSPost2010Prop38
140
0.0
102
RTVSPost2010PropOp38
 70
     1
102
RTVSPost2010Prop39
140
1.0
102
RTVSPost2010PropOp39
 70
     1
102
RTVSPost2010Prop40
 90
        0
102
RTVSPost2010PropOp40
 70
     1
102
RTVSPost2010Prop41ColorIndex
 90
       18
102
RTVSPost2010Prop41ColorRGB
 90
        0
102
RTVSPost2010PropOp41
 70
     1
102
RTVSPost2010Prop42
 90
       50
102
RTVSPost2010PropOp42
 70
     1
102
RTVSPost2010Prop43
 90
        3
102
RTVSPost2010PropOp43
 70
     1
102
RTVSPost2010Prop44ColorIndex
 90
        5
102
RTVSPost2010Prop44ColorRGB
 90
      255
102
RTVSPost2010PropOp44
 70
     1
102
RTVSPost2010Prop45
280
     0
102
RTVSPost2010PropOp45
 70
     1
102
RTVSPost2010Prop46
 90
       50
102
RTVSPost2010PropOp46
 70
     1
102
RTVSPost2010Prop47
 90
       50
102
RTVSPost2010PropOp47
 70
     1
102
RTVSPost2010Prop48
 90
       50
102
RTVSPost2010PropOp48
 70
     1
102
RTVSPost2010Prop49
280
     0
102
RTVSPost2010PropOp49
 70
     1
102
RTVSPost2010Prop50
 90
       50
102
RTVSPost2010PropOp50
 70
     1
102
RTVSPost2010Prop51ColorIndex
 90
      256
102
RTVSPost2010Prop51ColorRGB
 90
-16777216
102
RTVSPost2010PropOp51
 70
     0
102
RTVSPost2010Prop52
140
1.0
102
RTVSPost2010PropOp52
 70
     0
102
RTVSPost2010Prop53
 90
        2
102
RTVSPost2010PropOp53
 70
     1
102
RTVSPost2010Prop54
  1
strokes_ogs.tif
102
RTVSPost2010PropOp54
 70
     1
102
RTVSPost2010Prop55
280
     0
102
RTVSPost2010PropOp55
 70
     1
102
RTVSPost2010Prop56
140
1.0
102
RTVSPost2010PropOp56
 70
     1
102
RTVSPost2010Prop57
140
1.0
102
RTVSPost2010PropOp57
 70
     1
  0
XRECORD
  5
988
102
{ACAD_REACTORS
330
987
102
}
330
987
100
AcDbXrecord
280
     1
102
RTVSPost2010Prop28
280
     0
102
RTVSPost2010PropOp28
 70
     0
102
RTVSPost2010Prop29
280
     1
102
RTVSPost2010PropOp29
 70
     0
102
RTVSPost2010Prop30
280
     1
102
RTVSPost2010PropOp30
 70
     0
102
RTVSPost2010Prop31
280
     0
102
RTVSPost2010PropOp31
 70
     0
102
RTVSPost2010Prop32
280
     0
102
RTVSPost2010PropOp32
 70
     0
102
RTVSPost2010Prop33
280
     0
102
RTVSPost2010PropOp33
 70
     0
102
RTVSPost2010Prop34
280
     0
102
RTVSPost2010PropOp34
 70
     0
102
RTVSPost2010Prop35
280
     0
102
RTVSPost2010PropOp35
 70
     0
102
RTVSPost2010Prop36
280
     0
102
RTVSPost2010PropOp36
 70
     0
102
RTVSPost2010Prop37
 90
       50
102
RTVSPost2010PropOp37
 70
     0
102
RTVSPost2010Prop38
140
0.0
102
RTVSPost2010PropOp38
 70
     0
102
RTVSPost2010Prop39
140
1.0
102
RTVSPost2010PropOp39
 70
     0
102
RTVSPost2010Prop40
 90
        0
102
RTVSPost2010PropOp40
 70
     0
102
RTVSPost2010Prop41ColorIndex
 90
       18
102
RTVSPost2010Prop41ColorRGB
 90
        0
102
RTVSPost2010PropOp41
 70
     0
102
RTVSPost2010Prop42
 90
       50
102
RTVSPost2010PropOp42
 70
     0
102
RTVSPost2010Prop43
 90
        3
102
RTVSPost2010PropOp43
 70
     0
102
RTVSPost2010Prop44ColorIndex
 90
        5
102
RTVSPost2010Prop44ColorRGB
 90
      255
102
RTVSPost2010PropOp44
 70
     0
102
RTVSPost2010Prop45
280
     0
102
RTVSPost2010PropOp45
 70
     0
102
RTVSPost2010Prop46
 90
       50
102
RTVSPost2010PropOp46
 70
     0
102
RTVSPost2010Prop47
 90
       50
102
RTVSPost2010PropOp47
 70
     0
102
RTVSPost2010Prop48
 90
       50
102
RTVSPost2010PropOp48
 70
     0
102
RTVSPost2010Prop49
280
     0
102
RTVSPost2010PropOp49
 70
     0
102
RTVSPost2010Prop50
 90
       50
102
RTVSPost2010PropOp50
 70
     0
102
RTVSPost2010Prop51ColorIndex
 90
      256
102
RTVSPost2010Prop51ColorRGB
 90
-16777216
102
RTVSPost2010PropOp51
 70
     0
102
RTVSPost2010Prop52
140
1.0
102
RTVSPost2010PropOp52
 70
     0
102
RTVSPost2010Prop53
 90
        2
102
RTVSPost2010PropOp53
 70
     0
102
RTVSPost2010Prop54
  1
strokes_ogs.tif
102
RTVSPost2010PropOp54
 70
     0
102
RTVSPost2010Prop55
280
     0
102
RTVSPost2010PropOp55
 70
     0
102
RTVSPost2010Prop56
140
1.0
102
RTVSPost2010PropOp56
 70
     0
102
RTVSPost2010Prop57
140
1.0
102
RTVSPost2010PropOp57
 70
     0
  0
XRECORD
  5
978
102
{ACAD_REACTORS
330
977
102
}
330
977
100
AcDbXrecord
280
     1
102
RTVSPost2010Prop28
280
     0
102
RTVSPost2010PropOp28
 70
     1
102
RTVSPost2010Prop29
280
     1
102
RTVSPost2010PropOp29
 70
     1
102
RTVSPost2010Prop30
280
     1
102
RTVSPost2010PropOp30
 70
     1
102
RTVSPost2010Prop31
280
     0
102
RTVSPost2010PropOp31
 70
     1
102
RTVSPost2010Prop32
280
     0
102
RTVSPost2010PropOp32
 70
     1
102
RTVSPost2010Prop33
280
     0
102
RTVSPost2010PropOp33
 70
     1
102
RTVSPost2010Prop34
280
     0
102
RTVSPost2010PropOp34
 70
     1
102
RTVSPost2010Prop35
280
     0
102
RTVSPost2010PropOp35
 70
     1
102
RTVSPost2010Prop36
280
     0
102
RTVSPost2010PropOp36
 70
     1
102
RTVSPost2010Prop37
 90
       50
102
RTVSPost2010PropOp37
 70
     1
102
RTVSPost2010Prop38
140
0.0
102
RTVSPost2010PropOp38
 70
     1
102
RTVSPost2010Prop39
140
1.0
102
RTVSPost2010PropOp39
 70
     1
102
RTVSPost2010Prop40
 90
        0
102
RTVSPost2010PropOp40
 70
     1
102
RTVSPost2010Prop41ColorIndex
 90
       18
102
RTVSPost2010Prop41ColorRGB
 90
        0
102
RTVSPost2010PropOp41
 70
     1
102
RTVSPost2010Prop42
 90
       50
102
RTVSPost2010PropOp42
 70
     1
102
RTVSPost2010Prop43
 90
        3
102
RTVSPost2010PropOp43
 70
     1
102
RTVSPost2010Prop44ColorIndex
 90
        5
102
RTVSPost2010Prop44ColorRGB
 90
      255
102
RTVSPost2010PropOp44
 70
     1
102
RTVSPost2010Prop45
280
     0
102
RTVSPost2010PropOp45
 70
     1
102
RTVSPost2010Prop46
 90
       50
102
RTVSPost2010PropOp46
 70
     1
102
RTVSPost2010Prop47
 90
       50
102
RTVSPost2010PropOp47
 70
     1
102
RTVSPost2010Prop48
 90
       50
102
RTVSPost2010PropOp48
 70
     1
102
RTVSPost2010Prop49
280
     0
102
RTVSPost2010PropOp49
 70
     1
102
RTVSPost2010Prop50
 90
       50
102
RTVSPost2010PropOp50
 70
     1
102
RTVSPost2010Prop51ColorIndex
 90
      256
102
RTVSPost2010Prop51ColorRGB
 90
-16777216
102
RTVSPost2010PropOp51
 70
     0
102
RTVSPost2010Prop52
140
1.0
102
RTVSPost2010PropOp52
 70
     0
102
RTVSPost2010Prop53
 90
        2
102
RTVSPost2010PropOp53
 70
     1
102
RTVSPost2010Prop54
  1
strokes_ogs.tif
102
RTVSPost2010PropOp54
 70
     1
102
RTVSPost2010Prop55
280
     0
102
RTVSPost2010PropOp55
 70
     1
102
RTVSPost2010Prop56
140
1.0
102
RTVSPost2010PropOp56
 70
     1
102
RTVSPost2010Prop57
140
1.0
102
RTVSPost2010PropOp57
 70
     1
  0
XRECORD
  5
98A
102
{ACAD_REACTORS
330
989
102
}
330
989
100
AcDbXrecord
280
     1
102
RTVSPost2010Prop28
280
     0
102
RTVSPost2010PropOp28
 70
     0
102
RTVSPost2010Prop29
280
     1
102
RTVSPost2010PropOp29
 70
     0
102
RTVSPost2010Prop30
280
     1
102
RTVSPost2010PropOp30
 70
     0
102
RTVSPost2010Prop31
280
     0
102
RTVSPost2010PropOp31
 70
     0
102
RTVSPost2010Prop32
280
     0
102
RTVSPost2010PropOp32
 70
     0
102
RTVSPost2010Prop33
280
     0
102
RTVSPost2010PropOp33
 70
     0
102
RTVSPost2010Prop34
280
     0
102
RTVSPost2010PropOp34
 70
     0
102
RTVSPost2010Prop35
280
     0
102
RTVSPost2010PropOp35
 70
     0
102
RTVSPost2010Prop36
280
     0
102
RTVSPost2010PropOp36
 70
     0
102
RTVSPost2010Prop37
 90
       50
102
RTVSPost2010PropOp37
 70
     0
102
RTVSPost2010Prop38
140
0.0
102
RTVSPost2010PropOp38
 70
     0
102
RTVSPost2010Prop39
140
1.0
102
RTVSPost2010PropOp39
 70
     0
102
RTVSPost2010Prop40
 90
        0
102
RTVSPost2010PropOp40
 70
     0
102
RTVSPost2010Prop41ColorIndex
 90
       18
102
RTVSPost2010Prop41ColorRGB
 90
        0
102
RTVSPost2010PropOp41
 70
     0
102
RTVSPost2010Prop42
 90
       50
102
RTVSPost2010PropOp42
 70
     0
102
RTVSPost2010Prop43
 90
        3
102
RTVSPost2010PropOp43
 70
     0
102
RTVSPost2010Prop44ColorIndex
 90
        5
102
RTVSPost2010Prop44ColorRGB
 90
      255
102
RTVSPost2010PropOp44
 70
     0
102
RTVSPost2010Prop45
280
     0
102
RTVSPost2010PropOp45
 70
     0
102
RTVSPost2010Prop46
 90
       50
102
RTVSPost2010PropOp46
 70
     0
102
RTVSPost2010Prop47
 90
       50
102
RTVSPost2010PropOp47
 70
     0
102
RTVSPost2010Prop48
 90
       50
102
RTVSPost2010PropOp48
 70
     0
102
RTVSPost2010Prop49
280
     0
102
RTVSPost2010PropOp49
 70
     0
102
RTVSPost2010Prop50
 90
       50
102
RTVSPost2010PropOp50
 70
     0
102
RTVSPost2010Prop51ColorIndex
 90
      256
102
RTVSPost2010Prop51ColorRGB
 90
-16777216
102
RTVSPost2010PropOp51
 70
     0
102
RTVSPost2010Prop52
140
1.0
102
RTVSPost2010PropOp52
 70
     0
102
RTVSPost2010Prop53
 90
        2
102
RTVSPost2010PropOp53
 70
     0
102
RTVSPost2010Prop54
  1
strokes_ogs.tif
102
RTVSPost2010PropOp54
 70
     0
102
RTVSPost2010Prop55
280
     0
102
RTVSPost2010PropOp55
 70
     0
102
RTVSPost2010Prop56
140
1.0
102
RTVSPost2010PropOp56
 70
     0
102
RTVSPost2010Prop57
140
1.0
102
RTVSPost2010PropOp57
 70
     0
  0
XRECORD
  5
970
102
{ACAD_REACTORS
330
96F
102
}
330
96F
100
AcDbXrecord
280
     1
102
RTVSPost2010Prop28
280
     0
102
RTVSPost2010PropOp28
 70
     1
102
RTVSPost2010Prop29
280
     1
102
RTVSPost2010PropOp29
 70
     1
102
RTVSPost2010Prop30
280
     1
102
RTVSPost2010PropOp30
 70
     1
102
RTVSPost2010Prop31
280
     0
102
RTVSPost2010PropOp31
 70
     1
102
RTVSPost2010Prop32
280
     0
102
RTVSPost2010PropOp32
 70
     1
102
RTVSPost2010Prop33
280
     0
102
RTVSPost2010PropOp33
 70
     1
102
RTVSPost2010Prop34
280
     0
102
RTVSPost2010PropOp34
 70
     1
102
RTVSPost2010Prop35
280
     0
102
RTVSPost2010PropOp35
 70
     1
102
RTVSPost2010Prop36
280
     0
102
RTVSPost2010PropOp36
 70
     1
102
RTVSPost2010Prop37
 90
       50
102
RTVSPost2010PropOp37
 70
     1
102
RTVSPost2010Prop38
140
0.0
102
RTVSPost2010PropOp38
 70
     1
102
RTVSPost2010Prop39
140
1.0
102
RTVSPost2010PropOp39
 70
     1
102
RTVSPost2010Prop40
 90
        0
102
RTVSPost2010PropOp40
 70
     1
102
RTVSPost2010Prop41ColorIndex
 90
       18
102
RTVSPost2010Prop41ColorRGB
 90
        0
102
RTVSPost2010PropOp41
 70
     1
102
RTVSPost2010Prop42
 90
       50
102
RTVSPost2010PropOp42
 70
     1
102
RTVSPost2010Prop43
 90
        3
102
RTVSPost2010PropOp43
 70
     1
102
RTVSPost2010Prop44ColorIndex
 90
        5
102
RTVSPost2010Prop44ColorRGB
 90
      255
102
RTVSPost2010PropOp44
 70
     1
102
RTVSPost2010Prop45
280
     0
102
RTVSPost2010PropOp45
 70
     1
102
RTVSPost2010Prop46
 90
       50
102
RTVSPost2010PropOp46
 70
     1
102
RTVSPost2010Prop47
 90
       50
102
RTVSPost2010PropOp47
 70
     1
102
RTVSPost2010Prop48
 90
       50
102
RTVSPost2010PropOp48
 70
     1
102
RTVSPost2010Prop49
280
     0
102
RTVSPost2010PropOp49
 70
     1
102
RTVSPost2010Prop50
 90
       50
102
RTVSPost2010PropOp50
 70
     1
102
RTVSPost2010Prop51ColorIndex
 90
      256
102
RTVSPost2010Prop51ColorRGB
 90
-16777216
102
RTVSPost2010PropOp51
 70
     0
102
RTVSPost2010Prop52
140
1.0
102
RTVSPost2010PropOp52
 70
     0
102
RTVSPost2010Prop53
 90
        2
102
RTVSPost2010PropOp53
 70
     1
102
RTVSPost2010Prop54
  1
strokes_ogs.tif
102
RTVSPost2010PropOp54
 70
     1
102
RTVSPost2010Prop55
280
     0
102
RTVSPost2010PropOp55
 70
     1
102
RTVSPost2010Prop56
140
1.0
102
RTVSPost2010PropOp56
 70
     1
102
RTVSPost2010Prop57
140
1.0
102
RTVSPost2010PropOp57
 70
     1
  0
XRECORD
  5
986
102
{ACAD_REACTORS
330
985
102
}
330
985
100
AcDbXrecord
280
     1
102
RTVSPost2010Prop28
280
     0
102
RTVSPost2010PropOp28
 70
     1
102
RTVSPost2010Prop29
280
     1
102
RTVSPost2010PropOp29
 70
     1
102
RTVSPost2010Prop30
280
     1
102
RTVSPost2010PropOp30
 70
     1
102
RTVSPost2010Prop31
280
     0
102
RTVSPost2010PropOp31
 70
     1
102
RTVSPost2010Prop32
280
     0
102
RTVSPost2010PropOp32
 70
     1
102
RTVSPost2010Prop33
280
     0
102
RTVSPost2010PropOp33
 70
     1
102
RTVSPost2010Prop34
280
     0
102
RTVSPost2010PropOp34
 70
     1
102
RTVSPost2010Prop35
280
     0
102
RTVSPost2010PropOp35
 70
     1
102
RTVSPost2010Prop36
280
     0
102
RTVSPost2010PropOp36
 70
     1
102
RTVSPost2010Prop37
 90
       50
102
RTVSPost2010PropOp37
 70
     1
102
RTVSPost2010Prop38
140
0.0
102
RTVSPost2010PropOp38
 70
     1
102
RTVSPost2010Prop39
140
1.0
102
RTVSPost2010PropOp39
 70
     1
102
RTVSPost2010Prop40
 90
        0
102
RTVSPost2010PropOp40
 70
     1
102
RTVSPost2010Prop41ColorIndex
 90
       18
102
RTVSPost2010Prop41ColorRGB
 90
        0
102
RTVSPost2010PropOp41
 70
     1
102
RTVSPost2010Prop42
 90
       50
102
RTVSPost2010PropOp42
 70
     1
102
RTVSPost2010Prop43
 90
        3
102
RTVSPost2010PropOp43
 70
     1
102
RTVSPost2010Prop44ColorIndex
 90
        5
102
RTVSPost2010Prop44ColorRGB
 90
      255
102
RTVSPost2010PropOp44
 70
     1
102
RTVSPost2010Prop45
280
     0
102
RTVSPost2010PropOp45
 70
     1
102
RTVSPost2010Prop46
 90
       50
102
RTVSPost2010PropOp46
 70
     1
102
RTVSPost2010Prop47
 90
       50
102
RTVSPost2010PropOp47
 70
     1
102
RTVSPost2010Prop48
 90
       50
102
RTVSPost2010PropOp48
 70
     1
102
RTVSPost2010Prop49
280
     0
102
RTVSPost2010PropOp49
 70
     1
102
RTVSPost2010Prop50
 90
       50
102
RTVSPost2010PropOp50
 70
     1
102
RTVSPost2010Prop51ColorIndex
 90
      256
102
RTVSPost2010Prop51ColorRGB
 90
-16777216
102
RTVSPost2010PropOp51
 70
     0
102
RTVSPost2010Prop52
140
1.0
102
RTVSPost2010PropOp52
 70
     0
102
RTVSPost2010Prop53
 90
        2
102
RTVSPost2010PropOp53
 70
     1
102
RTVSPost2010Prop54
  1
strokes_ogs.tif
102
RTVSPost2010PropOp54
 70
     1
102
RTVSPost2010Prop55
280
     0
102
RTVSPost2010PropOp55
 70
     1
102
RTVSPost2010Prop56
140
1.0
102
RTVSPost2010PropOp56
 70
     1
102
RTVSPost2010Prop57
140
1.0
102
RTVSPost2010PropOp57
 70
     1
  0
XRECORD
  5
984
102
{ACAD_REACTORS
330
983
102
}
330
983
100
AcDbXrecord
280
     1
102
RTVSPost2010Prop28
280
     0
102
RTVSPost2010PropOp28
 70
     1
102
RTVSPost2010Prop29
280
     1
102
RTVSPost2010PropOp29
 70
     1
102
RTVSPost2010Prop30
280
     1
102
RTVSPost2010PropOp30
 70
     1
102
RTVSPost2010Prop31
280
     0
102
RTVSPost2010PropOp31
 70
     1
102
RTVSPost2010Prop32
280
     0
102
RTVSPost2010PropOp32
 70
     1
102
RTVSPost2010Prop33
280
     0
102
RTVSPost2010PropOp33
 70
     1
102
RTVSPost2010Prop34
280
     0
102
RTVSPost2010PropOp34
 70
     1
102
RTVSPost2010Prop35
280
     0
102
RTVSPost2010PropOp35
 70
     1
102
RTVSPost2010Prop36
280
     0
102
RTVSPost2010PropOp36
 70
     1
102
RTVSPost2010Prop37
 90
       50
102
RTVSPost2010PropOp37
 70
     1
102
RTVSPost2010Prop38
140
0.0
102
RTVSPost2010PropOp38
 70
     1
102
RTVSPost2010Prop39
140
1.0
102
RTVSPost2010PropOp39
 70
     1
102
RTVSPost2010Prop40
 90
        0
102
RTVSPost2010PropOp40
 70
     1
102
RTVSPost2010Prop41ColorIndex
 90
       18
102
RTVSPost2010Prop41ColorRGB
 90
        0
102
RTVSPost2010PropOp41
 70
     1
102
RTVSPost2010Prop42
 90
       50
102
RTVSPost2010PropOp42
 70
     1
102
RTVSPost2010Prop43
 90
        3
102
RTVSPost2010PropOp43
 70
     1
102
RTVSPost2010Prop44ColorIndex
 90
        5
102
RTVSPost2010Prop44ColorRGB
 90
      255
102
RTVSPost2010PropOp44
 70
     1
102
RTVSPost2010Prop45
280
     0
102
RTVSPost2010PropOp45
 70
     1
102
RTVSPost2010Prop46
 90
       50
102
RTVSPost2010PropOp46
 70
     1
102
RTVSPost2010Prop47
 90
       50
102
RTVSPost2010PropOp47
 70
     1
102
RTVSPost2010Prop48
 90
       50
102
RTVSPost2010PropOp48
 70
     1
102
RTVSPost2010Prop49
280
     0
102
RTVSPost2010PropOp49
 70
     1
102
RTVSPost2010Prop50
 90
       50
102
RTVSPost2010PropOp50
 70
     1
102
RTVSPost2010Prop51ColorIndex
 90
      256
102
RTVSPost2010Prop51ColorRGB
 90
-16777216
102
RTVSPost2010PropOp51
 70
     0
102
RTVSPost2010Prop52
140
1.0
102
RTVSPost2010PropOp52
 70
     0
102
RTVSPost2010Prop53
 90
        2
102
RTVSPost2010PropOp53
 70
     1
102
RTVSPost2010Prop54
  1
strokes_ogs.tif
102
RTVSPost2010PropOp54
 70
     1
102
RTVSPost2010Prop55
280
     0
102
RTVSPost2010PropOp55
 70
     1
102
RTVSPost2010Prop56
140
1.0
102
RTVSPost2010PropOp56
 70
     1
102
RTVSPost2010Prop57
140
1.0
102
RTVSPost2010PropOp57
 70
     1
  0
XRECORD
  5
97E
102
{ACAD_REACTORS
330
97D
102
}
330
97D
100
AcDbXrecord
280
     1
102
RTVSPost2010Prop28
280
     0
102
RTVSPost2010PropOp28
 70
     1
102
RTVSPost2010Prop29
280
     1
102
RTVSPost2010PropOp29
 70
     1
102
RTVSPost2010Prop30
280
     1
102
RTVSPost2010PropOp30
 70
     1
102
RTVSPost2010Prop31
280
     0
102
RTVSPost2010PropOp31
 70
     1
102
RTVSPost2010Prop32
280
     0
102
RTVSPost2010PropOp32
 70
     1
102
RTVSPost2010Prop33
280
     0
102
RTVSPost2010PropOp33
 70
     1
102
RTVSPost2010Prop34
280
     0
102
RTVSPost2010PropOp34
 70
     1
102
RTVSPost2010Prop35
280
     0
102
RTVSPost2010PropOp35
 70
     1
102
RTVSPost2010Prop36
280
     0
102
RTVSPost2010PropOp36
 70
     1
102
RTVSPost2010Prop37
 90
       50
102
RTVSPost2010PropOp37
 70
     1
102
RTVSPost2010Prop38
140
0.0
102
RTVSPost2010PropOp38
 70
     1
102
RTVSPost2010Prop39
140
1.0
102
RTVSPost2010PropOp39
 70
     1
102
RTVSPost2010Prop40
 90
        0
102
RTVSPost2010PropOp40
 70
     1
102
RTVSPost2010Prop41ColorIndex
 90
       18
102
RTVSPost2010Prop41ColorRGB
 90
        0
102
RTVSPost2010PropOp41
 70
     1
102
RTVSPost2010Prop42
 90
       50
102
RTVSPost2010PropOp42
 70
     1
102
RTVSPost2010Prop43
 90
        3
102
RTVSPost2010PropOp43
 70
     1
102
RTVSPost2010Prop44ColorIndex
 90
        5
102
RTVSPost2010Prop44ColorRGB
 90
      255
102
RTVSPost2010PropOp44
 70
     1
102
RTVSPost2010Prop45
280
     0
102
RTVSPost2010PropOp45
 70
     1
102
RTVSPost2010Prop46
 90
       50
102
RTVSPost2010PropOp46
 70
     1
102
RTVSPost2010Prop47
 90
       50
102
RTVSPost2010PropOp47
 70
     1
102
RTVSPost2010Prop48
 90
       50
102
RTVSPost2010PropOp48
 70
     1
102
RTVSPost2010Prop49
280
     0
102
RTVSPost2010PropOp49
 70
     1
102
RTVSPost2010Prop50
 90
       50
102
RTVSPost2010PropOp50
 70
     1
102
RTVSPost2010Prop51ColorIndex
 90
      256
102
RTVSPost2010Prop51ColorRGB
 90
-16777216
102
RTVSPost2010PropOp51
 70
     0
102
RTVSPost2010Prop52
140
1.0
102
RTVSPost2010PropOp52
 70
     0
102
RTVSPost2010Prop53
 90
        2
102
RTVSPost2010PropOp53
 70
     1
102
RTVSPost2010Prop54
  1
strokes_ogs.tif
102
RTVSPost2010PropOp54
 70
     1
102
RTVSPost2010Prop55
280
     0
102
RTVSPost2010PropOp55
 70
     1
102
RTVSPost2010Prop56
140
1.0
102
RTVSPost2010PropOp56
 70
     1
102
RTVSPost2010Prop57
140
1.0
102
RTVSPost2010PropOp57
 70
     1
  0
XRECORD
  5
980
102
{ACAD_REACTORS
330
97F
102
}
330
97F
100
AcDbXrecord
280
     1
102
RTVSPost2010Prop28
280
     0
102
RTVSPost2010PropOp28
 70
     1
102
RTVSPost2010Prop29
280
     1
102
RTVSPost2010PropOp29
 70
     1
102
RTVSPost2010Prop30
280
     1
102
RTVSPost2010PropOp30
 70
     1
102
RTVSPost2010Prop31
280
     0
102
RTVSPost2010PropOp31
 70
     1
102
RTVSPost2010Prop32
280
     0
102
RTVSPost2010PropOp32
 70
     1
102
RTVSPost2010Prop33
280
     0
102
RTVSPost2010PropOp33
 70
     1
102
RTVSPost2010Prop34
280
     0
102
RTVSPost2010PropOp34
 70
     1
102
RTVSPost2010Prop35
280
     0
102
RTVSPost2010PropOp35
 70
     1
102
RTVSPost2010Prop36
280
     0
102
RTVSPost2010PropOp36
 70
     1
102
RTVSPost2010Prop37
 90
       50
102
RTVSPost2010PropOp37
 70
     1
102
RTVSPost2010Prop38
140
0.0
102
RTVSPost2010PropOp38
 70
     1
102
RTVSPost2010Prop39
140
1.0
102
RTVSPost2010PropOp39
 70
     1
102
RTVSPost2010Prop40
 90
        0
102
RTVSPost2010PropOp40
 70
     1
102
RTVSPost2010Prop41ColorIndex
 90
       18
102
RTVSPost2010Prop41ColorRGB
 90
        0
102
RTVSPost2010PropOp41
 70
     1
102
RTVSPost2010Prop42
 90
       50
102
RTVSPost2010PropOp42
 70
     1
102
RTVSPost2010Prop43
 90
        3
102
RTVSPost2010PropOp43
 70
     1
102
RTVSPost2010Prop44ColorIndex
 90
        5
102
RTVSPost2010Prop44ColorRGB
 90
      255
102
RTVSPost2010PropOp44
 70
     1
102
RTVSPost2010Prop45
280
     0
102
RTVSPost2010PropOp45
 70
     1
102
RTVSPost2010Prop46
 90
       50
102
RTVSPost2010PropOp46
 70
     1
102
RTVSPost2010Prop47
 90
       50
102
RTVSPost2010PropOp47
 70
     1
102
RTVSPost2010Prop48
 90
       50
102
RTVSPost2010PropOp48
 70
     1
102
RTVSPost2010Prop49
280
     0
102
RTVSPost2010PropOp49
 70
     1
102
RTVSPost2010Prop50
 90
       50
102
RTVSPost2010PropOp50
 70
     1
102
RTVSPost2010Prop51ColorIndex
 90
      256
102
RTVSPost2010Prop51ColorRGB
 90
-16777216
102
RTVSPost2010PropOp51
 70
     0
102
RTVSPost2010Prop52
140
1.0
102
RTVSPost2010PropOp52
 70
     0
102
RTVSPost2010Prop53
 90
        2
102
RTVSPost2010PropOp53
 70
     1
102
RTVSPost2010Prop54
  1
strokes_ogs.tif
102
RTVSPost2010PropOp54
 70
     1
102
RTVSPost2010Prop55
280
     0
102
RTVSPost2010PropOp55
 70
     1
102
RTVSPost2010Prop56
140
1.0
102
RTVSPost2010PropOp56
 70
     1
102
RTVSPost2010Prop57
140
1.0
102
RTVSPost2010PropOp57
 70
     1
  0
XRECORD
  5
976
102
{ACAD_REACTORS
330
975
102
}
330
975
100
AcDbXrecord
280
     1
102
RTVSPost2010Prop28
280
     0
102
RTVSPost2010PropOp28
 70
     1
102
RTVSPost2010Prop29
280
     1
102
RTVSPost2010PropOp29
 70
     1
102
RTVSPost2010Prop30
280
     1
102
RTVSPost2010PropOp30
 70
     1
102
RTVSPost2010Prop31
280
     0
102
RTVSPost2010PropOp31
 70
     1
102
RTVSPost2010Prop32
280
     0
102
RTVSPost2010PropOp32
 70
     1
102
RTVSPost2010Prop33
280
     0
102
RTVSPost2010PropOp33
 70
     1
102
RTVSPost2010Prop34
280
     0
102
RTVSPost2010PropOp34
 70
     1
102
RTVSPost2010Prop35
280
     0
102
RTVSPost2010PropOp35
 70
     1
102
RTVSPost2010Prop36
280
     0
102
RTVSPost2010PropOp36
 70
     1
102
RTVSPost2010Prop37
 90
       50
102
RTVSPost2010PropOp37
 70
     1
102
RTVSPost2010Prop38
140
0.0
102
RTVSPost2010PropOp38
 70
     1
102
RTVSPost2010Prop39
140
1.0
102
RTVSPost2010PropOp39
 70
     1
102
RTVSPost2010Prop40
 90
        0
102
RTVSPost2010PropOp40
 70
     1
102
RTVSPost2010Prop41ColorIndex
 90
       18
102
RTVSPost2010Prop41ColorRGB
 90
        0
102
RTVSPost2010PropOp41
 70
     1
102
RTVSPost2010Prop42
 90
       50
102
RTVSPost2010PropOp42
 70
     1
102
RTVSPost2010Prop43
 90
        3
102
RTVSPost2010PropOp43
 70
     1
102
RTVSPost2010Prop44ColorIndex
 90
        5
102
RTVSPost2010Prop44ColorRGB
 90
      255
102
RTVSPost2010PropOp44
 70
     1
102
RTVSPost2010Prop45
280
     0
102
RTVSPost2010PropOp45
 70
     1
102
RTVSPost2010Prop46
 90
       50
102
RTVSPost2010PropOp46
 70
     1
102
RTVSPost2010Prop47
 90
       50
102
RTVSPost2010PropOp47
 70
     1
102
RTVSPost2010Prop48
 90
       50
102
RTVSPost2010PropOp48
 70
     1
102
RTVSPost2010Prop49
280
     0
102
RTVSPost2010PropOp49
 70
     1
102
RTVSPost2010Prop50
 90
       50
102
RTVSPost2010PropOp50
 70
     1
102
RTVSPost2010Prop51ColorIndex
 90
      256
102
RTVSPost2010Prop51ColorRGB
 90
-16777216
102
RTVSPost2010PropOp51
 70
     0
102
RTVSPost2010Prop52
140
1.0
102
RTVSPost2010PropOp52
 70
     0
102
RTVSPost2010Prop53
 90
        2
102
RTVSPost2010PropOp53
 70
     1
102
RTVSPost2010Prop54
  1
strokes_ogs.tif
102
RTVSPost2010PropOp54
 70
     1
102
RTVSPost2010Prop55
280
     0
102
RTVSPost2010PropOp55
 70
     1
102
RTVSPost2010Prop56
140
1.0
102
RTVSPost2010PropOp56
 70
     1
102
RTVSPost2010Prop57
140
1.0
102
RTVSPost2010PropOp57
 70
     1
  0
XRECORD
  5
96A
102
{ACAD_REACTORS
330
969
102
}
330
969
100
AcDbXrecord
280
     1
102
RTVSPost2010Prop28
280
     0
102
RTVSPost2010PropOp28
 70
     1
102
RTVSPost2010Prop29
280
     1
102
RTVSPost2010PropOp29
 70
     1
102
RTVSPost2010Prop30
280
     1
102
RTVSPost2010PropOp30
 70
     1
102
RTVSPost2010Prop31
280
     0
102
RTVSPost2010PropOp31
 70
     1
102
RTVSPost2010Prop32
280
     0
102
RTVSPost2010PropOp32
 70
     1
102
RTVSPost2010Prop33
280
     0
102
RTVSPost2010PropOp33
 70
     1
102
RTVSPost2010Prop34
280
     0
102
RTVSPost2010PropOp34
 70
     1
102
RTVSPost2010Prop35
280
     0
102
RTVSPost2010PropOp35
 70
     1
102
RTVSPost2010Prop36
280
     0
102
RTVSPost2010PropOp36
 70
     1
102
RTVSPost2010Prop37
 90
       50
102
RTVSPost2010PropOp37
 70
     1
102
RTVSPost2010Prop38
140
0.0
102
RTVSPost2010PropOp38
 70
     1
102
RTVSPost2010Prop39
140
1.0
102
RTVSPost2010PropOp39
 70
     1
102
RTVSPost2010Prop40
 90
        0
102
RTVSPost2010PropOp40
 70
     1
102
RTVSPost2010Prop41ColorIndex
 90
       18
102
RTVSPost2010Prop41ColorRGB
 90
        0
102
RTVSPost2010PropOp41
 70
     1
102
RTVSPost2010Prop42
 90
       50
102
RTVSPost2010PropOp42
 70
     1
102
RTVSPost2010Prop43
 90
        3
102
RTVSPost2010PropOp43
 70
     1
102
RTVSPost2010Prop44ColorIndex
 90
        5
102
RTVSPost2010Prop44ColorRGB
 90
      255
102
RTVSPost2010PropOp44
 70
     1
102
RTVSPost2010Prop45
280
     0
102
RTVSPost2010PropOp45
 70
     1
102
RTVSPost2010Prop46
 90
       50
102
RTVSPost2010PropOp46
 70
     1
102
RTVSPost2010Prop47
 90
       50
102
RTVSPost2010PropOp47
 70
     1
102
RTVSPost2010Prop48
 90
       50
102
RTVSPost2010PropOp48
 70
     1
102
RTVSPost2010Prop49
280
     0
102
RTVSPost2010PropOp49
 70
     1
102
RTVSPost2010Prop50
 90
       50
102
RTVSPost2010PropOp50
 70
     1
102
RTVSPost2010Prop51ColorIndex
 90
      256
102
RTVSPost2010Prop51ColorRGB
 90
-16777216
102
RTVSPost2010PropOp51
 70
     0
102
RTVSPost2010Prop52
140
1.0
102
RTVSPost2010PropOp52
 70
     0
102
RTVSPost2010Prop53
 90
        2
102
RTVSPost2010PropOp53
 70
     1
102
RTVSPost2010Prop54
  1
strokes_ogs.tif
102
RTVSPost2010PropOp54
 70
     1
102
RTVSPost2010Prop55
280
     0
102
RTVSPost2010PropOp55
 70
     1
102
RTVSPost2010Prop56
140
1.0
102
RTVSPost2010PropOp56
 70
     1
102
RTVSPost2010Prop57
140
1.0
102
RTVSPost2010PropOp57
 70
     1
  0
XRECORD
  5
982
102
{ACAD_REACTORS
330
981
102
}
330
981
100
AcDbXrecord
280
     1
102
RTVSPost2010Prop28
280
     0
102
RTVSPost2010PropOp28
 70
     1
102
RTVSPost2010Prop29
280
     1
102
RTVSPost2010PropOp29
 70
     1
102
RTVSPost2010Prop30
280
     1
102
RTVSPost2010PropOp30
 70
     1
102
RTVSPost2010Prop31
280
     0
102
RTVSPost2010PropOp31
 70
     1
102
RTVSPost2010Prop32
280
     0
102
RTVSPost2010PropOp32
 70
     1
102
RTVSPost2010Prop33
280
     0
102
RTVSPost2010PropOp33
 70
     1
102
RTVSPost2010Prop34
280
     0
102
RTVSPost2010PropOp34
 70
     1
102
RTVSPost2010Prop35
280
     0
102
RTVSPost2010PropOp35
 70
     1
102
RTVSPost2010Prop36
280
     0
102
RTVSPost2010PropOp36
 70
     1
102
RTVSPost2010Prop37
 90
       50
102
RTVSPost2010PropOp37
 70
     1
102
RTVSPost2010Prop38
140
0.0
102
RTVSPost2010PropOp38
 70
     1
102
RTVSPost2010Prop39
140
1.0
102
RTVSPost2010PropOp39
 70
     1
102
RTVSPost2010Prop40
 90
        0
102
RTVSPost2010PropOp40
 70
     1
102
RTVSPost2010Prop41ColorIndex
 90
       18
102
RTVSPost2010Prop41ColorRGB
 90
        0
102
RTVSPost2010PropOp41
 70
     1
102
RTVSPost2010Prop42
 90
       50
102
RTVSPost2010PropOp42
 70
     1
102
RTVSPost2010Prop43
 90
        3
102
RTVSPost2010PropOp43
 70
     1
102
RTVSPost2010Prop44ColorIndex
 90
        5
102
RTVSPost2010Prop44ColorRGB
 90
      255
102
RTVSPost2010PropOp44
 70
     1
102
RTVSPost2010Prop45
280
     0
102
RTVSPost2010PropOp45
 70
     1
102
RTVSPost2010Prop46
 90
       50
102
RTVSPost2010PropOp46
 70
     1
102
RTVSPost2010Prop47
 90
       50
102
RTVSPost2010PropOp47
 70
     1
102
RTVSPost2010Prop48
 90
       50
102
RTVSPost2010PropOp48
 70
     1
102
RTVSPost2010Prop49
280
     0
102
RTVSPost2010PropOp49
 70
     1
102
RTVSPost2010Prop50
 90
       50
102
RTVSPost2010PropOp50
 70
     1
102
RTVSPost2010Prop51ColorIndex
 90
      256
102
RTVSPost2010Prop51ColorRGB
 90
-16777216
102
RTVSPost2010PropOp51
 70
     0
102
RTVSPost2010Prop52
140
1.0
102
RTVSPost2010PropOp52
 70
     0
102
RTVSPost2010Prop53
 90
        2
102
RTVSPost2010PropOp53
 70
     1
102
RTVSPost2010Prop54
  1
strokes_ogs.tif
102
RTVSPost2010PropOp54
 70
     1
102
RTVSPost2010Prop55
280
     0
102
RTVSPost2010PropOp55
 70
     1
102
RTVSPost2010Prop56
140
1.0
102
RTVSPost2010PropOp56
 70
     1
102
RTVSPost2010Prop57
140
1.0
102
RTVSPost2010PropOp57
 70
     1
  0
ENDSEC
  0
EOF
