  0
SECTION
  2
HEADER
  9
$ACADVER
  1
AC1024
  9
$ACADMAINTVER
 70
   108
  9
$DWGCODEPAGE
  3
ANSI_1252
  9
$AUTHOR
  1
ScheitB
  9
$CUSTOMPROPERTYTAG
  1
Manager
  9
$CUSTOMPROPERTY
  1

  9
$CUSTOMPROPERTYTAG
  1
Firma
  9
$CUSTOMPROPERTY
  1

  9
$CUSTOMPROPERTYTAG
  1
Kategorie
  9
$CUSTOMPROPERTY
  1

  9
$CUSTOMPROPERTYTAG
  1
Bauteilnummer
  9
$CUSTOMPROPERTY
  1
angea24a
  9
$CUSTOMPROPERTYTAG
  1
Bezeichnung
  9
$CUSTOMPROPERTY
  1

  9
$CUSTOMPROPERTYTAG
  1
Projekt
  9
$CUSTOMPROPERTY
  1

  9
$CUSTOMPROPERTYTAG
  1
Konstrukteur
  9
$CUSTOMPROPERTY
  1
ScheitB
  9
$CUSTOMPROPERTYTAG
  1
Ingenieur
  9
$CUSTOMPROPERTY
  1

  9
$CUSTOMPROPERTYTAG
  1
Bevollmächtigter
  9
$CUSTOMPROPERTY
  1

  9
$CUSTOMPROPERTYTAG
  1
Kostenstelle
  9
$CUSTOMPROPERTY
  1

  9
$CUSTOMPROPERTYTAG
  1
Zulieferer
  9
$CUSTOMPROPERTY
  1

  9
$CUSTOMPROPERTYTAG
  1
Benutzerstatus
  9
$CUSTOMPROPERTY
  1

  9
$CUSTOMPROPERTYTAG
  1
Konstruktionsstatus
  9
$CUSTOMPROPERTY
  1
InBearbeitung
  9
$CUSTOMPROPERTYTAG
  1
Kontrolliert von
  9
$CUSTOMPROPERTY
  1

  9
$CUSTOMPROPERTYTAG
  1
Konstruktion genehmigt von
  9
$CUSTOMPROPERTY
  1

  9
$CUSTOMPROPERTYTAG
  1
Fertigung genehmigt von
  9
$CUSTOMPROPERTY
  1

  9
$CUSTOMPROPERTYTAG
  1
AmdtFileType
  9
$CUSTOMPROPERTY
  1
84
  9
$INSBASE
 10
0.0
 20
0.0
 30
0.0
  9
$EXTMIN
 10
0.0
 20
0.0
 30
0.0
  9
$EXTMAX
 10
105.0
 20
148.5
 30
0.0
  9
$LIMMIN
 10
0.0
 20
0.0
  9
$LIMMAX
 10
105.0
 20
148.5
  9
$ORTHOMODE
 70
     0
  9
$REGENMODE
 70
     1
  9
$FILLMODE
 70
     1
  9
$QTEXTMODE
 70
     0
  9
$MIRRTEXT
 70
     0
  9
$LTSCALE
 40
0.5
  9
$ATTMODE
 70
     1
  9
$TEXTSIZE
 40
0.2
  9
$TRACEWID
 40
0.05
  9
$TEXTSTYLE
  7
Standard
  9
$CLAYER
  8
0
  9
$CELTYPE
  6
ByLayer
  9
$CECOLOR
 62
   256
  9
$CELTSCALE
 40
1.0
  9
$DISPSILH
 70
     0
  9
$DIMSCALE
 40
1.0
  9
$DIMASZ
 40
1.799999999999999
  9
$DIMEXO
 40
0.0625
  9
$DIMDLI
 40
0.38
  9
$DIMRND
 40
0.0
  9
$DIMDLE
 40
0.0
  9
$DIMEXE
 40
0.18
  9
$DIMTP
 40
0.0
  9
$DIMTM
 40
0.0
  9
$DIMTXT
 40
0.25
  9
$DIMCEN
 40
0.09
  9
$DIMTSZ
 40
0.0
  9
$DIMTOL
 70
     0
  9
$DIMLIM
 70
     0
  9
$DIMTIH
 70
     1
  9
$DIMTOH
 70
     1
  9
$DIMSE1
 70
     0
  9
$DIMSE2
 70
     0
  9
$DIMTAD
 70
     0
  9
$DIMZIN
 70
     0
  9
$DIMBLK
  1

  9
$DIMASO
 70
     1
  9
$DIMSHO
 70
     1
  9
$DIMPOST
  1

  9
$DIMAPOST
  1

  9
$DIMALT
 70
     0
  9
$DIMALTD
 70
     2
  9
$DIMALTF
 40
25.4
  9
$DIMLFAC
 40
1.0
  9
$DIMTOFL
 70
     0
  9
$DIMTVP
 40
0.0
  9
$DIMTIX
 70
     0
  9
$DIMSOXD
 70
     0
  9
$DIMSAH
 70
     0
  9
$DIMBLK1
  1

  9
$DIMBLK2
  1

  9
$DIMSTYLE
  2
Standard
  9
$DIMCLRD
 70
     0
  9
$DIMCLRE
 70
     0
  9
$DIMCLRT
 70
     0
  9
$DIMTFAC
 40
1.0
  9
$DIMGAP
 40
0.09
  9
$DIMJUST
 70
     0
  9
$DIMSD1
 70
     0
  9
$DIMSD2
 70
     0
  9
$DIMTOLJ
 70
     1
  9
$DIMTZIN
 70
     0
  9
$DIMALTZ
 70
     0
  9
$DIMALTTZ
 70
     0
  9
$DIMUPT
 70
     0
  9
$DIMDEC
 70
     4
  9
$DIMTDEC
 70
     4
  9
$DIMALTU
 70
     2
  9
$DIMALTTD
 70
     2
  9
$DIMTXSTY
  7
Standard
  9
$DIMAUNIT
 70
     0
  9
$DIMADEC
 70
     0
  9
$DIMALTRND
 40
0.0
  9
$DIMAZIN
 70
     0
  9
$DIMDSEP
 70
    46
  9
$DIMATFIT
 70
     3
  9
$DIMFRAC
 70
     0
  9
$DIMLDRBLK
  1

  9
$DIMLUNIT
 70
     2
  9
$DIMLWD
 70
    -2
  9
$DIMLWE
 70
    -2
  9
$DIMTMOVE
 70
     0
  9
$DIMFXL
 40
1.0
  9
$DIMFXLON
 70
     0
  9
$DIMJOGANG
 40
0.7853981633974483
  9
$DIMTFILL
 70
     0
  9
$DIMTFILLCLR
 70
     0
  9
$DIMARCSYM
 70
     0
  9
$DIMLTYPE
  6

  9
$DIMLTEX1
  6

  9
$DIMLTEX2
  6

  9
$DIMTXTDIRECTION
 70
     0
  9
$LUNITS
 70
     2
  9
$LUPREC
 70
     4
  9
$SKETCHINC
 40
0.1
  9
$FILLETRAD
 40
0.0
  9
$AUNITS
 70
     0
  9
$AUPREC
 70
     0
  9
$MENU
  1
.
  9
$ELEVATION
 40
0.0
  9
$PELEVATION
 40
0.0
  9
$THICKNESS
 40
0.0
  9
$LIMCHECK
 70
     0
  9
$CHAMFERA
 40
0.0
  9
$CHAMFERB
 40
0.0
  9
$CHAMFERC
 40
0.0
  9
$CHAMFERD
 40
0.0
  9
$SKPOLY
 70
     0
  9
$TDCREATE
 40
2456624.543670116
  9
$TDUCREATE
 40
2456624.502003449
  9
$TDUPDATE
 40
2456624.543670116
  9
$TDUUPDATE
 40
2456624.502003449
  9
$TDINDWG
 40
0.0000669097
  9
$TDUSRTIMER
 40
0.0000668750
  9
$USRTIMER
 70
     1
  9
$ANGBASE
 50
0.0
  9
$ANGDIR
 70
     0
  9
$PDMODE
 70
     0
  9
$PDSIZE
 40
0.0
  9
$PLINEWID
 40
0.0
  9
$SPLFRAME
 70
     0
  9
$SPLINETYPE
 70
     6
  9
$SPLINESEGS
 70
     8
  9
$HANDSEED
  5
874
  9
$SURFTAB1
 70
     6
  9
$SURFTAB2
 70
     6
  9
$SURFTYPE
 70
     6
  9
$SURFU
 70
     6
  9
$SURFV
 70
     6
  9
$UCSBASE
  2

  9
$UCSNAME
  2

  9
$UCSORG
 10
0.0
 20
0.0
 30
0.0
  9
$UCSXDIR
 10
1.0
 20
0.0
 30
0.0
  9
$UCSYDIR
 10
0.0
 20
1.0
 30
0.0
  9
$UCSORTHOREF
  2

  9
$UCSORTHOVIEW
 70
     0
  9
$UCSORGTOP
 10
0.0
 20
0.0
 30
0.0
  9
$UCSORGBOTTOM
 10
0.0
 20
0.0
 30
0.0
  9
$UCSORGLEFT
 10
0.0
 20
0.0
 30
0.0
  9
$UCSORGRIGHT
 10
0.0
 20
0.0
 30
0.0
  9
$UCSORGFRONT
 10
0.0
 20
0.0
 30
0.0
  9
$UCSORGBACK
 10
0.0
 20
0.0
 30
0.0
  9
$PUCSBASE
  2

  9
$PUCSNAME
  2

  9
$PUCSORG
 10
0.0
 20
0.0
 30
0.0
  9
$PUCSXDIR
 10
1.0
 20
0.0
 30
0.0
  9
$PUCSYDIR
 10
0.0
 20
1.0
 30
0.0
  9
$PUCSORTHOREF
  2

  9
$PUCSORTHOVIEW
 70
     0
  9
$PUCSORGTOP
 10
0.0
 20
0.0
 30
0.0
  9
$PUCSORGBOTTOM
 10
0.0
 20
0.0
 30
0.0
  9
$PUCSORGLEFT
 10
0.0
 20
0.0
 30
0.0
  9
$PUCSORGRIGHT
 10
0.0
 20
0.0
 30
0.0
  9
$PUCSORGFRONT
 10
0.0
 20
0.0
 30
0.0
  9
$PUCSORGBACK
 10
0.0
 20
0.0
 30
0.0
  9
$USERI1
 70
     0
  9
$USERI2
 70
     0
  9
$USERI3
 70
     0
  9
$USERI4
 70
     0
  9
$USERI5
 70
     0
  9
$USERR1
 40
0.0
  9
$USERR2
 40
0.0
  9
$USERR3
 40
0.0
  9
$USERR4
 40
0.0
  9
$USERR5
 40
0.0
  9
$WORLDVIEW
 70
     1
  9
$SHADEDGE
 70
     3
  9
$SHADEDIF
 70
    70
  9
$TILEMODE
 70
     1
  9
$MAXACTVP
 70
    64
  9
$PINSBASE
 10
0.0
 20
0.0
 30
0.0
  9
$PLIMCHECK
 70
     0
  9
$PEXTMIN
 10
0.0
 20
0.0
 30
0.0
  9
$PEXTMAX
 10
105.0
 20
148.5
 30
0.0
  9
$PLIMMIN
 10
0.0
 20
0.0
  9
$PLIMMAX
 10
105.0
 20
148.5
  9
$UNITMODE
 70
     0
  9
$VISRETAIN
 70
     1
  9
$PLINEGEN
 70
     0
  9
$PSLTSCALE
 70
     1
  9
$TREEDEPTH
 70
  3020
  9
$CMLSTYLE
  2
Standard
  9
$CMLJUST
 70
     0
  9
$CMLSCALE
 40
1.0
  9
$PROXYGRAPHICS
 70
     1
  9
$MEASUREMENT
 70
     1
  9
$CELWEIGHT
370
    -1
  9
$ENDCAPS
280
     0
  9
$JOINSTYLE
280
     0
  9
$LWDISPLAY
290
     0
  9
$INSUNITS
 70
     4
  9
$HYPERLINKBASE
  1

  9
$STYLESHEET
  1

  9
$XEDIT
290
     1
  9
$CEPSNTYPE
380
     0
  9
$PSTYLEMODE
290
     1
  9
$FINGERPRINTGUID
  2
{E8731097-5C0C-425C-AFD4-1DE066A41C02}
  9
$VERSIONGUID
  2
{F2FC6B2A-373D-40E8-8ECA-3450C7E9CA2B}
  9
$EXTNAMES
290
     1
  9
$PSVPSCALE
 40
0.0
  9
$OLESTARTUP
290
     0
  9
$SORTENTS
280
   127
  9
$INDEXCTL
280
     0
  9
$HIDETEXT
280
     1
  9
$XCLIPFRAME
280
     2
  9
$HALOGAP
280
     0
  9
$OBSCOLOR
 70
   257
  9
$OBSLTYPE
280
     0
  9
$INTERSECTIONDISPLAY
280
     0
  9
$INTERSECTIONCOLOR
 70
   257
  9
$DIMASSOC
280
     1
  9
$PROJECTNAME
  1

  9
$CAMERADISPLAY
290
     0
  9
$LENSLENGTH
 40
50.0
  9
$CAMERAHEIGHT
 40
0.0
  9
$STEPSPERSEC
 40
2.0
  9
$STEPSIZE
 40
6.0
  9
$3DDWFPREC
 40
2.0
  9
$PSOLWIDTH
 40
0.25
  9
$PSOLHEIGHT
 40
4.0
  9
$LOFTANG1
 40
1.570796326794896
  9
$LOFTANG2
 40
1.570796326794896
  9
$LOFTMAG1
 40
0.0
  9
$LOFTMAG2
 40
0.0
  9
$LOFTPARAM
 70
     7
  9
$LOFTNORMALS
280
     1
  9
$LATITUDE
 40
37.795
  9
$LONGITUDE
 40
-122.394
  9
$NORTHDIRECTION
 40
0.0
  9
$TIMEZONE
 70
 -8000
  9
$LIGHTGLYPHDISPLAY
280
     1
  9
$TILEMODELIGHTSYNCH
280
     1
  9
$CMATERIAL
347
11
  9
$SOLIDHIST
280
     0
  9
$SHOWHIST
280
     1
  9
$DWFFRAME
280
     2
  9
$DGNFRAME
280
     0
  9
$REALWORLDSCALE
290
     1
  9
$INTERFERECOLOR
 62
     1
  9
$INTERFEREOBJVS
345
33
  9
$INTERFEREVPVS
346
30
  9
$CSHADOW
280
     0
  9
$SHADOWPLANELOCATION
 40
0.0
  0
ENDSEC
  0
SECTION
  2
CLASSES
  0
CLASS
  1
ACDBDICTIONARYWDFLT
  2
AcDbDictionaryWithDefault
  3
ObjectDBX Classes
 90
        0
 91
        1
280
     0
281
     0
  0
CLASS
  1
MATERIAL
  2
AcDbMaterial
  3
ObjectDBX Classes
 90
     1153
 91
        3
280
     0
281
     0
  0
CLASS
  1
VISUALSTYLE
  2
AcDbVisualStyle
  3
ObjectDBX Classes
 90
     4095
 91
       24
280
     0
281
     0
  0
CLASS
  1
SCALE
  2
AcDbScale
  3
ObjectDBX Classes
 90
     1153
 91
       17
280
     0
281
     0
  0
CLASS
  1
TABLESTYLE
  2
AcDbTableStyle
  3
ObjectDBX Classes
 90
     4095
 91
        1
280
     0
281
     0
  0
CLASS
  1
MLEADERSTYLE
  2
AcDbMLeaderStyle
  3
ACDB_MLEADERSTYLE_CLASS
 90
     4095
 91
        1
280
     0
281
     0
  0
CLASS
  1
ACDBSECTIONVIEWSTYLE
  2
AcDbSectionViewStyle
  3
ObjectDBX Classes
 90
     1025
 91
        2
280
     0
281
     0
  0
CLASS
  1
ACDBDETAILVIEWSTYLE
  2
AcDbDetailViewStyle
  3
ObjectDBX Classes
 90
     1025
 91
        2
280
     0
281
     0
  0
CLASS
  1
DICTIONARYVAR
  2
AcDbDictionaryVar
  3
ObjectDBX Classes
 90
        0
 91
        5
280
     0
281
     0
  0
CLASS
  1
CELLSTYLEMAP
  2
AcDbCellStyleMap
  3
ObjectDBX Classes
 90
     1152
 91
        2
280
     0
281
     0
  0
ENDSEC
  0
SECTION
  2
TABLES
  0
TABLE
  2
VPORT
  5
8
330
0
100
AcDbSymbolTable
 70
     1
  0
VPORT
  5
57
330
8
100
AcDbSymbolTableRecord
100
AcDbViewportTableRecord
  2
*Active
 70
     0
 10
0.0
 20
0.0
 11
1.0
 21
1.0
 12
52.5
 22
74.25
 13
0.0
 23
0.0
 14
1.0
 24
1.0
 15
0.0
 25
0.0
 16
0.0
 26
0.0
 36
1.0
 17
0.0
 27
0.0
 37
0.0
 40
148.5
 41
0.7070707070707071
 42
50.0
 43
0.0
 44
0.0
 50
0.0
 51
0.0
 71
     0
 72
   100
 73
     1
 74
     1
 75
     0
 76
     0
 77
     0
 78
     0
281
     0
 65
     1
110
0.0
120
0.0
130
0.0
111
1.0
121
0.0
131
0.0
112
0.0
122
1.0
132
0.0
 79
     0
146
0.0
 60
     3
 61
     5
292
     1
282
     1
141
0.0
142
0.0
 63
   250
421
  3355443
  0
ENDTAB
  0
TABLE
  2
LTYPE
  5
5
330
0
100
AcDbSymbolTable
 70
    59
  0
LTYPE
  5
5B
330
5
100
AcDbSymbolTableRecord
100
AcDbLinetypeTableRecord
  2
ByBlock
 70
     0
  3

 72
    65
 73
     0
 40
0.0
  0
LTYPE
  5
5C
330
5
100
AcDbSymbolTableRecord
100
AcDbLinetypeTableRecord
  2
ByLayer
 70
     0
  3

 72
    65
 73
     0
 40
0.0
  0
LTYPE
  5
5D
330
5
100
AcDbSymbolTableRecord
100
AcDbLinetypeTableRecord
  2
Continuous
 70
     0
  3
Solid line
 72
    65
 73
     0
 40
0.0
  0
LTYPE
  5
69
330
5
100
AcDbSymbolTableRecord
100
AcDbLinetypeTableRecord
  2
PHANTOM2
 70
     0
  3
Phantom (.5x) ___ _ _ ___ _ _ ___ _ _ ___ _ _
 72
    65
 73
     6
 40
1.25
 49
0.625
 74
     0
 49
-0.125
 74
     0
 49
0.125
 74
     0
 49
-0.125
 74
     0
 49
0.125
 74
     0
 49
-0.125
 74
     0
  0
LTYPE
  5
79
330
5
100
AcDbSymbolTableRecord
100
AcDbLinetypeTableRecord
  2
Section_View_Lines
 70
     0
  3
Section View Lines
 72
    65
 73
     4
 40
0.8406
 49
0.6614
 74
     0
 49
-0.0827
 74
     0
 49
0.0138
 74
     0
 49
-0.0827
 74
     0
  0
LTYPE
  5
7A
330
5
100
AcDbSymbolTableRecord
100
AcDbLinetypeTableRecord
  2
CHAIN
 70
     0
  3
Chain ____ _ ____ _ ____ _ ____ _ ____ _ ____
 72
    65
 73
     4
 40
0.3543
 49
0.2362
 74
     0
 49
-0.0295
 74
     0
 49
0.0591
 74
     0
 49
-0.0295
 74
     0
  0
LTYPE
  5
7B
330
5
100
AcDbSymbolTableRecord
100
AcDbLinetypeTableRecord
  2
DASH_DOT
 70
     0
  3
Dash dot _._._._._._._._._._._._._._._.
 72
    65
 73
     4
 40
0.37
 49
0.24
 74
     0
 49
-0.06
 74
     0
 49
0.01
 74
     0
 49
-0.06
 74
     0
  0
LTYPE
  5
7C
330
5
100
AcDbSymbolTableRecord
100
AcDbLinetypeTableRecord
  2
DASH_DOUBLE_DOT
 70
     0
  3
Dash Double Dot __ __ . __ __ . __ __ . __ _
 72
    65
 73
     6
 40
0.4398000000000001
 49
0.24
 74
     0
 49
-0.06
 74
     0
 49
0.0098
 74
     0
 49
-0.06
 74
     0
 49
0.01
 74
     0
 49
-0.06
 74
     0
  0
LTYPE
  5
7D
330
5
100
AcDbSymbolTableRecord
100
AcDbLinetypeTableRecord
  2
DASH_TRIPLE_DOT
 70
     0
  3
Dash Triple-Dot _ . . . _ . . . _ . . . _
 72
    65
 73
     8
 40
0.51
 49
0.24
 74
     0
 49
-0.06
 74
     0
 49
0.01
 74
     0
 49
-0.06
 74
     0
 49
0.01
 74
     0
 49
-0.06
 74
     0
 49
0.01
 74
     0
 49
-0.06
 74
     0
  0
LTYPE
  5
7E
330
5
100
AcDbSymbolTableRecord
100
AcDbLinetypeTableRecord
  2
DASHED
 70
     0
  3
Dashed __ __ __ __ __ __ __ __ __ __ __ __ __ _
 72
    65
 73
     2
 40
0.2067
 49
0.1654
 74
     0
 49
-0.0413
 74
     0
  0
LTYPE
  5
7F
330
5
100
AcDbSymbolTableRecord
100
AcDbLinetypeTableRecord
  2
DASHED_SPACE
 70
     0
  3
Dashed Space _._._._._._._._._._._._._._._.
 72
    65
 73
     2
 40
0.2067
 49
0.1654
 74
     0
 49
-0.0413
 74
     0
  0
LTYPE
  5
80
330
5
100
AcDbSymbolTableRecord
100
AcDbLinetypeTableRecord
  2
DOTTED
 70
     0
  3
Dotted . . . . . . . . . . . . . . . . . . . . 
 72
    65
 73
     2
 40
0.0482
 49
0.0069
 74
     0
 49
-0.0413
 74
     0
  0
LTYPE
  5
81
330
5
100
AcDbSymbolTableRecord
100
AcDbLinetypeTableRecord
  2
DOUBLE_DASH_CHAIN
 70
     0
  3
Double Dash Chain ___ _ _ ___ _ _ ___ _ _ ___ _
 72
    65
 73
     6
 40
1.240299999999998
 49
0.6614
 74
     0
 49
-0.0827
 74
     0
 49
0.1654
 74
     0
 49
-0.0827
 74
     0
 49
0.1654
 74
     0
 49
-0.0827
 74
     0
  0
LTYPE
  5
82
330
5
100
AcDbSymbolTableRecord
100
AcDbLinetypeTableRecord
  2
DOUBLE_DASH_DOT
 70
     0
  3
Double Dash Dot __ __ . __ __ . __ __ . __ _
 72
    65
 73
     6
 40
0.6700000000000001
 49
0.24
 74
     0
 49
-0.06
 74
     0
 49
0.24
 74
     0
 49
-0.06
 74
     0
 49
0.01
 74
     0
 49
-0.06
 74
     0
  0
LTYPE
  5
83
330
5
100
AcDbSymbolTableRecord
100
AcDbLinetypeTableRecord
  2
DOUBLE_DASH_DOUBLE_DOT
 70
     0
  3
Double-dash double-dot _ _ . . _ _ . . _
 72
    65
 73
     8
 40
0.7400000000000002
 49
0.24
 74
     0
 49
-0.06
 74
     0
 49
0.24
 74
     0
 49
-0.06
 74
     0
 49
0.01
 74
     0
 49
-0.06
 74
     0
 49
0.01
 74
     0
 49
-0.06
 74
     0
  0
LTYPE
  5
84
330
5
100
AcDbSymbolTableRecord
100
AcDbLinetypeTableRecord
  2
DOUBLE_DASH_TRIPLE_DOT
 70
     0
  3
Double Dash Triple Dot __ __ . . . __ __ . . .
 72
    65
 73
    10
 40
0.8100000000000001
 49
0.24
 74
     0
 49
-0.06
 74
     0
 49
0.24
 74
     0
 49
-0.06
 74
     0
 49
0.01
 74
     0
 49
-0.06
 74
     0
 49
0.01
 74
     0
 49
-0.06
 74
     0
 49
0.01
 74
     0
 49
-0.06
 74
     0
  0
LTYPE
  5
85
330
5
100
AcDbSymbolTableRecord
100
AcDbLinetypeTableRecord
  2
LONG_DASH_DOTTED
 70
     0
  3
Long-Dash Dot ____ . ____ . ____ . ____ . _
 72
    65
 73
     4
 40
0.3001
 49
0.2362
 74
     0
 49
-0.0295
 74
     0
 49
0.0049
 74
     0
 49
-0.0295
 74
     0
  0
LTYPE
  5
86
330
5
100
AcDbSymbolTableRecord
100
AcDbLinetypeTableRecord
  2
LONG_DASH_DOUBLE_DOT
 70
     0
  3
Long Dash Double Dot ____ . . ____ . . ____ . .
 72
    65
 73
     6
 40
0.3345
 49
0.2362
 74
     0
 49
-0.0295
 74
     0
 49
0.0049
 74
     0
 49
-0.0295
 74
     0
 49
0.0049
 74
     0
 49
-0.0295
 74
     0
  0
LTYPE
  5
87
330
5
100
AcDbSymbolTableRecord
100
AcDbLinetypeTableRecord
  2
LONG_DASH_TRIPLE_DOT
 70
     0
  3
Long Dash Triple Dot ____ ... ____ ... ____
 72
    65
 73
     8
 40
0.75
 49
0.48
 74
     0
 49
-0.06
 74
     0
 49
0.01
 74
     0
 49
-0.06
 74
     0
 49
0.01
 74
     0
 49
-0.06
 74
     0
 49
0.01
 74
     0
 49
-0.06
 74
     0
  0
LTYPE
  5
88
330
5
100
AcDbSymbolTableRecord
100
AcDbLinetypeTableRecord
  2
BORDER
 70
     0
  3
Border __ __ . __ __ . __ __ . __ __ . __ __ .
 72
    65
 73
     6
 40
44.45
 49
12.7
 74
     0
 49
-6.349999999999998
 74
     0
 49
12.7
 74
     0
 49
-6.349999999999998
 74
     0
 49
0.0
 74
     0
 49
-6.349999999999998
 74
     0
  0
LTYPE
  5
89
330
5
100
AcDbSymbolTableRecord
100
AcDbLinetypeTableRecord
  2
BORDER2
 70
     0
  3
Border (.5x) __.__.__.__.__.__.__.__.__.__.__.
 72
    65
 73
     6
 40
22.225
 49
6.349999999999998
 74
     0
 49
-3.174999999999998
 74
     0
 49
6.349999999999998
 74
     0
 49
-3.174999999999998
 74
     0
 49
0.0
 74
     0
 49
-3.174999999999998
 74
     0
  0
LTYPE
  5
8A
330
5
100
AcDbSymbolTableRecord
100
AcDbLinetypeTableRecord
  2
BORDERX2
 70
     0
  3
Border (2x) ____  ____  .  ____  ____  .  ___
 72
    65
 73
     6
 40
88.9
 49
25.4
 74
     0
 49
-12.7
 74
     0
 49
25.4
 74
     0
 49
-12.7
 74
     0
 49
0.0
 74
     0
 49
-12.7
 74
     0
  0
LTYPE
  5
8B
330
5
100
AcDbSymbolTableRecord
100
AcDbLinetypeTableRecord
  2
CENTER
 70
     0
  3
Center ____ _ ____ _ ____ _ ____ _ ____ _ ____
 72
    65
 73
     4
 40
50.8
 49
31.75
 74
     0
 49
-6.349999999999998
 74
     0
 49
6.349999999999998
 74
     0
 49
-6.349999999999998
 74
     0
  0
LTYPE
  5
8C
330
5
100
AcDbSymbolTableRecord
100
AcDbLinetypeTableRecord
  2
CENTER2
 70
     0
  3
Center (.5x) ___ _ ___ _ ___ _ ___ _ ___ _ ___
 72
    65
 73
     4
 40
28.575
 49
19.05
 74
     0
 49
-3.174999999999998
 74
     0
 49
3.174999999999998
 74
     0
 49
-3.174999999999998
 74
     0
  0
LTYPE
  5
8D
330
5
100
AcDbSymbolTableRecord
100
AcDbLinetypeTableRecord
  2
CENTERX2
 70
     0
  3
Center (2x) ________  __  ________  __  _____
 72
    65
 73
     4
 40
101.6
 49
63.5
 74
     0
 49
-12.7
 74
     0
 49
12.7
 74
     0
 49
-12.7
 74
     0
  0
LTYPE
  5
8E
330
5
100
AcDbSymbolTableRecord
100
AcDbLinetypeTableRecord
  2
DASHDOT2
 70
     0
  3
Dash dot (.5x) _._._._._._._._._._._._._._._.
 72
    65
 73
     4
 40
12.7
 49
6.349999999999998
 74
     0
 49
-3.174999999999998
 74
     0
 49
0.0
 74
     0
 49
-3.174999999999998
 74
     0
  0
LTYPE
  5
8F
330
5
100
AcDbSymbolTableRecord
100
AcDbLinetypeTableRecord
  2
DASHDOTX2
 70
     0
  3
Dash dot (2x) ____  .  ____  .  ____  .  ___
 72
    65
 73
     4
 40
50.8
 49
25.4
 74
     0
 49
-12.7
 74
     0
 49
0.0
 74
     0
 49
-12.7
 74
     0
  0
LTYPE
  5
90
330
5
100
AcDbSymbolTableRecord
100
AcDbLinetypeTableRecord
  2
DASHED2
 70
     0
  3
Dashed (.5x) _ _ _ _ _ _ _ _ _ _ _ _ _ _ _ _ _
 72
    65
 73
     2
 40
9.524999999999996
 49
6.349999999999998
 74
     0
 49
-3.174999999999998
 74
     0
  0
LTYPE
  5
91
330
5
100
AcDbSymbolTableRecord
100
AcDbLinetypeTableRecord
  2
DASHEDX2
 70
     0
  3
Dashed (2x) ____  ____  ____  ____  ____  ___
 72
    65
 73
     2
 40
38.1
 49
25.4
 74
     0
 49
-12.7
 74
     0
  0
LTYPE
  5
92
330
5
100
AcDbSymbolTableRecord
100
AcDbLinetypeTableRecord
  2
DIVIDE
 70
     0
  3
Divide ____ . . ____ . . ____ . . ____ . . ____
 72
    65
 73
     6
 40
31.75
 49
12.7
 74
     0
 49
-6.349999999999998
 74
     0
 49
0.0
 74
     0
 49
-6.349999999999998
 74
     0
 49
0.0
 74
     0
 49
-6.349999999999998
 74
     0
  0
LTYPE
  5
93
330
5
100
AcDbSymbolTableRecord
100
AcDbLinetypeTableRecord
  2
DIVIDE2
 70
     0
  3
Divide (.5x) __..__..__..__..__..__..__..__.._
 72
    65
 73
     6
 40
15.875
 49
6.349999999999998
 74
     0
 49
-3.174999999999998
 74
     0
 49
0.0
 74
     0
 49
-3.174999999999998
 74
     0
 49
0.0
 74
     0
 49
-3.174999999999998
 74
     0
  0
LTYPE
  5
94
330
5
100
AcDbSymbolTableRecord
100
AcDbLinetypeTableRecord
  2
DIVIDEX2
 70
     0
  3
Divide (2x) ________  .  .  ________  .  .  _
 72
    65
 73
     6
 40
63.49999999999999
 49
25.4
 74
     0
 49
-12.7
 74
     0
 49
0.0
 74
     0
 49
-12.7
 74
     0
 49
0.0
 74
     0
 49
-12.7
 74
     0
  0
LTYPE
  5
95
330
5
100
AcDbSymbolTableRecord
100
AcDbLinetypeTableRecord
  2
DOT
 70
     0
  3
Dot . . . . . . . . . . . . . . . . . . . . . .
 72
    65
 73
     2
 40
6.349999999999998
 49
0.0
 74
     0
 49
-6.349999999999998
 74
     0
  0
LTYPE
  5
96
330
5
100
AcDbSymbolTableRecord
100
AcDbLinetypeTableRecord
  2
DOT2
 70
     0
  3
Dot (.5x) .....................................
 72
    65
 73
     2
 40
3.174999999999998
 49
0.0
 74
     0
 49
-3.174999999999998
 74
     0
  0
LTYPE
  5
97
330
5
100
AcDbSymbolTableRecord
100
AcDbLinetypeTableRecord
  2
DOTX2
 70
     0
  3
Dot (2x) .  .  .  .  .  .  .  .  .  .  .  .  . 
 72
    65
 73
     2
 40
12.7
 49
0.0
 74
     0
 49
-12.7
 74
     0
  0
LTYPE
  5
98
330
5
100
AcDbSymbolTableRecord
100
AcDbLinetypeTableRecord
  2
HIDDEN
 70
     0
  3
Hidden __ __ __ __ __ __ __ __ __ __ __ __ __ _
 72
    65
 73
     2
 40
9.524999999999996
 49
6.349999999999998
 74
     0
 49
-3.174999999999998
 74
     0
  0
LTYPE
  5
99
330
5
100
AcDbSymbolTableRecord
100
AcDbLinetypeTableRecord
  2
HIDDEN2
 70
     0
  3
Hidden (.5x) _ _ _ _ _ _ _ _ _ _ _ _ _ _ _ _ _
 72
    65
 73
     2
 40
4.762499999999998
 49
3.174999999999998
 74
     0
 49
-1.587499999999999
 74
     0
  0
LTYPE
  5
9A
330
5
100
AcDbSymbolTableRecord
100
AcDbLinetypeTableRecord
  2
HIDDENX2
 70
     0
  3
Hidden (2x) ____ ____ ____ ____ ____ ____ ____
 72
    65
 73
     2
 40
19.05
 49
12.7
 74
     0
 49
-6.349999999999998
 74
     0
  0
LTYPE
  5
9B
330
5
100
AcDbSymbolTableRecord
100
AcDbLinetypeTableRecord
  2
PHANTOM
 70
     0
  3
Phantom ______  __  __  ______  __  __  ______
 72
    65
 73
     6
 40
63.5
 49
31.75
 74
     0
 49
-6.349999999999998
 74
     0
 49
6.349999999999998
 74
     0
 49
-6.349999999999998
 74
     0
 49
6.349999999999998
 74
     0
 49
-6.349999999999998
 74
     0
  0
LTYPE
  5
9D
330
5
100
AcDbSymbolTableRecord
100
AcDbLinetypeTableRecord
  2
PHANTOMX2
 70
     0
  3
Phantom (2x) ____________    ____    ____   _
 72
    65
 73
     6
 40
127.0
 49
63.5
 74
     0
 49
-12.7
 74
     0
 49
12.7
 74
     0
 49
-12.7
 74
     0
 49
12.7
 74
     0
 49
-12.7
 74
     0
  0
LTYPE
  5
9E
330
5
100
AcDbSymbolTableRecord
100
AcDbLinetypeTableRecord
  2
ACAD_ISO02W100
 70
     0
  3
ISO dash __ __ __ __ __ __ __ __ __ __ __ __ __
 72
    65
 73
     2
 40
15.0
 49
12.0
 74
     0
 49
-3.0
 74
     0
  0
LTYPE
  5
9F
330
5
100
AcDbSymbolTableRecord
100
AcDbLinetypeTableRecord
  2
ACAD_ISO03W100
 70
     0
  3
ISO dash space __    __    __    __    __    __
 72
    65
 73
     2
 40
30.0
 49
12.0
 74
     0
 49
-18.0
 74
     0
  0
LTYPE
  5
A0
330
5
100
AcDbSymbolTableRecord
100
AcDbLinetypeTableRecord
  2
ACAD_ISO04W100
 70
     0
  3
ISO long-dash dot ____ . ____ . ____ . ____ . _
 72
    65
 73
     4
 40
30.0
 49
24.0
 74
     0
 49
-3.0
 74
     0
 49
0.0
 74
     0
 49
-3.0
 74
     0
  0
LTYPE
  5
A1
330
5
100
AcDbSymbolTableRecord
100
AcDbLinetypeTableRecord
  2
ACAD_ISO05W100
 70
     0
  3
ISO long-dash double-dot ____ .. ____ .. ____ .
 72
    65
 73
     6
 40
33.0
 49
24.0
 74
     0
 49
-3.0
 74
     0
 49
0.0
 74
     0
 49
-3.0
 74
     0
 49
0.0
 74
     0
 49
-3.0
 74
     0
  0
LTYPE
  5
A2
330
5
100
AcDbSymbolTableRecord
100
AcDbLinetypeTableRecord
  2
ACAD_ISO06W100
 70
     0
  3
ISO long-dash triple-dot ____ ... ____ ... ____
 72
    65
 73
     8
 40
36.0
 49
24.0
 74
     0
 49
-3.0
 74
     0
 49
0.0
 74
     0
 49
-3.0
 74
     0
 49
0.0
 74
     0
 49
-3.0
 74
     0
 49
0.0
 74
     0
 49
-3.0
 74
     0
  0
LTYPE
  5
A3
330
5
100
AcDbSymbolTableRecord
100
AcDbLinetypeTableRecord
  2
ACAD_ISO07W100
 70
     0
  3
ISO dot . . . . . . . . . . . . . . . . . . . .
 72
    65
 73
     2
 40
3.0
 49
0.0
 74
     0
 49
-3.0
 74
     0
  0
LTYPE
  5
A4
330
5
100
AcDbSymbolTableRecord
100
AcDbLinetypeTableRecord
  2
ACAD_ISO08W100
 70
     0
  3
ISO long-dash short-dash ____ __ ____ __ ____ _
 72
    65
 73
     4
 40
36.0
 49
24.0
 74
     0
 49
-3.0
 74
     0
 49
6.0
 74
     0
 49
-3.0
 74
     0
  0
LTYPE
  5
A5
330
5
100
AcDbSymbolTableRecord
100
AcDbLinetypeTableRecord
  2
ACAD_ISO09W100
 70
     0
  3
ISO long-dash double-short-dash ____ __ __ ____
 72
    65
 73
     6
 40
45.0
 49
24.0
 74
     0
 49
-3.0
 74
     0
 49
6.0
 74
     0
 49
-3.0
 74
     0
 49
6.0
 74
     0
 49
-3.0
 74
     0
  0
LTYPE
  5
A6
330
5
100
AcDbSymbolTableRecord
100
AcDbLinetypeTableRecord
  2
ACAD_ISO10W100
 70
     0
  3
ISO dash dot __ . __ . __ . __ . __ . __ . __ .
 72
    65
 73
     4
 40
18.0
 49
12.0
 74
     0
 49
-3.0
 74
     0
 49
0.0
 74
     0
 49
-3.0
 74
     0
  0
LTYPE
  5
A7
330
5
100
AcDbSymbolTableRecord
100
AcDbLinetypeTableRecord
  2
ACAD_ISO11W100
 70
     0
  3
ISO double-dash dot __ __ . __ __ . __ __ . __ 
 72
    65
 73
     6
 40
33.0
 49
12.0
 74
     0
 49
-3.0
 74
     0
 49
12.0
 74
     0
 49
-3.0
 74
     0
 49
0.0
 74
     0
 49
-3.0
 74
     0
  0
LTYPE
  5
A8
330
5
100
AcDbSymbolTableRecord
100
AcDbLinetypeTableRecord
  2
ACAD_ISO12W100
 70
     0
  3
ISO dash double-dot __ . . __ . . __ . . __ . .
 72
    65
 73
     6
 40
21.0
 49
12.0
 74
     0
 49
-3.0
 74
     0
 49
0.0
 74
     0
 49
-3.0
 74
     0
 49
0.0
 74
     0
 49
-3.0
 74
     0
  0
LTYPE
  5
A9
330
5
100
AcDbSymbolTableRecord
100
AcDbLinetypeTableRecord
  2
ACAD_ISO13W100
 70
     0
  3
ISO double-dash double-dot __ __ . . __ __ . . 
 72
    65
 73
     8
 40
36.0
 49
12.0
 74
     0
 49
-3.0
 74
     0
 49
12.0
 74
     0
 49
-3.0
 74
     0
 49
0.0
 74
     0
 49
-3.0
 74
     0
 49
0.0
 74
     0
 49
-3.0
 74
     0
  0
LTYPE
  5
AA
330
5
100
AcDbSymbolTableRecord
100
AcDbLinetypeTableRecord
  2
ACAD_ISO14W100
 70
     0
  3
ISO dash triple-dot __ . . . __ . . . __ . . . 
 72
    65
 73
     8
 40
24.0
 49
12.0
 74
     0
 49
-3.0
 74
     0
 49
0.0
 74
     0
 49
-3.0
 74
     0
 49
0.0
 74
     0
 49
-3.0
 74
     0
 49
0.0
 74
     0
 49
-3.0
 74
     0
  0
LTYPE
  5
AB
330
5
100
AcDbSymbolTableRecord
100
AcDbLinetypeTableRecord
  2
ACAD_ISO15W100
 70
     0
  3
ISO double-dash triple-dot __ __ . . . __ __ . 
 72
    65
 73
    10
 40
39.0
 49
12.0
 74
     0
 49
-3.0
 74
     0
 49
12.0
 74
     0
 49
-3.0
 74
     0
 49
0.0
 74
     0
 49
-3.0
 74
     0
 49
0.0
 74
     0
 49
-3.0
 74
     0
 49
0.0
 74
     0
 49
-3.0
 74
     0
  0
LTYPE
  5
AE
330
5
100
AcDbSymbolTableRecord
100
AcDbLinetypeTableRecord
  2
FENCELINE1
 70
     0
  3
Fenceline circle ----0-----0----0-----0----0---
 72
    65
 73
     4
 40
36.83
 49
6.349999999999998
 74
     0
 49
-2.54
 74
     4
 75
   133
340
AD
 46
2.54
 50
0.0
 44
-2.54
 45
0.0
 49
-2.54
 74
     0
 49
25.4
 74
     0
  0
LTYPE
  5
AF
330
5
100
AcDbSymbolTableRecord
100
AcDbLinetypeTableRecord
  2
FENCELINE2
 70
     0
  3
Fenceline square ----[]-----[]----[]-----[]----
 72
    65
 73
     4
 40
36.83
 49
6.349999999999998
 74
     0
 49
-2.54
 74
     4
 75
   132
340
AD
 46
2.54
 50
0.0
 44
-2.54
 45
0.0
 49
-2.54
 74
     0
 49
25.4
 74
     0
  0
LTYPE
  5
B0
330
5
100
AcDbSymbolTableRecord
100
AcDbLinetypeTableRecord
  2
TRACKS
 70
     0
  3
Tracks -|-|-|-|-|-|-|-|-|-|-|-|-|-|-|-|-|-|-|-|
 72
    65
 73
     2
 40
7.62
 49
3.81
 74
     4
 75
   130
340
AD
 46
6.349999999999998
 50
0.0
 44
0.0
 45
0.0
 49
3.81
 74
     0
  0
LTYPE
  5
B1
330
5
100
AcDbSymbolTableRecord
100
AcDbLinetypeTableRecord
  2
BATTING
 70
     0
  3
Batting SSSSSSSSSSSSSSSSSSSSSSSSSSSSSSSSSSSSSSS
 72
    65
 73
     4
 40
10.16254
 49
0.00254
 74
     0
 49
-2.54
 74
     4
 75
   134
340
AD
 46
2.54
 50
0.0
 44
-2.54
 45
0.0
 49
-5.08
 74
     4
 75
   134
340
AD
 46
2.54
 50
180.0
 44
2.54
 45
0.0
 49
-2.54
 74
     0
  0
LTYPE
  5
B2
330
5
100
AcDbSymbolTableRecord
100
AcDbLinetypeTableRecord
  2
HOT_WATER_SUPPLY
 70
     0
  3
Hot water supply ---- HW ---- HW ---- HW ----
 72
    65
 73
     3
 40
22.86
 49
12.7
 74
     0
 49
-5.08
 74
     2
 75
     0
340
55
 46
2.54
 50
0.0
 44
-2.54
 45
-1.27
  9
HW
 49
-5.08
 74
     0
  0
LTYPE
  5
B3
330
5
100
AcDbSymbolTableRecord
100
AcDbLinetypeTableRecord
  2
GAS_LINE
 70
     0
  3
Gas line ----GAS----GAS----GAS----GAS----GAS---
 72
    65
 73
     3
 40
24.13
 49
12.7
 74
     0
 49
-5.08
 74
     2
 75
     0
340
55
 46
2.54
 50
0.0
 44
-2.54
 45
-1.27
  9
GAS
 49
-6.349999999999998
 74
     0
  0
LTYPE
  5
B4
330
5
100
AcDbSymbolTableRecord
100
AcDbLinetypeTableRecord
  2
ZIGZAG
 70
     0
  3
Zig zag /\/\/\/\/\/\/\/\/\/\/\/\/\/\/\/\/\/\/\/
 72
    65
 73
     4
 40
20.32254
 49
0.00254
 74
     0
 49
-5.08
 74
     4
 75
   131
340
AD
 46
5.08
 50
0.0
 44
-5.08
 45
0.0
 49
-10.16
 74
     4
 75
   131
340
AD
 46
5.08
 50
180.0
 44
5.08
 45
0.0
 49
-5.08
 74
     0
  0
ENDTAB
  0
TABLE
  2
LAYER
  5
2
330
0
100
AcDbSymbolTable
 70
    13
  0
LAYER
  5
54
330
2
100
AcDbSymbolTableRecord
100
AcDbLayerTableRecord
  2
0
 70
     0
 62
     7
  6
Continuous
370
    -3
390
F
347
21
  0
LAYER
  5
B9
330
2
100
AcDbSymbolTableRecord
100
AcDbLayerTableRecord
  2
Bemaßung (ISO)
 70
     0
 62
     7
  6
Continuous
370
    25
390
F
347
21
  0
LAYER
  5
BE
330
2
100
AcDbSymbolTableRecord
100
AcDbLayerTableRecord
  2
Mittellinie (ISO)
 70
     0
 62
     7
  6
Continuous
370
    25
390
F
347
21
  0
LAYER
  5
BF
330
2
100
AcDbSymbolTableRecord
100
AcDbLayerTableRecord
  2
Mittelpunktmarkierung (ISO)
 70
     0
 62
     7
  6
Continuous
370
    25
390
F
347
21
  0
LAYER
  5
C0
330
2
100
AcDbSymbolTableRecord
100
AcDbLayerTableRecord
  2
PERMA_ROT
 70
     0
 62
     1
420
 16711680
  6
Continuous
370
    25
390
F
347
21
  0
LAYER
  5
C2
330
2
100
AcDbSymbolTableRecord
100
AcDbLayerTableRecord
  2
Rahmen (ISO)
 70
     0
 62
     7
  6
Continuous
370
    70
390
F
347
21
  0
LAYER
  5
C6
330
2
100
AcDbSymbolTableRecord
100
AcDbLayerTableRecord
  2
Schraffur (ISO)
 70
     0
 62
     7
  6
Continuous
370
    18
390
F
347
21
  0
LAYER
  5
C7
330
2
100
AcDbSymbolTableRecord
100
AcDbLayerTableRecord
  2
Sichtbar (ISO)
 70
     0
 62
     7
  6
Continuous
370
    50
390
F
347
21
  0
LAYER
  5
C8
330
2
100
AcDbSymbolTableRecord
100
AcDbLayerTableRecord
  2
Sichtbar schmal (ISO)
 70
     0
 62
     7
  6
Continuous
370
    35
390
F
347
21
  0
LAYER
  5
C9
330
2
100
AcDbSymbolTableRecord
100
AcDbLayerTableRecord
  2
Skizziergeometrie (ISO)
 70
     0
 62
     7
  6
Continuous
370
    25
390
F
347
21
  0
LAYER
  5
CA
330
2
100
AcDbSymbolTableRecord
100
AcDbLayerTableRecord
  2
Symbol (ISO)
 70
     0
 62
     7
  6
Continuous
370
    25
390
F
347
21
  0
LAYER
  5
CB
330
2
100
AcDbSymbolTableRecord
100
AcDbLayerTableRecord
  2
Titel (ISO)
 70
     0
 62
     7
  6
Continuous
370
    50
390
F
347
21
  0
LAYER
  5
28C
330
2
100
AcDbSymbolTableRecord
100
AcDbLayerTableRecord
  2
Defpoints
 70
     0
 62
     7
  6
Continuous
290
     0
370
    -3
390
F
347
21
  0
ENDTAB
  0
TABLE
  2
STYLE
  5
3
330
0
100
AcDbSymbolTable
 70
    14
  0
STYLE
  5
55
330
3
100
AcDbSymbolTableRecord
100
AcDbTextStyleTableRecord
  2
Standard
 70
     0
 40
0.0
 41
1.0
 50
0.0
 71
     0
 42
0.2
  3
arial.ttf
  4

1001
ACAD
1000
Arial
1071
      256
  0
STYLE
  5
5A
330
3
100
AcDbSymbolTableRecord
100
AcDbTextStyleTableRecord
  2
Annotative
 70
     0
 40
0.0
 41
1.0
 50
0.0
 71
     0
 42
0.2
  3
txt
  4

1001
AcadAnnotative
1000
AnnotativeData
1002
{
1070
     1
1070
     1
1002
}
  0
STYLE
  5
AD
330
3
100
AcDbSymbolTableRecord
100
AcDbTextStyleTableRecord
  2

 70
     1
 40
0.0
 41
1.0
 50
0.0
 71
     0
 42
0.2
  3
ltypeshp.shx
  4

  0
STYLE
  5
CF
330
3
100
AcDbSymbolTableRecord
100
AcDbTextStyleTableRecord
  2
Bezeichnungstext (DIN)
 70
     0
 40
0.0
 41
1.0
 50
0.0
 71
     0
 42
0.2
  3
arial.ttf
  4

1001
ACAD
1000
Arial
1071
      256
  0
STYLE
  5
D0
330
3
100
AcDbSymbolTableRecord
100
AcDbTextStyleTableRecord
  2
Notiztext (DIN)
 70
     0
 40
0.0
 41
1.0
 50
0.0
 71
     0
 42
0.2
  3
arial.ttf
  4

1001
ACAD
1000
Arial
1071
      256
  0
STYLE
  5
1B7
330
3
100
AcDbSymbolTableRecord
100
AcDbTextStyleTableRecord
  2
Textstil91
 70
     0
 40
0.0
 41
1.0
 50
0.0
 71
     0
 42
0.2
  3

  4

1001
ACAD
1000
Arial
1071
 33554688
  0
STYLE
  5
1C0
330
3
100
AcDbSymbolTableRecord
100
AcDbTextStyleTableRecord
  2
Textstil94
 70
     0
 40
0.0
 41
1.0
 50
0.0
 71
     0
 42
0.2
  3

  4

1001
ACAD
1000
Arial
1071
 33554688
  0
STYLE
  5
1C3
330
3
100
AcDbSymbolTableRecord
100
AcDbTextStyleTableRecord
  2
Textstil105
 70
     0
 40
0.0
 41
1.0
 50
0.0
 71
     0
 42
0.2
  3

  4

1001
ACAD
1000
Arial
1071
 33554688
  0
STYLE
  5
1CA
330
3
100
AcDbSymbolTableRecord
100
AcDbTextStyleTableRecord
  2
Textstil107
 70
     0
 40
0.0
 41
1.0
 50
0.0
 71
     0
 42
0.2
  3

  4

1001
ACAD
1000
Arial
1071
 33554688
  0
STYLE
  5
1D5
330
3
100
AcDbSymbolTableRecord
100
AcDbTextStyleTableRecord
  2
Textstil106
 70
     0
 40
0.0
 41
1.0
 50
0.0
 71
     0
 42
0.2
  3
arial.ttf
  4

1001
ACAD
1000
Arial
1071
      256
  0
STYLE
  5
1D7
330
3
100
AcDbSymbolTableRecord
100
AcDbTextStyleTableRecord
  2
Textstil104
 70
     0
 40
0.0
 41
1.0
 50
0.0
 71
     0
 42
0.2
  3

  4

1001
ACAD
1000
Arial
1071
 33554688
  0
STYLE
  5
1F8
330
3
100
AcDbSymbolTableRecord
100
AcDbTextStyleTableRecord
  2
Textstil89
 70
     0
 40
0.0
 41
1.0
 50
0.0
 71
     0
 42
0.2
  3

  4

1001
ACAD
1000
Arial
1071
 33554688
  0
STYLE
  5
1FB
330
3
100
AcDbSymbolTableRecord
100
AcDbTextStyleTableRecord
  2
Textstil103
 70
     0
 40
0.0
 41
1.0
 50
0.0
 71
     0
 42
0.2
  3

  4

1001
ACAD
1000
Arial
1071
 33554688
  0
STYLE
  5
200
330
3
100
AcDbSymbolTableRecord
100
AcDbTextStyleTableRecord
  2
Textstil102
 70
     0
 40
0.0
 41
1.0
 50
0.0
 71
     0
 42
0.2
  3

  4

1001
ACAD
1000
Arial
1071
 33554688
  0
ENDTAB
  0
TABLE
  2
VIEW
  5
6
330
0
100
AcDbSymbolTable
 70
     0
  0
ENDTAB
  0
TABLE
  2
UCS
  5
7
330
0
100
AcDbSymbolTable
 70
     0
  0
ENDTAB
  0
TABLE
  2
APPID
  5
9
330
0
100
AcDbSymbolTable
 70
     3
  0
APPID
  5
56
330
9
100
AcDbSymbolTableRecord
100
AcDbRegAppTableRecord
  2
ACAD
 70
     0
  0
APPID
  5
5E
330
9
100
AcDbSymbolTableRecord
100
AcDbRegAppTableRecord
  2
AcadAnnotative
 70
     0
  0
APPID
  5
1D4
330
9
100
AcDbSymbolTableRecord
100
AcDbRegAppTableRecord
  2
AcadAnnoPO
 70
     0
  0
ENDTAB
  0
TABLE
  2
DIMSTYLE
  5
A
330
0
100
AcDbSymbolTable
 70
    11
100
AcDbDimStyleTable
 71
     2
340
D5
340
58
  0
DIMSTYLE
105
58
330
A
100
AcDbSymbolTableRecord
100
AcDbDimStyleTableRecord
  2
Standard
 70
     0
340
55
  0
DIMSTYLE
105
59
330
A
100
AcDbSymbolTableRecord
100
AcDbDimStyleTableRecord
  2
Annotative
 70
     0
340
55
1001
AcadAnnotative
1000
AnnotativeData
1002
{
1070
     1
1070
     1
1002
}
  0
DIMSTYLE
105
D1
330
A
100
AcDbSymbolTableRecord
100
AcDbDimStyleTableRecord
  2
Standard - Methode 2a (DIN)
 70
     0
 40
0.5
 41
2.5
 42
0.8
 43
5.999999999999999
 44
3.174999999999998
 45
0.00000001
 46
10.0
 77
     1
 78
     8
 79
     2
140
2.5
143
0.03937
146
1.399999976158142
147
0.8
170
     1
171
     3
172
     1
176
   256
177
   256
178
   256
179
     2
271
     2
272
     2
274
     3
278
    44
284
     8
286
     8
340
D0
371
    -1
372
    -1
  0
DIMSTYLE
105
D2
330
A
100
AcDbSymbolTableRecord
100
AcDbDimStyleTableRecord
  2
Standard - Methode 2a (DIN)$7
 70
     0
 40
0.5
 41
2.5
 42
0.8
 43
5.999999999999999
 44
3.174999999999998
 45
0.00000001
 46
10.0
 77
     1
 78
     8
 79
     2
140
2.5
143
0.03937
146
1.399999976158142
147
0.8
170
     1
171
     3
172
     1
176
   256
177
   256
178
   256
179
     2
271
     2
272
     2
274
     3
278
    44
284
     8
286
     8
340
D0
371
    -1
372
    -1
  0
DIMSTYLE
105
D3
330
A
100
AcDbSymbolTableRecord
100
AcDbDimStyleTableRecord
  2
Standard - Methode 2b (DIN)
 70
     0
 40
0.5
 41
2.5
 42
0.0
 43
5.999999999999999
 44
3.174999999999998
 45
0.00000001
 46
10.0
 77
     1
 78
     8
 79
     2
140
2.5
143
0.03937
146
1.399999976158142
147
0.8
171
     3
172
     1
176
   256
177
   256
178
   256
271
     2
272
     2
274
     3
278
    44
284
     8
286
     8
340
D0
371
    -1
372
    -1
  0
DIMSTYLE
105
D4
330
A
100
AcDbSymbolTableRecord
100
AcDbDimStyleTableRecord
  2
Standard - Methode 2b (DIN)$7
 70
     0
 40
0.5
 41
2.5
 42
0.0
 43
5.999999999999999
 44
3.174999999999998
 45
0.00000001
 46
10.0
 77
     1
 78
     8
 79
     2
140
2.5
143
0.03937
146
1.399999976158142
147
0.8
171
     3
172
     1
176
   256
177
   256
178
   256
271
     2
272
     2
274
     3
278
    44
284
     8
286
     8
340
D0
371
    -1
372
    -1
  0
DIMSTYLE
105
D5
102
{ACAD_REACTORS
330
28B
330
364
330
453
330
53D
102
}
330
A
100
AcDbSymbolTableRecord
100
AcDbDimStyleTableRecord
  2
Standard (DIN)
 70
     0
 40
0.5
 41
2.5
 42
0.0
 43
6.999999999999999
 44
2.0
 45
0.00000001
 46
10.0
 73
     0
 74
     0
 77
     1
 78
     8
 79
     2
140
2.5
143
0.03937
146
0.6000000238418579
147
0.4
171
     3
172
     1
176
   256
177
   256
178
   256
271
     2
272
     2
274
     3
284
     8
285
     8
340
D0
371
    -1
372
    -1
  0
DIMSTYLE
105
D6
330
A
100
AcDbSymbolTableRecord
100
AcDbDimStyleTableRecord
  2
Standard (DIN)$7
 70
     0
 40
0.5
 41
2.5
 42
0.0
 43
6.999999999999999
 44
2.0
 45
0.00000001
 46
10.0
 73
     0
 74
     0
 77
     1
 78
     8
 79
     2
140
2.5
143
0.03937
146
0.6000000238418579
147
0.4
171
     3
172
     1
176
   256
177
   256
178
   256
271
     2
272
     2
274
     3
284
     8
285
     8
340
D0
371
    -1
372
    -1
  0
DIMSTYLE
105
D7
330
A
100
AcDbSymbolTableRecord
100
AcDbDimStyleTableRecord
  2
Alternativ (ISO)
 70
     0
 40
0.5
 41
2.5
340
55
  0
DIMSTYLE
105
E3
330
A
100
AcDbSymbolTableRecord
100
AcDbDimStyleTableRecord
  2
Bezug (ISO)
 70
     0
 40
0.5
 41
2.5
340
55
  0
DIMSTYLE
105
F2
330
A
100
AcDbSymbolTableRecord
100
AcDbDimStyleTableRecord
  2
Groß (ISO)
 70
     0
 40
0.5
 41
5.0
340
55
  0
ENDTAB
  0
TABLE
  2
BLOCK_RECORD
  5
1
330
0
100
AcDbSymbolTable
 70
     9
  0
BLOCK_RECORD
  5
71
330
1
100
AcDbSymbolTableRecord
100
AcDbBlockTableRecord
  2
*Model_Space
340
74
 70
     0
280
     1
281
     0
  0
BLOCK_RECORD
  5
6D
330
1
100
AcDbSymbolTableRecord
100
AcDbBlockTableRecord
  2
*Paper_Space
340
70
 70
     0
280
     1
281
     0
  0
BLOCK_RECORD
  5
75
330
1
100
AcDbSymbolTableRecord
100
AcDbBlockTableRecord
  2
*Paper_Space0
340
78
 70
     0
280
     1
281
     0
  0
BLOCK_RECORD
  5
D8
330
1
100
AcDbSymbolTableRecord
100
AcDbBlockTableRecord
  2
DatumFilled45
340
0
 70
     0
280
     1
281
     0
  0
BLOCK_RECORD
  5
E4
330
1
100
AcDbSymbolTableRecord
100
AcDbBlockTableRecord
  2
Filled-1
340
0
 70
     0
280
     1
281
     0
  0
BLOCK_RECORD
  5
F3
330
1
100
AcDbSymbolTableRecord
100
AcDbBlockTableRecord
  2
Ränder Standardrahmen
340
0
102
{BLKREFS
331
119
102
}
 70
     0
280
     1
281
     0
  0
BLOCK_RECORD
  5
11A
330
1
100
AcDbSymbolTableRecord
100
AcDbBlockTableRecord
  2
Schriftfelder perma_schriftfeld
340
0
102
{BLKREFS
331
207
102
}
 70
     0
280
     1
281
     0
  0
BLOCK_RECORD
  5
28D
330
1
100
AcDbSymbolTableRecord
100
AcDbBlockTableRecord
  2
*D5
340
0
 70
     0
280
     1
281
     0
  0
BLOCK_RECORD
  5
365
330
1
100
AcDbSymbolTableRecord
100
AcDbBlockTableRecord
  2
*D6
340
0
 70
     0
280
     1
281
     0
  0
BLOCK_RECORD
  5
454
330
1
100
AcDbSymbolTableRecord
100
AcDbBlockTableRecord
  2
*D7
340
0
 70
     0
280
     1
281
     0
  0
BLOCK_RECORD
  5
53E
330
1
100
AcDbSymbolTableRecord
100
AcDbBlockTableRecord
  2
*D8
340
0
 70
     0
280
     1
281
     0
  0
ENDTAB
  0
ENDSEC
  0
SECTION
  2
BLOCKS
  0
BLOCK
  5
72
330
71
100
AcDbEntity
  8
0
100
AcDbBlockBegin
  2
*Model_Space
 70
     0
 10
0.0
 20
0.0
 30
0.0
  3
*Model_Space
  1

  0
ENDBLK
  5
73
330
71
100
AcDbEntity
  8
0
100
AcDbBlockEnd
  0
BLOCK
  5
6E
330
6D
100
AcDbEntity
 67
     1
  8
0
100
AcDbBlockBegin
  2
*Paper_Space
 70
     0
 10
0.0
 20
0.0
 30
0.0
  3
*Paper_Space
  1

  0
ENDBLK
  5
6F
330
6D
100
AcDbEntity
 67
     1
  8
0
100
AcDbBlockEnd
  0
BLOCK
  5
76
330
75
100
AcDbEntity
 67
     1
  8
0
100
AcDbBlockBegin
  2
*Paper_Space0
 70
     0
 10
0.0
 20
0.0
 30
0.0
  3
*Paper_Space0
  1

  0
ENDBLK
  5
77
330
75
100
AcDbEntity
 67
     1
  8
0
100
AcDbBlockEnd
  0
BLOCK
  5
D9
330
D8
100
AcDbEntity
  8
0
100
AcDbBlockBegin
  2
DatumFilled45
 70
     0
 10
0.0
 20
0.0
 30
0.0
  3
DatumFilled45
  1

  0
POLYLINE
  5
DB
330
D8
100
AcDbEntity
  8
0
 62
     0
100
AcDb2dPolyline
 66
     1
 10
0.0
 20
0.0
 30
0.0
 70
   128
  0
VERTEX
  5
DC
330
DB
100
AcDbEntity
  8
0
 62
     0
100
AcDbVertex
100
AcDb2dVertex
 10
0.0
 20
1.0
 30
0.0
  0
VERTEX
  5
DD
330
DB
100
AcDbEntity
  8
0
 62
     0
100
AcDbVertex
100
AcDb2dVertex
 10
0.0
 20
-1.0
 30
0.0
  0
VERTEX
  5
DF
330
DB
100
AcDbEntity
  8
0
 62
     0
100
AcDbVertex
100
AcDb2dVertex
 10
-1.0
 20
0.0
 30
0.0
  0
VERTEX
  5
E0
330
DB
100
AcDbEntity
  8
0
 62
     0
100
AcDbVertex
100
AcDb2dVertex
 10
0.0
 20
1.0
 30
0.0
  0
SEQEND
  5
DE
330
DB
100
AcDbEntity
  8
0
 62
     0
  0
SOLID
  5
E2
330
D8
100
AcDbEntity
  8
0
 62
     0
100
AcDbTrace
 10
0.0
 20
1.0
 30
0.0
 11
0.0
 21
-1.0
 31
0.0
 12
-1.0
 22
0.0
 32
0.0
 13
0.0
 23
1.0
 33
0.0
  0
ENDBLK
  5
DA
330
D8
100
AcDbEntity
  8
0
100
AcDbBlockEnd
  0
BLOCK
  5
E5
330
E4
100
AcDbEntity
  8
0
100
AcDbBlockBegin
  2
Filled-1
 70
     0
 10
0.0
 20
0.0
 30
0.0
  3
Filled-1
  1

  0
LINE
  5
E7
330
E4
100
AcDbEntity
  8
0
 62
     0
100
AcDbLine
 10
-1.0
 20
0.0
 30
0.0
 11
0.0
 21
0.0
 31
0.0
  0
POLYLINE
  5
E8
330
E4
100
AcDbEntity
  8
0
 62
     0
100
AcDb2dPolyline
 66
     1
 10
0.0
 20
0.0
 30
0.0
 70
   128
  0
VERTEX
  5
E9
330
E8
100
AcDbEntity
  8
0
 62
     0
100
AcDbVertex
100
AcDb2dVertex
 10
-1.0
 20
-0.1
 30
0.0
  0
VERTEX
  5
EA
330
E8
100
AcDbEntity
  8
0
 62
     0
100
AcDbVertex
100
AcDb2dVertex
 10
0.0
 20
0.0
 30
0.0
  0
VERTEX
  5
EC
330
E8
100
AcDbEntity
  8
0
 62
     0
100
AcDbVertex
100
AcDb2dVertex
 10
-1.0
 20
0.1
 30
0.0
  0
VERTEX
  5
ED
330
E8
100
AcDbEntity
  8
0
 62
     0
100
AcDbVertex
100
AcDb2dVertex
 10
-1.0
 20
-0.1
 30
0.0
  0
SEQEND
  5
EB
330
E8
100
AcDbEntity
  8
0
 62
     0
  0
SOLID
  5
EE
330
E4
100
AcDbEntity
  8
0
 62
     0
100
AcDbTrace
 10
-1.0
 20
-0.1
 30
0.0
 11
0.0
 21
0.0
 31
0.0
 12
-1.0
 22
0.1
 32
0.0
 13
-1.0
 23
-0.1
 33
0.0
  0
LINE
  5
EF
330
E4
100
AcDbEntity
  8
0
 62
     0
100
AcDbLine
 10
-1.0
 20
-0.1
 30
0.0
 11
0.0
 21
0.0
 31
0.0
  0
LINE
  5
F0
330
E4
100
AcDbEntity
  8
0
 62
     0
100
AcDbLine
 10
0.0
 20
0.0
 30
0.0
 11
-1.0
 21
0.1
 31
0.0
  0
LINE
  5
F1
330
E4
100
AcDbEntity
  8
0
 62
     0
100
AcDbLine
 10
-1.0
 20
0.1
 30
0.0
 11
-1.0
 21
-0.1
 31
0.0
  0
ENDBLK
  5
E6
330
E4
100
AcDbEntity
  8
0
100
AcDbBlockEnd
  0
BLOCK
  5
F4
330
F3
100
AcDbEntity
  8
0
100
AcDbBlockBegin
  2
Ränder Standardrahmen
 70
     0
 10
0.0
 20
0.0
 30
0.0
  3
Ränder Standardrahmen
  1

  0
POLYLINE
  5
F6
330
F3
100
AcDbEntity
  8
Rahmen (ISO)
100
AcDb2dPolyline
 66
     1
 10
0.0
 20
0.0
 30
0.0
 70
   128
  0
VERTEX
  5
F7
330
F6
100
AcDbEntity
  8
Rahmen (ISO)
100
AcDbVertex
100
AcDb2dVertex
 10
10.0
 20
10.0
 30
0.0
  0
VERTEX
  5
F8
330
F6
100
AcDbEntity
  8
Rahmen (ISO)
100
AcDbVertex
100
AcDb2dVertex
 10
10.0
 20
287.0000076293946
 30
0.0
  0
VERTEX
  5
FA
330
F6
100
AcDbEntity
  8
Rahmen (ISO)
100
AcDbVertex
100
AcDb2dVertex
 10
200.0
 20
287.0000076293946
 30
0.0
  0
VERTEX
  5
FB
330
F6
100
AcDbEntity
  8
Rahmen (ISO)
100
AcDbVertex
100
AcDb2dVertex
 10
200.0
 20
10.0
 30
0.0
  0
VERTEX
  5
FC
330
F6
100
AcDbEntity
  8
Rahmen (ISO)
100
AcDbVertex
100
AcDb2dVertex
 10
10.0
 20
10.0
 30
0.0
  0
SEQEND
  5
F9
330
F6
100
AcDbEntity
  8
Rahmen (ISO)
  0
POLYLINE
  5
FD
330
F3
100
AcDbEntity
  8
Rahmen (ISO)
100
AcDb2dPolyline
 66
     1
 10
0.0
 20
0.0
 30
0.0
 70
   128
  0
VERTEX
  5
FE
330
FD
100
AcDbEntity
  8
Rahmen (ISO)
100
AcDbVertex
100
AcDb2dVertex
 10
105.0
 20
0.0
 30
0.0
  0
VERTEX
  5
FF
330
FD
100
AcDbEntity
  8
Rahmen (ISO)
100
AcDbVertex
100
AcDb2dVertex
 10
105.0
 20
10.0
 30
0.0
  0
VERTEX
  5
101
330
FD
100
AcDbEntity
  8
Rahmen (ISO)
100
AcDbVertex
100
AcDb2dVertex
 10
102.1132469177246
 20
5.0
 30
0.0
  0
VERTEX
  5
102
330
FD
100
AcDbEntity
  8
Rahmen (ISO)
100
AcDbVertex
100
AcDb2dVertex
 10
107.8867530822754
 20
5.0
 30
0.0
  0
VERTEX
  5
103
330
FD
100
AcDbEntity
  8
Rahmen (ISO)
100
AcDbVertex
100
AcDb2dVertex
 10
105.0
 20
10.0
 30
0.0
  0
SEQEND
  5
100
330
FD
100
AcDbEntity
  8
Rahmen (ISO)
  0
POLYLINE
  5
104
330
F3
100
AcDbEntity
  8
Rahmen (ISO)
100
AcDb2dPolyline
 66
     1
 10
0.0
 20
0.0
 30
0.0
 70
   128
  0
VERTEX
  5
105
330
104
100
AcDbEntity
  8
Rahmen (ISO)
100
AcDbVertex
100
AcDb2dVertex
 10
105.0
 20
297.0000076293946
 30
0.0
  0
VERTEX
  5
106
330
104
100
AcDbEntity
  8
Rahmen (ISO)
100
AcDbVertex
100
AcDb2dVertex
 10
105.0
 20
287.0000076293946
 30
0.0
  0
VERTEX
  5
108
330
104
100
AcDbEntity
  8
Rahmen (ISO)
100
AcDbVertex
100
AcDb2dVertex
 10
102.1132469177246
 20
292.0000076293945
 30
0.0
  0
VERTEX
  5
109
330
104
100
AcDbEntity
  8
Rahmen (ISO)
100
AcDbVertex
100
AcDb2dVertex
 10
107.8867530822754
 20
292.0000076293945
 30
0.0
  0
VERTEX
  5
10A
330
104
100
AcDbEntity
  8
Rahmen (ISO)
100
AcDbVertex
100
AcDb2dVertex
 10
105.0
 20
287.0000076293946
 30
0.0
  0
SEQEND
  5
107
330
104
100
AcDbEntity
  8
Rahmen (ISO)
  0
POLYLINE
  5
10B
330
F3
100
AcDbEntity
  8
Rahmen (ISO)
100
AcDb2dPolyline
 66
     1
 10
0.0
 20
0.0
 30
0.0
 70
   128
  0
VERTEX
  5
10C
330
10B
100
AcDbEntity
  8
Rahmen (ISO)
100
AcDbVertex
100
AcDb2dVertex
 10
0.0
 20
148.5000038146973
 30
0.0
  0
VERTEX
  5
10D
330
10B
100
AcDbEntity
  8
Rahmen (ISO)
100
AcDbVertex
100
AcDb2dVertex
 10
10.0
 20
148.5000038146973
 30
0.0
  0
VERTEX
  5
10F
330
10B
100
AcDbEntity
  8
Rahmen (ISO)
100
AcDbVertex
100
AcDb2dVertex
 10
5.0
 20
151.3867473602295
 30
0.0
  0
VERTEX
  5
110
330
10B
100
AcDbEntity
  8
Rahmen (ISO)
100
AcDbVertex
100
AcDb2dVertex
 10
5.0
 20
145.6132507324219
 30
0.0
  0
VERTEX
  5
111
330
10B
100
AcDbEntity
  8
Rahmen (ISO)
100
AcDbVertex
100
AcDb2dVertex
 10
10.0
 20
148.5000038146973
 30
0.0
  0
SEQEND
  5
10E
330
10B
100
AcDbEntity
  8
Rahmen (ISO)
  0
POLYLINE
  5
112
330
F3
100
AcDbEntity
  8
Rahmen (ISO)
100
AcDb2dPolyline
 66
     1
 10
0.0
 20
0.0
 30
0.0
 70
   128
  0
VERTEX
  5
113
330
112
100
AcDbEntity
  8
Rahmen (ISO)
100
AcDbVertex
100
AcDb2dVertex
 10
210.0
 20
148.5000038146973
 30
0.0
  0
VERTEX
  5
114
330
112
100
AcDbEntity
  8
Rahmen (ISO)
100
AcDbVertex
100
AcDb2dVertex
 10
200.0
 20
148.5000038146973
 30
0.0
  0
VERTEX
  5
116
330
112
100
AcDbEntity
  8
Rahmen (ISO)
100
AcDbVertex
100
AcDb2dVertex
 10
205.0
 20
151.3867473602295
 30
0.0
  0
VERTEX
  5
117
330
112
100
AcDbEntity
  8
Rahmen (ISO)
100
AcDbVertex
100
AcDb2dVertex
 10
205.0
 20
145.6132507324219
 30
0.0
  0
VERTEX
  5
118
330
112
100
AcDbEntity
  8
Rahmen (ISO)
100
AcDbVertex
100
AcDb2dVertex
 10
200.0
 20
148.5000038146973
 30
0.0
  0
SEQEND
  5
115
330
112
100
AcDbEntity
  8
Rahmen (ISO)
  0
ENDBLK
  5
F5
330
F3
100
AcDbEntity
  8
0
100
AcDbBlockEnd
  0
BLOCK
  5
11B
330
11A
100
AcDbEntity
  8
0
100
AcDbBlockBegin
  2
Schriftfelder perma_schriftfeld
 70
     2
 10
0.0
 20
0.0
 30
0.0
  3
Schriftfelder perma_schriftfeld
  1

  0
HATCH
  5
124
330
11A
100
AcDbEntity
  8
Schraffur (ISO)
 62
   242
420
 13640771
100
AcDbHatch
 10
0.0
 20
0.0
 30
0.0
210
0.0
220
0.0
230
1.0
  2
SOLID
 70
     1
 71
     0
 91
        2
 92
        0
 93
        1
 72
     2
 10
243.4855390241711
 20
143.7748975342685
 40
1.785530546623793
 50
0.0
 51
360.0
 73
     1
 97
        0
 92
        1
 93
        6
 72
     1
 10
241.6008123360682
 20
146.8003798493811
 11
241.6008123360681
 21
146.3290777908515
 72
     2
 10
243.4855390241711
 20
143.7748975342685
 40
3.174276527331191
 50
233.5764263576677
 51
486.4235736423323
 73
     0
 72
     1
 10
241.6008123360681
 20
141.2207172776856
 11
241.6008123360681
 21
138.0215213284808
 72
     1
 10
241.6008123360681
 20
138.0215213284808
 11
240.2120663553608
 21
138.0215213284808
 72
     1
 10
240.2120663553608
 20
138.0215213284808
 11
240.2120663553608
 21
146.8003798493811
 72
     1
 10
240.2120663553608
 20
146.8003798493811
 11
241.6008123360682
 21
146.8003798493811
 97
        0
 75
     0
 76
     1
 98
        1
 10
0.0
 20
0.0
450
        0
451
        0
460
0.0
461
0.0
452
        0
462
0.0
453
        0
470

  0
HATCH
  5
12C
330
11A
100
AcDbEntity
  8
Schraffur (ISO)
 62
   242
420
 13640771
100
AcDbHatch
 10
0.0
 20
0.0
 30
0.0
210
0.0
220
0.0
230
1.0
  2
SOLID
 70
     1
 71
     0
 91
        1
 92
        1
 93
        7
 72
     2
 10
254.2483203746534
 20
146.3043991419856
 40
0.4959807073954986
 50
90.0
 51
180.0
 73
     1
 72
     1
 10
253.7523396672579
 20
146.3043991419856
 11
253.7523396672579
 21
140.6998171484165
 72
     1
 10
253.7523396672579
 20
140.6998171484165
 11
255.1410856479653
 21
140.6998171484165
 72
     1
 10
255.1410856479653
 20
140.6998171484165
 11
255.1410856479653
 21
145.4116338686737
 72
     1
 10
255.1410856479653
 20
145.4116338686737
 11
257.0258123360682
 21
145.4116338686737
 72
     1
 10
257.0258123360682
 20
145.4116338686737
 11
257.0258123360682
 21
146.8003798493811
 72
     1
 10
257.0258123360682
 20
146.8003798493811
 11
254.2483203746534
 21
146.8003798493811
 97
        0
 75
     0
 76
     1
 98
        1
 10
0.0
 20
0.0
450
        0
451
        0
460
0.0
461
0.0
452
        0
462
0.0
453
        0
470

  0
HATCH
  5
13B
330
11A
100
AcDbEntity
  8
Schraffur (ISO)
 62
   242
420
 13640771
100
AcDbHatch
 10
0.0
 20
0.0
 30
0.0
210
0.0
220
0.0
230
1.0
  2
SOLID
 70
     1
 71
     0
 91
        1
 92
        1
 93
       14
 72
     2
 10
263.6223557444282
 20
146.3043991419856
 40
0.4959807073954986
 50
0.0
 51
90.0
 73
     1
 72
     1
 10
263.6223557444282
 20
146.8003798493811
 11
257.8689795386405
 21
146.8003798493811
 72
     2
 10
257.8689795386405
 20
146.3043991419856
 40
0.4959807073954986
 50
90.0
 51
180.0
 73
     1
 72
     1
 10
257.372998831245
 20
146.3043991419856
 11
257.372998831245
 21
140.6998171484165
 72
     1
 10
257.372998831245
 20
140.6998171484165
 11
258.7617448119524
 21
140.6998171484165
 72
     1
 10
258.7617448119524
 20
140.6998171484165
 11
258.7617448119524
 21
145.4116338686737
 72
     1
 10
258.7617448119524
 20
145.4116338686737
 11
260.0512946511807
 21
145.4116338686737
 72
     1
 10
260.0512946511807
 20
145.4116338686737
 11
260.0512946511807
 21
140.6998171484165
 72
     1
 10
260.0512946511807
 20
140.6998171484165
 11
261.4400406318881
 21
140.6998171484165
 72
     1
 10
261.4400406318881
 20
140.6998171484165
 11
261.4400406318881
 21
145.4116338686737
 72
     1
 10
261.4400406318881
 20
145.4116338686737
 11
262.7295904711163
 21
145.4116338686737
 72
     1
 10
262.7295904711163
 20
145.4116338686737
 11
262.7295904711163
 21
140.6998171484164
 72
     1
 10
262.7295904711163
 20
140.6998171484165
 11
264.1183364518238
 21
140.6998171484165
 72
     1
 10
264.1183364518238
 20
140.6998171484165
 11
264.1183364518237
 21
146.3043991419856
 97
        0
 75
     0
 76
     1
 98
        1
 10
0.0
 20
0.0
450
        0
451
        0
460
0.0
461
0.0
452
        0
462
0.0
453
        0
470

  0
HATCH
  5
143
330
11A
100
AcDbEntity
  8
Schraffur (ISO)
 62
   242
420
 13640771
100
AcDbHatch
 10
0.0
 20
0.0
 30
0.0
210
0.0
220
0.0
230
1.0
  2
SOLID
 70
     1
 71
     0
 91
        2
 92
        0
 93
        1
 72
     2
 10
267.6893975450714
 20
143.7748975342685
 40
1.785530546623792
 50
0.0
 51
360.0
 73
     1
 97
        0
 92
        1
 93
        6
 72
     2
 10
267.6893975450714
 20
143.7748975342685
 40
3.174276527331188
 50
51.31781254651136
 51
308.6821874534886
 73
     1
 72
     1
 10
269.6733203746534
 20
141.2969787143252
 11
269.6733203746534
 21
140.6998171484165
 72
     1
 10
269.6733203746534
 20
140.6998171484165
 11
271.0620663553608
 21
140.6998171484165
 72
     1
 10
271.0620663553608
 20
140.6998171484165
 11
271.0620663553608
 21
146.8003798493811
 72
     1
 10
271.0620663553608
 20
146.8003798493811
 11
269.6733203746534
 21
146.8003798493811
 72
     1
 10
269.6733203746534
 20
146.8003798493811
 11
269.6733203746534
 21
146.2528163542119
 97
        0
 75
     0
 76
     1
 98
        1
 10
0.0
 20
0.0
450
        0
451
        0
460
0.0
461
0.0
452
        0
462
0.0
453
        0
470

  0
HATCH
  5
148
330
11A
100
AcDbEntity
  8
Schraffur (ISO)
 62
   242
420
 13640771
100
AcDbHatch
 10
0.0
 20
0.0
 30
0.0
210
0.0
220
0.0
230
1.0
  2
SOLID
 70
     1
 71
     0
 91
        1
 92
        1
 93
        4
 72
     1
 10
242.49357760938
 20
138.0215213284808
 11
271.0620663553608
 21
138.0215213284808
 72
     1
 10
271.0620663553608
 20
138.0215213284808
 11
271.0620663553608
 21
139.4102673091882
 72
     1
 10
271.0620663553608
 20
139.4102673091882
 11
242.49357760938
 21
139.4102673091882
 72
     1
 10
242.49357760938
 20
139.4102673091882
 11
242.49357760938
 21
138.0215213284808
 97
        0
 75
     0
 76
     1
 98
        1
 10
0.0
 20
0.0
450
        0
451
        0
460
0.0
461
0.0
452
        0
462
0.0
453
        0
470

  0
HATCH
  5
14F
330
11A
100
AcDbEntity
  8
Schraffur (ISO)
 62
   242
420
 13640771
100
AcDbHatch
 10
0.0
 20
0.0
 30
0.0
210
0.0
220
0.0
230
1.0
  2
SOLID
 70
     1
 71
     0
 91
        2
 92
        0
 93
        2
 72
     2
 10
250.2055390241711
 20
143.7748975342685
 40
1.78553054662284
 50
22.88538047613576
 51
157.1146195238642
 73
     1
 72
     1
 10
248.5605571144858
 20
144.4692705246211
 11
251.8505209338564
 21
144.4692705246211
 97
        0
 92
        1
 93
        4
 72
     2
 10
250.2055390241711
 20
143.7748975342685
 40
3.17427652733119
 50
349.193077125136
 51
698.9381823983302
 73
     1
 72
     1
 10
253.1677523978849
 20
142.6341419072579
 11
251.5791459302305
 21
142.6341419072579
 72
     2
 10
250.2055390241711
 20
143.7748975342685
 40
1.78553054662492
 50
39.70901655308167
 51
160.5287793655139
 73
     0
 72
     1
 10
248.5221246807924
 20
143.1797206853938
 11
253.3235184966065
 21
143.1797206853938
 97
        0
 75
     0
 76
     1
 98
        1
 10
0.0
 20
0.0
450
        0
451
        0
460
0.0
461
0.0
452
        0
462
0.0
453
        0
470

  0
LINE
  5
150
330
11A
100
AcDbEntity
  8
Titel (ISO)
100
AcDbLine
 10
137.5127883584022
 20
114.0882056155221
 30
0.0
 11
327.5127883584023
 21
114.0882056155221
 31
0.0
  0
LINE
  5
151
330
11A
100
AcDbEntity
  8
Titel (ISO)
100
AcDbLine
 10
327.5127883584023
 20
114.0882056155221
 30
0.0
 11
327.5127883584023
 21
169.3382056155221
 31
0.0
  0
LINE
  5
152
330
11A
100
AcDbEntity
  8
Titel (ISO)
100
AcDbLine
 10
327.5127883584023
 20
169.3382056155221
 30
0.0
 11
137.5127883584022
 21
169.3382056155221
 31
0.0
  0
LINE
  5
153
330
11A
100
AcDbEntity
  8
Titel (ISO)
100
AcDbLine
 10
137.5127883584022
 20
169.3382056155221
 30
0.0
 11
137.5127883584022
 21
114.0882056155221
 31
0.0
  0
LINE
  5
154
330
11A
100
AcDbEntity
  8
Titel (ISO)
100
AcDbLine
 10
192.1127883584023
 20
114.0882056155221
 30
0.0
 11
192.1127883584023
 21
169.3382056155221
 31
0.0
  0
LINE
  5
155
330
11A
100
AcDbEntity
  8
Titel (ISO)
100
AcDbLine
 10
236.3127883584021
 20
114.0882056155221
 30
0.0
 11
236.3127883584021
 21
169.3382056155221
 31
0.0
  0
LINE
  5
156
330
11A
100
AcDbEntity
  8
Titel (ISO)
100
AcDbLine
 10
137.5127883584022
 20
152.3382056155222
 30
0.0
 11
327.5127883584023
 21
152.3382056155222
 31
0.0
  0
LINE
  5
157
330
11A
100
AcDbEntity
  8
Titel (ISO)
100
AcDbLine
 10
192.1127883584023
 20
131.0882056155222
 30
0.0
 11
327.5127883584023
 21
131.0882056155222
 31
0.0
  0
LINE
  5
158
330
11A
100
AcDbEntity
  8
Titel (ISO)
100
AcDbLine
 10
236.3127883584021
 20
162.5882056155222
 30
0.0
 11
327.5127883584023
 21
162.5882056155222
 31
0.0
  0
LINE
  5
159
330
11A
100
AcDbEntity
  8
Titel (ISO)
100
AcDbLine
 10
137.5127883584022
 20
118.3382056155221
 30
0.0
 11
192.1127883584023
 21
118.3382056155221
 31
0.0
  0
LINE
  5
15A
330
11A
100
AcDbEntity
  8
Titel (ISO)
100
AcDbLine
 10
192.1127883584023
 20
118.3382056155221
 30
0.0
 11
236.3127883584021
 21
118.3382056155221
 31
0.0
  0
LINE
  5
15B
330
11A
100
AcDbEntity
  8
Titel (ISO)
100
AcDbLine
 10
236.3127883584021
 20
118.3382056155221
 30
0.0
 11
327.5127883584023
 21
118.3382056155221
 31
0.0
  0
LINE
  5
15C
330
11A
100
AcDbEntity
  8
Titel (ISO)
100
AcDbLine
 10
311.7127883584024
 20
118.3382056155221
 30
0.0
 11
311.7127883584024
 21
131.0882056155222
 31
0.0
  0
LINE
  5
15D
330
11A
100
AcDbEntity
  8
Titel (ISO)
100
AcDbLine
 10
311.7127883584021
 20
124.0197845628906
 30
0.0
 11
327.5127883584021
 21
124.0197845628906
 31
0.0
  0
LINE
  5
15E
330
11A
100
AcDbEntity
  8
Titel (ISO)
100
AcDbLine
 10
192.1127883584023
 20
122.5882056155221
 30
0.0
 11
137.5127883584022
 21
122.5882056155221
 31
0.0
  0
LINE
  5
15F
330
11A
100
AcDbEntity
  8
Titel (ISO)
100
AcDbLine
 10
137.5127883584022
 20
126.8382056155221
 30
0.0
 11
192.1127883584023
 21
126.8382056155221
 31
0.0
  0
LINE
  5
160
330
11A
100
AcDbEntity
  8
Titel (ISO)
100
AcDbLine
 10
137.5127883584022
 20
131.0882056155222
 30
0.0
 11
192.1127883584023
 21
131.0882056155222
 31
0.0
  0
LINE
  5
161
330
11A
100
AcDbEntity
  8
Titel (ISO)
100
AcDbLine
 10
137.5127883584022
 20
135.3382056155222
 30
0.0
 11
192.1127883584023
 21
135.3382056155222
 31
0.0
  0
LINE
  5
162
330
11A
100
AcDbEntity
  8
Titel (ISO)
100
AcDbLine
 10
192.1127883584023
 20
135.3382056155222
 30
0.0
 11
236.3127883584021
 21
135.3382056155222
 31
0.0
  0
LINE
  5
163
330
11A
100
AcDbEntity
  8
Titel (ISO)
100
AcDbLine
 10
137.5127883584022
 20
139.5882056155222
 30
0.0
 11
192.1127883584023
 21
139.5882056155222
 31
0.0
  0
LINE
  5
164
330
11A
100
AcDbEntity
  8
Titel (ISO)
100
AcDbLine
 10
192.1127883584023
 20
139.5882056155222
 30
0.0
 11
236.3127883584021
 21
139.5882056155222
 31
0.0
  0
LINE
  5
165
330
11A
100
AcDbEntity
  8
Titel (ISO)
100
AcDbLine
 10
137.5127883584022
 20
143.8382056155222
 30
0.0
 11
192.1127883584023
 21
143.8382056155222
 31
0.0
  0
LINE
  5
166
330
11A
100
AcDbEntity
  8
Titel (ISO)
100
AcDbLine
 10
192.1127883584023
 20
143.8382056155222
 30
0.0
 11
236.3127883584021
 21
143.8382056155222
 31
0.0
  0
LINE
  5
167
330
11A
100
AcDbEntity
  8
Titel (ISO)
100
AcDbLine
 10
137.5127883584022
 20
148.0882056155222
 30
0.0
 11
192.1127883584023
 21
148.0882056155222
 31
0.0
  0
LINE
  5
168
330
11A
100
AcDbEntity
  8
Titel (ISO)
100
AcDbLine
 10
192.1127883584023
 20
148.0882056155222
 30
0.0
 11
236.3127883584021
 21
148.0882056155222
 31
0.0
  0
LINE
  5
169
330
11A
100
AcDbEntity
  8
Titel (ISO)
100
AcDbLine
 10
145.0127883584023
 20
114.0882056155222
 30
0.0
 11
145.0127883584023
 21
152.3382056155222
 31
0.0
  0
LINE
  5
16A
330
11A
100
AcDbEntity
  8
Titel (ISO)
100
AcDbLine
 10
172.0127883584021
 20
114.0882056155221
 30
0.0
 11
172.0127883584021
 21
152.3382056155222
 31
0.0
  0
LINE
  5
16B
330
11A
100
AcDbEntity
  8
Titel (ISO)
100
AcDbLine
 10
182.6127883584021
 20
114.0882056155221
 30
0.0
 11
182.6127883584021
 21
152.3382056155222
 31
0.0
  0
LINE
  5
16C
330
11A
100
AcDbEntity
  8
Titel (ISO)
100
AcDbLine
 10
202.5127883584021
 20
135.3382056155222
 30
0.0
 11
202.5127883584021
 21
152.3382056155222
 31
0.0
  0
LINE
  5
16D
330
11A
100
AcDbEntity
  8
Titel (ISO)
100
AcDbLine
 10
218.1127883584023
 20
131.0882056155222
 30
0.0
 11
218.1127883584023
 21
152.3382056155222
 31
0.0
  0
LINE
  5
16E
330
11A
100
AcDbEntity
  8
Titel (ISO)
100
AcDbLine
 10
218.1127883584023
 20
152.3382056155222
 30
0.0
 11
218.1127883584023
 21
169.3382056155221
 31
0.0
  0
LINE
  5
16F
330
11A
100
AcDbEntity
  8
Skizziergeometrie (ISO)
 62
   242
420
 13640771
370
     9
100
AcDbLine
 10
241.6008123360682
 20
146.8003798493811
 30
0.0
 11
240.2120663553608
 21
146.8003798493811
 31
0.0
  0
LINE
  5
170
330
11A
100
AcDbEntity
  8
Skizziergeometrie (ISO)
 62
   242
420
 13640771
370
     9
100
AcDbLine
 10
241.6008123360681
 20
146.3290777908515
 30
0.0
 11
241.6008123360682
 21
146.8003798493811
 31
0.0
  0
LINE
  5
171
330
11A
100
AcDbEntity
  8
Skizziergeometrie (ISO)
 62
   242
420
 13640771
370
     9
100
AcDbLine
 10
240.2120663553608
 20
146.8003798493811
 30
0.0
 11
240.2120663553608
 21
138.0215213284808
 31
0.0
  0
CIRCLE
  5
172
330
11A
100
AcDbEntity
  8
Skizziergeometrie (ISO)
 62
   242
420
 13640771
370
     9
100
AcDbCircle
 10
243.4855390241711
 20
143.7748975342685
 30
0.0
 40
1.785530546623793
  0
LINE
  5
173
330
11A
100
AcDbEntity
  8
Skizziergeometrie (ISO)
 62
   242
420
 13640771
370
     9
100
AcDbLine
 10
240.2120663553608
 20
138.0215213284808
 30
0.0
 11
241.6008123360681
 21
138.0215213284808
 31
0.0
  0
LINE
  5
174
330
11A
100
AcDbEntity
  8
Skizziergeometrie (ISO)
 62
   242
420
 13640771
370
     9
100
AcDbLine
 10
241.6008123360681
 20
138.0215213284808
 30
0.0
 11
241.6008123360681
 21
141.2207172776856
 31
0.0
  0
ARC
  5
175
330
11A
100
AcDbEntity
  8
Skizziergeometrie (ISO)
 62
   242
420
 13640771
370
     9
100
AcDbCircle
 10
243.4855390241711
 20
143.7748975342685
 30
0.0
 40
3.17427652733119
100
AcDbArc
 50
233.5764263576676
 51
126.4235736423323
  0
LINE
  5
176
330
11A
100
AcDbEntity
  8
Skizziergeometrie (ISO)
 62
   242
420
 13640771
370
     9
100
AcDbLine
 10
242.49357760938
 20
139.4102673091882
 30
0.0
 11
242.49357760938
 21
138.0215213284808
 31
0.0
  0
ARC
  5
177
330
11A
100
AcDbEntity
  8
Skizziergeometrie (ISO)
 62
   242
420
 13640771
370
     9
100
AcDbCircle
 10
254.2483203746534
 20
146.3043991419856
 30
0.0
 40
0.4959807073954986
100
AcDbArc
 50
90.0
 51
180.0
  0
LINE
  5
178
330
11A
100
AcDbEntity
  8
Skizziergeometrie (ISO)
 62
   242
420
 13640771
370
     9
100
AcDbLine
 10
255.1410856479653
 20
145.4116338686737
 30
0.0
 11
255.1410856479653
 21
140.6998171484165
 31
0.0
  0
LINE
  5
179
330
11A
100
AcDbEntity
  8
Skizziergeometrie (ISO)
 62
   242
420
 13640771
370
     9
100
AcDbLine
 10
253.7523396672579
 20
140.6998171484165
 30
0.0
 11
253.7523396672579
 21
146.3043991419856
 31
0.0
  0
ARC
  5
17A
330
11A
100
AcDbEntity
  8
Skizziergeometrie (ISO)
 62
   242
420
 13640771
370
     9
100
AcDbCircle
 10
250.2055390241711
 20
143.7748975342685
 30
0.0
 40
3.17427652733119
100
AcDbArc
 50
349.1930771251181
 51
338.9381823983282
  0
LINE
  5
17B
330
11A
100
AcDbEntity
  8
Skizziergeometrie (ISO)
 62
   242
420
 13640771
370
     9
100
AcDbLine
 10
255.1410856479653
 20
140.6998171484165
 30
0.0
 11
253.7523396672579
 21
140.6998171484165
 31
0.0
  0
LINE
  5
17C
330
11A
100
AcDbEntity
  8
Skizziergeometrie (ISO)
 62
   242
420
 13640771
370
     9
100
AcDbLine
 10
269.6733203746534
 20
146.2528163542119
 30
0.0
 11
269.6733203746534
 21
146.8003798493811
 31
0.0
  0
LINE
  5
17D
330
11A
100
AcDbEntity
  8
Skizziergeometrie (ISO)
 62
   242
420
 13640771
370
     9
100
AcDbLine
 10
271.0620663553608
 20
146.8003798493811
 30
0.0
 11
271.0620663553608
 21
140.6998171484165
 31
0.0
  0
LINE
  5
17E
330
11A
100
AcDbEntity
  8
Skizziergeometrie (ISO)
 62
   242
420
 13640771
370
     9
100
AcDbLine
 10
271.0620663553608
 20
140.6998171484165
 30
0.0
 11
269.6733203746534
 21
140.6998171484165
 31
0.0
  0
CIRCLE
  5
17F
330
11A
100
AcDbEntity
  8
Skizziergeometrie (ISO)
 62
   242
420
 13640771
370
     9
100
AcDbCircle
 10
267.6893975450714
 20
143.7748975342685
 30
0.0
 40
1.785530546623792
  0
ARC
  5
180
330
11A
100
AcDbEntity
  8
Skizziergeometrie (ISO)
 62
   242
420
 13640771
370
     9
100
AcDbCircle
 10
263.6223557444282
 20
146.3043991419856
 30
0.0
 40
0.4959807073954986
100
AcDbArc
 50
0.0
 51
90.0
  0
LINE
  5
181
330
11A
100
AcDbEntity
  8
Skizziergeometrie (ISO)
 62
   242
420
 13640771
370
     9
100
AcDbLine
 10
264.1183364518237
 20
146.3043991419856
 30
0.0
 11
264.1183364518238
 21
140.6998171484165
 31
0.0
  0
LINE
  5
182
330
11A
100
AcDbEntity
  8
Skizziergeometrie (ISO)
 62
   242
420
 13640771
370
     9
100
AcDbLine
 10
262.7295904711163
 20
145.4116338686737
 30
0.0
 11
262.7295904711163
 21
140.6998171484165
 31
0.0
  0
LINE
  5
183
330
11A
100
AcDbEntity
  8
Skizziergeometrie (ISO)
 62
   242
420
 13640771
370
     9
100
AcDbLine
 10
261.4400406318881
 20
145.4116338686737
 30
0.0
 11
262.7295904711163
 21
145.4116338686737
 31
0.0
  0
LINE
  5
184
330
11A
100
AcDbEntity
  8
Skizziergeometrie (ISO)
 62
   242
420
 13640771
370
     9
100
AcDbLine
 10
261.4400406318881
 20
145.4116338686737
 30
0.0
 11
261.4400406318881
 21
140.6998171484165
 31
0.0
  0
LINE
  5
185
330
11A
100
AcDbEntity
  8
Skizziergeometrie (ISO)
 62
   242
420
 13640771
370
     9
100
AcDbLine
 10
269.6733203746534
 20
140.6998171484165
 30
0.0
 11
269.6733203746534
 21
141.2969787143252
 31
0.0
  0
LINE
  5
186
330
11A
100
AcDbEntity
  8
Skizziergeometrie (ISO)
 62
   242
420
 13640771
370
     9
100
AcDbLine
 10
257.372998831245
 20
146.3043991419856
 30
0.0
 11
257.372998831245
 21
140.6998171484165
 31
0.0
  0
LINE
  5
187
330
11A
100
AcDbEntity
  8
Skizziergeometrie (ISO)
 62
   242
420
 13640771
370
     9
100
AcDbLine
 10
257.372998831245
 20
140.6998171484165
 30
0.0
 11
258.7617448119524
 21
140.6998171484165
 31
0.0
  0
LINE
  5
188
330
11A
100
AcDbEntity
  8
Skizziergeometrie (ISO)
 62
   242
420
 13640771
370
     9
100
AcDbLine
 10
258.7617448119524
 20
140.6998171484165
 30
0.0
 11
258.7617448119524
 21
145.4116338686737
 31
0.0
  0
LINE
  5
189
330
11A
100
AcDbEntity
  8
Skizziergeometrie (ISO)
 62
   242
420
 13640771
370
     9
100
AcDbLine
 10
260.0512946511807
 20
140.6998171484165
 30
0.0
 11
260.0512946511807
 21
145.4116338686737
 31
0.0
  0
LINE
  5
18A
330
11A
100
AcDbEntity
  8
Skizziergeometrie (ISO)
 62
   242
420
 13640771
370
     9
100
AcDbLine
 10
257.8689795386405
 20
146.8003798493811
 30
0.0
 11
263.6223557444282
 21
146.8003798493811
 31
0.0
  0
LINE
  5
18B
330
11A
100
AcDbEntity
  8
Skizziergeometrie (ISO)
 62
   242
420
 13640771
370
     9
100
AcDbLine
 10
260.0512946511807
 20
140.6998171484165
 30
0.0
 11
261.4400406318881
 21
140.6998171484165
 31
0.0
  0
ARC
  5
18C
330
11A
100
AcDbEntity
  8
Skizziergeometrie (ISO)
 62
   242
420
 13640771
370
     9
100
AcDbCircle
 10
257.8689795386405
 20
146.3043991419856
 30
0.0
 40
0.4959807073954986
100
AcDbArc
 50
90.0
 51
180.0
  0
LINE
  5
18D
330
11A
100
AcDbEntity
  8
Skizziergeometrie (ISO)
 62
   242
420
 13640771
370
     9
100
AcDbLine
 10
257.0258123360682
 20
145.4116338686737
 30
0.0
 11
255.1410856479653
 21
145.4116338686737
 31
0.0
  0
LINE
  5
18E
330
11A
100
AcDbEntity
  8
Skizziergeometrie (ISO)
 62
   242
420
 13640771
370
     9
100
AcDbLine
 10
257.0258123360682
 20
146.8003798493811
 30
0.0
 11
257.0258123360682
 21
145.4116338686737
 31
0.0
  0
LINE
  5
18F
330
11A
100
AcDbEntity
  8
Skizziergeometrie (ISO)
 62
   242
420
 13640771
370
     9
100
AcDbLine
 10
254.2483203746534
 20
146.8003798493811
 30
0.0
 11
257.0258123360682
 21
146.8003798493811
 31
0.0
  0
ARC
  5
190
330
11A
100
AcDbEntity
  8
Skizziergeometrie (ISO)
 62
   242
420
 13640771
370
     9
100
AcDbCircle
 10
267.6893975450714
 20
143.7748975342685
 30
0.0
 40
3.17427652733119
100
AcDbArc
 50
51.31781254651136
 51
308.6821874534886
  0
LINE
  5
191
330
11A
100
AcDbEntity
  8
Skizziergeometrie (ISO)
 62
   242
420
 13640771
370
     9
100
AcDbLine
 10
271.0620663553608
 20
139.4102673091882
 30
0.0
 11
271.0620663553608
 21
138.0215213284808
 31
0.0
  0
LINE
  5
192
330
11A
100
AcDbEntity
  8
Skizziergeometrie (ISO)
 62
   242
420
 13640771
370
     9
100
AcDbLine
 10
269.6733203746534
 20
146.8003798493811
 30
0.0
 11
271.0620663553608
 21
146.8003798493811
 31
0.0
  0
LINE
  5
193
330
11A
100
AcDbEntity
  8
Skizziergeometrie (ISO)
 62
   242
420
 13640771
370
     9
100
AcDbLine
 10
262.7295904711163
 20
140.6998171484165
 30
0.0
 11
264.1183364518238
 21
140.6998171484165
 31
0.0
  0
LINE
  5
194
330
11A
100
AcDbEntity
  8
Skizziergeometrie (ISO)
 62
   242
420
 13640771
370
     9
100
AcDbLine
 10
258.7617448119524
 20
145.4116338686737
 30
0.0
 11
260.0512946511807
 21
145.4116338686737
 31
0.0
  0
LINE
  5
195
330
11A
100
AcDbEntity
  8
Skizziergeometrie (ISO)
 62
   242
420
 13640771
370
     9
100
AcDbLine
 10
242.49357760938
 20
139.4102673091882
 30
0.0
 11
271.0620663553608
 21
139.4102673091882
 31
0.0
  0
LINE
  5
196
330
11A
100
AcDbEntity
  8
Skizziergeometrie (ISO)
 62
   242
420
 13640771
370
     9
100
AcDbLine
 10
242.49357760938
 20
138.0215213284808
 30
0.0
 11
271.0620663553608
 21
138.0215213284808
 31
0.0
  0
LINE
  5
197
330
11A
100
AcDbEntity
  8
Skizziergeometrie (ISO)
 62
   242
420
 13640771
370
     9
100
AcDbLine
 10
251.5791459302305
 20
142.6341419072579
 30
0.0
 11
253.1677523978849
 21
142.6341419072579
 31
0.0
  0
LINE
  5
198
330
11A
100
AcDbEntity
  8
Skizziergeometrie (ISO)
 62
   242
420
 13640771
370
     9
100
AcDbLine
 10
248.5605571144858
 20
144.4692705246211
 30
0.0
 11
251.8505209338564
 21
144.4692705246211
 31
0.0
  0
ARC
  5
199
330
11A
100
AcDbEntity
  8
Skizziergeometrie (ISO)
 62
   242
420
 13640771
370
     9
100
AcDbCircle
 10
250.2055390241711
 20
143.7748975342685
 30
0.0
 40
1.78553054662284
100
AcDbArc
 50
22.88538047613576
 51
157.1146195238642
  0
LINE
  5
19A
330
11A
100
AcDbEntity
  8
Skizziergeometrie (ISO)
 62
   242
420
 13640771
370
     9
100
AcDbLine
 10
248.5221246807924
 20
143.1797206853938
 30
0.0
 11
253.3235184966065
 21
143.1797206853938
 31
0.0
  0
ARC
  5
19B
330
11A
100
AcDbEntity
  8
Skizziergeometrie (ISO)
 62
   242
420
 13640771
370
     9
100
AcDbCircle
 10
250.2055390241711
 20
143.7748975342685
 30
0.0
 40
1.78553054662492
100
AcDbArc
 50
199.471220634486
 51
320.2909834469179
  0
ARC
  5
19C
330
11A
100
AcDbEntity
  8
Skizziergeometrie (ISO)
 62
   242
420
 13640771
370
     9
100
AcDbCircle
 10
250.2055390241711
 20
143.7748975342685
 30
0.0
 40
3.17427652733119
100
AcDbArc
 50
349.1930771251363
 51
338.9381823983304
  0
LINE
  5
19D
330
11A
100
AcDbEntity
  8
Titel (ISO)
100
AcDbLine
 10
281.9127883584023
 20
169.3382056155221
 30
0.0
 11
281.9127883584023
 21
162.5882056155222
 31
0.0
  0
LINE
  5
19E
330
11A
100
AcDbEntity
  8
Titel (ISO)
100
AcDbLine
 10
137.5127883584022
 20
152.3382056155222
 30
0.0
 11
145.0127883584023
 21
152.3382056155222
 31
0.0
  0
LINE
  5
19F
330
11A
100
AcDbEntity
  8
Titel (ISO)
100
AcDbLine
 10
145.0127883584023
 20
152.3382056155222
 30
0.0
 11
172.0127883584021
 21
152.3382056155222
 31
0.0
  0
LINE
  5
1A0
330
11A
100
AcDbEntity
  8
Titel (ISO)
100
AcDbLine
 10
172.0127883584021
 20
152.3382056155222
 30
0.0
 11
182.6127883584021
 21
152.3382056155222
 31
0.0
  0
LINE
  5
1A1
330
11A
100
AcDbEntity
  8
Titel (ISO)
100
AcDbLine
 10
182.6127883584021
 20
152.3382056155222
 30
0.0
 11
182.6127883584021
 21
148.0882056155222
 31
0.0
  0
LINE
  5
1A2
330
11A
100
AcDbEntity
  8
Titel (ISO)
100
AcDbLine
 10
192.1127883584023
 20
148.0882056155222
 30
0.0
 11
182.6127883584021
 21
148.0882056155222
 31
0.0
  0
LINE
  5
1A3
330
11A
100
AcDbEntity
  8
Titel (ISO)
100
AcDbLine
 10
236.3127883584021
 20
118.3382056155221
 30
0.0
 11
311.7127883584024
 21
118.3382056155221
 31
0.0
  0
LINE
  5
1A4
330
11A
100
AcDbEntity
  8
Titel (ISO)
100
AcDbLine
 10
202.5127883584021
 20
152.3382056155222
 30
0.0
 11
202.5127883584022
 21
149.0882056155222
 31
0.0
  0
LINE
  5
1A5
330
11A
100
AcDbEntity
  8
Titel (ISO)
100
AcDbLine
 10
202.5127883584022
 20
149.0882056155222
 30
0.0
 11
202.5127883584022
 21
145.4048899025636
 31
0.0
  0
LINE
  5
1A6
330
11A
100
AcDbEntity
  8
Titel (ISO)
100
AcDbLine
 10
202.5127883584022
 20
142.8382056155222
 30
0.0
 11
202.5127883584022
 21
140.5882056155222
 31
0.0
  0
LINE
  5
1A7
330
11A
100
AcDbEntity
  8
Titel (ISO)
100
AcDbLine
 10
137.5127883584022
 20
152.3382056155222
 30
0.0
 11
137.5127883584022
 21
148.0882056155222
 31
0.0
  0
LINE
  5
1A8
330
11A
100
AcDbEntity
  8
Titel (ISO)
100
AcDbLine
 10
137.5127883584022
 20
148.0882056155222
 30
0.0
 11
137.5127883584022
 21
143.8382056155222
 31
0.0
  0
LINE
  5
1A9
330
11A
100
AcDbEntity
  8
Titel (ISO)
100
AcDbLine
 10
137.5127883584022
 20
143.8382056155222
 30
0.0
 11
137.5127883584022
 21
139.5882056155222
 31
0.0
  0
LINE
  5
1AA
330
11A
100
AcDbEntity
  8
Titel (ISO)
100
AcDbLine
 10
137.5127883584022
 20
139.5882056155222
 30
0.0
 11
137.5127883584022
 21
135.3382056155222
 31
0.0
  0
LINE
  5
1AB
330
11A
100
AcDbEntity
  8
Titel (ISO)
100
AcDbLine
 10
137.5127883584022
 20
135.3382056155222
 30
0.0
 11
137.5127883584022
 21
131.0882056155222
 31
0.0
  0
LINE
  5
1AC
330
11A
100
AcDbEntity
  8
Titel (ISO)
100
AcDbLine
 10
137.5127883584022
 20
131.0882056155222
 30
0.0
 11
137.5127883584022
 21
126.8382056155221
 31
0.0
  0
LINE
  5
1AD
330
11A
100
AcDbEntity
  8
Titel (ISO)
100
AcDbLine
 10
137.5127883584022
 20
126.8382056155221
 30
0.0
 11
137.5127883584022
 21
122.5882056155221
 31
0.0
  0
LINE
  5
1AE
330
11A
100
AcDbEntity
  8
Titel (ISO)
100
AcDbLine
 10
137.5127883584022
 20
122.5882056155221
 30
0.0
 11
137.5127883584022
 21
118.3382056155221
 31
0.0
  0
LINE
  5
1AF
330
11A
100
AcDbEntity
  8
Titel (ISO)
100
AcDbLine
 10
137.5127883584022
 20
118.3382056155221
 30
0.0
 11
137.5127883584022
 21
114.0882056155221
 31
0.0
  0
LINE
  5
1B0
330
11A
100
AcDbEntity
  8
Titel (ISO)
100
AcDbLine
 10
236.3127883584021
 20
131.0882056155222
 30
0.0
 11
236.3127883584021
 21
118.3382056155221
 31
0.0
  0
LINE
  5
1B1
330
11A
100
AcDbEntity
  8
Titel (ISO)
100
AcDbLine
 10
192.1127883584023
 20
118.3382056155221
 30
0.0
 11
192.1127883584023
 21
114.0882056155221
 31
0.0
  0
LINE
  5
1B2
330
11A
100
AcDbEntity
  8
Titel (ISO)
100
AcDbLine
 10
236.3127883584021
 20
169.3382056155221
 30
0.0
 11
236.3127883584021
 21
162.5882056155222
 31
0.0
  0
LINE
  5
1B3
330
11A
100
AcDbEntity
  8
Titel (ISO)
100
AcDbLine
 10
218.1127883584023
 20
169.3382056155221
 30
0.0
 11
236.3127883584021
 21
169.3382056155221
 31
0.0
  0
LINE
  5
1B4
330
11A
100
AcDbEntity
  8
Titel (ISO)
100
AcDbLine
 10
192.1127883584023
 20
148.0882056155222
 30
0.0
 11
202.5127883584021
 21
148.0882056155222
 31
0.0
  0
LINE
  5
1B5
330
11A
100
AcDbEntity
  8
Titel (ISO)
100
AcDbLine
 10
192.1127883584023
 20
148.0882056155222
 30
0.0
 11
192.1127883584023
 21
143.8382056155222
 31
0.0
  0
LINE
  5
1B6
330
11A
100
AcDbEntity
  8
Titel (ISO)
100
AcDbLine
 10
202.5127883584021
 20
143.8382056155222
 30
0.0
 11
202.5127883584021
 21
139.5882056155222
 31
0.0
  0
TEXT
  5
1B8
330
11A
100
AcDbEntity
  8
Titel (ISO)
100
AcDbText
 10
239.0576584647692
 20
126.9673826906516
 30
0.0
 40
2.5
  1
Benennung
  7
Textstil91
 72
     1
 11
248.6611714811056
 21
128.2173826906516
 31
0.0
100
AcDbText
 73
     2
  0
MTEXT
  5
1BB
330
11A
100
AcDbEntity
  8
Titel (ISO)
100
AcDbMText
 10
237.7860525909858
 20
117.5074129338006
 30
0.0
 40
2.000000029802321
 41
26.70426845550537
 46
0.0
 71
     1
 72
     1
  1
\fArial|b1|i0;\H2.0000;Zeichnungsnummer
  7
Notiztext (DIN)
 73
     1
 44
1.0
  0
MTEXT
  5
1BD
330
11A
100
AcDbEntity
  8
Titel (ISO)
100
AcDbMText
 10
288.7221859486278
 20
165.963205690028
 30
0.0
 40
2.5
 41
8.898102374642247
 46
0.0
 71
     5
 72
     1
  1
\fArial|b1|i0;\H2.5000;Mat.:
  7
Notiztext (DIN)
 73
     1
 44
1.0
  0
MTEXT
  5
1BE
330
11A
100
AcDbEntity
  8
Titel (ISO)
100
AcDbMText
 10
244.9733924311281
 20
165.9632056155222
 30
0.0
 40
2.5
 41
15.32774329185486
 46
0.0
 71
     5
 72
     1
  1
\fArial|b1|i0;\H2.5000;Maßstab:
  7
Notiztext (DIN)
 73
     1
 44
1.0
  0
MTEXT
  5
1BF
330
11A
100
AcDbEntity
  8
Titel (ISO)
100
AcDbMText
 10
227.2127883584022
 20
160.8850043886321
 30
0.0
 40
1.800000071525573
 41
14.41225028934489
 46
0.0
 71
     5
 72
     1
  1
\fArial|b1|i0;\H1.8000;all\Pdimensions\P[mm]
  7
Notiztext (DIN)
 73
     2
 44
0.9442214965820312
  0
TEXT
  5
1C1
330
11A
100
AcDbEntity
  8
Titel (ISO)
100
AcDbText
 10
205.9662671223584
 20
149.4531826526857
 30
0.0
 40
2.000000029802321
  1
Datum
  7
Textstil94
 72
     1
 11
210.3127883584022
 21
149.193973916073
 31
0.0
100
AcDbText
 73
     1
  0
TEXT
  5
1C2
330
11A
100
AcDbEntity
  8
Titel (ISO)
100
AcDbText
 10
223.4078769562283
 20
149.4531826526857
 30
0.0
 40
2.000000029802321
  1
Name
  7
Textstil94
 72
     1
 11
227.2127883584022
 21
149.193973916073
 31
0.0
100
AcDbText
 73
     1
  0
TEXT
  5
1C4
330
11A
100
AcDbEntity
  8
Titel (ISO)
100
AcDbText
 10
192.9291407012697
 20
145.3632056289332
 30
0.0
 40
1.199999973177909
  1
Gezeichnet
  7
Textstil105
 72
     1
 11
197.4009005182066
 21
145.9632056155222
 31
0.0
100
AcDbText
 73
     2
  0
TEXT
  5
1C5
330
11A
100
AcDbEntity
  8
Titel (ISO)
100
AcDbText
 10
192.8708276292089
 20
141.0861068043681
 30
0.0
 40
1.199999973177909
  1
Kontrolliert
  7
Textstil105
 11
192.8708276292089
 21
140.9305815681942
 31
0.0
100
AcDbText
 73
     1
  0
TEXT
  5
1C6
330
11A
100
AcDbEntity
  8
Titel (ISO)
100
AcDbText
 10
192.8851600792527
 20
136.8229567039743
 30
0.0
 40
1.199999973177909
  1
Norm
  7
Textstil105
 11
192.8851600792527
 21
136.6674314678004
 31
0.0
100
AcDbText
 73
     1
  0
TEXT
  5
1C7
330
11A
100
AcDbEntity
  8
Titel (ISO)
100
AcDbText
 10
193.8939368309821
 20
126.9673826906517
 30
0.0
 40
2.5
  1
Projekt
  7
Textstil91
 72
     1
 11
199.8139573292884
 21
128.2173826906517
 31
0.0
100
AcDbText
 73
     2
  0
MTEXT
  5
1C8
330
11A
100
AcDbEntity
  8
Titel (ISO)
100
AcDbMText
 10
193.2211565676084
 20
117.2459800067279
 30
0.0
 40
2.000000029802321
 41
9.780488014221331
 46
0.0
 71
     1
 72
     1
  1
\fArial|b1|i0;\H2.0000;Ers. für
  7
Notiztext (DIN)
 73
     1
 44
1.0
  0
MTEXT
  5
1C9
330
11A
100
AcDbEntity
  8
Titel (ISO)
100
AcDbMText
 10
139.0940728591497
 20
167.9495696034075
 30
0.0
 40
2.5
 41
25.80983161926269
 46
0.0
 71
     1
 72
     1
  1
\fArial|b1|i0;\H2.5000;Artikelnummer:
  7
Notiztext (DIN)
 73
     1
 44
1.0
  0
TEXT
  5
1CB
330
11A
100
AcDbEntity
  8
Titel (ISO)
100
AcDbText
 10
184.5091047358997
 20
115.4632055857198
 30
0.0
 40
1.500000059604644
  1
Name
  7
Textstil107
 72
     1
 11
187.3627883584022
 21
116.2132056155221
 31
0.0
100
AcDbText
 73
     2
  0
TEXT
  5
1CC
330
11A
100
AcDbEntity
  8
Titel (ISO)
100
AcDbText
 10
174.0528973504091
 20
115.4632055857198
 30
0.0
 40
1.500000059604644
  1
Datum
  7
Textstil107
 72
     1
 11
177.3127883584022
 21
116.2132056155221
 31
0.0
100
AcDbText
 73
     2
  0
TEXT
  5
1CD
330
11A
100
AcDbEntity
  8
Titel (ISO)
100
AcDbText
 10
152.3429381455341
 20
115.4632055857198
 30
0.0
 40
1.500000059604644
  1
Änderungen
  7
Textstil107
 72
     1
 11
158.5127883584023
 21
116.2132056155221
 31
0.0
100
AcDbText
 73
     2
  0
TEXT
  5
1CE
330
11A
100
AcDbEntity
  8
Titel (ISO)
100
AcDbText
 10
138.060707721392
 20
115.4632055857198
 30
0.0
 40
1.500000059604644
  1
Status
  7
Textstil107
 72
     1
 11
141.2627883584022
 21
116.2132056155221
 31
0.0
100
AcDbText
 73
     2
  0
MTEXT
  5
1CF
330
11A
100
AcDbEntity
  8
Titel (ISO)
100
AcDbMText
 10
205.1127883584022
 20
160.5440745190697
 30
0.0
 40
1.800000071525573
 41
24.15695313319206
 46
0.0
 71
     5
 72
     1
  1
\fArial|b1|i0;\H1.8000;Allgemeintoleranz/\Pgeneral tolerance\PDIN ISO 2768-mK
  7
Notiztext (DIN)
 73
     2
 44
0.9442214965820312
  0
MTEXT
  5
1D0
102
{ACAD_XDICTIONARY
360
634
102
}
330
11A
100
AcDbEntity
  8
Titel (ISO)
100
AcDbMText
 10
274.2620663553609
 20
145.2581066594439
 30
0.0
 40
2.5
 41
52.19999999999998
 46
0.0
 71
     1
 72
     1
  1
{\fArial|b1|i0|c0|p34;\H0.8x;perma-tec\H0.5x; \fArial|b0|i0|c0|p34;\H1.5x;GmbH & Co. KG\P\H0.96667x;Hammelburger Str.21                      Tel. : +49 9704 609-0\H1.5316x; \H0.65293x;\P97717 EUERDORF / GERMANY    Fax : +49 9704 609-50\H1.3341x; }
  7
Notiztext (DIN)
 73
     1
 44
0.6820859909057618
  0
MTEXT
  5
1D1
330
11A
100
AcDbEntity
  8
Titel (ISO)
 62
     1
420
 16711680
100
AcDbMText
 10
139.5127883584022
 20
194.2450045593993
 30
0.0
 40
2.5
 41
56.20807647705078
 46
0.0
 71
     1
 72
     1
  1
\fArial|b1|i0;\H2.5000;spanfrei, gratfrei, \Ppartikelfrei (größer 0,2 mm)\Pkeine scharfen Kanten/\P\fArial|b1|i1;\H2.5000;free of burrs and swarfs\Pno particles (greater than 0.2 mm)\Pno sharp edges
  7
Notiztext (DIN)
 73
     2
 44
0.9442214965820312
  0
MTEXT
  5
1D2
330
11A
100
AcDbEntity
  8
Titel (ISO)
 62
     1
420
 16711680
100
AcDbMText
 10
232.5127883584023
 20
227.9419352211969
 30
0.0
 40
3.000000119209288
 41
132.5099182128906
 46
0.0
 71
     2
 72
     1
  1
\fArial|b1|i0;\H3.0000;Bauteil kann in Details geringfügig von der Zeichnung abweichen./\P\fArial|b1|i1;\H3.0000;Part may be slightly different than shown in the drawing.
  7
Notiztext (DIN)
 73
     2
 44
0.9442214965820312
  0
ATTDEF
  5
1D3
102
{ACAD_XDICTIONARY
360
636
102
}
330
11A
100
AcDbEntity
  8
Titel (ISO)
100
AcDbText
 10
317.4151665002902
 20
119.9107299359875
 30
0.0
 40
2.5
  1
A4
  7
Notiztext (DIN)
100
AcDbAttributeDefinition
280
     0
  3
Blattgröße
  2
Blattgröße_001
 70
     0
280
     0
  0
ATTDEF
  5
1D6
102
{ACAD_XDICTIONARY
360
639
102
}
330
11A
100
AcDbEntity
  8
Titel (ISO)
100
AcDbText
 10
318.5706223294316
 20
125.0802934428787
 30
0.0
 40
5.0
  1
1
  7
Textstil106
100
AcDbAttributeDefinition
280
     0
  3
Blattnummer
  2
Blattnummer_001
 70
     0
280
     0
  0
ATTDEF
  5
1D8
102
{ACAD_XDICTIONARY
360
63C
102
}
330
11A
100
AcDbEntity
  8
Titel (ISO)
100
AcDbText
 10
140.3247255598686
 20
119.5632055745206
 30
0.0
 40
1.800000071525573
  1
B
  7
Textstil104
100
AcDbAttributeDefinition
280
     0
  3
Status1
  2
Status1_001
 70
     0
280
     0
  0
ATTDEF
  5
1D9
102
{ACAD_XDICTIONARY
360
63F
102
}
330
11A
100
AcDbEntity
  8
Titel (ISO)
100
AcDbText
 10
151.209087400652
 20
119.8124552448117
 30
0.0
 40
1.800000071525573
  1
Text ergänzt
  7
Textstil104
100
AcDbAttributeDefinition
280
     0
  3
Änderungen1
  2
Änderungen1_001
 70
     0
280
     0
  0
ATTDEF
  5
1DA
102
{ACAD_XDICTIONARY
360
642
102
}
330
11A
100
AcDbEntity
  8
Titel (ISO)
100
AcDbText
 10
172.4413693097345
 20
119.5748699679578
 30
0.0
 40
1.800000071525573
  1
21.11.13
  7
Textstil104
100
AcDbAttributeDefinition
280
     0
  3
Datum1
  2
Datum1_001
 70
     0
280
     0
  0
ATTDEF
  5
1DB
102
{ACAD_XDICTIONARY
360
645
102
}
330
11A
100
AcDbEntity
  8
Titel (ISO)
100
AcDbText
 10
183.6909600874404
 20
119.5779395451782
 30
0.0
 40
1.800000071525573
  1
Bader
  7
Textstil104
100
AcDbAttributeDefinition
280
     0
  3
Name1
  2
Name1_001
 70
     0
280
     0
  0
ATTDEF
  5
1DC
102
{ACAD_XDICTIONARY
360
648
102
}
330
11A
100
AcDbEntity
  8
Titel (ISO)
100
AcDbText
 10
140.3247255598685
 20
123.8132055745206
 30
0.0
 40
1.800000071525573
  1
B
  7
Textstil104
100
AcDbAttributeDefinition
280
     0
  3
Status2
  2
Status2_001
 70
     0
280
     0
  0
ATTDEF
  5
1DD
102
{ACAD_XDICTIONARY
360
64B
102
}
330
11A
100
AcDbEntity
  8
Titel (ISO)
100
AcDbText
 10
151.5418295713361
 20
123.8138194899647
 30
0.0
 40
1.800000071525573
  1
SW entfernt
  7
Textstil104
100
AcDbAttributeDefinition
280
     0
  3
Änderungen2
  2
Änderungen2_001
 70
     0
280
     0
  0
ATTDEF
  5
1DE
102
{ACAD_XDICTIONARY
360
64E
102
}
330
11A
100
AcDbEntity
  8
Titel (ISO)
100
AcDbText
 10
172.4413693097345
 20
123.8248699679578
 30
0.0
 40
1.800000071525573
  1
21.11.13
  7
Textstil104
100
AcDbAttributeDefinition
280
     0
  3
Datum2
  2
Datum2_001
 70
     0
280
     0
  0
ATTDEF
  5
1DF
102
{ACAD_XDICTIONARY
360
651
102
}
330
11A
100
AcDbEntity
  8
Titel (ISO)
100
AcDbText
 10
183.6909600874405
 20
123.8279395451782
 30
0.0
 40
1.800000071525573
  1
Bader
  7
Textstil104
100
AcDbAttributeDefinition
280
     0
  3
Name2
  2
Name2_001
 70
     0
280
     0
  0
ATTDEF
  5
1E0
102
{ACAD_XDICTIONARY
360
654
102
}
330
11A
100
AcDbEntity
  8
Titel (ISO)
100
AcDbText
 10
140.3247255598685
 20
128.0632055745207
 30
0.0
 40
1.800000071525573
  1
B
  7
Textstil104
100
AcDbAttributeDefinition
280
     0
  3
Status3
  2
Status3_001
 70
     0
280
     0
  0
ATTDEF
  5
1E1
102
{ACAD_XDICTIONARY
360
657
102
}
330
11A
100
AcDbEntity
  8
Titel (ISO)
100
AcDbText
 10
148.8706834742027
 20
128.0625916590766
 30
0.0
 40
1.800000071525573
  1
Maß in max.Maß
  7
Textstil104
100
AcDbAttributeDefinition
280
     0
  3
Änderungen3
  2
Änderungen3_001
 70
     0
280
     0
  0
ATTDEF
  5
1E2
102
{ACAD_XDICTIONARY
360
65A
102
}
330
11A
100
AcDbEntity
  8
Titel (ISO)
100
AcDbText
 10
172.4413693097345
 20
128.074869967958
 30
0.0
 40
1.800000071525573
  1
21.11.13
  7
Textstil104
100
AcDbAttributeDefinition
280
     0
  3
Datum3
  2
Datum3_001
 70
     0
280
     0
  0
ATTDEF
  5
1E3
102
{ACAD_XDICTIONARY
360
65D
102
}
330
11A
100
AcDbEntity
  8
Titel (ISO)
100
AcDbText
 10
183.6909600874405
 20
128.0779395451783
 30
0.0
 40
1.800000071525573
  1
Bader
  7
Textstil104
100
AcDbAttributeDefinition
280
     0
  3
Name3
  2
Name3_001
 70
     0
280
     0
  0
ATTDEF
  5
1E4
102
{ACAD_XDICTIONARY
360
660
102
}
330
11A
100
AcDbEntity
  8
Titel (ISO)
100
AcDbText
 10
140.3247255598686
 20
132.3132055745207
 30
0.0
 40
1.800000071525573
  1
B
  7
Textstil104
100
AcDbAttributeDefinition
280
     0
  3
Status4
  2
Status4_001
 70
     0
280
     0
  0
ATTDEF
  5
1E5
102
{ACAD_XDICTIONARY
360
663
102
}
330
11A
100
AcDbEntity
  8
Titel (ISO)
100
AcDbText
 10
148.587054539044
 20
132.3279395451783
 30
0.0
 40
1.800000071525573
  1
Art.Nr. neu hinzu
  7
Textstil104
100
AcDbAttributeDefinition
280
     0
  3
Änderungen4
  2
Änderungen4_001
 70
     0
280
     0
  0
ATTDEF
  5
1E6
102
{ACAD_XDICTIONARY
360
666
102
}
330
11A
100
AcDbEntity
  8
Titel (ISO)
100
AcDbText
 10
172.4413693097345
 20
132.324869967958
 30
0.0
 40
1.800000071525573
  1
21.11.13
  7
Textstil104
100
AcDbAttributeDefinition
280
     0
  3
Datum4
  2
Datum4_001
 70
     0
280
     0
  0
ATTDEF
  5
1E7
102
{ACAD_XDICTIONARY
360
669
102
}
330
11A
100
AcDbEntity
  8
Titel (ISO)
100
AcDbText
 10
183.6909600874404
 20
132.3279395451783
 30
0.0
 40
1.800000071525573
  1
Bader
  7
Textstil104
100
AcDbAttributeDefinition
280
     0
  3
Name4
  2
Name4_001
 70
     0
280
     0
  0
ATTDEF
  5
1E8
102
{ACAD_XDICTIONARY
360
66C
102
}
330
11A
100
AcDbEntity
  8
Titel (ISO)
100
AcDbText
 10
141.2627883584022
 20
136.5632055797594
 30
0.0
 40
1.800000071525573
  1

  7
Textstil104
 72
     1
 11
141.2627883584022
 21
137.4632056155222
 31
0.0
100
AcDbAttributeDefinition
280
     0
  3
Status5
  2
Status5
 70
     0
 74
     2
280
     0
  0
ATTDEF
  5
1E9
102
{ACAD_XDICTIONARY
360
66F
102
}
330
11A
100
AcDbEntity
  8
Titel (ISO)
100
AcDbText
 10
158.6264137958634
 20
136.5632055797594
 30
0.0
 40
1.800000071525573
  1

  7
Textstil104
 72
     1
 11
158.6264137958634
 21
137.4632056155222
 31
0.0
100
AcDbAttributeDefinition
280
     0
  3
Änderungen5
  2
Änderungen5
 70
     0
 74
     2
280
     0
  0
ATTDEF
  5
1EA
102
{ACAD_XDICTIONARY
360
672
102
}
330
11A
100
AcDbEntity
  8
Titel (ISO)
100
AcDbText
 10
177.3127883584022
 20
136.5632055797594
 30
0.0
 40
1.800000071525573
  1

  7
Textstil104
 72
     1
 11
177.3127883584022
 21
137.4632056155222
 31
0.0
100
AcDbAttributeDefinition
280
     0
  3
Datum5
  2
Datum5
 70
     0
 74
     2
280
     0
  0
ATTDEF
  5
1EB
102
{ACAD_XDICTIONARY
360
675
102
}
330
11A
100
AcDbEntity
  8
Titel (ISO)
100
AcDbText
 10
187.3627883584022
 20
136.5632055797594
 30
0.0
 40
1.800000071525573
  1

  7
Textstil104
 72
     1
 11
187.3627883584022
 21
137.4632056155222
 31
0.0
100
AcDbAttributeDefinition
280
     0
  3
Name5
  2
Name5
 70
     0
 74
     2
280
     0
  0
ATTDEF
  5
1EC
102
{ACAD_XDICTIONARY
360
678
102
}
330
11A
100
AcDbEntity
  8
Titel (ISO)
100
AcDbText
 10
141.2627883584022
 20
140.8132055797594
 30
0.0
 40
1.800000071525573
  1

  7
Textstil104
 72
     1
 11
141.2627883584022
 21
141.7132056155222
 31
0.0
100
AcDbAttributeDefinition
280
     0
  3
Status6
  2
Status6
 70
     0
 74
     2
280
     0
  0
ATTDEF
  5
1ED
102
{ACAD_XDICTIONARY
360
67B
102
}
330
11A
100
AcDbEntity
  8
Titel (ISO)
100
AcDbText
 10
158.6264137958634
 20
140.8132055797594
 30
0.0
 40
1.800000071525573
  1

  7
Textstil104
 72
     1
 11
158.6264137958634
 21
141.7132056155222
 31
0.0
100
AcDbAttributeDefinition
280
     0
  3
Änderungen6
  2
Änderungen6
 70
     0
 74
     2
280
     0
  0
ATTDEF
  5
1EE
102
{ACAD_XDICTIONARY
360
67E
102
}
330
11A
100
AcDbEntity
  8
Titel (ISO)
100
AcDbText
 10
177.3127883584022
 20
140.8132055797594
 30
0.0
 40
1.800000071525573
  1

  7
Textstil104
 72
     1
 11
177.3127883584022
 21
141.7132056155222
 31
0.0
100
AcDbAttributeDefinition
280
     0
  3
Datum6
  2
Datum6
 70
     0
 74
     2
280
     0
  0
ATTDEF
  5
1EF
102
{ACAD_XDICTIONARY
360
681
102
}
330
11A
100
AcDbEntity
  8
Titel (ISO)
100
AcDbText
 10
187.3627883584022
 20
140.8132055797594
 30
0.0
 40
1.800000071525573
  1

  7
Textstil104
 72
     1
 11
187.3627883584022
 21
141.7132056155222
 31
0.0
100
AcDbAttributeDefinition
280
     0
  3
Name6
  2
Name6
 70
     0
 74
     2
280
     0
  0
ATTDEF
  5
1F0
102
{ACAD_XDICTIONARY
360
684
102
}
330
11A
100
AcDbEntity
  8
Titel (ISO)
100
AcDbText
 10
141.2627883584022
 20
145.0632055797594
 30
0.0
 40
1.800000071525573
  1

  7
Textstil104
 72
     1
 11
141.2627883584022
 21
145.9632056155222
 31
0.0
100
AcDbAttributeDefinition
280
     0
  3
Status7
  2
Status7
 70
     0
 74
     2
280
     0
  0
ATTDEF
  5
1F1
102
{ACAD_XDICTIONARY
360
687
102
}
330
11A
100
AcDbEntity
  8
Titel (ISO)
100
AcDbText
 10
158.6264137958634
 20
145.0632055797594
 30
0.0
 40
1.800000071525573
  1

  7
Textstil104
 72
     1
 11
158.6264137958634
 21
145.9632056155222
 31
0.0
100
AcDbAttributeDefinition
280
     0
  3
Änderungen7
  2
Änderungen7
 70
     0
 74
     2
280
     0
  0
ATTDEF
  5
1F2
102
{ACAD_XDICTIONARY
360
68A
102
}
330
11A
100
AcDbEntity
  8
Titel (ISO)
100
AcDbText
 10
177.3127883584022
 20
145.0632055797594
 30
0.0
 40
1.800000071525573
  1

  7
Textstil104
 72
     1
 11
177.3127883584022
 21
145.9632056155222
 31
0.0
100
AcDbAttributeDefinition
280
     0
  3
Datum7
  2
Datum7
 70
     0
 74
     2
280
     0
  0
ATTDEF
  5
1F3
102
{ACAD_XDICTIONARY
360
68D
102
}
330
11A
100
AcDbEntity
  8
Titel (ISO)
100
AcDbText
 10
187.3627883584022
 20
145.0632055797594
 30
0.0
 40
1.800000071525573
  1

  7
Textstil104
 72
     1
 11
187.3627883584022
 21
145.9632056155222
 31
0.0
100
AcDbAttributeDefinition
280
     0
  3
Name7
  2
Name7
 70
     0
 74
     2
280
     0
  0
ATTDEF
  5
1F4
102
{ACAD_XDICTIONARY
360
690
102
}
330
11A
100
AcDbEntity
  8
Titel (ISO)
100
AcDbText
 10
141.2627883584022
 20
149.3132055797594
 30
0.0
 40
1.800000071525573
  1

  7
Textstil104
 72
     1
 11
141.2627883584022
 21
150.2132056155222
 31
0.0
100
AcDbAttributeDefinition
280
     0
  3
Status8
  2
Status8
 70
     0
 74
     2
280
     0
  0
ATTDEF
  5
1F5
102
{ACAD_XDICTIONARY
360
693
102
}
330
11A
100
AcDbEntity
  8
Titel (ISO)
100
AcDbText
 10
158.6264137958634
 20
149.3132055797594
 30
0.0
 40
1.800000071525573
  1

  7
Textstil104
 72
     1
 11
158.6264137958634
 21
150.2132056155222
 31
0.0
100
AcDbAttributeDefinition
280
     0
  3
Änderungen8
  2
Änderungen8
 70
     0
 74
     2
280
     0
  0
ATTDEF
  5
1F6
102
{ACAD_XDICTIONARY
360
696
102
}
330
11A
100
AcDbEntity
  8
Titel (ISO)
100
AcDbText
 10
177.3127883584022
 20
149.3132055797594
 30
0.0
 40
1.800000071525573
  1

  7
Textstil104
 72
     1
 11
177.3127883584022
 21
150.2132056155222
 31
0.0
100
AcDbAttributeDefinition
280
     0
  3
Datum8
  2
Datum8
 70
     0
 74
     2
280
     0
  0
ATTDEF
  5
1F7
102
{ACAD_XDICTIONARY
360
699
102
}
330
11A
100
AcDbEntity
  8
Titel (ISO)
100
AcDbText
 10
187.3627883584022
 20
149.3132055797594
 30
0.0
 40
1.800000071525573
  1

  7
Textstil104
 72
     1
 11
187.3627883584022
 21
150.2132056155222
 31
0.0
100
AcDbAttributeDefinition
280
     0
  3
Name8
  2
Name8
 70
     0
 74
     2
280
     0
  0
ATTDEF
  5
1F9
102
{ACAD_XDICTIONARY
360
69C
102
}
330
11A
100
AcDbEntity
  8
Titel (ISO)
100
AcDbText
 10
156.5713150537833
 20
158.8620801562781
 30
0.0
 40
3.499999940395355
  1
101448
  7
Textstil89
100
AcDbAttributeDefinition
280
     0
  3
Artikelnummer neu
  2
Artikelnummer_neu_001
 70
     0
280
     0
  0
ATTDEF
  5
1FA
102
{ACAD_XDICTIONARY
360
69F
102
}
330
11A
100
AcDbEntity
  8
Titel (ISO)
100
AcDbText
 10
154.9091389146708
 20
153.7955725857152
 30
0.0
 40
2.5
  1
(26.003.906)
  7
Textstil91
100
AcDbAttributeDefinition
280
     0
  3
Artikelnummer alt
  2
Artikelnummer_alt_001
 70
     0
280
     0
  0
ATTDEF
  5
1FC
102
{ACAD_XDICTIONARY
360
6A2
102
}
330
11A
100
AcDbEntity
  8
Titel (ISO)
100
AcDbText
 10
296.8571742036791
 20
164.9042014745075
 30
0.0
 40
3.000000119209288
  1
Messing vern.
  7
Textstil103
100
AcDbAttributeDefinition
280
     0
  3
Material
  2
Material_001
 70
     0
280
     0
  0
ATTDEF
  5
1FD
102
{ACAD_XDICTIONARY
360
6A5
102
}
330
11A
100
AcDbEntity
  8
Titel (ISO)
100
AcDbText
 10
258.3187040011579
 20
164.878621664338
 30
0.0
 40
3.000000119209288
  1
2:1 (1:1)
  7
Textstil103
100
AcDbAttributeDefinition
280
     0
  3
Maßstab
  2
Maßstab_001
 70
     0
280
     0
  0
ATTDEF
  5
1FE
102
{ACAD_XDICTIONARY
360
6A8
102
}
330
11A
100
AcDbEntity
  8
Titel (ISO)
100
AcDbText
 10
205.4413693097346
 20
145.074869967958
 30
0.0
 40
1.800000071525573
  1
21.11.13
  7
Textstil104
100
AcDbAttributeDefinition
280
     0
  3
Gezeichnet Datum
  2
Gezeichnet_Datum_001
 70
     0
280
     0
  0
ATTDEF
  5
1FF
102
{ACAD_XDICTIONARY
360
6AB
102
}
330
11A
100
AcDbEntity
  8
Titel (ISO)
100
AcDbText
 10
223.5409600874405
 20
145.0779395451783
 30
0.0
 40
1.800000071525573
  1
Bader
  7
Textstil104
100
AcDbAttributeDefinition
280
     0
  3
Gezeichnet Name
  2
Gezeichnet_Name_001
 70
     0
280
     0
  0
ATTDEF
  5
201
102
{ACAD_XDICTIONARY
360
6AE
102
}
330
11A
100
AcDbEntity
  8
Titel (ISO)
100
AcDbText
 10
274.0127883584021
 20
120.737839611287
 30
0.0
 40
4.000000059604643
  1

  7
Textstil102
 72
     1
 11
274.0127883584021
 21
122.7378396410893
 31
0.0
100
AcDbAttributeDefinition
280
     0
  3
Benennung
  2
Benennung
 70
     0
 74
     2
280
     0
  0
ATTDEF
  5
202
102
{ACAD_XDICTIONARY
360
6B1
102
}
330
11A
100
AcDbEntity
  8
Titel (ISO)
100
AcDbText
 10
267.5016718628334
 20
114.9632056082461
 30
0.0
 40
2.5
  1
AN GEA 24 B
  7
Textstil91
100
AcDbAttributeDefinition
280
     0
  3
Zeichnungsnummer
  2
Zeichnungsnummer_001
 70
     0
280
     0
  0
ATTDEF
  5
203
102
{ACAD_XDICTIONARY
360
6B4
102
}
330
11A
100
AcDbEntity
  8
Titel (ISO)
100
AcDbText
 10
209.200404387416
 20
114.9632056082461
 30
0.0
 40
2.5
  1
AN GEA 24 A
  7
Textstil91
100
AcDbAttributeDefinition
280
     0
  3
Ers. für
  2
Ers._für_001
 70
     0
280
     0
  0
ATTDEF
  5
204
102
{ACAD_XDICTIONARY
360
6B7
102
}
330
11A
100
AcDbEntity
  8
Titel (ISO)
100
AcDbText
 10
194.5961440228488
 20
120.770581755849
 30
0.0
 40
4.000000059604643
  1
Anschlussteile
  7
Textstil102
100
AcDbAttributeDefinition
280
     0
  3
Projekt
  2
Projekt_001
 70
     0
280
     0
  0
ATTDEF
  5
205
102
{ACAD_XDICTIONARY
360
6BA
102
}
330
11A
100
AcDbEntity
  8
Titel (ISO)
100
AcDbText
 10
205.4413693097347
 20
140.824869967958
 30
0.0
 40
1.800000071525573
  1
21.11.13
  7
Textstil104
100
AcDbAttributeDefinition
280
     0
  3
Kontroll Datum
  2
Kontroll_Datum_001
 70
     0
280
     0
  0
ATTDEF
  5
206
102
{ACAD_XDICTIONARY
360
6BD
102
}
330
11A
100
AcDbEntity
  8
Titel (ISO)
100
AcDbText
 10
219.8660622392585
 20
140.8279395451783
 30
0.0
 40
1.800000071525573
  1
Hildenbrand
  7
Textstil104
100
AcDbAttributeDefinition
280
     0
  3
Kontroll  Name
  2
Kontroll__Name_001
 70
     0
280
     0
  0
ENDBLK
  5
11C
330
11A
100
AcDbEntity
  8
0
100
AcDbBlockEnd
  0
BLOCK
  5
28E
330
28D
100
AcDbEntity
  8
0
100
AcDbBlockBegin
  2
*D5
 70
     1
 10
0.0
 20
0.0
 30
0.0
  3
*D5
  1

  0
LINE
  5
35B
330
28D
100
AcDbEntity
  8
PERMA_ROT
440
 16777216
100
AcDbLine
 10
50.85729309221132
 20
97.92608322103845
 30
0.0
 11
40.00581270455795
 21
97.92608322103845
 31
0.0
  0
LINE
  5
35C
330
28D
100
AcDbEntity
  8
PERMA_ROT
440
 16777216
100
AcDbLine
 10
48.95729309221131
 20
124.5260832210384
 30
0.0
 11
40.00581270455796
 21
124.5260832210384
 31
0.0
  0
LINE
  5
35D
330
28D
100
AcDbEntity
  8
PERMA_ROT
440
 16777216
100
AcDbLine
 10
41.00581270455797
 20
99.17608322103845
 30
0.0
 11
41.00581270455797
 21
123.2760832210384
 31
0.0
  0
SOLID
  5
35E
330
28D
100
AcDbEntity
  8
PERMA_ROT
440
 16777216
100
AcDbTrace
 10
40.79747937122463
 20
99.17608322103845
 30
0.0
 11
41.21414603789129
 21
99.17608322103845
 31
0.0
 12
41.00581270455797
 22
97.92608322103845
 32
0.0
 13
41.00581270455797
 23
97.92608322103845
 33
0.0
  0
SOLID
  5
35F
330
28D
100
AcDbEntity
  8
PERMA_ROT
440
 16777216
100
AcDbTrace
 10
40.79747937122464
 20
123.2760832210384
 30
0.0
 11
41.21414603789131
 21
123.2760832210384
 31
0.0
 12
41.00581270455797
 22
124.5260832210384
 32
0.0
 13
41.00581270455797
 23
124.5260832210384
 33
0.0
  0
MTEXT
  5
360
330
28D
100
AcDbEntity
  8
PERMA_ROT
440
 16777216
100
AcDbMText
 10
39.52938022782391
 20
107.4897257640921
 30
0.0
 40
1.25
 41
0.0
 46
0.0
 71
     1
 72
     1
  1
\A1;max. 26.6
  7
Notiztext (DIN)
 11
0.0000000000000001
 21
1.0
 31
0.0
 73
     1
 44
1.0
  0
POINT
  5
361
330
28D
100
AcDbEntity
  8
Defpoints
 62
     0
440
 16777216
100
AcDbPoint
 10
50.85729309221132
 20
97.92608322103845
 30
0.0
  0
POINT
  5
362
330
28D
100
AcDbEntity
  8
Defpoints
 62
     0
440
 16777216
100
AcDbPoint
 10
48.95729309221131
 20
124.5260832210384
 30
0.0
  0
POINT
  5
363
330
28D
100
AcDbEntity
  8
Defpoints
 62
     0
440
 16777216
100
AcDbPoint
 10
41.00581270455797
 20
124.5260832210384
 30
0.0
  0
ENDBLK
  5
28F
330
28D
100
AcDbEntity
  8
0
100
AcDbBlockEnd
  0
BLOCK
  5
366
330
365
100
AcDbEntity
  8
0
100
AcDbBlockBegin
  2
*D6
 70
     1
 10
0.0
 20
0.0
 30
0.0
  3
*D6
  1

  0
LINE
  5
449
330
365
100
AcDbEntity
  8
Bemaßung (ISO)
440
 16777216
100
AcDbLine
 10
50.35729309221132
 20
98.42608322103844
 30
0.0
 11
50.35729309221132
 21
92.42608322103844
 31
0.0
  0
LINE
  5
44A
330
365
100
AcDbEntity
  8
Bemaßung (ISO)
440
 16777216
100
AcDbLine
 10
55.35729309221132
 20
98.42608322103844
 30
0.0
 11
55.35729309221132
 21
92.42608322103844
 31
0.0
  0
LINE
  5
44B
330
365
100
AcDbEntity
  8
Bemaßung (ISO)
440
 16777216
100
AcDbLine
 10
54.10729309221132
 20
93.42608322103844
 30
0.0
 11
51.60729309221132
 21
93.42608322103844
 31
0.0
  0
LINE
  5
44C
330
365
100
AcDbEntity
  8
Bemaßung (ISO)
440
 16777216
100
AcDbLine
 10
50.35729309221132
 20
93.42608322103844
 30
0.0
 11
45.13130215242198
 21
93.42608322103844
 31
0.0
  0
SOLID
  5
44D
330
365
100
AcDbEntity
  8
Bemaßung (ISO)
440
 16777216
100
AcDbTrace
 10
54.10729309221132
 20
93.63441655437176
 30
0.0
 11
54.10729309221132
 21
93.21774988770512
 31
0.0
 12
55.35729309221132
 22
93.42608322103844
 32
0.0
 13
55.35729309221132
 23
93.42608322103844
 33
0.0
  0
SOLID
  5
44E
330
365
100
AcDbEntity
  8
Bemaßung (ISO)
440
 16777216
100
AcDbTrace
 10
51.60729309221132
 20
93.63441655437176
 30
0.0
 11
51.60729309221132
 21
93.21774988770512
 31
0.0
 12
50.35729309221132
 22
93.42608322103844
 32
0.0
 13
50.35729309221132
 23
93.42608322103844
 33
0.0
  0
MTEXT
  5
44F
330
365
100
AcDbEntity
  8
Bemaßung (ISO)
440
 16777216
100
AcDbMText
 10
45.33130215242198
 20
94.89739973594188
 30
0.0
 40
1.25
 41
0.0
 46
0.0
 71
     1
 72
     1
  1
\A1;M5
  7
Notiztext (DIN)
 73
     1
 44
1.0
  0
POINT
  5
450
330
365
100
AcDbEntity
  8
Defpoints
 62
     0
440
 16777216
100
AcDbPoint
 10
50.35729309221132
 20
98.42608322103844
 30
0.0
  0
POINT
  5
451
330
365
100
AcDbEntity
  8
Defpoints
 62
     0
440
 16777216
100
AcDbPoint
 10
55.35729309221132
 20
98.42608322103844
 30
0.0
  0
POINT
  5
452
330
365
100
AcDbEntity
  8
Defpoints
 62
     0
440
 16777216
100
AcDbPoint
 10
55.35729309221132
 20
93.42608322103844
 30
0.0
  0
ENDBLK
  5
367
330
365
100
AcDbEntity
  8
0
100
AcDbBlockEnd
  0
BLOCK
  5
455
330
454
100
AcDbEntity
  8
0
100
AcDbBlockBegin
  2
*D7
 70
     1
 10
0.0
 20
0.0
 30
0.0
  3
*D7
  1

  0
LINE
  5
530
330
454
100
AcDbEntity
  8
Bemaßung (ISO)
440
 16777216
100
AcDbLine
 10
50.85729309221132
 20
97.92608322103845
 30
0.0
 11
43.56517013073387
 21
97.92608322103845
 31
0.0
  0
LINE
  5
531
330
454
100
AcDbEntity
  8
Bemaßung (ISO)
440
 16777216
100
AcDbLine
 10
48.81729309221132
 20
103.1260832210384
 30
0.0
 11
43.56517013073387
 21
103.1260832210384
 31
0.0
  0
LINE
  5
532
330
454
100
AcDbEntity
  8
Bemaßung (ISO)
440
 16777216
100
AcDbLine
 10
44.56517013073386
 20
99.17608322103845
 30
0.0
 11
44.56517013073386
 21
101.8760832210384
 31
0.0
  0
SOLID
  5
533
330
454
100
AcDbEntity
  8
Bemaßung (ISO)
440
 16777216
100
AcDbTrace
 10
44.35683679740054
 20
96.67608322103845
 30
0.0
 11
44.77350346406721
 21
96.67608322103845
 31
0.0
 12
44.56517013073386
 22
97.92608322103845
 32
0.0
 13
44.56517013073386
 23
97.92608322103845
 33
0.0
  0
LINE
  5
534
330
454
100
AcDbEntity
  8
Bemaßung (ISO)
440
 16777216
100
AcDbLine
 10
44.56517013073386
 20
96.67608322103845
 30
0.0
 11
44.56517013073386
 21
95.42608322103843
 31
0.0
  0
LINE
  5
535
330
454
100
AcDbEntity
  8
Bemaßung (ISO)
440
 16777216
100
AcDbLine
 10
44.56517013073386
 20
97.92608322103845
 30
0.0
 11
44.56517013073386
 21
99.17608322103845
 31
0.0
  0
SOLID
  5
536
330
454
100
AcDbEntity
  8
Bemaßung (ISO)
440
 16777216
100
AcDbTrace
 10
44.35683679740054
 20
104.3760832210384
 30
0.0
 11
44.77350346406721
 21
104.3760832210384
 31
0.0
 12
44.56517013073386
 22
103.1260832210384
 32
0.0
 13
44.56517013073386
 23
103.1260832210384
 33
0.0
  0
LINE
  5
537
330
454
100
AcDbEntity
  8
Bemaßung (ISO)
440
 16777216
100
AcDbLine
 10
44.56517013073386
 20
104.3760832210384
 30
0.0
 11
44.56517013073386
 21
105.6260832210384
 31
0.0
  0
LINE
  5
538
330
454
100
AcDbEntity
  8
Bemaßung (ISO)
440
 16777216
100
AcDbLine
 10
44.56517013073386
 20
103.1260832210384
 30
0.0
 11
44.56517013073386
 21
101.8760832210384
 31
0.0
  0
MTEXT
  5
539
330
454
100
AcDbEntity
  8
Bemaßung (ISO)
440
 16777216
100
AcDbMText
 10
43.08873765399981
 20
99.39460299617131
 30
0.0
 40
1.25
 41
0.0
 46
0.0
 71
     1
 72
     1
  1
\A1;5.2
  7
Notiztext (DIN)
 11
0.0000000000000001
 21
1.0
 31
0.0
 73
     1
 44
1.0
  0
POINT
  5
53A
330
454
100
AcDbEntity
  8
Defpoints
 62
     0
440
 16777216
100
AcDbPoint
 10
50.85729309221132
 20
97.92608322103845
 30
0.0
  0
POINT
  5
53B
330
454
100
AcDbEntity
  8
Defpoints
 62
     0
440
 16777216
100
AcDbPoint
 10
48.81729309221132
 20
103.1260832210384
 30
0.0
  0
POINT
  5
53C
330
454
100
AcDbEntity
  8
Defpoints
 62
     0
440
 16777216
100
AcDbPoint
 10
44.56517013073386
 20
103.1260832210384
 30
0.0
  0
ENDBLK
  5
456
330
454
100
AcDbEntity
  8
0
100
AcDbBlockEnd
  0
BLOCK
  5
53F
330
53E
100
AcDbEntity
  8
0
100
AcDbBlockBegin
  2
*D8
 70
     1
 10
0.0
 20
0.0
 30
0.0
  3
*D8
  1

  0
LINE
  5
617
330
53E
100
AcDbEntity
  8
Bemaßung (ISO)
440
 16777216
100
AcDbLine
 10
49.8572930921949
 20
82.52918560833945
 30
0.0
 11
49.8572930921949
 21
70.90972703639771
 31
0.0
  0
LINE
  5
618
330
53E
100
AcDbEntity
  8
Bemaßung (ISO)
440
 16777216
100
AcDbLine
 10
55.85729309219489
 20
82.52918560833945
 30
0.0
 11
55.85729309219489
 21
70.90972703639771
 31
0.0
  0
LINE
  5
619
330
53E
100
AcDbEntity
  8
Bemaßung (ISO)
440
 16777216
100
AcDbLine
 10
51.1072930921949
 20
71.90972703639771
 30
0.0
 11
54.60729309219489
 21
71.90972703639771
 31
0.0
  0
SOLID
  5
61A
330
53E
100
AcDbEntity
  8
Bemaßung (ISO)
440
 16777216
100
AcDbTrace
 10
51.1072930921949
 20
72.11806036973104
 30
0.0
 11
51.1072930921949
 21
71.70139370306436
 31
0.0
 12
49.8572930921949
 22
71.90972703639771
 32
0.0
 13
49.8572930921949
 23
71.90972703639771
 33
0.0
  0
SOLID
  5
61B
330
53E
100
AcDbEntity
  8
Bemaßung (ISO)
440
 16777216
100
AcDbTrace
 10
54.60729309219489
 20
72.11806036973104
 30
0.0
 11
54.60729309219489
 21
71.70139370306436
 31
0.0
 12
55.85729309219489
 22
71.90972703639771
 32
0.0
 13
55.85729309219489
 23
71.90972703639771
 33
0.0
  0
MTEXT
  5
61C
330
53E
100
AcDbEntity
  8
Bemaßung (ISO)
440
 16777216
100
AcDbMText
 10
51.74008204208658
 20
73.98099702811156
 30
0.0
 40
1.25
 41
0.0
 46
0.0
 71
     1
 72
     1
  1
\A1;\fAIGDT|b0|i0;\H1.2437;n\fArial|b0|i0;\H1.2500;6
  7
Notiztext (DIN)
 73
     1
 44
1.0
  0
POINT
  5
61D
330
53E
100
AcDbEntity
  8
Defpoints
 62
     0
440
 16777216
100
AcDbPoint
 10
49.8572930921949
 20
82.52918560833945
 30
0.0
  0
POINT
  5
61E
330
53E
100
AcDbEntity
  8
Defpoints
 62
     0
440
 16777216
100
AcDbPoint
 10
55.85729309219489
 20
82.52918560833945
 30
0.0
  0
POINT
  5
61F
330
53E
100
AcDbEntity
  8
Defpoints
 62
     0
440
 16777216
100
AcDbPoint
 10
55.85729309219489
 20
71.90972703639771
 30
0.0
  0
ENDBLK
  5
540
330
53E
100
AcDbEntity
  8
0
100
AcDbBlockEnd
  0
ENDSEC
  0
SECTION
  2
ENTITIES
  0
INSERT
  5
119
330
71
100
AcDbEntity
  8
0
100
AcDbBlockReference
  2
Ränder Standardrahmen
 10
0.0
 20
0.0
 30
0.0
 41
0.5
 42
0.5
 43
0.5
  0
INSERT
  5
207
330
71
100
AcDbEntity
  8
0
100
AcDbBlockReference
 66
     1
  2
Schriftfelder perma_schriftfeld
 10
-63.75639417920115
 20
-52.04410280776108
 30
0.0
 41
0.5
 42
0.5
 43
0.5
  0
ATTRIB
  5
209
102
{ACAD_XDICTIONARY
360
6C0
102
}
330
207
100
AcDbEntity
  8
Titel (ISO)
100
AcDbText
 10
94.95118907094392
 20
7.911262160232732
 30
0.0
 40
1.25
  1
A4
  7
Notiztext (DIN)
100
AcDbAttribute
280
     0
  2
Blattgröße_001
 70
     0
280
     0
  0
ATTRIB
  5
20A
102
{ACAD_XDICTIONARY
360
6C3
102
}
330
207
100
AcDbEntity
  8
Titel (ISO)
100
AcDbText
 10
95.52891698551462
 20
10.49604391367835
 30
0.0
 40
2.5
  1
1
  7
Textstil106
100
AcDbAttribute
280
     0
  2
Blattnummer_001
 70
     0
280
     0
  0
ATTRIB
  5
20C
102
{ACAD_XDICTIONARY
360
6C6
102
}
330
207
100
AcDbEntity
  8
Titel (ISO)
100
AcDbText
 10
6.405968600733165
 20
7.737499979499267
 30
0.0
 40
0.9000000357627866
  1
B
  7
Textstil104
100
AcDbAttribute
280
     0
  2
Status1_001
 70
     0
280
     0
  0
ATTRIB
  5
20D
102
{ACAD_XDICTIONARY
360
6C9
102
}
330
207
100
AcDbEntity
  8
Titel (ISO)
100
AcDbText
 10
11.84814952112487
 20
7.862124814644771
 30
0.0
 40
0.9000000357627866
  1
Text ergänzt
  7
Textstil104
100
AcDbAttribute
280
     0
  2
Änderungen1_001
 70
     0
280
     0
  0
ATTRIB
  5
20E
102
{ACAD_XDICTIONARY
360
6CC
102
}
330
207
100
AcDbEntity
  8
Titel (ISO)
100
AcDbText
 10
22.46429047566614
 20
7.743332176217899
 30
0.0
 40
0.9000000357627866
  1
21.11.13
  7
Textstil104
100
AcDbAttribute
280
     0
  2
Datum1_001
 70
     0
280
     0
  0
ATTRIB
  5
20F
102
{ACAD_XDICTIONARY
360
6CF
102
}
330
207
100
AcDbEntity
  8
Titel (ISO)
100
AcDbText
 10
28.08908586451912
 20
7.744866964828064
 30
0.0
 40
0.9000000357627866
  1
Bader
  7
Textstil104
100
AcDbAttribute
280
     0
  2
Name1_001
 70
     0
280
     0
  0
ATTRIB
  5
210
102
{ACAD_XDICTIONARY
360
6D2
102
}
330
207
100
AcDbEntity
  8
Titel (ISO)
100
AcDbText
 10
6.405968600733164
 20
9.86249997949927
 30
0.0
 40
0.9000000357627866
  1
B
  7
Textstil104
100
AcDbAttribute
280
     0
  2
Status2_001
 70
     0
280
     0
  0
ATTRIB
  5
211
102
{ACAD_XDICTIONARY
360
6D5
102
}
330
207
100
AcDbEntity
  8
Titel (ISO)
100
AcDbText
 10
12.01452060646689
 20
9.862806937221304
 30
0.0
 40
0.9000000357627866
  1
SW entfernt
  7
Textstil104
100
AcDbAttribute
280
     0
  2
Änderungen2_001
 70
     0
280
     0
  0
ATTRIB
  5
212
102
{ACAD_XDICTIONARY
360
6D8
102
}
330
207
100
AcDbEntity
  8
Titel (ISO)
100
AcDbText
 10
22.46429047566614
 20
9.868332176217903
 30
0.0
 40
0.9000000357627866
  1
21.11.13
  7
Textstil104
100
AcDbAttribute
280
     0
  2
Datum2_001
 70
     0
280
     0
  0
ATTRIB
  5
213
102
{ACAD_XDICTIONARY
360
6DB
102
}
330
207
100
AcDbEntity
  8
Titel (ISO)
100
AcDbText
 10
28.08908586451912
 20
9.869866964828068
 30
0.0
 40
0.9000000357627866
  1
Bader
  7
Textstil104
100
AcDbAttribute
280
     0
  2
Name2_001
 70
     0
280
     0
  0
ATTRIB
  5
214
102
{ACAD_XDICTIONARY
360
6DE
102
}
330
207
100
AcDbEntity
  8
Titel (ISO)
100
AcDbText
 10
6.405968600733164
 20
11.98749997949927
 30
0.0
 40
0.9000000357627866
  1
B
  7
Textstil104
100
AcDbAttribute
280
     0
  2
Status3_001
 70
     0
280
     0
  0
ATTRIB
  5
215
102
{ACAD_XDICTIONARY
360
6E1
102
}
330
207
100
AcDbEntity
  8
Titel (ISO)
100
AcDbText
 10
10.67894755790024
 20
11.98719302177724
 30
0.0
 40
0.9000000357627866
  1
Maß in max.Maß
  7
Textstil104
100
AcDbAttribute
280
     0
  2
Änderungen3_001
 70
     0
280
     0
  0
ATTRIB
  5
216
102
{ACAD_XDICTIONARY
360
6E4
102
}
330
207
100
AcDbEntity
  8
Titel (ISO)
100
AcDbText
 10
22.46429047566614
 20
11.9933321762179
 30
0.0
 40
0.9000000357627866
  1
21.11.13
  7
Textstil104
100
AcDbAttribute
280
     0
  2
Datum3_001
 70
     0
280
     0
  0
ATTRIB
  5
217
102
{ACAD_XDICTIONARY
360
6E7
102
}
330
207
100
AcDbEntity
  8
Titel (ISO)
100
AcDbText
 10
28.08908586451912
 20
11.99486696482807
 30
0.0
 40
0.9000000357627866
  1
Bader
  7
Textstil104
100
AcDbAttribute
280
     0
  2
Name3_001
 70
     0
280
     0
  0
ATTRIB
  5
218
102
{ACAD_XDICTIONARY
360
6EA
102
}
330
207
100
AcDbEntity
  8
Titel (ISO)
100
AcDbText
 10
6.405968600733165
 20
14.11249997949927
 30
0.0
 40
0.9000000357627866
  1
B
  7
Textstil104
100
AcDbAttribute
280
     0
  2
Status4_001
 70
     0
280
     0
  0
ATTRIB
  5
219
102
{ACAD_XDICTIONARY
360
6ED
102
}
330
207
100
AcDbEntity
  8
Titel (ISO)
100
AcDbText
 10
10.53713309032088
 20
14.11986696482807
 30
0.0
 40
0.9000000357627866
  1
Art.Nr. neu hinzu
  7
Textstil104
100
AcDbAttribute
280
     0
  2
Änderungen4_001
 70
     0
280
     0
  0
ATTRIB
  5
21A
102
{ACAD_XDICTIONARY
360
6F0
102
}
330
207
100
AcDbEntity
  8
Titel (ISO)
100
AcDbText
 10
22.46429047566615
 20
14.1183321762179
 30
0.0
 40
0.9000000357627866
  1
21.11.13
  7
Textstil104
100
AcDbAttribute
280
     0
  2
Datum4_001
 70
     0
280
     0
  0
ATTRIB
  5
21B
102
{ACAD_XDICTIONARY
360
6F3
102
}
330
207
100
AcDbEntity
  8
Titel (ISO)
100
AcDbText
 10
28.08908586451912
 20
14.11986696482807
 30
0.0
 40
0.9000000357627866
  1
Bader
  7
Textstil104
100
AcDbAttribute
280
     0
  2
Name4_001
 70
     0
280
     0
  0
ATTRIB
  5
21C
102
{ACAD_XDICTIONARY
360
6F6
102
}
330
207
100
AcDbEntity
  8
Titel (ISO)
100
AcDbText
 10
6.874999999999964
 20
16.23749998211862
 30
0.0
 40
0.9000000357627866
  1

  7
Textstil104
 72
     1
 11
6.874999999999964
 21
16.68750000000002
 31
0.0
100
AcDbAttribute
280
     0
  2
Status5
 70
     0
 74
     2
280
     0
  0
ATTRIB
  5
21D
102
{ACAD_XDICTIONARY
360
6F9
102
}
330
207
100
AcDbEntity
  8
Titel (ISO)
100
AcDbText
 10
15.55681271873055
 20
16.23749998211862
 30
0.0
 40
0.9000000357627866
  1

  7
Textstil104
 72
     1
 11
15.55681271873055
 21
16.68750000000002
 31
0.0
100
AcDbAttribute
280
     0
  2
Änderungen5
 70
     0
 74
     2
280
     0
  0
ATTRIB
  5
21E
102
{ACAD_XDICTIONARY
360
6FC
102
}
330
207
100
AcDbEntity
  8
Titel (ISO)
100
AcDbText
 10
24.89999999999995
 20
16.23749998211862
 30
0.0
 40
0.9000000357627866
  1

  7
Textstil104
 72
     1
 11
24.89999999999995
 21
16.68750000000002
 31
0.0
100
AcDbAttribute
280
     0
  2
Datum5
 70
     0
 74
     2
280
     0
  0
ATTRIB
  5
21F
102
{ACAD_XDICTIONARY
360
6FF
102
}
330
207
100
AcDbEntity
  8
Titel (ISO)
100
AcDbText
 10
29.92499999999996
 20
16.23749998211862
 30
0.0
 40
0.9000000357627866
  1

  7
Textstil104
 72
     1
 11
29.92499999999996
 21
16.68750000000002
 31
0.0
100
AcDbAttribute
280
     0
  2
Name5
 70
     0
 74
     2
280
     0
  0
ATTRIB
  5
220
102
{ACAD_XDICTIONARY
360
702
102
}
330
207
100
AcDbEntity
  8
Titel (ISO)
100
AcDbText
 10
6.874999999999964
 20
18.36249998211862
 30
0.0
 40
0.9000000357627866
  1

  7
Textstil104
 72
     1
 11
6.874999999999964
 21
18.81250000000002
 31
0.0
100
AcDbAttribute
280
     0
  2
Status6
 70
     0
 74
     2
280
     0
  0
ATTRIB
  5
221
102
{ACAD_XDICTIONARY
360
705
102
}
330
207
100
AcDbEntity
  8
Titel (ISO)
100
AcDbText
 10
15.55681271873055
 20
18.36249998211862
 30
0.0
 40
0.9000000357627866
  1

  7
Textstil104
 72
     1
 11
15.55681271873055
 21
18.81250000000002
 31
0.0
100
AcDbAttribute
280
     0
  2
Änderungen6
 70
     0
 74
     2
280
     0
  0
ATTRIB
  5
222
102
{ACAD_XDICTIONARY
360
708
102
}
330
207
100
AcDbEntity
  8
Titel (ISO)
100
AcDbText
 10
24.89999999999995
 20
18.36249998211862
 30
0.0
 40
0.9000000357627866
  1

  7
Textstil104
 72
     1
 11
24.89999999999995
 21
18.81250000000002
 31
0.0
100
AcDbAttribute
280
     0
  2
Datum6
 70
     0
 74
     2
280
     0
  0
ATTRIB
  5
223
102
{ACAD_XDICTIONARY
360
70B
102
}
330
207
100
AcDbEntity
  8
Titel (ISO)
100
AcDbText
 10
29.92499999999996
 20
18.36249998211862
 30
0.0
 40
0.9000000357627866
  1

  7
Textstil104
 72
     1
 11
29.92499999999996
 21
18.81250000000002
 31
0.0
100
AcDbAttribute
280
     0
  2
Name6
 70
     0
 74
     2
280
     0
  0
ATTRIB
  5
224
102
{ACAD_XDICTIONARY
360
70E
102
}
330
207
100
AcDbEntity
  8
Titel (ISO)
100
AcDbText
 10
6.874999999999964
 20
20.48749998211864
 30
0.0
 40
0.9000000357627866
  1

  7
Textstil104
 72
     1
 11
6.874999999999964
 21
20.93750000000003
 31
0.0
100
AcDbAttribute
280
     0
  2
Status7
 70
     0
 74
     2
280
     0
  0
ATTRIB
  5
225
102
{ACAD_XDICTIONARY
360
711
102
}
330
207
100
AcDbEntity
  8
Titel (ISO)
100
AcDbText
 10
15.55681271873055
 20
20.48749998211864
 30
0.0
 40
0.9000000357627866
  1

  7
Textstil104
 72
     1
 11
15.55681271873055
 21
20.93750000000003
 31
0.0
100
AcDbAttribute
280
     0
  2
Änderungen7
 70
     0
 74
     2
280
     0
  0
ATTRIB
  5
226
102
{ACAD_XDICTIONARY
360
714
102
}
330
207
100
AcDbEntity
  8
Titel (ISO)
100
AcDbText
 10
24.89999999999995
 20
20.48749998211864
 30
0.0
 40
0.9000000357627866
  1

  7
Textstil104
 72
     1
 11
24.89999999999995
 21
20.93750000000003
 31
0.0
100
AcDbAttribute
280
     0
  2
Datum7
 70
     0
 74
     2
280
     0
  0
ATTRIB
  5
227
102
{ACAD_XDICTIONARY
360
717
102
}
330
207
100
AcDbEntity
  8
Titel (ISO)
100
AcDbText
 10
29.92499999999996
 20
20.48749998211864
 30
0.0
 40
0.9000000357627866
  1

  7
Textstil104
 72
     1
 11
29.92499999999996
 21
20.93750000000003
 31
0.0
100
AcDbAttribute
280
     0
  2
Name7
 70
     0
 74
     2
280
     0
  0
ATTRIB
  5
228
102
{ACAD_XDICTIONARY
360
71A
102
}
330
207
100
AcDbEntity
  8
Titel (ISO)
100
AcDbText
 10
6.874999999999964
 20
22.61249998211865
 30
0.0
 40
0.9000000357627866
  1

  7
Textstil104
 72
     1
 11
6.874999999999964
 21
23.06250000000004
 31
0.0
100
AcDbAttribute
280
     0
  2
Status8
 70
     0
 74
     2
280
     0
  0
ATTRIB
  5
229
102
{ACAD_XDICTIONARY
360
71D
102
}
330
207
100
AcDbEntity
  8
Titel (ISO)
100
AcDbText
 10
15.55681271873055
 20
22.61249998211865
 30
0.0
 40
0.9000000357627866
  1

  7
Textstil104
 72
     1
 11
15.55681271873055
 21
23.06250000000004
 31
0.0
100
AcDbAttribute
280
     0
  2
Änderungen8
 70
     0
 74
     2
280
     0
  0
ATTRIB
  5
22A
102
{ACAD_XDICTIONARY
360
720
102
}
330
207
100
AcDbEntity
  8
Titel (ISO)
100
AcDbText
 10
24.89999999999995
 20
22.61249998211865
 30
0.0
 40
0.9000000357627866
  1

  7
Textstil104
 72
     1
 11
24.89999999999995
 21
23.06250000000004
 31
0.0
100
AcDbAttribute
280
     0
  2
Datum8
 70
     0
 74
     2
280
     0
  0
ATTRIB
  5
22B
102
{ACAD_XDICTIONARY
360
723
102
}
330
207
100
AcDbEntity
  8
Titel (ISO)
100
AcDbText
 10
29.92499999999996
 20
22.61249998211865
 30
0.0
 40
0.9000000357627866
  1

  7
Textstil104
 72
     1
 11
29.92499999999996
 21
23.06250000000004
 31
0.0
100
AcDbAttribute
280
     0
  2
Name8
 70
     0
 74
     2
280
     0
  0
ATTRIB
  5
22C
102
{ACAD_XDICTIONARY
360
726
102
}
330
207
100
AcDbEntity
  8
Titel (ISO)
100
AcDbText
 10
14.52926334769052
 20
27.386937270378
 30
0.0
 40
1.749999970197676
  1
101448
  7
Textstil89
100
AcDbAttribute
280
     0
  2
Artikelnummer_neu_001
 70
     0
280
     0
  0
ATTRIB
  5
22D
102
{ACAD_XDICTIONARY
360
729
102
}
330
207
100
AcDbEntity
  8
Titel (ISO)
100
AcDbText
 10
13.69817527813424
 20
24.85368348509656
 30
0.0
 40
1.25
  1
(26.003.906)
  7
Textstil91
100
AcDbAttribute
280
     0
  2
Artikelnummer_alt_001
 70
     0
280
     0
  0
ATTRIB
  5
22E
102
{ACAD_XDICTIONARY
360
72C
102
}
330
207
100
AcDbEntity
  8
Titel (ISO)
100
AcDbText
 10
84.67219292263839
 20
30.40799792949267
 30
0.0
 40
1.500000059604644
  1
Messing vern.
  7
Textstil103
100
AcDbAttribute
280
     0
  2
Material_001
 70
     0
280
     0
  0
ATTRIB
  5
22F
102
{ACAD_XDICTIONARY
360
72F
102
}
330
207
100
AcDbEntity
  8
Titel (ISO)
100
AcDbText
 10
65.40295782137779
 20
30.39520802440795
 30
0.0
 40
1.500000059604644
  1
2:1 (1:1)
  7
Textstil103
100
AcDbAttribute
280
     0
  2
Maßstab_001
 70
     0
280
     0
  0
ATTRIB
  5
230
102
{ACAD_XDICTIONARY
360
732
102
}
330
207
100
AcDbEntity
  8
Titel (ISO)
100
AcDbText
 10
38.96429047566612
 20
20.49333217621792
 30
0.0
 40
0.9000000357627866
  1
21.11.13
  7
Textstil104
100
AcDbAttribute
280
     0
  2
Gezeichnet_Datum_001
 70
     0
280
     0
  0
ATTRIB
  5
231
102
{ACAD_XDICTIONARY
360
735
102
}
330
207
100
AcDbEntity
  8
Titel (ISO)
100
AcDbText
 10
48.01408586451909
 20
20.49486696482809
 30
0.0
 40
0.9000000357627866
  1
Bader
  7
Textstil104
100
AcDbAttribute
280
     0
  2
Gezeichnet_Name_001
 70
     0
280
     0
  0
ATTRIB
  5
232
102
{ACAD_XDICTIONARY
360
738
102
}
330
207
100
AcDbEntity
  8
Titel (ISO)
100
AcDbText
 10
73.24999999999987
 20
8.324816997882402
 30
0.0
 40
2.000000029802321
  1

  7
Textstil102
 72
     1
 11
73.24999999999987
 21
9.324817012783563
 31
0.0
100
AcDbAttribute
280
     0
  2
Benennung
 70
     0
 74
     2
280
     0
  0
ATTRIB
  5
233
102
{ACAD_XDICTIONARY
360
73B
102
}
330
207
100
AcDbEntity
  8
Titel (ISO)
100
AcDbText
 10
69.99444175221552
 20
5.43749999636203
 30
0.0
 40
1.25
  1
AN GEA 24 B
  7
Textstil91
100
AcDbAttribute
280
     0
  2
Zeichnungsnummer_001
 70
     0
280
     0
  0
ATTRIB
  5
234
102
{ACAD_XDICTIONARY
360
73E
102
}
330
207
100
AcDbEntity
  8
Titel (ISO)
100
AcDbText
 10
40.84380801450686
 20
5.437499996362022
 30
0.0
 40
1.25
  1
AN GEA 24 A
  7
Textstil91
100
AcDbAttribute
280
     0
  2
Ers._für_001
 70
     0
280
     0
  0
ATTRIB
  5
235
102
{ACAD_XDICTIONARY
360
741
102
}
330
207
100
AcDbEntity
  8
Titel (ISO)
100
AcDbText
 10
33.54167783222327
 20
8.341188070163488
 30
0.0
 40
2.000000029802321
  1
Anschlussteile
  7
Textstil102
100
AcDbAttribute
280
     0
  2
Projekt_001
 70
     0
280
     0
  0
ATTRIB
  5
236
102
{ACAD_XDICTIONARY
360
744
102
}
330
207
100
AcDbEntity
  8
Titel (ISO)
100
AcDbText
 10
38.96429047566616
 20
18.36833217621791
 30
0.0
 40
0.9000000357627866
  1
21.11.13
  7
Textstil104
100
AcDbAttribute
280
     0
  2
Kontroll_Datum_001
 70
     0
280
     0
  0
ATTRIB
  5
237
102
{ACAD_XDICTIONARY
360
747
102
}
330
207
100
AcDbEntity
  8
Titel (ISO)
100
AcDbText
 10
46.17663694042807
 20
18.36986696482808
 30
0.0
 40
0.9000000357627866
  1
Hildenbrand
  7
Textstil104
100
AcDbAttribute
280
     0
  2
Kontroll__Name_001
 70
     0
280
     0
  0
SEQEND
  5
208
330
207
100
AcDbEntity
  8
0
  0
LINE
  5
238
330
71
100
AcDbEntity
  8
Sichtbar (ISO)
100
AcDbLine
 10
50.35729309221132
 20
98.42608322103842
 30
0.0
 11
55.35729309221132
 21
98.42608322103842
 31
0.0
  0
LINE
  5
239
330
71
100
AcDbEntity
  8
Sichtbar (ISO)
100
AcDbLine
 10
54.85729309221131
 20
97.92608322103845
 30
0.0
 11
50.85729309221132
 21
97.92608322103845
 31
0.0
  0
LINE
  5
23A
330
71
100
AcDbEntity
  8
Sichtbar (ISO)
100
AcDbLine
 10
50.85729309221132
 20
97.92608322103845
 30
0.0
 11
50.35729309221132
 21
98.42608322103844
 31
0.0
  0
LINE
  5
23B
330
71
100
AcDbEntity
  8
Sichtbar (ISO)
100
AcDbLine
 10
54.85729309221131
 20
97.92608322103845
 30
0.0
 11
55.35729309221132
 21
98.42608322103844
 31
0.0
  0
LINE
  5
23C
330
71
100
AcDbEntity
  8
Sichtbar (ISO)
100
AcDbLine
 10
50.08229309221132
 20
102.9260832210384
 30
0.0
 11
55.63229309221132
 21
102.9260832210384
 31
0.0
  0
LINE
  5
23D
330
71
100
AcDbEntity
  8
Sichtbar (ISO)
100
AcDbLine
 10
48.95729309221131
 20
124.5260832210384
 30
0.0
 11
56.75729309221131
 21
124.5260832210384
 31
0.0
  0
LINE
  5
23E
330
71
100
AcDbEntity
  8
Sichtbar (ISO)
100
AcDbLine
 10
47.45729309221132
 20
121.1260832210384
 30
0.0
 11
58.25729309221131
 21
121.1260832210384
 31
0.0
  0
LINE
  5
23F
330
71
100
AcDbEntity
  8
Sichtbar (ISO)
100
AcDbLine
 10
48.73229309221131
 20
119.8260832210384
 30
0.0
 11
56.9822930922113
 21
119.8260832210384
 31
0.0
  0
LINE
  5
240
330
71
100
AcDbEntity
  8
Sichtbar schmal (ISO)
100
AcDbLine
 10
47.71807952983822
 20
118.8118696586653
 30
0.0
 11
57.9965066545844
 21
118.8118696586653
 31
0.0
  0
LINE
  5
241
330
71
100
AcDbEntity
  8
Sichtbar schmal (ISO)
100
AcDbLine
 10
47.13229309221131
 20
117.3976560962922
 30
0.0
 11
58.58229309221131
 21
117.3976560962922
 31
0.0
  0
LINE
  5
242
330
71
100
AcDbEntity
  8
Sichtbar (ISO)
100
AcDbLine
 10
47.13229309221131
 20
105.0989184246229
 30
0.0
 11
58.58229309221131
 21
105.0989184246229
 31
0.0
  0
LINE
  5
243
330
71
100
AcDbEntity
  8
Sichtbar (ISO)
100
AcDbLine
 10
48.81729309221132
 20
104.1260832210384
 30
0.0
 11
56.89729309221132
 21
104.1260832210384
 31
0.0
  0
LINE
  5
244
330
71
100
AcDbEntity
  8
Sichtbar (ISO)
100
AcDbLine
 10
48.81729309221132
 20
103.1260832210384
 30
0.0
 11
56.89729309221132
 21
103.1260832210384
 31
0.0
  0
LINE
  5
245
330
71
100
AcDbEntity
  8
Sichtbar (ISO)
100
AcDbLine
 10
55.35729309221132
 20
102.9260832210384
 30
0.0
 11
55.35729309221132
 21
98.42608322103844
 31
0.0
  0
LINE
  5
246
330
71
100
AcDbEntity
  8
Sichtbar (ISO)
100
AcDbLine
 10
50.35729309221132
 20
102.9260832210384
 30
0.0
 11
50.35729309221132
 21
98.42608322103842
 31
0.0
  0
ARC
  5
247
330
71
100
AcDbEntity
  8
Sichtbar (ISO)
100
AcDbCircle
 10
50.08229309221132
 20
103.4260832210384
 30
0.0
 40
0.5
100
AcDbArc
 50
216.8698976458434
 51
270.0
  0
ARC
  5
248
330
71
100
AcDbEntity
  8
Sichtbar (ISO)
100
AcDbCircle
 10
55.63229309221132
 20
103.4260832210384
 30
0.0
 40
0.5
100
AcDbArc
 50
270.0
 51
323.1301023541566
  0
ARC
  5
249
330
71
100
AcDbEntity
  8
Sichtbar (ISO)
100
AcDbCircle
 10
52.85729309221132
 20
120.7746126328031
 30
0.0
 40
5.411426020412221
100
AcDbArc
 50
136.1120789973615
 51
176.2760339657231
  0
ARC
  5
24A
330
71
100
AcDbEntity
  8
Sichtbar (ISO)
100
AcDbCircle
 10
52.85729309221132
 20
120.7746126328031
 30
0.0
 40
5.411426020412221
100
AcDbArc
 50
3.723966034276934
 51
43.88792100263847
  0
LINE
  5
24B
330
71
100
AcDbEntity
  8
Sichtbar (ISO)
100
AcDbLine
 10
56.80729309221131
 20
121.1260832210384
 30
0.0
 11
56.80729309221131
 21
119.8260832210384
 31
0.0
  0
LINE
  5
24C
330
71
100
AcDbEntity
  8
Sichtbar (ISO)
100
AcDbLine
 10
48.90729309221132
 20
121.1260832210384
 30
0.0
 11
48.90729309221132
 21
119.8260832210384
 31
0.0
  0
LINE
  5
24D
330
71
100
AcDbEntity
  8
Sichtbar (ISO)
100
AcDbLine
 10
56.9822930922113
 20
119.8260832210384
 30
0.0
 11
57.9965066545844
 21
118.8118696586653
 31
0.0
  0
LINE
  5
24E
330
71
100
AcDbEntity
  8
Sichtbar (ISO)
100
AcDbLine
 10
48.73229309221131
 20
119.8260832210384
 30
0.0
 11
47.71807952983822
 21
118.8118696586653
 31
0.0
  0
ARC
  5
24F
330
71
100
AcDbEntity
  8
Sichtbar (ISO)
100
AcDbCircle
 10
49.13229309221131
 20
117.3976560962922
 30
0.0
 40
2.000000000000011
100
AcDbArc
 50
134.9999999999998
 51
180.0
  0
ARC
  5
250
330
71
100
AcDbEntity
  8
Sichtbar (ISO)
100
AcDbCircle
 10
56.58229309221129
 20
117.3976560962922
 30
0.0
 40
2.000000000000011
100
AcDbArc
 50
0.0
 51
45.00000000000016
  0
LINE
  5
251
330
71
100
AcDbEntity
  8
Sichtbar (ISO)
100
AcDbLine
 10
58.58229309221131
 20
117.3976560962922
 30
0.0
 11
58.58229309221131
 21
105.0989184246229
 31
0.0
  0
LINE
  5
252
330
71
100
AcDbEntity
  8
Sichtbar (ISO)
100
AcDbLine
 10
47.13229309221131
 20
117.3976560962922
 30
0.0
 11
47.13229309221131
 21
105.0989184246229
 31
0.0
  0
LINE
  5
253
330
71
100
AcDbEntity
  8
Sichtbar (ISO)
100
AcDbLine
 10
48.81729309221132
 20
104.1260832210384
 30
0.0
 11
47.13229309221131
 21
105.0989184246229
 31
0.0
  0
LINE
  5
254
330
71
100
AcDbEntity
  8
Sichtbar (ISO)
100
AcDbLine
 10
56.89729309221132
 20
104.1260832210384
 30
0.0
 11
58.58229309221131
 21
105.0989184246229
 31
0.0
  0
LINE
  5
255
330
71
100
AcDbEntity
  8
Sichtbar (ISO)
100
AcDbLine
 10
56.89729309221132
 20
104.1260832210384
 30
0.0
 11
56.89729309221132
 21
103.1260832210384
 31
0.0
  0
LINE
  5
256
330
71
100
AcDbEntity
  8
Sichtbar (ISO)
100
AcDbLine
 10
48.81729309221132
 20
104.1260832210384
 30
0.0
 11
48.81729309221132
 21
103.1260832210384
 31
0.0
  0
LINE
  5
257
330
71
100
AcDbEntity
  8
Sichtbar schmal (ISO)
100
AcDbLine
 10
54.87879309221131
 20
97.94758322103845
 30
0.0
 11
54.87879309221131
 21
102.9260832210384
 31
0.0
  0
LINE
  5
258
330
71
100
AcDbEntity
  8
Sichtbar schmal (ISO)
100
AcDbLine
 10
50.83579309221132
 20
102.9260832210384
 30
0.0
 11
50.83579309221132
 21
97.94758322103845
 31
0.0
  0
CIRCLE
  5
259
330
71
100
AcDbEntity
  8
Sichtbar (ISO)
100
AcDbCircle
 10
52.8572930921949
 20
82.52918560833945
 30
0.0
 40
3.0
  0
LINE
  5
25A
330
71
100
AcDbEntity
  8
Sichtbar (ISO)
100
AcDbLine
 10
51.6072930921949
 20
81.80749777184747
 30
0.0
 11
52.8572930921949
 21
81.08580993536044
 31
0.0
  0
LINE
  5
25B
330
71
100
AcDbEntity
  8
Sichtbar (ISO)
100
AcDbLine
 10
51.6072930921949
 20
83.25087344482154
 30
0.0
 11
51.6072930921949
 21
81.80749777184747
 31
0.0
  0
LINE
  5
25C
330
71
100
AcDbEntity
  8
Sichtbar (ISO)
100
AcDbLine
 10
52.8572930921949
 20
83.97256128130857
 30
0.0
 11
51.6072930921949
 21
83.25087344482154
 31
0.0
  0
LINE
  5
25D
330
71
100
AcDbEntity
  8
Sichtbar (ISO)
100
AcDbLine
 10
54.1072930921949
 20
83.25087344482154
 30
0.0
 11
52.8572930921949
 21
83.97256128130857
 31
0.0
  0
LINE
  5
25E
330
71
100
AcDbEntity
  8
Sichtbar (ISO)
100
AcDbLine
 10
54.1072930921949
 20
81.80749777184747
 30
0.0
 11
54.1072930921949
 21
83.25087344482154
 31
0.0
  0
LINE
  5
25F
330
71
100
AcDbEntity
  8
Sichtbar (ISO)
100
AcDbLine
 10
52.8572930921949
 20
81.08580993536044
 30
0.0
 11
54.1072930921949
 21
81.80749777184747
 31
0.0
  0
CIRCLE
  5
260
330
71
100
AcDbEntity
  8
Sichtbar (ISO)
100
AcDbCircle
 10
52.8572930921949
 20
82.52918560833377
 30
0.0
 40
1.225
  0
CIRCLE
  5
261
330
71
100
AcDbEntity
  8
Sichtbar (ISO)
100
AcDbCircle
 10
52.8572930921949
 20
82.52918560833945
 30
0.0
 40
3.9
  0
CIRCLE
  5
262
330
71
100
AcDbEntity
  8
Sichtbar (ISO)
100
AcDbCircle
 10
52.8572930921949
 20
82.52918560833846
 30
0.0
 40
5.4
  0
CIRCLE
  5
263
330
71
100
AcDbEntity
  8
Sichtbar (ISO)
100
AcDbCircle
 10
52.8572930921949
 20
82.52918560833734
 30
0.0
 40
5.724999999999996
  0
ELLIPSE
  5
264
330
71
100
AcDbEntity
  8
Sichtbar (ISO)
100
AcDbEllipse
 10
90.5934921233532
 20
51.93785098126347
 30
0.0
 11
1.5
 21
0.0000000000000001
 31
0.0
210
0.0
220
0.0
230
1.0
 40
0.5758617009853119
 41
0.0
 42
6.283185307179585
  0
ELLIPSE
  5
265
330
71
100
AcDbEntity
  8
Sichtbar (ISO)
100
AcDbEllipse
 10
90.5934921233532
 20
41.26886100206831
 30
0.0
 11
1.249999999999998
 21
0.0000000000000003
 31
0.0
210
0.0
220
0.0
230
1.0
 40
0.5758617009853121
 41
3.141592653589792
 42
6.283185307179585
  0
ELLIPSE
  5
266
330
71
100
AcDbEntity
  8
Sichtbar (ISO)
100
AcDbEllipse
 10
90.5934921233532
 20
41.06447422085767
 30
0.0
 11
0.9999999999999978
 21
0.0000000000000597
 31
0.0
210
0.0
220
0.0
230
1.0
 40
0.5758617009853121
 41
3.923138270879151
 42
5.501639689889723
  0
LINE
  5
267
330
71
100
AcDbEntity
  8
Sichtbar (ISO)
100
AcDbLine
 10
89.88366643490005
 20
40.65885026526543
 30
0.0
 11
89.70621001278678
 21
40.76183105757801
 31
0.0
  0
LINE
  5
268
330
71
100
AcDbEntity
  8
Sichtbar (ISO)
100
AcDbLine
 10
91.30331781180638
 20
40.65885026526543
 30
0.0
 11
91.48077423391971
 21
40.76183105757801
 31
0.0
  0
ELLIPSE
  5
269
330
71
100
AcDbEntity
  8
Sichtbar (ISO)
100
AcDbEllipse
 10
90.5934921233532
 20
51.93785098126347
 30
0.0
 11
1.95
 21
0.0000000000000001
 31
0.0
210
0.0
220
0.0
230
1.0
 40
0.5758617009853119
 41
0.0
 42
6.283185307179585
  0
ELLIPSE
  5
26A
330
71
100
AcDbEntity
  8
Sichtbar (ISO)
100
AcDbEllipse
 10
90.5934921233532
 20
50.54802086903116
 30
0.0
 11
2.7
 21
0.0000000000000013
 31
0.0
210
0.0
220
0.0
230
1.0
 40
0.5758617009853121
 41
3.095730664909162
 42
6.329047295860214
  0
ELLIPSE
  5
26B
330
71
100
AcDbEntity
  8
Sichtbar (ISO)
100
AcDbEllipse
 10
90.5934921233532
 20
50.01661523788349
 30
0.0
 11
-1.974999999999997
 21
0.0000000000001174
 31
0.0
210
0.0
220
0.0
230
1.0
 40
0.5758617009853113
 41
0.7701363680485134
 42
2.371456285541793
  0
ELLIPSE
  5
26C
330
71
100
AcDbEntity
  8
Sichtbar (ISO)
100
AcDbEllipse
 10
90.5934921233532
 20
50.01661523788349
 30
0.0
 11
-2.062499999999996
 21
0.0000000000001216
 31
0.0
210
0.0
220
0.0
230
1.0
 40
0.5758617009853113
 41
0.6112447480000345
 42
2.53034790559043
  0
ELLIPSE
  5
26D
330
71
100
AcDbEntity
  8
Sichtbar schmal (ISO)
100
AcDbEllipse
 10
90.5934921233532
 20
49.60203154693627
 30
0.0
 11
2.569606781186544
 21
0.0000000000000011
 31
0.0
210
0.0
220
0.0
230
0.9999999999999998
 40
0.5758617009853121
 41
2.901020831134412
 42
6.523757129634963
  0
ELLIPSE
  5
26E
330
71
100
AcDbEntity
  8
Sichtbar schmal (ISO)
100
AcDbEllipse
 10
90.5934921233532
 20
49.02393843102053
 30
0.0
 11
2.862499999999998
 21
0.0000000000000008
 31
0.0
210
0.0
220
0.0
230
1.0
 40
0.5758617009853121
 41
3.141592674663218
 42
6.283185307179588
  0
ELLIPSE
  5
26F
330
71
100
AcDbEntity
  8
Sichtbar (ISO)
100
AcDbEllipse
 10
90.5934921233532
 20
43.99653961968762
 30
0.0
 11
2.862499999999998
 21
0.0000000000000003
 31
0.0
210
0.0
220
0.0
230
1.0
 40
0.5758617009853121
 41
3.141592653589792
 42
6.283185307179588
  0
ELLIPSE
  5
270
330
71
100
AcDbEntity
  8
Sichtbar (ISO)
100
AcDbEllipse
 10
90.5934921233532
 20
43.19009674544829
 30
0.0
 11
2.019999999999999
 21
0.0000000000000009
 31
0.0
210
0.0
220
0.0
230
1.0
 40
0.5758617009853119
 41
3.531856336048288
 42
5.892921624721088
  0
LINE
  5
271
330
71
100
AcDbEntity
  8
Sichtbar (ISO)
100
AcDbLine
 10
91.8434921233532
 20
42.27632561132317
 30
0.0
 11
91.8434921233532
 21
41.26886100206831
 31
0.0
  0
LINE
  5
272
330
71
100
AcDbEntity
  8
Sichtbar (ISO)
100
AcDbLine
 10
89.3434921233532
 20
42.27632561132317
 30
0.0
 11
89.3434921233532
 21
41.26886100206831
 31
0.0
  0
ARC
  5
273
330
71
100
AcDbEntity
  8
Sichtbar (ISO)
100
AcDbCircle
 10
90.5934921233532
 20
50.40434898459189
 30
0.0
 40
2.705713010206111
100
AcDbArc
 50
122.0091737908458
 51
175.4433570628598
  0
ARC
  5
274
330
71
100
AcDbEntity
  8
Sichtbar (ISO)
100
AcDbCircle
 10
90.5934921233532
 20
50.40434898459189
 30
0.0
 40
2.705713010206111
100
AcDbArc
 50
4.556642937140083
 51
57.99082620915378
  0
POLYLINE
  5
275
330
71
100
AcDbEntity
  8
Sichtbar (ISO)
100
AcDb2dPolyline
 66
     1
 10
0.0
 20
0.0
 30
0.0
 70
   128
  0
VERTEX
  5
276
330
275
100
AcDbEntity
  8
Sichtbar (ISO)
100
AcDbVertex
100
AcDb2dVertex
 10
93.12918313824148
 20
50.01390428433047
 30
0.0
  0
VERTEX
  5
277
330
275
100
AcDbEntity
  8
Sichtbar (ISO)
100
AcDbVertex
100
AcDb2dVertex
 10
93.26249757134846
 20
49.79761251679889
 30
0.0
  0
VERTEX
  5
279
330
275
100
AcDbEntity
  8
Sichtbar (ISO)
100
AcDbVertex
100
AcDb2dVertex
 10
93.31858912615764
 20
49.6800907003417
 30
0.0
  0
VERTEX
  5
27A
330
275
100
AcDbEntity
  8
Sichtbar (ISO)
100
AcDbVertex
100
AcDb2dVertex
 10
93.36634003038078
 20
49.55690088795236
 30
0.0
  0
VERTEX
  5
27B
330
275
100
AcDbEntity
  8
Sichtbar (ISO)
100
AcDbVertex
100
AcDb2dVertex
 10
93.40476278335724
 20
49.42863614086335
 30
0.0
  0
VERTEX
  5
27C
330
275
100
AcDbEntity
  8
Sichtbar (ISO)
100
AcDbVertex
100
AcDb2dVertex
 10
93.4328926437246
 20
49.2961559659851
 30
0.0
  0
VERTEX
  5
27D
330
275
100
AcDbEntity
  8
Sichtbar (ISO)
100
AcDbVertex
100
AcDb2dVertex
 10
93.45013460334902
 20
49.16079637867915
 30
0.0
  0
VERTEX
  5
27E
330
275
100
AcDbEntity
  8
Sichtbar (ISO)
100
AcDbVertex
100
AcDb2dVertex
 10
93.45599206698791
 20
49.0239384118239
 30
0.0
  0
SEQEND
  5
278
330
275
100
AcDbEntity
  8
Sichtbar (ISO)
  0
POLYLINE
  5
27F
330
71
100
AcDbEntity
  8
Sichtbar (ISO)
100
AcDb2dPolyline
 66
     1
 10
0.0
 20
0.0
 30
0.0
 70
   128
  0
VERTEX
  5
280
330
27F
100
AcDbEntity
  8
Sichtbar (ISO)
100
AcDbVertex
100
AcDb2dVertex
 10
87.73099217971852
 20
49.02393841182439
 30
0.0
  0
VERTEX
  5
281
330
27F
100
AcDbEntity
  8
Sichtbar (ISO)
100
AcDbVertex
100
AcDb2dVertex
 10
87.73684964335744
 20
49.16079637867965
 30
0.0
  0
VERTEX
  5
283
330
27F
100
AcDbEntity
  8
Sichtbar (ISO)
100
AcDbVertex
100
AcDb2dVertex
 10
87.75409160298194
 20
49.29615596598559
 30
0.0
  0
VERTEX
  5
284
330
27F
100
AcDbEntity
  8
Sichtbar (ISO)
100
AcDbVertex
100
AcDb2dVertex
 10
87.78222146334933
 20
49.42863614086385
 30
0.0
  0
VERTEX
  5
285
330
27F
100
AcDbEntity
  8
Sichtbar (ISO)
100
AcDbVertex
100
AcDb2dVertex
 10
87.82064421632581
 20
49.55690088795282
 30
0.0
  0
VERTEX
  5
286
330
27F
100
AcDbEntity
  8
Sichtbar (ISO)
100
AcDbVertex
100
AcDb2dVertex
 10
87.868395120549
 20
49.68009070034216
 30
0.0
  0
VERTEX
  5
287
330
27F
100
AcDbEntity
  8
Sichtbar (ISO)
100
AcDbVertex
100
AcDb2dVertex
 10
87.9244866753582
 20
49.79761251679932
 30
0.0
  0
VERTEX
  5
288
330
27F
100
AcDbEntity
  8
Sichtbar (ISO)
100
AcDbVertex
100
AcDb2dVertex
 10
88.05780110846525
 20
50.0139042843309
 30
0.0
  0
SEQEND
  5
282
330
27F
100
AcDbEntity
  8
Sichtbar (ISO)
  0
LINE
  5
289
330
71
100
AcDbEntity
  8
Sichtbar (ISO)
100
AcDbLine
 10
93.4559921233532
 20
49.02393843102053
 30
0.0
 11
93.4559921233532
 21
43.99653961968762
 31
0.0
  0
LINE
  5
28A
330
71
100
AcDbEntity
  8
Sichtbar (ISO)
100
AcDbLine
 10
87.73099212335322
 20
49.02393843102053
 30
0.0
 11
87.73099212335322
 21
43.99653961968762
 31
0.0
  0
DIMENSION
  5
28B
330
71
100
AcDbEntity
  8
PERMA_ROT
100
AcDbDimension
280
     0
  2
*D5
 10
41.00581270455797
 20
124.5260832210384
 30
0.0
 11
41.00581270455795
 21
111.2260832210384
 31
0.0
 70
   160
  1
max. <>
 71
     5
 42
26.6
 73
     0
 74
     0
 75
     0
  3
Standard (DIN)
100
AcDbAlignedDimension
 13
50.85729309221132
 23
97.92608322103845
 33
0.0
 14
48.95729309221131
 24
124.5260832210384
 34
0.0
 50
270.0
100
AcDbRotatedDimension
1001
ACAD
1000
DSTYLE
1002
{
1070
   172
1070
     0
1070
   289
1070
     1
1070
   271
1070
     2
1070
   272
1070
     2
1070
    48
1040
0.0
1070
    47
1040
0.0
1002
}
  0
DIMENSION
  5
364
330
71
100
AcDbEntity
  8
Bemaßung (ISO)
100
AcDbDimension
280
     0
  2
*D6
 10
55.35729309221132
 20
93.42608322103844
 30
0.0
 11
46.44445018072945
 21
93.42608322103844
 31
0.0
 70
   160
  1
M<>
 71
     5
 42
5.0
 73
     0
 74
     0
 75
     0
  3
Standard (DIN)
100
AcDbAlignedDimension
 13
50.35729309221132
 23
98.42608322103844
 33
0.0
 14
55.35729309221132
 24
98.42608322103844
 34
0.0
 50
180.0
100
AcDbRotatedDimension
1001
ACAD
1000
DSTYLE
1002
{
1070
   172
1070
     0
1070
   289
1070
     2
1070
   271
1070
     2
1070
   272
1070
     2
1070
    48
1040
0.0
1070
    47
1040
0.0
1002
}
  0
DIMENSION
  5
453
330
71
100
AcDbEntity
  8
Bemaßung (ISO)
100
AcDbDimension
280
     0
  2
*D7
 10
44.56517013073386
 20
103.1260832210384
 30
0.0
 11
44.56517013073386
 21
100.5260832210384
 31
0.0
 70
   160
  1
<>
 71
     5
 42
5.199999999999987
 73
     0
 74
     1
 75
     1
  3
Standard (DIN)
100
AcDbAlignedDimension
 13
50.85729309221132
 23
97.92608322103845
 33
0.0
 14
48.81729309221132
 24
103.1260832210384
 34
0.0
 50
270.0
100
AcDbRotatedDimension
1001
ACAD
1000
DSTYLE
1002
{
1070
   172
1070
     0
1070
   271
1070
     2
1070
   272
1070
     2
1070
    48
1040
0.0
1070
    47
1040
0.0
1002
}
  0
DIMENSION
  5
53D
330
71
100
AcDbEntity
  8
Bemaßung (ISO)
100
AcDbDimension
280
     0
  2
*D8
 10
55.85729309219489
 20
71.90972703639771
 30
0.0
 11
52.8572930921949
 21
71.90972703639771
 31
0.0
 70
   160
  1
\fAIGDT|b0|i0;\H1.2437;n\fArial|b0|i0;\H1.2500;<>
 71
     5
 42
5.999999999999992
 73
     0
 74
     0
 75
     0
  3
Standard (DIN)
100
AcDbAlignedDimension
 13
49.8572930921949
 23
82.52918560833945
 33
0.0
 14
55.85729309219489
 24
82.52918560833945
 34
0.0
 50
180.0
100
AcDbRotatedDimension
1001
ACAD
1000
DSTYLE
1002
{
1070
   172
1070
     0
1070
   289
1070
     1
1070
   271
1070
     2
1070
   272
1070
     2
1070
    48
1040
0.0
1070
    47
1040
0.0
1002
}
  0
LINE
  5
620
330
71
100
AcDbEntity
  8
Mittellinie (ISO)
  6
CHAIN
 48
23.99096870422363
100
AcDbLine
 10
52.85729309221132
 20
125.7760832210384
 30
0.0
 11
52.85729309221132
 21
96.67608322103845
 31
0.0
  0
LINE
  5
621
330
71
100
AcDbEntity
  8
Mittelpunktmarkierung (ISO)
  6
CHAIN
 48
23.99096870422363
100
AcDbLine
 10
59.83229309219488
 20
82.52918560833734
 30
0.0
 11
45.8822930921949
 21
82.52918560833734
 31
0.0
  0
LINE
  5
622
330
71
100
AcDbEntity
  8
Mittelpunktmarkierung (ISO)
  6
CHAIN
 48
23.99096870422363
100
AcDbLine
 10
52.8572930921949
 20
89.50418560833735
 30
0.0
 11
52.8572930921949
 21
75.55418560833735
 31
0.0
  0
MTEXT
  5
623
330
71
100
AcDbEntity
  8
Symbol (ISO)
 62
     1
420
 16711680
100
AcDbMText
 10
38.97624322585482
 20
117.038259895556
 30
0.0
 40
1.25
 41
0.0
 46
0.0
 71
     1
 72
     1
  1
{\fArial|b1|i0;\H1.2500;B}
  7
Notiztext (DIN)
 73
     1
 44
1.0
  0
MTEXT
  5
624
330
71
100
AcDbEntity
  8
Symbol (ISO)
 62
     1
420
 16711680
100
AcDbMText
 10
16.89685817616271
 20
60.34397842949625
 30
0.0
 40
1.25
 41
0.0
 46
0.0
 71
     1
 72
     1
  1
{\fArial|b1|i0;\H1.2500;B}
  7
Notiztext (DIN)
 73
     1
 44
1.0
  0
MTEXT
  5
625
330
71
100
AcDbEntity
  8
Symbol (ISO)
 62
     1
420
 16711680
100
AcDbMText
 10
30.81775643362147
 20
39.5459299273029
 30
0.0
 40
1.25
 41
0.0
 46
0.0
 71
     1
 72
     1
  1
{\fArial|b1|i0;\H1.2500;B}
  7
Notiztext (DIN)
 73
     1
 44
1.0
  0
CIRCLE
  5
626
330
71
100
AcDbEntity
  8
Skizziergeometrie (ISO)
100
AcDbCircle
 10
31.44954046153083
 20
38.86842945520739
 30
0.0
 40
0.8749999999999914
  0
CIRCLE
  5
627
330
71
100
AcDbEntity
  8
Skizziergeometrie (ISO)
100
AcDbCircle
 10
17.52480491465959
 20
59.69552314334187
 30
0.0
 40
0.8749999999999984
  0
CIRCLE
  5
628
330
71
100
AcDbEntity
  8
Skizziergeometrie (ISO)
100
AcDbCircle
 10
39.62194952611465
 20
116.3949540405121
 30
0.0
 40
0.8749999999999996
  0
MTEXT
  5
629
330
71
100
AcDbEntity
  8
Symbol (ISO)
100
AcDbMText
 10
73.33284549343625
 20
10.91481862799077
 30
0.0
 40
1.00000001490116
 41
35.87195158004761
 46
0.0
 71
     2
 72
     1
  1
{\fArial|b1|i0;\H1.0000;Schlauchanschluss M5a für Schlauch aØ6mm gerade/\P\fArial|b1|i1;\H1.0000;Tube connector M5o for tube oØ6mm straight}
  7
Notiztext (DIN)
 73
     2
 44
0.9442214369773862
  0
ENDSEC
  0
SECTION
  2
OBJECTS
  0
DICTIONARY
  5
C
330
0
100
AcDbDictionary
281
     1
  3
ACAD_CIP_PREVIOUS_PRODUCT_INFO
350
62B
  3
ACAD_COLOR
350
63
  3
ACAD_DETAILVIEWSTYLE
350
6B
  3
ACAD_GROUP
350
D
  3
ACAD_LAYOUT
350
62
  3
ACAD_MATERIAL
350
10
  3
ACAD_MLEADERSTYLE
350
66
  3
ACAD_MLINESTYLE
350
5F
  3
ACAD_PLOTSETTINGS
350
61
  3
ACAD_PLOTSTYLENAME
350
E
  3
ACAD_SCALELIST
350
42
  3
ACAD_SECTIONVIEWSTYLE
350
68
  3
ACAD_TABLESTYLE
350
64
  3
ACAD_VISUALSTYLE
350
29
  3
ACDB_RECOMPOSE_DATA
350
841
  3
AcDbVariableDictionary
350
62C
  0
DICTIONARY
  5
634
330
1D0
100
AcDbDictionary
280
     1
281
     1
  3
ACAD_MTEXT_2008_RT
360
786
  0
DICTIONARY
  5
636
330
1D3
100
AcDbDictionary
280
     1
281
     1
  3
ACAD_MLATT
360
789
  3
ACAD_XREC_ROUNDTRIP
360
788
  0
DICTIONARY
  5
639
330
1D6
100
AcDbDictionary
280
     1
281
     1
  3
ACAD_MLATT
360
78B
  3
ACAD_XREC_ROUNDTRIP
360
78A
  0
DICTIONARY
  5
63C
330
1D8
100
AcDbDictionary
280
     1
281
     1
  3
ACAD_MLATT
360
78D
  3
ACAD_XREC_ROUNDTRIP
360
78C
  0
DICTIONARY
  5
63F
330
1D9
100
AcDbDictionary
280
     1
281
     1
  3
ACAD_MLATT
360
78F
  3
ACAD_XREC_ROUNDTRIP
360
78E
  0
DICTIONARY
  5
642
330
1DA
100
AcDbDictionary
280
     1
281
     1
  3
ACAD_MLATT
360
791
  3
ACAD_XREC_ROUNDTRIP
360
790
  0
DICTIONARY
  5
645
330
1DB
100
AcDbDictionary
280
     1
281
     1
  3
ACAD_MLATT
360
793
  3
ACAD_XREC_ROUNDTRIP
360
792
  0
DICTIONARY
  5
648
330
1DC
100
AcDbDictionary
280
     1
281
     1
  3
ACAD_MLATT
360
795
  3
ACAD_XREC_ROUNDTRIP
360
794
  0
DICTIONARY
  5
64B
330
1DD
100
AcDbDictionary
280
     1
281
     1
  3
ACAD_MLATT
360
797
  3
ACAD_XREC_ROUNDTRIP
360
796
  0
DICTIONARY
  5
64E
330
1DE
100
AcDbDictionary
280
     1
281
     1
  3
ACAD_MLATT
360
799
  3
ACAD_XREC_ROUNDTRIP
360
798
  0
DICTIONARY
  5
651
330
1DF
100
AcDbDictionary
280
     1
281
     1
  3
ACAD_MLATT
360
79B
  3
ACAD_XREC_ROUNDTRIP
360
79A
  0
DICTIONARY
  5
654
330
1E0
100
AcDbDictionary
280
     1
281
     1
  3
ACAD_MLATT
360
79D
  3
ACAD_XREC_ROUNDTRIP
360
79C
  0
DICTIONARY
  5
657
330
1E1
100
AcDbDictionary
280
     1
281
     1
  3
ACAD_MLATT
360
79F
  3
ACAD_XREC_ROUNDTRIP
360
79E
  0
DICTIONARY
  5
65A
330
1E2
100
AcDbDictionary
280
     1
281
     1
  3
ACAD_MLATT
360
7A1
  3
ACAD_XREC_ROUNDTRIP
360
7A0
  0
DICTIONARY
  5
65D
330
1E3
100
AcDbDictionary
280
     1
281
     1
  3
ACAD_MLATT
360
7A3
  3
ACAD_XREC_ROUNDTRIP
360
7A2
  0
DICTIONARY
  5
660
330
1E4
100
AcDbDictionary
280
     1
281
     1
  3
ACAD_MLATT
360
7A5
  3
ACAD_XREC_ROUNDTRIP
360
7A4
  0
DICTIONARY
  5
663
330
1E5
100
AcDbDictionary
280
     1
281
     1
  3
ACAD_MLATT
360
7A7
  3
ACAD_XREC_ROUNDTRIP
360
7A6
  0
DICTIONARY
  5
666
330
1E6
100
AcDbDictionary
280
     1
281
     1
  3
ACAD_MLATT
360
7A9
  3
ACAD_XREC_ROUNDTRIP
360
7A8
  0
DICTIONARY
  5
669
330
1E7
100
AcDbDictionary
280
     1
281
     1
  3
ACAD_MLATT
360
7AB
  3
ACAD_XREC_ROUNDTRIP
360
7AA
  0
DICTIONARY
  5
66C
330
1E8
100
AcDbDictionary
280
     1
281
     1
  3
ACAD_MLATT
360
7AD
  3
ACAD_XREC_ROUNDTRIP
360
7AC
  0
DICTIONARY
  5
66F
330
1E9
100
AcDbDictionary
280
     1
281
     1
  3
ACAD_MLATT
360
7AF
  3
ACAD_XREC_ROUNDTRIP
360
7AE
  0
DICTIONARY
  5
672
330
1EA
100
AcDbDictionary
280
     1
281
     1
  3
ACAD_MLATT
360
7B1
  3
ACAD_XREC_ROUNDTRIP
360
7B0
  0
DICTIONARY
  5
675
330
1EB
100
AcDbDictionary
280
     1
281
     1
  3
ACAD_MLATT
360
7B3
  3
ACAD_XREC_ROUNDTRIP
360
7B2
  0
DICTIONARY
  5
678
330
1EC
100
AcDbDictionary
280
     1
281
     1
  3
ACAD_MLATT
360
7B5
  3
ACAD_XREC_ROUNDTRIP
360
7B4
  0
DICTIONARY
  5
67B
330
1ED
100
AcDbDictionary
280
     1
281
     1
  3
ACAD_MLATT
360
7B7
  3
ACAD_XREC_ROUNDTRIP
360
7B6
  0
DICTIONARY
  5
67E
330
1EE
100
AcDbDictionary
280
     1
281
     1
  3
ACAD_MLATT
360
7B9
  3
ACAD_XREC_ROUNDTRIP
360
7B8
  0
DICTIONARY
  5
681
330
1EF
100
AcDbDictionary
280
     1
281
     1
  3
ACAD_MLATT
360
7BB
  3
ACAD_XREC_ROUNDTRIP
360
7BA
  0
DICTIONARY
  5
684
330
1F0
100
AcDbDictionary
280
     1
281
     1
  3
ACAD_MLATT
360
7BD
  3
ACAD_XREC_ROUNDTRIP
360
7BC
  0
DICTIONARY
  5
687
330
1F1
100
AcDbDictionary
280
     1
281
     1
  3
ACAD_MLATT
360
7BF
  3
ACAD_XREC_ROUNDTRIP
360
7BE
  0
DICTIONARY
  5
68A
330
1F2
100
AcDbDictionary
280
     1
281
     1
  3
ACAD_MLATT
360
7C1
  3
ACAD_XREC_ROUNDTRIP
360
7C0
  0
DICTIONARY
  5
68D
330
1F3
100
AcDbDictionary
280
     1
281
     1
  3
ACAD_MLATT
360
7C3
  3
ACAD_XREC_ROUNDTRIP
360
7C2
  0
DICTIONARY
  5
690
330
1F4
100
AcDbDictionary
280
     1
281
     1
  3
ACAD_MLATT
360
7C5
  3
ACAD_XREC_ROUNDTRIP
360
7C4
  0
DICTIONARY
  5
693
330
1F5
100
AcDbDictionary
280
     1
281
     1
  3
ACAD_MLATT
360
7C7
  3
ACAD_XREC_ROUNDTRIP
360
7C6
  0
DICTIONARY
  5
696
330
1F6
100
AcDbDictionary
280
     1
281
     1
  3
ACAD_MLATT
360
7C9
  3
ACAD_XREC_ROUNDTRIP
360
7C8
  0
DICTIONARY
  5
699
330
1F7
100
AcDbDictionary
280
     1
281
     1
  3
ACAD_MLATT
360
7CB
  3
ACAD_XREC_ROUNDTRIP
360
7CA
  0
DICTIONARY
  5
69C
330
1F9
100
AcDbDictionary
280
     1
281
     1
  3
ACAD_MLATT
360
7CD
  3
ACAD_XREC_ROUNDTRIP
360
7CC
  0
DICTIONARY
  5
69F
330
1FA
100
AcDbDictionary
280
     1
281
     1
  3
ACAD_MLATT
360
7CF
  3
ACAD_XREC_ROUNDTRIP
360
7CE
  0
DICTIONARY
  5
6A2
330
1FC
100
AcDbDictionary
280
     1
281
     1
  3
ACAD_MLATT
360
7D1
  3
ACAD_XREC_ROUNDTRIP
360
7D0
  0
DICTIONARY
  5
6A5
330
1FD
100
AcDbDictionary
280
     1
281
     1
  3
ACAD_MLATT
360
7D3
  3
ACAD_XREC_ROUNDTRIP
360
7D2
  0
DICTIONARY
  5
6A8
330
1FE
100
AcDbDictionary
280
     1
281
     1
  3
ACAD_MLATT
360
7D5
  3
ACAD_XREC_ROUNDTRIP
360
7D4
  0
DICTIONARY
  5
6AB
330
1FF
100
AcDbDictionary
280
     1
281
     1
  3
ACAD_MLATT
360
7D7
  3
ACAD_XREC_ROUNDTRIP
360
7D6
  0
DICTIONARY
  5
6AE
330
201
100
AcDbDictionary
280
     1
281
     1
  3
ACAD_MLATT
360
7D9
  3
ACAD_XREC_ROUNDTRIP
360
7D8
  0
DICTIONARY
  5
6B1
330
202
100
AcDbDictionary
280
     1
281
     1
  3
ACAD_MLATT
360
7DB
  3
ACAD_XREC_ROUNDTRIP
360
7DA
  0
DICTIONARY
  5
6B4
330
203
100
AcDbDictionary
280
     1
281
     1
  3
ACAD_MLATT
360
7DD
  3
ACAD_XREC_ROUNDTRIP
360
7DC
  0
DICTIONARY
  5
6B7
330
204
100
AcDbDictionary
280
     1
281
     1
  3
ACAD_MLATT
360
7DF
  3
ACAD_XREC_ROUNDTRIP
360
7DE
  0
DICTIONARY
  5
6BA
330
205
100
AcDbDictionary
280
     1
281
     1
  3
ACAD_MLATT
360
7E1
  3
ACAD_XREC_ROUNDTRIP
360
7E0
  0
DICTIONARY
  5
6BD
330
206
100
AcDbDictionary
280
     1
281
     1
  3
ACAD_MLATT
360
7E3
  3
ACAD_XREC_ROUNDTRIP
360
7E2
  0
DICTIONARY
  5
6C0
330
209
100
AcDbDictionary
280
     1
281
     1
  3
ACAD_MLATT
360
7E5
  3
ACAD_XREC_ROUNDTRIP
360
7E4
  0
DICTIONARY
  5
6C3
330
20A
100
AcDbDictionary
280
     1
281
     1
  3
ACAD_MLATT
360
7E7
  3
ACAD_XREC_ROUNDTRIP
360
7E6
  0
DICTIONARY
  5
6C6
330
20C
100
AcDbDictionary
280
     1
281
     1
  3
ACAD_MLATT
360
7E9
  3
ACAD_XREC_ROUNDTRIP
360
7E8
  0
DICTIONARY
  5
6C9
330
20D
100
AcDbDictionary
280
     1
281
     1
  3
ACAD_MLATT
360
7EB
  3
ACAD_XREC_ROUNDTRIP
360
7EA
  0
DICTIONARY
  5
6CC
330
20E
100
AcDbDictionary
280
     1
281
     1
  3
ACAD_MLATT
360
7ED
  3
ACAD_XREC_ROUNDTRIP
360
7EC
  0
DICTIONARY
  5
6CF
330
20F
100
AcDbDictionary
280
     1
281
     1
  3
ACAD_MLATT
360
7EF
  3
ACAD_XREC_ROUNDTRIP
360
7EE
  0
DICTIONARY
  5
6D2
330
210
100
AcDbDictionary
280
     1
281
     1
  3
ACAD_MLATT
360
7F1
  3
ACAD_XREC_ROUNDTRIP
360
7F0
  0
DICTIONARY
  5
6D5
330
211
100
AcDbDictionary
280
     1
281
     1
  3
ACAD_MLATT
360
7F3
  3
ACAD_XREC_ROUNDTRIP
360
7F2
  0
DICTIONARY
  5
6D8
330
212
100
AcDbDictionary
280
     1
281
     1
  3
ACAD_MLATT
360
7F5
  3
ACAD_XREC_ROUNDTRIP
360
7F4
  0
DICTIONARY
  5
6DB
330
213
100
AcDbDictionary
280
     1
281
     1
  3
ACAD_MLATT
360
7F7
  3
ACAD_XREC_ROUNDTRIP
360
7F6
  0
DICTIONARY
  5
6DE
330
214
100
AcDbDictionary
280
     1
281
     1
  3
ACAD_MLATT
360
7F9
  3
ACAD_XREC_ROUNDTRIP
360
7F8
  0
DICTIONARY
  5
6E1
330
215
100
AcDbDictionary
280
     1
281
     1
  3
ACAD_MLATT
360
7FB
  3
ACAD_XREC_ROUNDTRIP
360
7FA
  0
DICTIONARY
  5
6E4
330
216
100
AcDbDictionary
280
     1
281
     1
  3
ACAD_MLATT
360
7FD
  3
ACAD_XREC_ROUNDTRIP
360
7FC
  0
DICTIONARY
  5
6E7
330
217
100
AcDbDictionary
280
     1
281
     1
  3
ACAD_MLATT
360
7FF
  3
ACAD_XREC_ROUNDTRIP
360
7FE
  0
DICTIONARY
  5
6EA
330
218
100
AcDbDictionary
280
     1
281
     1
  3
ACAD_MLATT
360
801
  3
ACAD_XREC_ROUNDTRIP
360
800
  0
DICTIONARY
  5
6ED
330
219
100
AcDbDictionary
280
     1
281
     1
  3
ACAD_MLATT
360
803
  3
ACAD_XREC_ROUNDTRIP
360
802
  0
DICTIONARY
  5
6F0
330
21A
100
AcDbDictionary
280
     1
281
     1
  3
ACAD_MLATT
360
805
  3
ACAD_XREC_ROUNDTRIP
360
804
  0
DICTIONARY
  5
6F3
330
21B
100
AcDbDictionary
280
     1
281
     1
  3
ACAD_MLATT
360
807
  3
ACAD_XREC_ROUNDTRIP
360
806
  0
DICTIONARY
  5
6F6
330
21C
100
AcDbDictionary
280
     1
281
     1
  3
ACAD_MLATT
360
809
  3
ACAD_XREC_ROUNDTRIP
360
808
  0
DICTIONARY
  5
6F9
330
21D
100
AcDbDictionary
280
     1
281
     1
  3
ACAD_MLATT
360
80B
  3
ACAD_XREC_ROUNDTRIP
360
80A
  0
DICTIONARY
  5
6FC
330
21E
100
AcDbDictionary
280
     1
281
     1
  3
ACAD_MLATT
360
80D
  3
ACAD_XREC_ROUNDTRIP
360
80C
  0
DICTIONARY
  5
6FF
330
21F
100
AcDbDictionary
280
     1
281
     1
  3
ACAD_MLATT
360
80F
  3
ACAD_XREC_ROUNDTRIP
360
80E
  0
DICTIONARY
  5
702
330
220
100
AcDbDictionary
280
     1
281
     1
  3
ACAD_MLATT
360
811
  3
ACAD_XREC_ROUNDTRIP
360
810
  0
DICTIONARY
  5
705
330
221
100
AcDbDictionary
280
     1
281
     1
  3
ACAD_MLATT
360
813
  3
ACAD_XREC_ROUNDTRIP
360
812
  0
DICTIONARY
  5
708
330
222
100
AcDbDictionary
280
     1
281
     1
  3
ACAD_MLATT
360
815
  3
ACAD_XREC_ROUNDTRIP
360
814
  0
DICTIONARY
  5
70B
330
223
100
AcDbDictionary
280
     1
281
     1
  3
ACAD_MLATT
360
817
  3
ACAD_XREC_ROUNDTRIP
360
816
  0
DICTIONARY
  5
70E
330
224
100
AcDbDictionary
280
     1
281
     1
  3
ACAD_MLATT
360
819
  3
ACAD_XREC_ROUNDTRIP
360
818
  0
DICTIONARY
  5
711
330
225
100
AcDbDictionary
280
     1
281
     1
  3
ACAD_MLATT
360
81B
  3
ACAD_XREC_ROUNDTRIP
360
81A
  0
DICTIONARY
  5
714
330
226
100
AcDbDictionary
280
     1
281
     1
  3
ACAD_MLATT
360
81D
  3
ACAD_XREC_ROUNDTRIP
360
81C
  0
DICTIONARY
  5
717
330
227
100
AcDbDictionary
280
     1
281
     1
  3
ACAD_MLATT
360
81F
  3
ACAD_XREC_ROUNDTRIP
360
81E
  0
DICTIONARY
  5
71A
330
228
100
AcDbDictionary
280
     1
281
     1
  3
ACAD_MLATT
360
821
  3
ACAD_XREC_ROUNDTRIP
360
820
  0
DICTIONARY
  5
71D
330
229
100
AcDbDictionary
280
     1
281
     1
  3
ACAD_MLATT
360
823
  3
ACAD_XREC_ROUNDTRIP
360
822
  0
DICTIONARY
  5
720
330
22A
100
AcDbDictionary
280
     1
281
     1
  3
ACAD_MLATT
360
825
  3
ACAD_XREC_ROUNDTRIP
360
824
  0
DICTIONARY
  5
723
330
22B
100
AcDbDictionary
280
     1
281
     1
  3
ACAD_MLATT
360
827
  3
ACAD_XREC_ROUNDTRIP
360
826
  0
DICTIONARY
  5
726
330
22C
100
AcDbDictionary
280
     1
281
     1
  3
ACAD_MLATT
360
829
  3
ACAD_XREC_ROUNDTRIP
360
828
  0
DICTIONARY
  5
729
330
22D
100
AcDbDictionary
280
     1
281
     1
  3
ACAD_MLATT
360
82B
  3
ACAD_XREC_ROUNDTRIP
360
82A
  0
DICTIONARY
  5
72C
330
22E
100
AcDbDictionary
280
     1
281
     1
  3
ACAD_MLATT
360
82D
  3
ACAD_XREC_ROUNDTRIP
360
82C
  0
DICTIONARY
  5
72F
330
22F
100
AcDbDictionary
280
     1
281
     1
  3
ACAD_MLATT
360
82F
  3
ACAD_XREC_ROUNDTRIP
360
82E
  0
DICTIONARY
  5
732
330
230
100
AcDbDictionary
280
     1
281
     1
  3
ACAD_MLATT
360
831
  3
ACAD_XREC_ROUNDTRIP
360
830
  0
DICTIONARY
  5
735
330
231
100
AcDbDictionary
280
     1
281
     1
  3
ACAD_MLATT
360
833
  3
ACAD_XREC_ROUNDTRIP
360
832
  0
DICTIONARY
  5
738
330
232
100
AcDbDictionary
280
     1
281
     1
  3
ACAD_MLATT
360
835
  3
ACAD_XREC_ROUNDTRIP
360
834
  0
DICTIONARY
  5
73B
330
233
100
AcDbDictionary
280
     1
281
     1
  3
ACAD_MLATT
360
837
  3
ACAD_XREC_ROUNDTRIP
360
836
  0
DICTIONARY
  5
73E
330
234
100
AcDbDictionary
280
     1
281
     1
  3
ACAD_MLATT
360
839
  3
ACAD_XREC_ROUNDTRIP
360
838
  0
DICTIONARY
  5
741
330
235
100
AcDbDictionary
280
     1
281
     1
  3
ACAD_MLATT
360
83B
  3
ACAD_XREC_ROUNDTRIP
360
83A
  0
DICTIONARY
  5
744
330
236
100
AcDbDictionary
280
     1
281
     1
  3
ACAD_MLATT
360
83D
  3
ACAD_XREC_ROUNDTRIP
360
83C
  0
DICTIONARY
  5
747
330
237
100
AcDbDictionary
280
     1
281
     1
  3
ACAD_MLATT
360
83F
  3
ACAD_XREC_ROUNDTRIP
360
83E
  0
XRECORD
  5
62B
102
{ACAD_REACTORS
330
C
102
}
330
C
100
AcDbXrecord
280
     1
300
INVPROSA
300
2013
300
85964PDSS_2013_0F
  0
DICTIONARY
  5
63
102
{ACAD_REACTORS
330
C
102
}
330
C
100
AcDbDictionary
281
     1
  0
DICTIONARY
  5
6B
102
{ACAD_REACTORS
330
C
102
}
330
C
100
AcDbDictionary
281
     1
  3
Imperial24
350
6C
  3
Metric50
350
782
  0
DICTIONARY
  5
D
102
{ACAD_REACTORS
330
C
102
}
330
C
100
AcDbDictionary
281
     1
  0
DICTIONARY
  5
62
102
{ACAD_REACTORS
330
C
102
}
330
C
100
AcDbDictionary
281
     1
  3
Layout1
350
70
  3
Layout2
350
78
  3
Model
350
74
  0
DICTIONARY
  5
10
102
{ACAD_REACTORS
330
C
102
}
330
C
100
AcDbDictionary
281
     1
  3
ByBlock
350
19
  3
ByLayer
350
11
  3
Global
350
21
  0
DICTIONARY
  5
66
102
{ACAD_REACTORS
330
C
102
}
330
C
100
AcDbDictionary
281
     1
  3
Standard
350
67
  0
DICTIONARY
  5
5F
102
{ACAD_REACTORS
330
C
102
}
330
C
100
AcDbDictionary
281
     1
  3
Standard
350
60
  0
DICTIONARY
  5
61
102
{ACAD_REACTORS
330
C
102
}
330
C
100
AcDbDictionary
281
     1
  0
ACDBDICTIONARYWDFLT
  5
E
102
{ACAD_REACTORS
330
C
102
}
330
C
100
AcDbDictionary
281
     1
  3
Normal
350
F
100
AcDbDictionaryWithDefault
340
F
  0
DICTIONARY
  5
42
102
{ACAD_REACTORS
330
C
102
}
330
C
100
AcDbDictionary
281
     1
  3
A0
350
43
  3
A1
350
44
  3
A2
350
45
  3
A3
350
46
  3
A4
350
47
  3
A5
350
48
  3
A6
350
49
  3
A7
350
4A
  3
A8
350
4B
  3
A9
350
4C
  3
B0
350
4D
  3
B1
350
4E
  3
B2
350
4F
  3
B3
350
50
  3
B4
350
51
  3
B5
350
52
  3
B6
350
53
  0
DICTIONARY
  5
68
102
{ACAD_REACTORS
330
C
102
}
330
C
100
AcDbDictionary
281
     1
  3
Imperial24
350
6A
  3
Metric50
350
781
  0
DICTIONARY
  5
64
102
{ACAD_REACTORS
330
C
102
}
330
C
100
AcDbDictionary
281
     1
  3
Standard
350
65
  0
DICTIONARY
  5
29
102
{ACAD_REACTORS
330
C
102
}
330
C
100
AcDbDictionary
281
     1
  3
2dWireframe
350
2F
  3
Basic
350
2E
  3
Brighten
350
35
  3
ColorChange
350
39
  3
Conceptual
350
32
  3
Dim
350
34
  3
EdgeColorOff
350
41
  3
Facepattern
350
38
  3
Flat
350
2A
  3
FlatWithEdges
350
2B
  3
Gouraud
350
2C
  3
GouraudWithEdges
350
2D
  3
Hidden
350
31
  3
JitterOff
350
3F
  3
Linepattern
350
37
  3
OverhangOff
350
40
  3
Realistic
350
33
  3
Shaded
350
3E
  3
Shaded with edges
350
3D
  3
Shades of Gray
350
3A
  3
Sketchy
350
3B
  3
Thicken
350
36
  3
Wireframe
350
30
  3
X-Ray
350
3C
  0
XRECORD
  5
841
102
{ACAD_REACTORS
330
C
102
}
330
C
100
AcDbXrecord
280
     1
 90
        1
330
65
330
1D0
330
1D3
330
1D6
330
1D8
330
1D9
330
1DA
330
1DB
330
1DC
330
1DD
330
1DE
330
1DF
330
1E0
330
1E1
330
1E2
330
1E3
330
1E4
330
1E5
330
1E6
330
1E7
330
1E8
330
1E9
330
1EA
330
1EB
330
1EC
330
1ED
330
1EE
330
1EF
330
1F0
330
1F1
330
1F2
330
1F3
330
1F4
330
1F5
330
1F6
330
1F7
330
1F9
330
1FA
330
1FC
330
1FD
330
1FE
330
1FF
330
201
330
202
330
203
330
204
330
205
330
206
330
209
330
20A
330
20C
330
20D
330
20E
330
20F
330
210
330
211
330
212
330
213
330
214
330
215
330
216
330
217
330
218
330
219
330
21A
330
21B
330
21C
330
21D
330
21E
330
21F
330
220
330
221
330
222
330
223
330
224
330
225
330
226
330
227
330
228
330
229
330
22A
330
22B
330
22C
330
22D
330
22E
330
22F
330
230
330
231
330
232
330
233
330
234
330
235
330
236
330
237
  0
DICTIONARY
  5
62C
102
{ACAD_REACTORS
330
C
102
}
330
C
100
AcDbDictionary
281
     1
  3
CANNOSCALE
350
631
  3
CMLEADERSTYLE
350
62E
  3
CTABLESTYLE
350
62D
  3
CVIEWDETAILSTYLE
350
62F
  3
CVIEWSECTIONSTYLE
350
630
  0
XRECORD
  5
786
102
{ACAD_REACTORS
330
634
102
}
330
634
100
AcDbXrecord
280
     1
 40
1889884.0
  1
\pxsm0.94;\fArial|b1|i0;\H2.0000;perma-tec\fArial|b1|i0;\H1.0000; \fArial|b0|i0;\H1.5000;GmbH & Co. KG\P\fArial|b0|i0;\H1.4500;Hammelburger Str.21                      Tel. : +49 9704 609-0\P97717 EUERDORF / GERMANY    Fax : +49 9704 609-50
  0
XRECORD
  5
789
102
{ACAD_REACTORS
330
636
102
}
330
636
100
AcDbXrecord
280
     1
 70
     4
 70
     0
 70
     0
 40
1.0
  2
Blattgröße
  1
Embedded Object
 10
319.4666671943597
 20
121.1607299432635
 30
0.0
 40
2.5
 41
19.87483501434326
 46
0.0
 71
     5
 72
     5
  1
A4
  7
Notiztext (DIN)
 73
     1
 44
1.0
  0
XRECORD
  5
788
102
{ACAD_REACTORS
330
636
102
}
330
636
100
AcDbXrecord
280
     1
102
ACAD_MATT_HEIGHT
140
2.5
  0
XRECORD
  5
78B
102
{ACAD_REACTORS
330
639
102
}
330
639
100
AcDbXrecord
280
     1
 70
     4
 70
     0
 70
     0
 40
1.0
  2
Blattnummer
  1
Embedded Object
 10
320.2520684510879
 20
127.5905253810919
 30
0.0
 40
5.0
 41
44.98144626617431
 46
0.0
 71
     5
 72
     5
  1
1 
  7
Textstil106
 73
     1
 44
1.0
  0
XRECORD
  5
78A
102
{ACAD_REACTORS
330
639
102
}
330
639
100
AcDbXrecord
280
     1
102
ACAD_MATT_HEIGHT
140
5.0
  0
XRECORD
  5
78D
102
{ACAD_REACTORS
330
63C
102
}
330
63C
100
AcDbXrecord
280
     1
 70
     4
 70
     0
 70
     0
 40
1.0
  2
Status1
  1
Embedded Object
 10
141.2627883584022
 20
120.4632056155221
 30
0.0
 40
1.800000071525573
 41
6.714345249176076
 46
0.0
 71
     5
 72
     5
  1
B
  7
Textstil104
 73
     1
 44
1.0
  0
XRECORD
  5
78C
102
{ACAD_REACTORS
330
63C
102
}
330
63C
100
AcDbXrecord
280
     1
102
ACAD_MATT_HEIGHT
140
1.800000071525573
  0
XRECORD
  5
78F
102
{ACAD_REACTORS
330
63F
102
}
330
63F
100
AcDbXrecord
280
     1
 70
     4
 70
     0
 70
     0
 40
1.0
  2
Änderungen1
  1
Embedded Object
 10
158.6264137958634
 20
120.4632056155222
 30
0.0
 40
1.800000071525573
 41
25.93241522021302
 46
0.0
 71
     5
 72
     5
  1
Text ergänzt
  7
Textstil104
 73
     1
 44
1.0
  0
XRECORD
  5
78E
102
{ACAD_REACTORS
330
63F
102
}
330
63F
100
AcDbXrecord
280
     1
102
ACAD_MATT_HEIGHT
140
1.800000071525573
  0
XRECORD
  5
791
102
{ACAD_REACTORS
330
642
102
}
330
642
100
AcDbXrecord
280
     1
 70
     4
 70
     0
 70
     0
 40
1.0
  2
Datum1
  1
Embedded Object
 10
177.3127883584022
 20
120.4632056155221
 30
0.0
 40
1.800000071525573
 41
11.34531851480858
 46
0.0
 71
     5
 72
     5
  1
21.11.13
  7
Textstil104
 73
     1
 44
1.0
  0
XRECORD
  5
790
102
{ACAD_REACTORS
330
642
102
}
330
642
100
AcDbXrecord
280
     1
102
ACAD_MATT_HEIGHT
140
1.800000071525573
  0
XRECORD
  5
793
102
{ACAD_REACTORS
330
645
102
}
330
645
100
AcDbXrecord
280
     1
 70
     4
 70
     0
 70
     0
 40
1.0
  2
Name1
  1
Embedded Object
 10
187.3627883584022
 20
120.4632056155221
 30
0.0
 40
1.800000071525573
 41
7.347608624633678
 46
0.0
 71
     5
 72
     5
  1
Bader
  7
Textstil104
 73
     1
 44
1.0
  0
XRECORD
  5
792
102
{ACAD_REACTORS
330
645
102
}
330
645
100
AcDbXrecord
280
     1
102
ACAD_MATT_HEIGHT
140
1.800000071525573
  0
XRECORD
  5
795
102
{ACAD_REACTORS
330
648
102
}
330
648
100
AcDbXrecord
280
     1
 70
     4
 70
     0
 70
     0
 40
1.0
  2
Status2
  1
Embedded Object
 10
141.2627883584022
 20
124.7132056155221
 30
0.0
 40
1.800000071525573
 41
6.608567028526798
 46
0.0
 71
     5
 72
     5
  1
B
  7
Textstil104
 73
     1
 44
1.0
  0
XRECORD
  5
794
102
{ACAD_REACTORS
330
648
102
}
330
648
100
AcDbXrecord
280
     1
102
ACAD_MATT_HEIGHT
140
1.800000071525573
  0
XRECORD
  5
797
102
{ACAD_REACTORS
330
64B
102
}
330
64B
100
AcDbXrecord
280
     1
 70
     4
 70
     0
 70
     0
 40
1.0
  2
Änderungen2
  1
Embedded Object
 10
158.6264137958634
 20
124.7132056155221
 30
0.0
 40
1.800000071525573
 41
25.91460926580964
 46
0.0
 71
     5
 72
     5
  1
SW entfernt
  7
Textstil104
 73
     1
 44
1.0
  0
XRECORD
  5
796
102
{ACAD_REACTORS
330
64B
102
}
330
64B
100
AcDbXrecord
280
     1
102
ACAD_MATT_HEIGHT
140
1.800000071525573
  0
XRECORD
  5
799
102
{ACAD_REACTORS
330
64E
102
}
330
64E
100
AcDbXrecord
280
     1
 70
     4
 70
     0
 70
     0
 40
1.0
  2
Datum2
  1
Embedded Object
 10
177.3127883584022
 20
124.7132056155221
 30
0.0
 40
1.800000071525573
 41
11.34301548981597
 46
0.0
 71
     5
 72
     5
  1
21.11.13
  7
Textstil104
 73
     1
 44
1.0
  0
XRECORD
  5
798
102
{ACAD_REACTORS
330
64E
102
}
330
64E
100
AcDbXrecord
280
     1
102
ACAD_MATT_HEIGHT
140
1.800000071525573
  0
XRECORD
  5
79B
102
{ACAD_REACTORS
330
651
102
}
330
651
100
AcDbXrecord
280
     1
 70
     4
 70
     0
 70
     0
 40
1.0
  2
Name2
  1
Embedded Object
 10
187.3627883584022
 20
124.7132056155221
 30
0.0
 40
1.800000071525573
 41
5.454410644512249
 46
0.0
 71
     5
 72
     5
  1
Bader
  7
Textstil104
 73
     1
 44
1.0
  0
XRECORD
  5
79A
102
{ACAD_REACTORS
330
651
102
}
330
651
100
AcDbXrecord
280
     1
102
ACAD_MATT_HEIGHT
140
1.800000071525573
  0
XRECORD
  5
79D
102
{ACAD_REACTORS
330
654
102
}
330
654
100
AcDbXrecord
280
     1
 70
     4
 70
     0
 70
     0
 40
1.0
  2
Status3
  1
Embedded Object
 10
141.2627883584022
 20
128.9632056155222
 30
0.0
 40
1.800000071525573
 41
6.632595015006507
 46
0.0
 71
     5
 72
     5
  1
B
  7
Textstil104
 73
     1
 44
1.0
  0
XRECORD
  5
79C
102
{ACAD_REACTORS
330
654
102
}
330
654
100
AcDbXrecord
280
     1
102
ACAD_MATT_HEIGHT
140
1.800000071525573
  0
XRECORD
  5
79F
102
{ACAD_REACTORS
330
657
102
}
330
657
100
AcDbXrecord
280
     1
 70
     4
 70
     0
 70
     0
 40
1.0
  2
Änderungen3
  1
Embedded Object
 10
158.6264137958634
 20
128.9632056155222
 30
0.0
 40
1.800000071525573
 41
26.06039472470172
 46
0.0
 71
     5
 72
     5
  1
Maß in max.Maß
  7
Textstil104
 73
     1
 44
1.0
  0
XRECORD
  5
79E
102
{ACAD_REACTORS
330
657
102
}
330
657
100
AcDbXrecord
280
     1
102
ACAD_MATT_HEIGHT
140
1.800000071525573
  0
XRECORD
  5
7A1
102
{ACAD_REACTORS
330
65A
102
}
330
65A
100
AcDbXrecord
280
     1
 70
     4
 70
     0
 70
     0
 40
1.0
  2
Datum3
  1
Embedded Object
 10
177.3127883584022
 20
128.9632056155222
 30
0.0
 40
1.800000071525573
 41
11.23388242101747
 46
0.0
 71
     5
 72
     5
  1
21.11.13
  7
Textstil104
 73
     1
 44
1.0
  0
XRECORD
  5
7A0
102
{ACAD_REACTORS
330
65A
102
}
330
65A
100
AcDbXrecord
280
     1
102
ACAD_MATT_HEIGHT
140
1.800000071525573
  0
XRECORD
  5
7A3
102
{ACAD_REACTORS
330
65D
102
}
330
65D
100
AcDbXrecord
280
     1
 70
     4
 70
     0
 70
     0
 40
1.0
  2
Name3
  1
Embedded Object
 10
187.3627883584022
 20
128.9632056155222
 30
0.0
 40
1.800000071525573
 41
5.3917823903582
 46
0.0
 71
     5
 72
     5
  1
Bader
  7
Textstil104
 73
     1
 44
1.0
  0
XRECORD
  5
7A2
102
{ACAD_REACTORS
330
65D
102
}
330
65D
100
AcDbXrecord
280
     1
102
ACAD_MATT_HEIGHT
140
1.800000071525573
  0
XRECORD
  5
7A5
102
{ACAD_REACTORS
330
660
102
}
330
660
100
AcDbXrecord
280
     1
 70
     4
 70
     0
 70
     0
 40
1.0
  2
Status4
  1
Embedded Object
 10
141.2627883584022
 20
133.2132056155222
 30
0.0
 40
1.800000071525573
 41
6.688366328908267
 46
0.0
 71
     5
 72
     5
  1
B
  7
Textstil104
 73
     1
 44
1.0
  0
XRECORD
  5
7A4
102
{ACAD_REACTORS
330
660
102
}
330
660
100
AcDbXrecord
280
     1
102
ACAD_MATT_HEIGHT
140
1.800000071525573
  0
XRECORD
  5
7A7
102
{ACAD_REACTORS
330
663
102
}
330
663
100
AcDbXrecord
280
     1
 70
     4
 70
     0
 70
     0
 40
1.0
  2
Änderungen4
  1
Embedded Object
 10
158.6264137958634
 20
133.2132056155222
 30
0.0
 40
1.800000071525573
 41
25.83384786890043
 46
0.0
 71
     5
 72
     5
  1
Art.Nr. neu hinzu
  7
Textstil104
 73
     1
 44
1.0
  0
XRECORD
  5
7A6
102
{ACAD_REACTORS
330
663
102
}
330
663
100
AcDbXrecord
280
     1
102
ACAD_MATT_HEIGHT
140
1.800000071525573
  0
XRECORD
  5
7A9
102
{ACAD_REACTORS
330
666
102
}
330
666
100
AcDbXrecord
280
     1
 70
     4
 70
     0
 70
     0
 40
1.0
  2
Datum4
  1
Embedded Object
 10
177.3127883584022
 20
133.2132056155222
 30
0.0
 40
1.800000071525573
 41
11.19067108080422
 46
0.0
 71
     5
 72
     5
  1
21.11.13
  7
Textstil104
 73
     1
 44
1.0
  0
XRECORD
  5
7A8
102
{ACAD_REACTORS
330
666
102
}
330
666
100
AcDbXrecord
280
     1
102
ACAD_MATT_HEIGHT
140
1.800000071525573
  0
XRECORD
  5
7AB
102
{ACAD_REACTORS
330
669
102
}
330
669
100
AcDbXrecord
280
     1
 70
     4
 70
     0
 70
     0
 40
1.0
  2
Name4
  1
Embedded Object
 10
187.3627883584022
 20
133.2132056155222
 30
0.0
 40
1.800000071525573
 41
5.278027239458253
 46
0.0
 71
     5
 72
     5
  1
Bader
  7
Textstil104
 73
     1
 44
1.0
  0
XRECORD
  5
7AA
102
{ACAD_REACTORS
330
669
102
}
330
669
100
AcDbXrecord
280
     1
102
ACAD_MATT_HEIGHT
140
1.800000071525573
  0
XRECORD
  5
7AD
102
{ACAD_REACTORS
330
66C
102
}
330
66C
100
AcDbXrecord
280
     1
 70
     4
 70
     0
 70
     0
 40
1.0
  2
Status5
  1
Embedded Object
 10
141.2627883584022
 20
137.4632056155222
 30
0.0
 40
1.800000071525573
 41
6.699926087567503
 46
0.0
 71
     5
 72
     5
  1

  7
Textstil104
 73
     1
 44
1.0
  0
XRECORD
  5
7AC
102
{ACAD_REACTORS
330
66C
102
}
330
66C
100
AcDbXrecord
280
     1
102
ACAD_MATT_HEIGHT
140
1.800000071525573
  0
XRECORD
  5
7AF
102
{ACAD_REACTORS
330
66F
102
}
330
66F
100
AcDbXrecord
280
     1
 70
     4
 70
     0
 70
     0
 40
1.0
  2
Änderungen5
  1
Embedded Object
 10
158.6264137958634
 20
137.4632056155222
 30
0.0
 40
1.800000071525573
 41
25.86608902356204
 46
0.0
 71
     5
 72
     5
  1

  7
Textstil104
 73
     1
 44
1.0
  0
XRECORD
  5
7AE
102
{ACAD_REACTORS
330
66F
102
}
330
66F
100
AcDbXrecord
280
     1
102
ACAD_MATT_HEIGHT
140
1.800000071525573
  0
XRECORD
  5
7B1
102
{ACAD_REACTORS
330
672
102
}
330
672
100
AcDbXrecord
280
     1
 70
     4
 70
     0
 70
     0
 40
1.0
  2
Datum5
  1
Embedded Object
 10
177.3127883584022
 20
137.4632056155222
 30
0.0
 40
1.800000071525573
 41
11.09095292449815
 46
0.0
 71
     5
 72
     5
  1

  7
Textstil104
 73
     1
 44
1.0
  0
XRECORD
  5
7B0
102
{ACAD_REACTORS
330
672
102
}
330
672
100
AcDbXrecord
280
     1
102
ACAD_MATT_HEIGHT
140
1.800000071525573
  0
XRECORD
  5
7B3
102
{ACAD_REACTORS
330
675
102
}
330
675
100
AcDbXrecord
280
     1
 70
     4
 70
     0
 70
     0
 40
1.0
  2
Name5
  1
Embedded Object
 10
187.3627883584022
 20
137.4632056155222
 30
0.0
 40
1.800000071525573
 41
5.405852104200903
 46
0.0
 71
     5
 72
     5
  1

  7
Textstil104
 73
     1
 44
1.0
  0
XRECORD
  5
7B2
102
{ACAD_REACTORS
330
675
102
}
330
675
100
AcDbXrecord
280
     1
102
ACAD_MATT_HEIGHT
140
1.800000071525573
  0
XRECORD
  5
7B5
102
{ACAD_REACTORS
330
678
102
}
330
678
100
AcDbXrecord
280
     1
 70
     4
 70
     0
 70
     0
 40
1.0
  2
Status6
  1
Embedded Object
 10
141.2627883584022
 20
141.7132056155222
 30
0.0
 40
1.800000071525573
 41
6.626058417315795
 46
0.0
 71
     5
 72
     5
  1

  7
Textstil104
 73
     1
 44
1.0
  0
XRECORD
  5
7B4
102
{ACAD_REACTORS
330
678
102
}
330
678
100
AcDbXrecord
280
     1
102
ACAD_MATT_HEIGHT
140
1.800000071525573
  0
XRECORD
  5
7B7
102
{ACAD_REACTORS
330
67B
102
}
330
67B
100
AcDbXrecord
280
     1
 70
     4
 70
     0
 70
     0
 40
1.0
  2
Änderungen6
  1
Embedded Object
 10
158.6264137958634
 20
141.7132056155222
 30
0.0
 40
1.800000071525573
 41
25.88545129259238
 46
0.0
 71
     5
 72
     5
  1

  7
Textstil104
 73
     1
 44
1.0
  0
XRECORD
  5
7B6
102
{ACAD_REACTORS
330
67B
102
}
330
67B
100
AcDbXrecord
280
     1
102
ACAD_MATT_HEIGHT
140
1.800000071525573
  0
XRECORD
  5
7B9
102
{ACAD_REACTORS
330
67E
102
}
330
67E
100
AcDbXrecord
280
     1
 70
     4
 70
     0
 70
     0
 40
1.0
  2
Datum6
  1
Embedded Object
 10
177.3127883584022
 20
141.7132056155222
 30
0.0
 40
1.800000071525573
 41
11.11940549376804
 46
0.0
 71
     5
 72
     5
  1

  7
Textstil104
 73
     1
 44
1.0
  0
XRECORD
  5
7B8
102
{ACAD_REACTORS
330
67E
102
}
330
67E
100
AcDbXrecord
280
     1
102
ACAD_MATT_HEIGHT
140
1.800000071525573
  0
XRECORD
  5
7BB
102
{ACAD_REACTORS
330
681
102
}
330
681
100
AcDbXrecord
280
     1
 70
     4
 70
     0
 70
     0
 40
1.0
  2
Name6
  1
Embedded Object
 10
187.3627883584022
 20
141.7132056155222
 30
0.0
 40
1.800000071525573
 41
5.428906415697838
 46
0.0
 71
     5
 72
     5
  1

  7
Textstil104
 73
     1
 44
1.0
  0
XRECORD
  5
7BA
102
{ACAD_REACTORS
330
681
102
}
330
681
100
AcDbXrecord
280
     1
102
ACAD_MATT_HEIGHT
140
1.800000071525573
  0
XRECORD
  5
7BD
102
{ACAD_REACTORS
330
684
102
}
330
684
100
AcDbXrecord
280
     1
 70
     4
 70
     0
 70
     0
 40
1.0
  2
Status7
  1
Embedded Object
 10
141.2627883584022
 20
145.9632056155222
 30
0.0
 40
1.800000071525573
 41
6.754285458610205
 46
0.0
 71
     5
 72
     5
  1

  7
Textstil104
 73
     1
 44
1.0
  0
XRECORD
  5
7BC
102
{ACAD_REACTORS
330
684
102
}
330
684
100
AcDbXrecord
280
     1
102
ACAD_MATT_HEIGHT
140
1.800000071525573
  0
XRECORD
  5
7BF
102
{ACAD_REACTORS
330
687
102
}
330
687
100
AcDbXrecord
280
     1
 70
     4
 70
     0
 70
     0
 40
1.0
  2
Änderungen7
  1
Embedded Object
 10
158.6264137958634
 20
145.9632056155222
 30
0.0
 40
1.800000071525573
 41
25.83655907845781
 46
0.0
 71
     5
 72
     5
  1

  7
Textstil104
 73
     1
 44
1.0
  0
XRECORD
  5
7BE
102
{ACAD_REACTORS
330
687
102
}
330
687
100
AcDbXrecord
280
     1
102
ACAD_MATT_HEIGHT
140
1.800000071525573
  0
XRECORD
  5
7C1
102
{ACAD_REACTORS
330
68A
102
}
330
68A
100
AcDbXrecord
280
     1
 70
     4
 70
     0
 70
     0
 40
1.0
  2
Datum7
  1
Embedded Object
 10
177.3127883584022
 20
145.9632056155222
 30
0.0
 40
1.800000071525573
 41
11.21532305394055
 46
0.0
 71
     5
 72
     5
  1

  7
Textstil104
 73
     1
 44
1.0
  0
XRECORD
  5
7C0
102
{ACAD_REACTORS
330
68A
102
}
330
68A
100
AcDbXrecord
280
     1
102
ACAD_MATT_HEIGHT
140
1.800000071525573
  0
XRECORD
  5
7C3
102
{ACAD_REACTORS
330
68D
102
}
330
68D
100
AcDbXrecord
280
     1
 70
     4
 70
     0
 70
     0
 40
1.0
  2
Name7
  1
Embedded Object
 10
187.3627883584022
 20
145.9632056155222
 30
0.0
 40
1.800000071525573
 41
5.420890775717096
 46
0.0
 71
     5
 72
     5
  1

  7
Textstil104
 73
     1
 44
1.0
  0
XRECORD
  5
7C2
102
{ACAD_REACTORS
330
68D
102
}
330
68D
100
AcDbXrecord
280
     1
102
ACAD_MATT_HEIGHT
140
1.800000071525573
  0
XRECORD
  5
7C5
102
{ACAD_REACTORS
330
690
102
}
330
690
100
AcDbXrecord
280
     1
 70
     4
 70
     0
 70
     0
 40
1.0
  2
Status8
  1
Embedded Object
 10
141.2627883584022
 20
150.2132056155222
 30
0.0
 40
1.800000071525573
 41
7.072581688594183
 46
0.0
 71
     5
 72
     5
  1

  7
Textstil104
 73
     1
 44
1.0
  0
XRECORD
  5
7C4
102
{ACAD_REACTORS
330
690
102
}
330
690
100
AcDbXrecord
280
     1
102
ACAD_MATT_HEIGHT
140
1.800000071525573
  0
XRECORD
  5
7C7
102
{ACAD_REACTORS
330
693
102
}
330
693
100
AcDbXrecord
280
     1
 70
     4
 70
     0
 70
     0
 40
1.0
  2
Änderungen8
  1
Embedded Object
 10
158.6264137958634
 20
150.2132056155222
 30
0.0
 40
1.800000071525573
 41
25.96818377206723
 46
0.0
 71
     5
 72
     5
  1

  7
Textstil104
 73
     1
 44
1.0
  0
XRECORD
  5
7C6
102
{ACAD_REACTORS
330
693
102
}
330
693
100
AcDbXrecord
280
     1
102
ACAD_MATT_HEIGHT
140
1.800000071525573
  0
XRECORD
  5
7C9
102
{ACAD_REACTORS
330
696
102
}
330
696
100
AcDbXrecord
280
     1
 70
     4
 70
     0
 70
     0
 40
1.0
  2
Datum8
  1
Embedded Object
 10
177.3127883584022
 20
150.2132056155222
 30
0.0
 40
1.800000071525573
 41
11.38711363965775
 46
0.0
 71
     5
 72
     5
  1

  7
Textstil104
 73
     1
 44
1.0
  0
XRECORD
  5
7C8
102
{ACAD_REACTORS
330
696
102
}
330
696
100
AcDbXrecord
280
     1
102
ACAD_MATT_HEIGHT
140
1.800000071525573
  0
XRECORD
  5
7CB
102
{ACAD_REACTORS
330
699
102
}
330
699
100
AcDbXrecord
280
     1
 70
     4
 70
     0
 70
     0
 40
1.0
  2
Name8
  1
Embedded Object
 10
187.3627883584022
 20
150.2132056155222
 30
0.0
 40
1.800000071525573
 41
5.452682396208246
 46
0.0
 71
     5
 72
     5
  1

  7
Textstil104
 73
     1
 44
1.0
  0
XRECORD
  5
7CA
102
{ACAD_REACTORS
330
699
102
}
330
699
100
AcDbXrecord
280
     1
102
ACAD_MATT_HEIGHT
140
1.800000071525573
  0
XRECORD
  5
7CD
102
{ACAD_REACTORS
330
69C
102
}
330
69C
100
AcDbXrecord
280
     1
 70
     4
 70
     0
 70
     0
 40
1.0
  2
Artikelnummer_neu
  1
Embedded Object
 10
164.8127883584022
 20
160.5882056485259
 30
0.0
 40
3.499999940395355
 41
50.99999999999997
 46
0.0
 71
     5
 72
     5
  1
101448
  7
Textstil89
 73
     1
 44
1.0
  0
XRECORD
  5
7CC
102
{ACAD_REACTORS
330
69C
102
}
330
69C
100
AcDbXrecord
280
     1
102
ACAD_MATT_HEIGHT
140
3.499999940395355
  0
XRECORD
  5
7CF
102
{ACAD_REACTORS
330
69F
102
}
330
69F
100
AcDbXrecord
280
     1
 70
     4
 70
     0
 70
     0
 40
1.0
  2
Artikelnummer_alt
  1
Embedded Object
 10
164.8127883584022
 20
156.3382056155221
 30
0.0
 40
2.5
 41
43.99999999999997
 46
0.0
 71
     2
 72
     5
  1
(26.003.906)
  7
Textstil91
 73
     1
 44
1.0
  0
XRECORD
  5
7CE
102
{ACAD_REACTORS
330
69F
102
}
330
69F
100
AcDbXrecord
280
     1
102
ACAD_MATT_HEIGHT
140
2.5
  0
XRECORD
  5
7D1
102
{ACAD_REACTORS
330
6A2
102
}
330
6A2
100
AcDbXrecord
280
     1
 70
     4
 70
     0
 70
     0
 40
1.0
  2
Material
  1
Embedded Object
 10
310.8360288650731
 20
165.9632056155222
 30
0.0
 40
3.000000119209288
 41
34.74493902527111
 46
0.0
 71
     5
 72
     5
  1
Messing vern.
  7
Textstil103
 73
     1
 44
1.0
  0
XRECORD
  5
7D0
102
{ACAD_REACTORS
330
6A2
102
}
330
6A2
100
AcDbXrecord
280
     1
102
ACAD_MATT_HEIGHT
140
3.000000119209288
  0
XRECORD
  5
7D3
102
{ACAD_REACTORS
330
6A5
102
}
330
6A5
100
AcDbXrecord
280
     1
 70
     4
 70
     0
 70
     0
 40
1.0
  2
Maßstab
  1
Embedded Object
 10
266.2975583892088
 20
165.9632056155222
 30
0.0
 40
3.000000119209288
 41
27.29612920574588
 46
0.0
 71
     5
 72
     5
  1
2:1 (1:1)
  7
Textstil103
 73
     1
 44
1.0
  0
XRECORD
  5
7D2
102
{ACAD_REACTORS
330
6A5
102
}
330
6A5
100
AcDbXrecord
280
     1
102
ACAD_MATT_HEIGHT
140
3.000000119209288
  0
XRECORD
  5
7D5
102
{ACAD_REACTORS
330
6A8
102
}
330
6A8
100
AcDbXrecord
280
     1
 70
     4
 70
     0
 70
     0
 40
1.0
  2
Gezeichnet_Datum
  1
Embedded Object
 10
210.3127883584022
 20
145.9632056155222
 30
0.0
 40
1.800000071525573
 41
10.4471256074499
 46
0.0
 71
     5
 72
     5
  1
21.11.13
  7
Textstil104
 73
     1
 44
1.0
  0
XRECORD
  5
7D4
102
{ACAD_REACTORS
330
6A8
102
}
330
6A8
100
AcDbXrecord
280
     1
102
ACAD_MATT_HEIGHT
140
1.800000071525573
  0
XRECORD
  5
7D7
102
{ACAD_REACTORS
330
6AB
102
}
330
6AB
100
AcDbXrecord
280
     1
 70
     4
 70
     0
 70
     0
 40
1.0
  2
Gezeichnet_Name
  1
Embedded Object
 10
227.2127883584022
 20
145.9632056155222
 30
0.0
 40
1.800000071525573
 41
18.09852783198174
 46
0.0
 71
     5
 72
     5
  1
Bader
  7
Textstil104
 73
     1
 44
1.0
  0
XRECORD
  5
7D6
102
{ACAD_REACTORS
330
6AB
102
}
330
6AB
100
AcDbXrecord
280
     1
102
ACAD_MATT_HEIGHT
140
1.800000071525573
  0
XRECORD
  5
7D9
102
{ACAD_REACTORS
330
6AE
102
}
330
6AE
100
AcDbXrecord
280
     1
 70
     4
 70
     0
 70
     0
 40
1.0
  2
Benennung
  1
Embedded Object
 10
274.0127883584021
 20
122.7378396410893
 30
0.0
 40
4.000000059604643
 41
0.0
 46
0.0
 71
     5
 72
     5
  1

  7
Textstil102
 73
     1
 44
1.0
  0
XRECORD
  5
7D8
102
{ACAD_REACTORS
330
6AE
102
}
330
6AE
100
AcDbXrecord
280
     1
102
ACAD_MATT_HEIGHT
140
4.000000059604643
  0
XRECORD
  5
7DB
102
{ACAD_REACTORS
330
6B1
102
}
330
6B1
100
AcDbXrecord
280
     1
 70
     4
 70
     0
 70
     0
 40
1.0
  2
Zeichnungsnummer
  1
Embedded Object
 10
267.5016718628334
 20
116.2132056155221
 30
0.0
 40
2.5
 41
59.0703335759867
 46
0.0
 71
     4
 72
     5
  1
AN GEA 24 B
  7
Textstil91
 73
     1
 44
1.0
  0
XRECORD
  5
7DA
102
{ACAD_REACTORS
330
6B1
102
}
330
6B1
100
AcDbXrecord
280
     1
102
ACAD_MATT_HEIGHT
140
2.5
  0
XRECORD
  5
7DD
102
{ACAD_REACTORS
330
6B4
102
}
330
6B4
100
AcDbXrecord
280
     1
 70
     4
 70
     0
 70
     0
 40
1.0
  2
Ers._für
  1
Embedded Object
 10
220.1587946285556
 20
116.2132056155221
 30
0.0
 40
2.5
 41
31.93674790530494
 46
0.0
 71
     5
 72
     5
  1
AN GEA 24 A
  7
Textstil91
 73
     1
 44
1.0
  0
XRECORD
  5
7DC
102
{ACAD_REACTORS
330
6B4
102
}
330
6B4
100
AcDbXrecord
280
     1
102
ACAD_MATT_HEIGHT
140
2.5
  0
XRECORD
  5
7DF
102
{ACAD_REACTORS
330
6B7
102
}
330
6B7
100
AcDbXrecord
280
     1
 70
     4
 70
     0
 70
     0
 40
1.0
  2
Projekt
  1
Embedded Object
 10
214.2127883584022
 20
122.7378396410892
 30
0.0
 40
4.000000059604643
 41
42.19412822251534
 46
0.0
 71
     5
 72
     5
  1
Anschlussteile
  7
Textstil102
 73
     1
 44
1.0
  0
XRECORD
  5
7DE
102
{ACAD_REACTORS
330
6B7
102
}
330
6B7
100
AcDbXrecord
280
     1
102
ACAD_MATT_HEIGHT
140
4.000000059604643
  0
XRECORD
  5
7E1
102
{ACAD_REACTORS
330
6BA
102
}
330
6BA
100
AcDbXrecord
280
     1
 70
     4
 70
     0
 70
     0
 40
1.0
  2
Kontroll_Datum
  1
Embedded Object
 10
210.3127883584023
 20
141.7132056155222
 30
0.0
 40
1.800000071525573
 41
9.601114343192731
 46
0.0
 71
     5
 72
     5
  1
21.11.13
  7
Textstil104
 73
     1
 44
1.0
  0
XRECORD
  5
7E0
102
{ACAD_REACTORS
330
6BA
102
}
330
6BA
100
AcDbXrecord
280
     1
102
ACAD_MATT_HEIGHT
140
1.800000071525573
  0
XRECORD
  5
7E3
102
{ACAD_REACTORS
330
6BD
102
}
330
6BD
100
AcDbXrecord
280
     1
 70
     4
 70
     0
 70
     0
 40
1.0
  2
Kontroll__Name
  1
Embedded Object
 10
227.2127883584022
 20
141.7132056155222
 30
0.0
 40
1.800000071525573
 41
17.61893067328372
 46
0.0
 71
     5
 72
     5
  1
Hildenbrand
  7
Textstil104
 73
     1
 44
1.0
  0
XRECORD
  5
7E2
102
{ACAD_REACTORS
330
6BD
102
}
330
6BD
100
AcDbXrecord
280
     1
102
ACAD_MATT_HEIGHT
140
1.800000071525573
  0
XRECORD
  5
7E5
102
{ACAD_REACTORS
330
6C0
102
}
330
6C0
100
AcDbXrecord
280
     1
 70
     2
 70
     0
 70
     0
 40
1.0
  2
Blattgröße
  1
Embedded Object
 10
95.97693941797869
 20
8.536262163870711
 30
0.0
 40
1.25
 41
9.93741750717163
 46
0.0
 71
     5
 72
     5
  1
A4
  7
Notiztext (DIN)
 73
     1
 44
1.0
  0
XRECORD
  5
7E4
102
{ACAD_REACTORS
330
6C0
102
}
330
6C0
100
AcDbXrecord
280
     1
102
ACAD_MATT_HEIGHT
140
1.25
  0
XRECORD
  5
7E7
102
{ACAD_REACTORS
330
6C3
102
}
330
6C3
100
AcDbXrecord
280
     1
 70
     2
 70
     0
 70
     0
 40
1.0
  2
Blattnummer
  1
Embedded Object
 10
96.36964004634279
 20
11.75115988278491
 30
0.0
 40
2.5
 41
22.49072313308716
 46
0.0
 71
     5
 72
     5
  1
1 
  7
Textstil106
 73
     1
 44
1.0
  0
XRECORD
  5
7E6
102
{ACAD_REACTORS
330
6C3
102
}
330
6C3
100
AcDbXrecord
280
     1
102
ACAD_MATT_HEIGHT
140
2.5
  0
XRECORD
  5
7E9
102
{ACAD_REACTORS
330
6C6
102
}
330
6C6
100
AcDbXrecord
280
     1
 70
     2
 70
     0
 70
     0
 40
1.0
  2
Status1
  1
Embedded Object
 10
6.874999999999964
 20
8.187500000000005
 30
0.0
 40
0.9000000357627866
 41
3.357172624588038
 46
0.0
 71
     5
 72
     5
  1
B
  7
Textstil104
 73
     1
 44
1.0
  0
XRECORD
  5
7E8
102
{ACAD_REACTORS
330
6C6
102
}
330
6C6
100
AcDbXrecord
280
     1
102
ACAD_MATT_HEIGHT
140
0.9000000357627866
  0
XRECORD
  5
7EB
102
{ACAD_REACTORS
330
6C9
102
}
330
6C9
100
AcDbXrecord
280
     1
 70
     2
 70
     0
 70
     0
 40
1.0
  2
Änderungen1
  1
Embedded Object
 10
15.55681271873055
 20
8.187500000000012
 30
0.0
 40
0.9000000357627866
 41
12.96620761010651
 46
0.0
 71
     5
 72
     5
  1
Text ergänzt
  7
Textstil104
 73
     1
 44
1.0
  0
XRECORD
  5
7EA
102
{ACAD_REACTORS
330
6C9
102
}
330
6C9
100
AcDbXrecord
280
     1
102
ACAD_MATT_HEIGHT
140
0.9000000357627866
  0
XRECORD
  5
7ED
102
{ACAD_REACTORS
330
6CC
102
}
330
6CC
100
AcDbXrecord
280
     1
 70
     2
 70
     0
 70
     0
 40
1.0
  2
Datum1
  1
Embedded Object
 10
24.89999999999995
 20
8.187500000000005
 30
0.0
 40
0.9000000357627866
 41
5.67265925740429
 46
0.0
 71
     5
 72
     5
  1
21.11.13
  7
Textstil104
 73
     1
 44
1.0
  0
XRECORD
  5
7EC
102
{ACAD_REACTORS
330
6CC
102
}
330
6CC
100
AcDbXrecord
280
     1
102
ACAD_MATT_HEIGHT
140
0.9000000357627866
  0
XRECORD
  5
7EF
102
{ACAD_REACTORS
330
6CF
102
}
330
6CF
100
AcDbXrecord
280
     1
 70
     2
 70
     0
 70
     0
 40
1.0
  2
Name1
  1
Embedded Object
 10
29.92499999999996
 20
8.187500000000005
 30
0.0
 40
0.9000000357627866
 41
3.673804312316839
 46
0.0
 71
     5
 72
     5
  1
Bader
  7
Textstil104
 73
     1
 44
1.0
  0
XRECORD
  5
7EE
102
{ACAD_REACTORS
330
6CF
102
}
330
6CF
100
AcDbXrecord
280
     1
102
ACAD_MATT_HEIGHT
140
0.9000000357627866
  0
XRECORD
  5
7F1
102
{ACAD_REACTORS
330
6D2
102
}
330
6D2
100
AcDbXrecord
280
     1
 70
     2
 70
     0
 70
     0
 40
1.0
  2
Status2
  1
Embedded Object
 10
6.874999999999964
 20
10.31250000000001
 30
0.0
 40
0.9000000357627866
 41
3.304283514263398
 46
0.0
 71
     5
 72
     5
  1
B
  7
Textstil104
 73
     1
 44
1.0
  0
XRECORD
  5
7F0
102
{ACAD_REACTORS
330
6D2
102
}
330
6D2
100
AcDbXrecord
280
     1
102
ACAD_MATT_HEIGHT
140
0.9000000357627866
  0
XRECORD
  5
7F3
102
{ACAD_REACTORS
330
6D5
102
}
330
6D5
100
AcDbXrecord
280
     1
 70
     2
 70
     0
 70
     0
 40
1.0
  2
Änderungen2
  1
Embedded Object
 10
15.55681271873055
 20
10.31250000000001
 30
0.0
 40
0.9000000357627866
 41
12.95730463290482
 46
0.0
 71
     5
 72
     5
  1
SW entfernt
  7
Textstil104
 73
     1
 44
1.0
  0
XRECORD
  5
7F2
102
{ACAD_REACTORS
330
6D5
102
}
330
6D5
100
AcDbXrecord
280
     1
102
ACAD_MATT_HEIGHT
140
0.9000000357627866
  0
XRECORD
  5
7F5
102
{ACAD_REACTORS
330
6D8
102
}
330
6D8
100
AcDbXrecord
280
     1
 70
     2
 70
     0
 70
     0
 40
1.0
  2
Datum2
  1
Embedded Object
 10
24.89999999999995
 20
10.31250000000001
 30
0.0
 40
0.9000000357627866
 41
5.671507744907983
 46
0.0
 71
     5
 72
     5
  1
21.11.13
  7
Textstil104
 73
     1
 44
1.0
  0
XRECORD
  5
7F4
102
{ACAD_REACTORS
330
6D8
102
}
330
6D8
100
AcDbXrecord
280
     1
102
ACAD_MATT_HEIGHT
140
0.9000000357627866
  0
XRECORD
  5
7F7
102
{ACAD_REACTORS
330
6DB
102
}
330
6DB
100
AcDbXrecord
280
     1
 70
     2
 70
     0
 70
     0
 40
1.0
  2
Name2
  1
Embedded Object
 10
29.92499999999996
 20
10.31250000000001
 30
0.0
 40
0.9000000357627866
 41
2.727205322256124
 46
0.0
 71
     5
 72
     5
  1
Bader
  7
Textstil104
 73
     1
 44
1.0
  0
XRECORD
  5
7F6
102
{ACAD_REACTORS
330
6DB
102
}
330
6DB
100
AcDbXrecord
280
     1
102
ACAD_MATT_HEIGHT
140
0.9000000357627866
  0
XRECORD
  5
7F9
102
{ACAD_REACTORS
330
6DE
102
}
330
6DE
100
AcDbXrecord
280
     1
 70
     2
 70
     0
 70
     0
 40
1.0
  2
Status3
  1
Embedded Object
 10
6.874999999999964
 20
12.43750000000001
 30
0.0
 40
0.9000000357627866
 41
3.316297507503253
 46
0.0
 71
     5
 72
     5
  1
B
  7
Textstil104
 73
     1
 44
1.0
  0
XRECORD
  5
7F8
102
{ACAD_REACTORS
330
6DE
102
}
330
6DE
100
AcDbXrecord
280
     1
102
ACAD_MATT_HEIGHT
140
0.9000000357627866
  0
XRECORD
  5
7FB
102
{ACAD_REACTORS
330
6E1
102
}
330
6E1
100
AcDbXrecord
280
     1
 70
     2
 70
     0
 70
     0
 40
1.0
  2
Änderungen3
  1
Embedded Object
 10
15.55681271873055
 20
12.43750000000001
 30
0.0
 40
0.9000000357627866
 41
13.03019736235086
 46
0.0
 71
     5
 72
     5
  1
Maß in max.Maß
  7
Textstil104
 73
     1
 44
1.0
  0
XRECORD
  5
7FA
102
{ACAD_REACTORS
330
6E1
102
}
330
6E1
100
AcDbXrecord
280
     1
102
ACAD_MATT_HEIGHT
140
0.9000000357627866
  0
XRECORD
  5
7FD
102
{ACAD_REACTORS
330
6E4
102
}
330
6E4
100
AcDbXrecord
280
     1
 70
     2
 70
     0
 70
     0
 40
1.0
  2
Datum3
  1
Embedded Object
 10
24.89999999999995
 20
12.43750000000001
 30
0.0
 40
0.9000000357627866
 41
5.616941210508733
 46
0.0
 71
     5
 72
     5
  1
21.11.13
  7
Textstil104
 73
     1
 44
1.0
  0
XRECORD
  5
7FC
102
{ACAD_REACTORS
330
6E4
102
}
330
6E4
100
AcDbXrecord
280
     1
102
ACAD_MATT_HEIGHT
140
0.9000000357627866
  0
XRECORD
  5
7FF
102
{ACAD_REACTORS
330
6E7
102
}
330
6E7
100
AcDbXrecord
280
     1
 70
     2
 70
     0
 70
     0
 40
1.0
  2
Name3
  1
Embedded Object
 10
29.92499999999996
 20
12.43750000000001
 30
0.0
 40
0.9000000357627866
 41
2.6958911951791
 46
0.0
 71
     5
 72
     5
  1
Bader
  7
Textstil104
 73
     1
 44
1.0
  0
XRECORD
  5
7FE
102
{ACAD_REACTORS
330
6E7
102
}
330
6E7
100
AcDbXrecord
280
     1
102
ACAD_MATT_HEIGHT
140
0.9000000357627866
  0
XRECORD
  5
801
102
{ACAD_REACTORS
330
6EA
102
}
330
6EA
100
AcDbXrecord
280
     1
 70
     2
 70
     0
 70
     0
 40
1.0
  2
Status4
  1
Embedded Object
 10
6.874999999999964
 20
14.56250000000001
 30
0.0
 40
0.9000000357627866
 41
3.344183164454133
 46
0.0
 71
     5
 72
     5
  1
B
  7
Textstil104
 73
     1
 44
1.0
  0
XRECORD
  5
800
102
{ACAD_REACTORS
330
6EA
102
}
330
6EA
100
AcDbXrecord
280
     1
102
ACAD_MATT_HEIGHT
140
0.9000000357627866
  0
XRECORD
  5
803
102
{ACAD_REACTORS
330
6ED
102
}
330
6ED
100
AcDbXrecord
280
     1
 70
     2
 70
     0
 70
     0
 40
1.0
  2
Änderungen4
  1
Embedded Object
 10
15.55681271873055
 20
14.56250000000001
 30
0.0
 40
0.9000000357627866
 41
12.91692393445021
 46
0.0
 71
     5
 72
     5
  1
Art.Nr. neu hinzu
  7
Textstil104
 73
     1
 44
1.0
  0
XRECORD
  5
802
102
{ACAD_REACTORS
330
6ED
102
}
330
6ED
100
AcDbXrecord
280
     1
102
ACAD_MATT_HEIGHT
140
0.9000000357627866
  0
XRECORD
  5
805
102
{ACAD_REACTORS
330
6F0
102
}
330
6F0
100
AcDbXrecord
280
     1
 70
     2
 70
     0
 70
     0
 40
1.0
  2
Datum4
  1
Embedded Object
 10
24.89999999999995
 20
14.56250000000001
 30
0.0
 40
0.9000000357627866
 41
5.595335540402111
 46
0.0
 71
     5
 72
     5
  1
21.11.13
  7
Textstil104
 73
     1
 44
1.0
  0
XRECORD
  5
804
102
{ACAD_REACTORS
330
6F0
102
}
330
6F0
100
AcDbXrecord
280
     1
102
ACAD_MATT_HEIGHT
140
0.9000000357627866
  0
XRECORD
  5
807
102
{ACAD_REACTORS
330
6F3
102
}
330
6F3
100
AcDbXrecord
280
     1
 70
     2
 70
     0
 70
     0
 40
1.0
  2
Name4
  1
Embedded Object
 10
29.92499999999996
 20
14.56250000000001
 30
0.0
 40
0.9000000357627866
 41
2.639013619729126
 46
0.0
 71
     5
 72
     5
  1
Bader
  7
Textstil104
 73
     1
 44
1.0
  0
XRECORD
  5
806
102
{ACAD_REACTORS
330
6F3
102
}
330
6F3
100
AcDbXrecord
280
     1
102
ACAD_MATT_HEIGHT
140
0.9000000357627866
  0
XRECORD
  5
809
102
{ACAD_REACTORS
330
6F6
102
}
330
6F6
100
AcDbXrecord
280
     1
 70
     2
 70
     0
 70
     0
 40
1.0
  2
Status5
  1
Embedded Object
 10
6.874999999999964
 20
16.68750000000002
 30
0.0
 40
0.9000000357627866
 41
3.349963043783751
 46
0.0
 71
     5
 72
     5
  1

  7
Textstil104
 73
     1
 44
1.0
  0
XRECORD
  5
808
102
{ACAD_REACTORS
330
6F6
102
}
330
6F6
100
AcDbXrecord
280
     1
102
ACAD_MATT_HEIGHT
140
0.9000000357627866
  0
XRECORD
  5
80B
102
{ACAD_REACTORS
330
6F9
102
}
330
6F9
100
AcDbXrecord
280
     1
 70
     2
 70
     0
 70
     0
 40
1.0
  2
Änderungen5
  1
Embedded Object
 10
15.55681271873055
 20
16.68750000000002
 30
0.0
 40
0.9000000357627866
 41
12.93304451178102
 46
0.0
 71
     5
 72
     5
  1

  7
Textstil104
 73
     1
 44
1.0
  0
XRECORD
  5
80A
102
{ACAD_REACTORS
330
6F9
102
}
330
6F9
100
AcDbXrecord
280
     1
102
ACAD_MATT_HEIGHT
140
0.9000000357627866
  0
XRECORD
  5
80D
102
{ACAD_REACTORS
330
6FC
102
}
330
6FC
100
AcDbXrecord
280
     1
 70
     2
 70
     0
 70
     0
 40
1.0
  2
Datum5
  1
Embedded Object
 10
24.89999999999995
 20
16.68750000000002
 30
0.0
 40
0.9000000357627866
 41
5.545476462249077
 46
0.0
 71
     5
 72
     5
  1

  7
Textstil104
 73
     1
 44
1.0
  0
XRECORD
  5
80C
102
{ACAD_REACTORS
330
6FC
102
}
330
6FC
100
AcDbXrecord
280
     1
102
ACAD_MATT_HEIGHT
140
0.9000000357627866
  0
XRECORD
  5
80F
102
{ACAD_REACTORS
330
6FF
102
}
330
6FF
100
AcDbXrecord
280
     1
 70
     2
 70
     0
 70
     0
 40
1.0
  2
Name5
  1
Embedded Object
 10
29.92499999999996
 20
16.68750000000002
 30
0.0
 40
0.9000000357627866
 41
2.70292605210045
 46
0.0
 71
     5
 72
     5
  1

  7
Textstil104
 73
     1
 44
1.0
  0
XRECORD
  5
80E
102
{ACAD_REACTORS
330
6FF
102
}
330
6FF
100
AcDbXrecord
280
     1
102
ACAD_MATT_HEIGHT
140
0.9000000357627866
  0
XRECORD
  5
811
102
{ACAD_REACTORS
330
702
102
}
330
702
100
AcDbXrecord
280
     1
 70
     2
 70
     0
 70
     0
 40
1.0
  2
Status6
  1
Embedded Object
 10
6.874999999999964
 20
18.81250000000002
 30
0.0
 40
0.9000000357627866
 41
3.313029208657897
 46
0.0
 71
     5
 72
     5
  1

  7
Textstil104
 73
     1
 44
1.0
  0
XRECORD
  5
810
102
{ACAD_REACTORS
330
702
102
}
330
702
100
AcDbXrecord
280
     1
102
ACAD_MATT_HEIGHT
140
0.9000000357627866
  0
XRECORD
  5
813
102
{ACAD_REACTORS
330
705
102
}
330
705
100
AcDbXrecord
280
     1
 70
     2
 70
     0
 70
     0
 40
1.0
  2
Änderungen6
  1
Embedded Object
 10
15.55681271873055
 20
18.81250000000002
 30
0.0
 40
0.9000000357627866
 41
12.94272564629619
 46
0.0
 71
     5
 72
     5
  1

  7
Textstil104
 73
     1
 44
1.0
  0
XRECORD
  5
812
102
{ACAD_REACTORS
330
705
102
}
330
705
100
AcDbXrecord
280
     1
102
ACAD_MATT_HEIGHT
140
0.9000000357627866
  0
XRECORD
  5
815
102
{ACAD_REACTORS
330
708
102
}
330
708
100
AcDbXrecord
280
     1
 70
     2
 70
     0
 70
     0
 40
1.0
  2
Datum6
  1
Embedded Object
 10
24.89999999999995
 20
18.81250000000002
 30
0.0
 40
0.9000000357627866
 41
5.559702746884019
 46
0.0
 71
     5
 72
     5
  1

  7
Textstil104
 73
     1
 44
1.0
  0
XRECORD
  5
814
102
{ACAD_REACTORS
330
708
102
}
330
708
100
AcDbXrecord
280
     1
102
ACAD_MATT_HEIGHT
140
0.9000000357627866
  0
XRECORD
  5
817
102
{ACAD_REACTORS
330
70B
102
}
330
70B
100
AcDbXrecord
280
     1
 70
     2
 70
     0
 70
     0
 40
1.0
  2
Name6
  1
Embedded Object
 10
29.92499999999996
 20
18.81250000000002
 30
0.0
 40
0.9000000357627866
 41
2.714453207848919
 46
0.0
 71
     5
 72
     5
  1

  7
Textstil104
 73
     1
 44
1.0
  0
XRECORD
  5
816
102
{ACAD_REACTORS
330
70B
102
}
330
70B
100
AcDbXrecord
280
     1
102
ACAD_MATT_HEIGHT
140
0.9000000357627866
  0
XRECORD
  5
819
102
{ACAD_REACTORS
330
70E
102
}
330
70E
100
AcDbXrecord
280
     1
 70
     2
 70
     0
 70
     0
 40
1.0
  2
Status7
  1
Embedded Object
 10
6.874999999999964
 20
20.93750000000003
 30
0.0
 40
0.9000000357627866
 41
3.377142729305102
 46
0.0
 71
     5
 72
     5
  1

  7
Textstil104
 73
     1
 44
1.0
  0
XRECORD
  5
818
102
{ACAD_REACTORS
330
70E
102
}
330
70E
100
AcDbXrecord
280
     1
102
ACAD_MATT_HEIGHT
140
0.9000000357627866
  0
XRECORD
  5
81B
102
{ACAD_REACTORS
330
711
102
}
330
711
100
AcDbXrecord
280
     1
 70
     2
 70
     0
 70
     0
 40
1.0
  2
Änderungen7
  1
Embedded Object
 10
15.55681271873055
 20
20.93750000000003
 30
0.0
 40
0.9000000357627866
 41
12.9182795392289
 46
0.0
 71
     5
 72
     5
  1

  7
Textstil104
 73
     1
 44
1.0
  0
XRECORD
  5
81A
102
{ACAD_REACTORS
330
711
102
}
330
711
100
AcDbXrecord
280
     1
102
ACAD_MATT_HEIGHT
140
0.9000000357627866
  0
XRECORD
  5
81D
102
{ACAD_REACTORS
330
714
102
}
330
714
100
AcDbXrecord
280
     1
 70
     2
 70
     0
 70
     0
 40
1.0
  2
Datum7
  1
Embedded Object
 10
24.89999999999995
 20
20.93750000000003
 30
0.0
 40
0.9000000357627866
 41
5.607661526970275
 46
0.0
 71
     5
 72
     5
  1

  7
Textstil104
 73
     1
 44
1.0
  0
XRECORD
  5
81C
102
{ACAD_REACTORS
330
714
102
}
330
714
100
AcDbXrecord
280
     1
102
ACAD_MATT_HEIGHT
140
0.9000000357627866
  0
XRECORD
  5
81F
102
{ACAD_REACTORS
330
717
102
}
330
717
100
AcDbXrecord
280
     1
 70
     2
 70
     0
 70
     0
 40
1.0
  2
Name7
  1
Embedded Object
 10
29.92499999999996
 20
20.93750000000003
 30
0.0
 40
0.9000000357627866
 41
2.710445387858548
 46
0.0
 71
     5
 72
     5
  1

  7
Textstil104
 73
     1
 44
1.0
  0
XRECORD
  5
81E
102
{ACAD_REACTORS
330
717
102
}
330
717
100
AcDbXrecord
280
     1
102
ACAD_MATT_HEIGHT
140
0.9000000357627866
  0
XRECORD
  5
821
102
{ACAD_REACTORS
330
71A
102
}
330
71A
100
AcDbXrecord
280
     1
 70
     2
 70
     0
 70
     0
 40
1.0
  2
Status8
  1
Embedded Object
 10
6.874999999999964
 20
23.06250000000004
 30
0.0
 40
0.9000000357627866
 41
3.536290844297091
 46
0.0
 71
     5
 72
     5
  1

  7
Textstil104
 73
     1
 44
1.0
  0
XRECORD
  5
820
102
{ACAD_REACTORS
330
71A
102
}
330
71A
100
AcDbXrecord
280
     1
102
ACAD_MATT_HEIGHT
140
0.9000000357627866
  0
XRECORD
  5
823
102
{ACAD_REACTORS
330
71D
102
}
330
71D
100
AcDbXrecord
280
     1
 70
     2
 70
     0
 70
     0
 40
1.0
  2
Änderungen8
  1
Embedded Object
 10
15.55681271873055
 20
23.06250000000004
 30
0.0
 40
0.9000000357627866
 41
12.98409188603361
 46
0.0
 71
     5
 72
     5
  1

  7
Textstil104
 73
     1
 44
1.0
  0
XRECORD
  5
822
102
{ACAD_REACTORS
330
71D
102
}
330
71D
100
AcDbXrecord
280
     1
102
ACAD_MATT_HEIGHT
140
0.9000000357627866
  0
XRECORD
  5
825
102
{ACAD_REACTORS
330
720
102
}
330
720
100
AcDbXrecord
280
     1
 70
     2
 70
     0
 70
     0
 40
1.0
  2
Datum8
  1
Embedded Object
 10
24.89999999999995
 20
23.06250000000004
 30
0.0
 40
0.9000000357627866
 41
5.693556819828877
 46
0.0
 71
     5
 72
     5
  1

  7
Textstil104
 73
     1
 44
1.0
  0
XRECORD
  5
824
102
{ACAD_REACTORS
330
720
102
}
330
720
100
AcDbXrecord
280
     1
102
ACAD_MATT_HEIGHT
140
0.9000000357627866
  0
XRECORD
  5
827
102
{ACAD_REACTORS
330
723
102
}
330
723
100
AcDbXrecord
280
     1
 70
     2
 70
     0
 70
     0
 40
1.0
  2
Name8
  1
Embedded Object
 10
29.92499999999996
 20
23.06250000000004
 30
0.0
 40
0.9000000357627866
 41
2.726341198104123
 46
0.0
 71
     5
 72
     5
  1

  7
Textstil104
 73
     1
 44
1.0
  0
XRECORD
  5
826
102
{ACAD_REACTORS
330
723
102
}
330
723
100
AcDbXrecord
280
     1
102
ACAD_MATT_HEIGHT
140
0.9000000357627866
  0
XRECORD
  5
829
102
{ACAD_REACTORS
330
726
102
}
330
726
100
AcDbXrecord
280
     1
 70
     2
 70
     0
 70
     0
 40
1.0
  2
Artikelnummer_neu
  1
Embedded Object
 10
18.64999999999995
 20
28.2500000165019
 30
0.0
 40
1.749999970197676
 41
25.49999999999999
 46
0.0
 71
     5
 72
     5
  1
101448
  7
Textstil89
 73
     1
 44
1.0
  0
XRECORD
  5
828
102
{ACAD_REACTORS
330
726
102
}
330
726
100
AcDbXrecord
280
     1
102
ACAD_MATT_HEIGHT
140
1.749999970197676
  0
XRECORD
  5
82B
102
{ACAD_REACTORS
330
729
102
}
330
729
100
AcDbXrecord
280
     1
 70
     2
 70
     0
 70
     0
 40
1.0
  2
Artikelnummer_alt
  1
Embedded Object
 10
18.64999999999995
 20
26.12500000000001
 30
0.0
 40
1.25
 41
21.99999999999999
 46
0.0
 71
     2
 72
     5
  1
(26.003.906)
  7
Textstil91
 73
     1
 44
1.0
  0
XRECORD
  5
82A
102
{ACAD_REACTORS
330
729
102
}
330
729
100
AcDbXrecord
280
     1
102
ACAD_MATT_HEIGHT
140
1.25
  0
XRECORD
  5
82D
102
{ACAD_REACTORS
330
72C
102
}
330
72C
100
AcDbXrecord
280
     1
 70
     2
 70
     0
 70
     0
 40
1.0
  2
Material
  1
Embedded Object
 10
91.66162025333539
 20
30.93750000000002
 30
0.0
 40
1.500000059604644
 41
17.37246951263555
 46
0.0
 71
     5
 72
     5
  1
Messing vern.
  7
Textstil103
 73
     1
 44
1.0
  0
XRECORD
  5
82C
102
{ACAD_REACTORS
330
72C
102
}
330
72C
100
AcDbXrecord
280
     1
102
ACAD_MATT_HEIGHT
140
1.500000059604644
  0
XRECORD
  5
82F
102
{ACAD_REACTORS
330
72F
102
}
330
72F
100
AcDbXrecord
280
     1
 70
     2
 70
     0
 70
     0
 40
1.0
  2
Maßstab
  1
Embedded Object
 10
69.39238501540322
 20
30.93750000000002
 30
0.0
 40
1.500000059604644
 41
13.64806460287294
 46
0.0
 71
     5
 72
     5
  1
2:1 (1:1)
  7
Textstil103
 73
     1
 44
1.0
  0
XRECORD
  5
82E
102
{ACAD_REACTORS
330
72F
102
}
330
72F
100
AcDbXrecord
280
     1
102
ACAD_MATT_HEIGHT
140
1.500000059604644
  0
XRECORD
  5
831
102
{ACAD_REACTORS
330
732
102
}
330
732
100
AcDbXrecord
280
     1
 70
     2
 70
     0
 70
     0
 40
1.0
  2
Gezeichnet_Datum
  1
Embedded Object
 10
41.39999999999992
 20
20.93750000000003
 30
0.0
 40
0.9000000357627866
 41
5.223562803724952
 46
0.0
 71
     5
 72
     5
  1
21.11.13
  7
Textstil104
 73
     1
 44
1.0
  0
XRECORD
  5
830
102
{ACAD_REACTORS
330
732
102
}
330
732
100
AcDbXrecord
280
     1
102
ACAD_MATT_HEIGHT
140
0.9000000357627866
  0
XRECORD
  5
833
102
{ACAD_REACTORS
330
735
102
}
330
735
100
AcDbXrecord
280
     1
 70
     2
 70
     0
 70
     0
 40
1.0
  2
Gezeichnet_Name
  1
Embedded Object
 10
49.84999999999993
 20
20.93750000000003
 30
0.0
 40
0.9000000357627866
 41
9.049263915990868
 46
0.0
 71
     5
 72
     5
  1
Bader
  7
Textstil104
 73
     1
 44
1.0
  0
XRECORD
  5
832
102
{ACAD_REACTORS
330
735
102
}
330
735
100
AcDbXrecord
280
     1
102
ACAD_MATT_HEIGHT
140
0.9000000357627866
  0
XRECORD
  5
835
102
{ACAD_REACTORS
330
738
102
}
330
738
100
AcDbXrecord
280
     1
 70
     2
 70
     0
 70
     0
 40
1.0
  2
Benennung
  1
Embedded Object
 10
73.24999999999987
 20
9.324817012783563
 30
0.0
 40
2.000000029802321
 41
0.0
 46
0.0
 71
     5
 72
     5
  1

  7
Textstil102
 73
     1
 44
1.0
  0
XRECORD
  5
834
102
{ACAD_REACTORS
330
738
102
}
330
738
100
AcDbXrecord
280
     1
102
ACAD_MATT_HEIGHT
140
2.000000029802321
  0
XRECORD
  5
837
102
{ACAD_REACTORS
330
73B
102
}
330
73B
100
AcDbXrecord
280
     1
 70
     2
 70
     0
 70
     0
 40
1.0
  2
Zeichnungsnummer
  1
Embedded Object
 10
69.99444175221552
 20
6.062500000000009
 30
0.0
 40
1.25
 41
29.53516678799335
 46
0.0
 71
     4
 72
     5
  1
AN GEA 24 B
  7
Textstil91
 73
     1
 44
1.0
  0
XRECORD
  5
836
102
{ACAD_REACTORS
330
73B
102
}
330
73B
100
AcDbXrecord
280
     1
102
ACAD_MATT_HEIGHT
140
1.25
  0
XRECORD
  5
839
102
{ACAD_REACTORS
330
73E
102
}
330
73E
100
AcDbXrecord
280
     1
 70
     2
 70
     0
 70
     0
 40
1.0
  2
Ers._für
  1
Embedded Object
 10
46.32300313507665
 20
6.0625
 30
0.0
 40
1.25
 41
15.96837395265247
 46
0.0
 71
     5
 72
     5
  1
AN GEA 24 A
  7
Textstil91
 73
     1
 44
1.0
  0
XRECORD
  5
838
102
{ACAD_REACTORS
330
73E
102
}
330
73E
100
AcDbXrecord
280
     1
102
ACAD_MATT_HEIGHT
140
1.25
  0
XRECORD
  5
83B
102
{ACAD_REACTORS
330
741
102
}
330
741
100
AcDbXrecord
280
     1
 70
     2
 70
     0
 70
     0
 40
1.0
  2
Projekt
  1
Embedded Object
 10
43.34999999999992
 20
9.324817012783556
 30
0.0
 40
2.000000029802321
 41
21.09706411125767
 46
0.0
 71
     5
 72
     5
  1
Anschlussteile
  7
Textstil102
 73
     1
 44
1.0
  0
XRECORD
  5
83A
102
{ACAD_REACTORS
330
741
102
}
330
741
100
AcDbXrecord
280
     1
102
ACAD_MATT_HEIGHT
140
2.000000029802321
  0
XRECORD
  5
83D
102
{ACAD_REACTORS
330
744
102
}
330
744
100
AcDbXrecord
280
     1
 70
     2
 70
     0
 70
     0
 40
1.0
  2
Kontroll_Datum
  1
Embedded Object
 10
41.39999999999997
 20
18.81250000000002
 30
0.0
 40
0.9000000357627866
 41
4.800557171596365
 46
0.0
 71
     5
 72
     5
  1
21.11.13
  7
Textstil104
 73
     1
 44
1.0
  0
XRECORD
  5
83C
102
{ACAD_REACTORS
330
744
102
}
330
744
100
AcDbXrecord
280
     1
102
ACAD_MATT_HEIGHT
140
0.9000000357627866
  0
XRECORD
  5
83F
102
{ACAD_REACTORS
330
747
102
}
330
747
100
AcDbXrecord
280
     1
 70
     2
 70
     0
 70
     0
 40
1.0
  2
Kontroll__Name
  1
Embedded Object
 10
49.84999999999993
 20
18.81250000000002
 30
0.0
 40
0.9000000357627866
 41
8.809465336641864
 46
0.0
 71
     5
 72
     5
  1
Hildenbrand
  7
Textstil104
 73
     1
 44
1.0
  0
XRECORD
  5
83E
102
{ACAD_REACTORS
330
747
102
}
330
747
100
AcDbXrecord
280
     1
102
ACAD_MATT_HEIGHT
140
0.9000000357627866
  0
ACDBDETAILVIEWSTYLE
  5
6C
102
{ACAD_REACTORS
330
6B
102
}
330
6B
100
AcDbModelDocViewStyle
 70
     0
  3
Imperial24
290
     0
100
AcDbDetailViewStyle
 70
     0
 71
     0
 90
        3
 71
     1
340
55
 62
   256
 40
0.24
340
0
 62
   256
 40
0.24
300

 40
0.36
280
     3
 71
     2
340
5D
 90
       25
 62
   256
 71
     3
340
55
 62
   256
 40
0.24
 90
        1
 40
0.75
 90
        1
300
%<\AcVar ViewType \f "%tc1">% %<\AcVar ViewDetailId>%\PVARIA %<\AcVar ViewScale \f "%sn">%
 71
     4
340
5D
 90
       25
 62
   256
340
5D
 90
       25
 62
   256
280
     0
  0
ACDBDETAILVIEWSTYLE
  5
782
102
{ACAD_REACTORS
330
6B
102
}
330
6B
100
AcDbModelDocViewStyle
 70
     0
  3
Metric50
290
     0
100
AcDbDetailViewStyle
 70
     0
 71
     0
 90
        3
 71
     1
340
55
 62
   256
 40
5.0
340
0
 62
   256
 40
5.0
300

 40
0.0
280
     1
 71
     2
340
5D
 90
       25
 62
   256
 71
     3
340
55
 62
   256
 40
5.0
 90
        0
 40
15.0
 90
        1
300
%<\AcVar ViewDetailId>% (%<\AcVar ViewScale \f "%sn">%)
 71
     4
340
5D
 90
       25
 62
   256
340
5D
 90
       25
 62
   256
280
     0
  0
LAYOUT
  5
70
102
{ACAD_REACTORS
330
62
102
}
330
62
100
AcDbPlotSettings
  1

  2

  4

  6

 40
0.0
 41
0.0
 42
0.0
 43
0.0
 44
0.0
 45
0.0
 46
0.0
 47
0.0
 48
0.0
 49
0.0
140
0.0
141
0.0
142
1.0
143
1.0
 70
   688
 72
     0
 73
     0
 74
     5
  7

 75
    16
147
1.0
 76
     0
 77
     2
 78
   300
148
0.0
149
0.0
100
AcDbLayout
  1
Layout1
 70
     1
 71
     1
 10
0.0
 20
0.0
 11
12.0
 21
9.0
 12
0.0
 22
0.0
 32
0.0
 14
0.0
 24
0.0
 34
0.0
 15
0.0
 25
0.0
 35
0.0
146
0.0
 13
0.0
 23
0.0
 33
0.0
 16
1.0
 26
0.0
 36
0.0
 17
0.0
 27
1.0
 37
0.0
 76
     0
330
6D
  0
LAYOUT
  5
78
102
{ACAD_REACTORS
330
62
102
}
330
62
100
AcDbPlotSettings
  1

  2

  4

  6

 40
0.0
 41
0.0
 42
0.0
 43
0.0
 44
0.0
 45
0.0
 46
0.0
 47
0.0
 48
0.0
 49
0.0
140
0.0
141
0.0
142
1.0
143
1.0
 70
   688
 72
     0
 73
     0
 74
     5
  7

 75
    16
147
1.0
 76
     0
 77
     2
 78
   300
148
0.0
149
0.0
100
AcDbLayout
  1
Layout2
 70
     1
 71
     2
 10
0.0
 20
0.0
 11
12.0
 21
9.0
 12
0.0
 22
0.0
 32
0.0
 14
0.0
 24
0.0
 34
0.0
 15
0.0
 25
0.0
 35
0.0
146
0.0
 13
0.0
 23
0.0
 33
0.0
 16
1.0
 26
0.0
 36
0.0
 17
0.0
 27
1.0
 37
0.0
 76
     0
330
75
  0
LAYOUT
  5
74
102
{ACAD_REACTORS
330
62
102
}
330
62
100
AcDbPlotSettings
  1

  2

  4

  6

 40
0.0
 41
0.0
 42
0.0
 43
0.0
 44
0.0
 45
0.0
 46
0.0
 47
0.0
 48
0.0
 49
0.0
140
0.0
141
0.0
142
1.0
143
1.0
 70
  1712
 72
     0
 73
     0
 74
     0
  7

 75
     0
147
1.0
 76
     0
 77
     2
 78
   300
148
0.0
149
0.0
100
AcDbLayout
  1
Model
 70
     1
 71
     0
 10
0.0
 20
0.0
 11
12.0
 21
9.0
 12
0.0
 22
0.0
 32
0.0
 14
0.0
 24
0.0
 34
0.0
 15
0.0
 25
0.0
 35
0.0
146
0.0
 13
0.0
 23
0.0
 33
0.0
 16
1.0
 26
0.0
 36
0.0
 17
0.0
 27
1.0
 37
0.0
 76
     0
330
71
  0
MATERIAL
  5
19
102
{ACAD_XDICTIONARY
360
1A
102
}
102
{ACAD_REACTORS
330
10
102
}
330
10
100
AcDbMaterial
  1
ByBlock
 72
     0
 43
0.0208333333333333
 43
0.0
 43
0.0
 43
0.0
 43
0.0
 43
0.0208333333333333
 43
0.0
 43
0.0
 43
0.0
 43
0.0
 43
1.0
 43
0.0
 43
0.0
 43
0.0
 43
0.0
 43
1.0
 77
     0
 47
0.0208333333333333
 47
0.0
 47
0.0
 47
0.0
 47
0.0
 47
0.0208333333333333
 47
0.0
 47
0.0
 47
0.0
 47
0.0
 47
1.0
 47
0.0
 47
0.0
 47
0.0
 47
0.0
 47
1.0
171
     0
 49
0.0208333333333333
 49
0.0
 49
0.0
 49
0.0
 49
0.0
 49
0.0208333333333333
 49
0.0
 49
0.0
 49
0.0
 49
0.0
 49
1.0
 49
0.0
 49
0.0
 49
0.0
 49
0.0
 49
1.0
175
     0
142
0.0208333333333333
142
0.0
142
0.0
142
0.0
142
0.0
142
0.0208333333333333
142
0.0
142
0.0
142
0.0
142
0.0
142
1.0
142
0.0
142
0.0
142
0.0
142
0.0
142
1.0
179
     0
144
0.0208333333333333
144
0.0
144
0.0
144
0.0
144
0.0
144
0.0208333333333333
144
0.0
144
0.0
144
0.0
144
0.0
144
1.0
144
0.0
144
0.0
144
0.0
144
0.0
144
1.0
147
0.0208333333333333
147
0.0
147
0.0
147
0.0
147
0.0
147
0.0208333333333333
147
0.0
147
0.0
147
0.0
147
0.0
147
1.0
147
0.0
147
0.0
147
0.0
147
0.0
147
1.0
  0
MATERIAL
  5
11
102
{ACAD_XDICTIONARY
360
12
102
}
102
{ACAD_REACTORS
330
10
102
}
330
10
100
AcDbMaterial
  1
ByLayer
 72
     0
 43
0.0208333333333333
 43
0.0
 43
0.0
 43
0.0
 43
0.0
 43
0.0208333333333333
 43
0.0
 43
0.0
 43
0.0
 43
0.0
 43
1.0
 43
0.0
 43
0.0
 43
0.0
 43
0.0
 43
1.0
 77
     0
 47
0.0208333333333333
 47
0.0
 47
0.0
 47
0.0
 47
0.0
 47
0.0208333333333333
 47
0.0
 47
0.0
 47
0.0
 47
0.0
 47
1.0
 47
0.0
 47
0.0
 47
0.0
 47
0.0
 47
1.0
171
     0
 49
0.0208333333333333
 49
0.0
 49
0.0
 49
0.0
 49
0.0
 49
0.0208333333333333
 49
0.0
 49
0.0
 49
0.0
 49
0.0
 49
1.0
 49
0.0
 49
0.0
 49
0.0
 49
0.0
 49
1.0
175
     0
142
0.0208333333333333
142
0.0
142
0.0
142
0.0
142
0.0
142
0.0208333333333333
142
0.0
142
0.0
142
0.0
142
0.0
142
1.0
142
0.0
142
0.0
142
0.0
142
0.0
142
1.0
179
     0
144
0.0208333333333333
144
0.0
144
0.0
144
0.0
144
0.0
144
0.0208333333333333
144
0.0
144
0.0
144
0.0
144
0.0
144
1.0
144
0.0
144
0.0
144
0.0
144
0.0
144
1.0
147
0.0208333333333333
147
0.0
147
0.0
147
0.0
147
0.0
147
0.0208333333333333
147
0.0
147
0.0
147
0.0
147
0.0
147
1.0
147
0.0
147
0.0
147
0.0
147
0.0
147
1.0
  0
MATERIAL
  5
21
102
{ACAD_XDICTIONARY
360
22
102
}
102
{ACAD_REACTORS
330
10
102
}
330
10
100
AcDbMaterial
  1
Global
 72
     0
 43
0.0208333333333333
 43
0.0
 43
0.0
 43
0.0
 43
0.0
 43
0.0208333333333333
 43
0.0
 43
0.0
 43
0.0
 43
0.0
 43
1.0
 43
0.0
 43
0.0
 43
0.0
 43
0.0
 43
1.0
 77
     0
 47
0.0208333333333333
 47
0.0
 47
0.0
 47
0.0
 47
0.0
 47
0.0208333333333333
 47
0.0
 47
0.0
 47
0.0
 47
0.0
 47
1.0
 47
0.0
 47
0.0
 47
0.0
 47
0.0
 47
1.0
171
     0
 49
0.0208333333333333
 49
0.0
 49
0.0
 49
0.0
 49
0.0
 49
0.0208333333333333
 49
0.0
 49
0.0
 49
0.0
 49
0.0
 49
1.0
 49
0.0
 49
0.0
 49
0.0
 49
0.0
 49
1.0
175
     0
142
0.0208333333333333
142
0.0
142
0.0
142
0.0
142
0.0
142
0.0208333333333333
142
0.0
142
0.0
142
0.0
142
0.0
142
1.0
142
0.0
142
0.0
142
0.0
142
0.0
142
1.0
179
     0
144
0.0208333333333333
144
0.0
144
0.0
144
0.0
144
0.0
144
0.0208333333333333
144
0.0
144
0.0
144
0.0
144
0.0
144
1.0
144
0.0
144
0.0
144
0.0
144
0.0
144
1.0
147
0.0208333333333333
147
0.0
147
0.0
147
0.0
147
0.0
147
0.0208333333333333
147
0.0
147
0.0
147
0.0
147
0.0
147
1.0
147
0.0
147
0.0
147
0.0
147
0.0
147
1.0
  0
MLEADERSTYLE
  5
67
102
{ACAD_XDICTIONARY
360
872
102
}
102
{ACAD_REACTORS
330
66
102
}
330
66
100
AcDbMLeaderStyle
179
     2
170
     2
171
     1
172
     0
 90
        2
 40
0.0
 41
0.0
173
     1
 91
-1056964608
340
5B
 92
       -2
290
     1
 42
0.09
291
     1
 43
0.36
  3
Standard
 44
0.18
300

342
55
174
     1
178
     6
175
     1
176
     0
 93
-1056964608
 45
0.18
292
     0
297
     0
 46
0.18
 94
-1056964608
 47
1.0
 49
1.0
140
1.0
293
     1
141
0.0
294
     1
177
     0
142
1.0
295
     0
296
     0
143
0.125
271
     0
272
     9
273
     9
  0
MLINESTYLE
  5
60
102
{ACAD_REACTORS
330
5F
102
}
330
5F
100
AcDbMlineStyle
  2
STANDARD
 70
     0
  3

 62
   256
 51
90.0
 52
90.0
 71
     2
 49
0.5
 62
   256
  6
BYLAYER
 49
-0.5
 62
   256
  6
BYLAYER
  0
ACDBPLACEHOLDER
  5
F
102
{ACAD_REACTORS
330
E
102
}
330
E
  0
SCALE
  5
43
102
{ACAD_REACTORS
330
42
102
}
330
42
100
AcDbScale
 70
     0
300
1:1
140
1.0
141
1.0
290
     1
  0
SCALE
  5
44
102
{ACAD_REACTORS
330
42
102
}
330
42
100
AcDbScale
 70
     0
300
1/128" = 1'-0"
140
0.0078125
141
12.0
290
     0
  0
SCALE
  5
45
102
{ACAD_REACTORS
330
42
102
}
330
42
100
AcDbScale
 70
     0
300
1/64" = 1'-0"
140
0.015625
141
12.0
290
     0
  0
SCALE
  5
46
102
{ACAD_REACTORS
330
42
102
}
330
42
100
AcDbScale
 70
     0
300
1/32" = 1'-0"
140
0.03125
141
12.0
290
     0
  0
SCALE
  5
47
102
{ACAD_REACTORS
330
42
102
}
330
42
100
AcDbScale
 70
     0
300
1/16" = 1'-0"
140
0.0625
141
12.0
290
     0
  0
SCALE
  5
48
102
{ACAD_REACTORS
330
42
102
}
330
42
100
AcDbScale
 70
     0
300
3/32" = 1'-0"
140
0.09375
141
12.0
290
     0
  0
SCALE
  5
49
102
{ACAD_REACTORS
330
42
102
}
330
42
100
AcDbScale
 70
     0
300
1/8" = 1'-0"
140
0.125
141
12.0
290
     0
  0
SCALE
  5
4A
102
{ACAD_REACTORS
330
42
102
}
330
42
100
AcDbScale
 70
     0
300
3/16" = 1'-0"
140
0.1875
141
12.0
290
     0
  0
SCALE
  5
4B
102
{ACAD_REACTORS
330
42
102
}
330
42
100
AcDbScale
 70
     0
300
1/4" = 1'-0"
140
0.25
141
12.0
290
     0
  0
SCALE
  5
4C
102
{ACAD_REACTORS
330
42
102
}
330
42
100
AcDbScale
 70
     0
300
3/8" = 1'-0"
140
0.375
141
12.0
290
     0
  0
SCALE
  5
4D
102
{ACAD_REACTORS
330
42
102
}
330
42
100
AcDbScale
 70
     0
300
1/2" = 1'-0"
140
0.5
141
12.0
290
     0
  0
SCALE
  5
4E
102
{ACAD_REACTORS
330
42
102
}
330
42
100
AcDbScale
 70
     0
300
3/4" = 1'-0"
140
0.75
141
12.0
290
     0
  0
SCALE
  5
4F
102
{ACAD_REACTORS
330
42
102
}
330
42
100
AcDbScale
 70
     0
300
1" = 1'-0"
140
1.0
141
12.0
290
     0
  0
SCALE
  5
50
102
{ACAD_REACTORS
330
42
102
}
330
42
100
AcDbScale
 70
     0
300
1-1/2" = 1'-0"
140
1.5
141
12.0
290
     0
  0
SCALE
  5
51
102
{ACAD_REACTORS
330
42
102
}
330
42
100
AcDbScale
 70
     0
300
3" = 1'-0"
140
3.0
141
12.0
290
     0
  0
SCALE
  5
52
102
{ACAD_REACTORS
330
42
102
}
330
42
100
AcDbScale
 70
     0
300
6" = 1'-0"
140
6.0
141
12.0
290
     0
  0
SCALE
  5
53
102
{ACAD_REACTORS
330
42
102
}
330
42
100
AcDbScale
 70
     0
300
1'-0" = 1'-0"
140
12.0
141
12.0
290
     0
  0
ACDBSECTIONVIEWSTYLE
  5
6A
102
{ACAD_REACTORS
330
68
102
}
330
68
100
AcDbModelDocViewStyle
 70
     0
  3
Imperial24
290
     0
100
AcDbSectionViewStyle
 70
     0
 71
     0
 90
       78
 71
     1
340
55
 62
   256
 40
0.24
340
0
340
0
 62
   256
 40
0.24
300
I, O, Q, S, X, Z
 40
0.48
 90
        3
 40
0.18
 90
        1
 71
     2
340
69
 90
       25
 62
   256
340
5D
 90
       50
 62
   256
 40
0.24
 40
0.0
 40
0.24
 71
     3
340
55
 62
   256
 40
0.24
 90
        1
 40
0.75
 90
        1
300
%<\AcVar ViewType \f "%tc1">% %<\AcVar ViewSectionStartId>%-%<\AcVar ViewSectionEndId>%\PVARIA %<\AcVar ViewScale \f "%sn">%
 71
     4
 62
   256
 62
   257
300
ANSI31
 40
1.0
 90
        0
290
     0
290
     0
 90
        6
 40
0.0
 40
1.570796326794896
 40
0.2617993877991494
 40
1.308996938995747
 40
-0.2617993877991494
 40
1.832595714594045
  0
ACDBSECTIONVIEWSTYLE
  5
781
102
{ACAD_REACTORS
330
68
102
}
330
68
100
AcDbModelDocViewStyle
 70
     0
  3
Metric50
290
     0
100
AcDbSectionViewStyle
 70
     0
 71
     0
 90
      102
 71
     1
340
55
 62
   256
 40
5.0
340
0
340
0
 62
   256
 40
5.0
300
I, O, Q, S, X, Z
 40
10.0
 90
        0
 40
2.5
 90
        0
 71
     2
340
5D
 90
       25
 62
   256
340
5D
 90
       50
 62
   256
 40
5.0
 40
2.5
 40
5.0
 71
     3
340
55
 62
   256
 40
5.0
 90
        0
 40
15.0
 90
        1
300
%<\AcVar ViewSectionStartId>%-%<\AcVar ViewSectionEndId>% (%<\AcVar ViewScale \f "%sn">%)
 71
     4
 62
   256
 62
   257
300
ANSI31
 40
1.0
 90
        0
290
     0
290
     0
 90
        6
 40
0.0
 40
1.570796326794896
 40
0.2617993877991494
 40
1.308996938995747
 40
-0.2617993877991494
 40
1.832595714594046
  0
TABLESTYLE
  5
65
102
{ACAD_XDICTIONARY
360
632
102
}
102
{ACAD_REACTORS
330
64
102
}
330
64
100
AcDbTableStyle
280
     0
  3
Standard
 70
     0
 71
     0
 40
0.06
 41
0.06
280
     0
281
     0
  7
Standard
140
0.18
170
     2
 62
     0
 63
     7
283
     0
 90
      512
 91
        0
  1

274
    -2
284
     1
 64
     0
275
    -2
285
     1
 65
     0
276
    -2
286
     1
 66
     0
277
    -2
287
     1
 67
     0
278
    -2
288
     1
 68
     0
279
    -2
289
     1
 69
     0
  7
Standard
140
0.25
170
     5
 62
     0
 63
     7
283
     0
 90
      512
 91
        0
  1

274
    -2
284
     1
 64
     0
275
    -2
285
     1
 65
     0
276
    -2
286
     1
 66
     0
277
    -2
287
     1
 67
     0
278
    -2
288
     1
 68
     0
279
    -2
289
     1
 69
     0
  7
Standard
140
0.18
170
     5
 62
     0
 63
     7
283
     0
 90
      512
 91
        0
  1

274
    -2
284
     1
 64
     0
275
    -2
285
     1
 65
     0
276
    -2
286
     1
 66
     0
277
    -2
287
     1
 67
     0
278
    -2
288
     1
 68
     0
279
    -2
289
     1
 69
     0
  0
VISUALSTYLE
  5
2F
102
{ACAD_XDICTIONARY
360
84C
102
}
102
{ACAD_REACTORS
330
29
102
}
330
29
100
AcDbVisualStyle
  2
2dWireframe
 70
     4
177
     2
291
     0
 71
     0
176
     1
 72
     2
176
     1
 73
     0
176
     1
 90
        0
176
     1
 40
0.6
176
     1
 41
30.0
176
     1
 63
     7
421
 16777215
176
     1
 74
     1
176
     1
 91
        4
176
     1
 64
     7
176
     1
 65
   257
176
     1
 75
     1
176
     1
175
     1
176
     1
 42
1.0
176
     1
 92
        0
176
     1
 66
   257
176
     1
 43
1.0
176
     1
 76
     1
176
     1
 77
     6
176
     1
 78
     2
176
     1
 67
     7
176
     1
 79
     5
176
     1
170
     0
176
     1
171
     0
176
     1
290
     0
176
     1
 93
        1
176
     1
 44
0.0
176
     1
173
     0
176
     1
1001
ACAD
1000
AcDbSavedByObjectVersion
1070
     0
  0
VISUALSTYLE
  5
2E
102
{ACAD_XDICTIONARY
360
84A
102
}
102
{ACAD_REACTORS
330
29
102
}
330
29
100
AcDbVisualStyle
  2
Basic
 70
     7
177
     2
291
     1
 71
     1
176
     1
 72
     0
176
     1
 73
     1
176
     1
 90
        0
176
     1
 40
0.6
176
     1
 41
30.0
176
     1
 63
     7
421
 16777215
176
     1
 74
     0
176
     1
 91
        4
176
     1
 64
     7
176
     1
 65
   257
176
     1
 75
     1
176
     1
175
     1
176
     1
 42
1.0
176
     1
 92
        8
176
     1
 66
     7
176
     1
 43
1.0
176
     1
 76
     1
176
     1
 77
     6
176
     1
 78
     2
176
     1
 67
     7
176
     1
 79
     5
176
     1
170
     0
176
     1
171
     0
176
     1
290
     0
176
     1
 93
        1
176
     1
 44
0.0
176
     1
173
     0
176
     1
1001
ACAD
1000
AcDbSavedByObjectVersion
1070
     0
  0
VISUALSTYLE
  5
35
102
{ACAD_XDICTIONARY
360
858
102
}
102
{ACAD_REACTORS
330
29
102
}
330
29
100
AcDbVisualStyle
  2
Brighten
 70
    12
177
     2
291
     1
 71
     2
176
     1
 72
     2
176
     1
 73
     0
176
     1
 90
        0
176
     1
 40
0.6
176
     1
 41
30.0
176
     1
 63
     7
421
 16777215
176
     1
 74
     1
176
     1
 91
        4
176
     1
 64
     7
176
     1
 65
   257
176
     1
 75
     1
176
     1
175
     1
176
     1
 42
1.0
176
     1
 92
        8
176
     1
 66
     7
176
     1
 43
1.0
176
     1
 76
     1
176
     1
 77
     6
176
     1
 78
     2
176
     1
 67
     7
176
     1
 79
     5
176
     1
170
     0
176
     1
171
     0
176
     1
290
     0
176
     1
 93
        1
176
     1
 44
50.0
176
     1
173
     0
176
     1
1001
ACAD
1000
AcDbSavedByObjectVersion
1070
     0
  0
VISUALSTYLE
  5
39
102
{ACAD_XDICTIONARY
360
860
102
}
102
{ACAD_REACTORS
330
29
102
}
330
29
100
AcDbVisualStyle
  2
ColorChange
 70
    16
177
     2
291
     1
 71
     2
176
     1
 72
     2
176
     1
 73
     3
176
     1
 90
        0
176
     1
 40
0.6
176
     1
 41
30.0
176
     1
 63
     8
421
  8421504
176
     1
 74
     1
176
     1
 91
        4
176
     1
 64
     7
176
     1
 65
   257
176
     1
 75
     1
176
     1
175
     1
176
     1
 42
1.0
176
     1
 92
        8
176
     1
 66
     8
424
  8421504
176
     1
 43
1.0
176
     1
 76
     1
176
     1
 77
     6
176
     1
 78
     2
176
     1
 67
     7
176
     1
 79
     5
176
     1
170
     0
176
     1
171
     0
176
     1
290
     0
176
     1
 93
        1
176
     1
 44
0.0
176
     1
173
     0
176
     1
1001
ACAD
1000
AcDbSavedByObjectVersion
1070
     0
  0
VISUALSTYLE
  5
32
102
{ACAD_XDICTIONARY
360
852
102
}
102
{ACAD_REACTORS
330
29
102
}
330
29
100
AcDbVisualStyle
  2
Conceptual
 70
     9
177
     2
291
     0
 71
     3
176
     1
 72
     2
176
     1
 73
     0
176
     1
 90
        0
176
     1
 40
0.6
176
     1
 41
30.0
176
     1
 63
     7
421
 16777215
176
     1
 74
     2
176
     1
 91
        2
176
     1
 64
     7
176
     1
 65
   257
176
     1
 75
     1
176
     1
175
     1
176
     1
 42
179.0
176
     1
 92
        8
176
     1
 66
     7
176
     1
 43
1.0
176
     1
 76
     1
176
     1
 77
     6
176
     1
 78
     2
176
     1
 67
     7
176
     1
 79
     3
176
     1
170
     0
176
     1
171
     0
176
     1
290
     0
176
     1
 93
        1
176
     1
 44
0.0
176
     1
173
     0
176
     1
1001
ACAD
1000
AcDbSavedByObjectVersion
1070
     0
  0
VISUALSTYLE
  5
34
102
{ACAD_XDICTIONARY
360
856
102
}
102
{ACAD_REACTORS
330
29
102
}
330
29
100
AcDbVisualStyle
  2
Dim
 70
    11
177
     2
291
     1
 71
     2
176
     1
 72
     2
176
     1
 73
     0
176
     1
 90
        0
176
     1
 40
0.6
176
     1
 41
30.0
176
     1
 63
     7
421
 16777215
176
     1
 74
     1
176
     1
 91
        4
176
     1
 64
     7
176
     1
 65
   257
176
     1
 75
     1
176
     1
175
     1
176
     1
 42
1.0
176
     1
 92
        8
176
     1
 66
     7
176
     1
 43
1.0
176
     1
 76
     1
176
     1
 77
     6
176
     1
 78
     2
176
     1
 67
     7
176
     1
 79
     5
176
     1
170
     0
176
     1
171
     0
176
     1
290
     0
176
     1
 93
        1
176
     1
 44
-50.0
176
     1
173
     0
176
     1
1001
ACAD
1000
AcDbSavedByObjectVersion
1070
     0
  0
VISUALSTYLE
  5
41
102
{ACAD_XDICTIONARY
360
870
102
}
102
{ACAD_REACTORS
330
29
102
}
330
29
100
AcDbVisualStyle
  2
EdgeColorOff
 70
    22
177
     2
291
     1
 71
     2
176
     0
 72
     2
176
     0
 73
     0
176
     0
 90
        0
176
     0
 40
0.6
176
     0
 41
30.0
176
     0
 63
     7
421
 16777215
176
     0
 74
     1
176
     0
 91
        4
176
     0
 64
     7
176
     0
 65
   257
176
     0
 75
     1
176
     0
175
     1
176
     0
 42
1.0
176
     0
 92
        8
176
     2
 66
     7
176
     0
 43
1.0
176
     0
 76
     1
176
     0
 77
     6
176
     0
 78
     2
176
     0
 67
     7
176
     0
 79
     5
176
     0
170
     0
176
     0
171
     0
176
     0
290
     0
176
     0
 93
        1
176
     0
 44
0.0
176
     0
173
     0
176
     0
1001
ACAD
1000
AcDbSavedByObjectVersion
1070
     0
  0
VISUALSTYLE
  5
38
102
{ACAD_XDICTIONARY
360
85E
102
}
102
{ACAD_REACTORS
330
29
102
}
330
29
100
AcDbVisualStyle
  2
Facepattern
 70
    15
177
     2
291
     1
 71
     2
176
     1
 72
     2
176
     1
 73
     0
176
     1
 90
        0
176
     1
 40
0.6
176
     1
 41
30.0
176
     1
 63
     7
421
 16777215
176
     1
 74
     1
176
     1
 91
        4
176
     1
 64
     7
176
     1
 65
   257
176
     1
 75
     1
176
     1
175
     1
176
     1
 42
1.0
176
     1
 92
        8
176
     1
 66
     7
176
     1
 43
1.0
176
     1
 76
     1
176
     1
 77
     6
176
     1
 78
     2
176
     1
 67
     7
176
     1
 79
     5
176
     1
170
     0
176
     1
171
     0
176
     1
290
     0
176
     1
 93
        1
176
     1
 44
0.0
176
     1
173
     0
176
     1
1001
ACAD
1000
AcDbSavedByObjectVersion
1070
     0
  0
VISUALSTYLE
  5
2A
102
{ACAD_XDICTIONARY
360
842
102
}
102
{ACAD_REACTORS
330
29
102
}
330
29
100
AcDbVisualStyle
  2
Flat
 70
     0
177
     2
291
     1
 71
     2
176
     1
 72
     1
176
     1
 73
     1
176
     1
 90
        2
176
     1
 40
0.6
176
     1
 41
30.0
176
     1
 63
     7
421
 16777215
176
     1
 74
     0
176
     1
 91
        0
176
     1
 64
     7
176
     1
 65
   257
176
     1
 75
     1
176
     1
175
     1
176
     1
 42
1.0
176
     1
 92
        8
176
     1
 66
     7
176
     1
 43
1.0
176
     1
 76
     1
176
     1
 77
     6
176
     1
 78
     2
176
     1
 67
     7
176
     1
 79
     5
176
     1
170
     0
176
     1
171
     0
176
     1
290
     0
176
     1
 93
       13
176
     1
 44
0.0
176
     1
173
     0
176
     1
1001
ACAD
1000
AcDbSavedByObjectVersion
1070
     0
  0
VISUALSTYLE
  5
2B
102
{ACAD_XDICTIONARY
360
844
102
}
102
{ACAD_REACTORS
330
29
102
}
330
29
100
AcDbVisualStyle
  2
FlatWithEdges
 70
     1
177
     2
291
     1
 71
     2
176
     1
 72
     1
176
     1
 73
     1
176
     1
 90
        2
176
     1
 40
0.6
176
     1
 41
30.0
176
     1
 63
     7
421
 16777215
176
     1
 74
     1
176
     1
 91
        0
176
     1
 64
     7
176
     1
 65
   257
176
     1
 75
     1
176
     1
175
     1
176
     1
 42
1.0
176
     1
 92
        0
176
     1
 66
   257
176
     1
 43
1.0
176
     1
 76
     1
176
     1
 77
     6
176
     1
 78
     2
176
     1
 67
     7
176
     1
 79
     5
176
     1
170
     0
176
     1
171
     0
176
     1
290
     0
176
     1
 93
       13
176
     1
 44
0.0
176
     1
173
     0
176
     1
1001
ACAD
1000
AcDbSavedByObjectVersion
1070
     0
  0
VISUALSTYLE
  5
2C
102
{ACAD_XDICTIONARY
360
846
102
}
102
{ACAD_REACTORS
330
29
102
}
330
29
100
AcDbVisualStyle
  2
Gouraud
 70
     2
177
     2
291
     1
 71
     2
176
     1
 72
     2
176
     1
 73
     1
176
     1
 90
        2
176
     1
 40
0.6
176
     1
 41
30.0
176
     1
 63
     7
421
 16777215
176
     1
 74
     0
176
     1
 91
        0
176
     1
 64
     7
176
     1
 65
   257
176
     1
 75
     1
176
     1
175
     1
176
     1
 42
1.0
176
     1
 92
        0
176
     1
 66
     7
176
     1
 43
1.0
176
     1
 76
     1
176
     1
 77
     6
176
     1
 78
     2
176
     1
 67
     7
176
     1
 79
     5
176
     1
170
     0
176
     1
171
     0
176
     1
290
     0
176
     1
 93
       13
176
     1
 44
0.0
176
     1
173
     0
176
     1
1001
ACAD
1000
AcDbSavedByObjectVersion
1070
     0
  0
VISUALSTYLE
  5
2D
102
{ACAD_XDICTIONARY
360
848
102
}
102
{ACAD_REACTORS
330
29
102
}
330
29
100
AcDbVisualStyle
  2
GouraudWithEdges
 70
     3
177
     2
291
     1
 71
     2
176
     1
 72
     2
176
     1
 73
     1
176
     1
 90
        2
176
     1
 40
0.6
176
     1
 41
30.0
176
     1
 63
     7
421
 16777215
176
     1
 74
     1
176
     1
 91
        0
176
     1
 64
     7
176
     1
 65
   257
176
     1
 75
     1
176
     1
175
     1
176
     1
 42
1.0
176
     1
 92
        0
176
     1
 66
   257
176
     1
 43
1.0
176
     1
 76
     1
176
     1
 77
     6
176
     1
 78
     2
176
     1
 67
     7
176
     1
 79
     5
176
     1
170
     0
176
     1
171
     0
176
     1
290
     0
176
     1
 93
       13
176
     1
 44
0.0
176
     1
173
     0
176
     1
1001
ACAD
1000
AcDbSavedByObjectVersion
1070
     0
  0
VISUALSTYLE
  5
31
102
{ACAD_XDICTIONARY
360
850
102
}
102
{ACAD_REACTORS
330
29
102
}
330
29
100
AcDbVisualStyle
  2
Hidden
 70
     6
177
     2
291
     0
 71
     1
176
     1
 72
     2
176
     1
 73
     2
176
     1
 90
        0
176
     1
 40
0.6
176
     1
 41
30.0
176
     1
 63
     7
421
 16777215
176
     1
 74
     2
176
     1
 91
        2
176
     1
 64
     7
176
     1
 65
   257
176
     1
 75
     2
176
     1
175
     1
176
     1
 42
40.0
176
     1
 92
        0
176
     1
 66
   257
176
     1
 43
1.0
176
     1
 76
     1
176
     1
 77
     6
176
     1
 78
     2
176
     1
 67
     7
176
     1
 79
     3
176
     1
170
     0
176
     1
171
     0
176
     1
290
     0
176
     1
 93
        1
176
     1
 44
0.0
176
     1
173
     0
176
     1
1001
ACAD
1000
AcDbSavedByObjectVersion
1070
     0
  0
VISUALSTYLE
  5
3F
102
{ACAD_XDICTIONARY
360
86C
102
}
102
{ACAD_REACTORS
330
29
102
}
330
29
100
AcDbVisualStyle
  2
JitterOff
 70
    20
177
     2
291
     1
 71
     2
176
     0
 72
     2
176
     0
 73
     0
176
     0
 90
        0
176
     0
 40
0.6
176
     0
 41
30.0
176
     0
 63
     7
421
 16777215
176
     0
 74
     1
176
     0
 91
        4
176
     0
 64
     7
176
     0
 65
   257
176
     0
 75
     1
176
     0
175
     1
176
     0
 42
1.0
176
     0
 92
       10
176
     2
 66
     7
176
     0
 43
1.0
176
     0
 76
     1
176
     0
 77
     6
176
     0
 78
     2
176
     0
 67
     7
176
     0
 79
     5
176
     0
170
     0
176
     0
171
     0
176
     0
290
     0
176
     0
 93
        1
176
     0
 44
0.0
176
     0
173
     0
176
     0
1001
ACAD
1000
AcDbSavedByObjectVersion
1070
     0
  0
VISUALSTYLE
  5
37
102
{ACAD_XDICTIONARY
360
85C
102
}
102
{ACAD_REACTORS
330
29
102
}
330
29
100
AcDbVisualStyle
  2
Linepattern
 70
    14
177
     2
291
     1
 71
     2
176
     1
 72
     2
176
     1
 73
     0
176
     1
 90
        0
176
     1
 40
0.6
176
     1
 41
30.0
176
     1
 63
     7
421
 16777215
176
     1
 74
     1
176
     1
 91
        4
176
     1
 64
     7
176
     1
 65
   257
176
     1
 75
     7
176
     1
175
     7
176
     1
 42
1.0
176
     1
 92
        8
176
     1
 66
     7
176
     1
 43
1.0
176
     1
 76
     1
176
     1
 77
     6
176
     1
 78
     2
176
     1
 67
     7
176
     1
 79
     5
176
     1
170
     0
176
     1
171
     0
176
     1
290
     0
176
     1
 93
        1
176
     1
 44
0.0
176
     1
173
     0
176
     1
1001
ACAD
1000
AcDbSavedByObjectVersion
1070
     0
  0
VISUALSTYLE
  5
40
102
{ACAD_XDICTIONARY
360
86E
102
}
102
{ACAD_REACTORS
330
29
102
}
330
29
100
AcDbVisualStyle
  2
OverhangOff
 70
    21
177
     2
291
     1
 71
     2
176
     0
 72
     2
176
     0
 73
     0
176
     0
 90
        0
176
     0
 40
0.6
176
     0
 41
30.0
176
     0
 63
     7
421
 16777215
176
     0
 74
     1
176
     0
 91
        4
176
     0
 64
     7
176
     0
 65
   257
176
     0
 75
     1
176
     0
175
     1
176
     0
 42
1.0
176
     0
 92
        9
176
     2
 66
     7
176
     0
 43
1.0
176
     0
 76
     1
176
     0
 77
     6
176
     0
 78
     2
176
     0
 67
     7
176
     0
 79
     5
176
     0
170
     0
176
     0
171
     0
176
     0
290
     0
176
     0
 93
        1
176
     0
 44
0.0
176
     0
173
     0
176
     0
1001
ACAD
1000
AcDbSavedByObjectVersion
1070
     0
  0
VISUALSTYLE
  5
33
102
{ACAD_XDICTIONARY
360
854
102
}
102
{ACAD_REACTORS
330
29
102
}
330
29
100
AcDbVisualStyle
  2
Realistic
 70
     8
177
     2
291
     0
 71
     2
176
     1
 72
     3
176
     1
 73
     0
176
     1
 90
        2
176
     1
 40
0.6
176
     1
 41
30.0
176
     1
 63
     7
421
 16777215
176
     1
 74
     0
176
     1
 91
        0
176
     1
 64
     7
176
     1
 65
   257
176
     1
 75
     1
176
     1
175
     1
176
     1
 42
1.0
176
     1
 92
        8
176
     1
 66
   257
176
     1
 43
1.0
176
     1
 76
     1
176
     1
 77
     6
176
     1
 78
     2
176
     1
 67
     7
176
     1
 79
     3
176
     1
170
     0
176
     1
171
     0
176
     1
290
     0
176
     1
 93
       13
176
     1
 44
0.0
176
     1
173
     0
176
     1
1001
ACAD
1000
AcDbSavedByObjectVersion
1070
     0
  0
VISUALSTYLE
  5
3E
102
{ACAD_XDICTIONARY
360
86A
102
}
102
{ACAD_REACTORS
330
29
102
}
330
29
100
AcDbVisualStyle
  2
Shaded
 70
    27
177
     2
291
     0
 71
     2
176
     1
 72
     2
176
     1
 73
     1
176
     1
 90
        2
176
     1
 40
0.6
176
     1
 41
30.0
176
     1
 63
     7
421
 16777215
176
     1
 74
     0
176
     1
 91
        4
176
     1
 64
     7
176
     1
 65
   257
176
     1
 75
     1
176
     1
175
     1
176
     1
 42
1.0
176
     1
 92
        8
176
     1
 66
   257
176
     1
 43
1.0
176
     1
 76
     1
176
     1
 77
     6
176
     1
 78
     2
176
     1
 67
     8
425
  7895160
176
     1
 79
     3
176
     1
170
     0
176
     1
171
     0
176
     1
290
     0
176
     1
 93
        5
176
     1
 44
0.0
176
     1
173
     0
176
     1
1001
ACAD
1000
AcDbSavedByObjectVersion
1070
     0
  0
VISUALSTYLE
  5
3D
102
{ACAD_XDICTIONARY
360
868
102
}
102
{ACAD_REACTORS
330
29
102
}
330
29
100
AcDbVisualStyle
  2
Shaded with edges
 70
    26
177
     2
291
     0
 71
     2
176
     1
 72
     2
176
     1
 73
     1
176
     1
 90
        2
176
     1
 40
0.6
176
     1
 41
30.0
176
     1
 63
     7
421
 16777215
176
     1
 74
     1
176
     1
 91
       10
176
     1
 64
     7
176
     1
 65
   257
176
     1
 75
     2
176
     1
175
     1
176
     1
 42
1.0
176
     1
 92
        8
176
     1
 66
   257
176
     1
 43
1.0
176
     1
 76
     1
176
     1
 77
     6
176
     1
 78
     2
176
     1
 67
     7
176
     1
 79
     3
176
     1
170
     0
176
     1
171
     0
176
     1
290
     0
176
     1
 93
        5
176
     1
 44
0.0
176
     1
173
     0
176
     1
1001
ACAD
1000
AcDbSavedByObjectVersion
1070
     0
  0
VISUALSTYLE
  5
3A
102
{ACAD_XDICTIONARY
360
862
102
}
102
{ACAD_REACTORS
330
29
102
}
330
29
100
AcDbVisualStyle
  2
Shades of Gray
 70
    23
177
     2
291
     0
 71
     2
176
     1
 72
     2
176
     1
 73
     3
176
     1
 90
        0
176
     1
 40
0.6
176
     1
 41
30.0
176
     1
 63
     7
421
 16777215
176
     1
 74
     2
176
     1
 91
        2
176
     1
 64
     7
176
     1
 65
     7
176
     1
 75
     1
176
     1
175
     1
176
     1
 42
40.0
176
     1
 92
        8
176
     1
 66
     7
176
     1
 43
1.0
176
     1
 76
     1
176
     1
 77
     6
176
     1
 78
     2
176
     1
 67
     7
176
     1
 79
     3
176
     1
170
     0
176
     1
171
     0
176
     1
290
     0
176
     1
 93
        1
176
     1
 44
0.0
176
     1
173
     0
176
     1
1001
ACAD
1000
AcDbSavedByObjectVersion
1070
     0
  0
VISUALSTYLE
  5
3B
102
{ACAD_XDICTIONARY
360
864
102
}
102
{ACAD_REACTORS
330
29
102
}
330
29
100
AcDbVisualStyle
  2
Sketchy
 70
    24
177
     2
291
     0
 71
     1
176
     1
 72
     2
176
     1
 73
     2
176
     1
 90
        0
176
     1
 40
0.6
176
     1
 41
30.0
176
     1
 63
     7
421
 16777215
176
     1
 74
     2
176
     1
 91
        2
176
     1
 64
     7
176
     1
 65
     7
176
     1
 75
     1
176
     1
175
     1
176
     1
 42
40.0
176
     1
 92
       11
176
     1
 66
     7
176
     1
 43
1.0
176
     1
 76
     1
176
     1
 77
     6
176
     1
 78
     2
176
     1
 67
     7
176
     1
 79
     6
176
     1
170
     0
176
     1
171
     0
176
     1
290
     0
176
     1
 93
        1
176
     1
 44
0.0
176
     1
173
     0
176
     1
1001
ACAD
1000
AcDbSavedByObjectVersion
1070
     0
  0
VISUALSTYLE
  5
36
102
{ACAD_XDICTIONARY
360
85A
102
}
102
{ACAD_REACTORS
330
29
102
}
330
29
100
AcDbVisualStyle
  2
Thicken
 70
    13
177
     2
291
     1
 71
     2
176
     1
 72
     2
176
     1
 73
     0
176
     1
 90
        0
176
     1
 40
0.6
176
     1
 41
30.0
176
     1
 63
     7
421
 16777215
176
     1
 74
     1
176
     1
 91
        4
176
     1
 64
     7
176
     1
 65
   257
176
     1
 75
     1
176
     1
175
     1
176
     1
 42
1.0
176
     1
 92
       12
176
     1
 66
     7
176
     1
 43
1.0
176
     1
 76
     1
176
     1
 77
     6
176
     1
 78
     2
176
     1
 67
     7
176
     1
 79
     5
176
     1
170
     0
176
     1
171
     0
176
     1
290
     0
176
     1
 93
        1
176
     1
 44
0.0
176
     1
173
     0
176
     1
1001
ACAD
1000
AcDbSavedByObjectVersion
1070
     0
  0
VISUALSTYLE
  5
30
102
{ACAD_XDICTIONARY
360
84E
102
}
102
{ACAD_REACTORS
330
29
102
}
330
29
100
AcDbVisualStyle
  2
Wireframe
 70
     5
177
     2
291
     0
 71
     0
176
     1
 72
     2
176
     1
 73
     0
176
     1
 90
        0
176
     1
 40
0.6
176
     1
 41
30.0
176
     1
 63
     7
421
 16777215
176
     1
 74
     1
176
     1
 91
        4
176
     1
 64
     7
176
     1
 65
   257
176
     1
 75
     1
176
     1
175
     1
176
     1
 42
1.0
176
     1
 92
        0
176
     1
 66
   257
176
     1
 43
1.0
176
     1
 76
     1
176
     1
 77
     6
176
     1
 78
     2
176
     1
 67
     7
176
     1
 79
     3
176
     1
170
     0
176
     1
171
     0
176
     1
290
     0
176
     1
 93
        1
176
     1
 44
0.0
176
     1
173
     0
176
     1
1001
ACAD
1000
AcDbSavedByObjectVersion
1070
     0
  0
VISUALSTYLE
  5
3C
102
{ACAD_XDICTIONARY
360
866
102
}
102
{ACAD_REACTORS
330
29
102
}
330
29
100
AcDbVisualStyle
  2
X-Ray
 70
    25
177
     2
291
     0
 71
     2
176
     1
 72
     2
176
     1
 73
     1
176
     1
 90
        1
176
     1
 40
0.5
176
     1
 41
30.0
176
     1
 63
     7
421
 16777215
176
     1
 74
     1
176
     1
 91
        0
176
     1
 64
     7
176
     1
 65
   257
176
     1
 75
     1
176
     1
175
     1
176
     1
 42
1.0
176
     1
 92
        8
176
     1
 66
     7
176
     1
 43
1.0
176
     1
 76
     1
176
     1
 77
     6
176
     1
 78
     2
176
     1
 67
     7
176
     1
 79
     3
176
     1
170
     0
176
     1
171
     0
176
     1
290
     0
176
     1
 93
       13
176
     1
 44
0.0
176
     1
173
     0
176
     1
1001
ACAD
1000
AcDbSavedByObjectVersion
1070
     0
  0
DICTIONARYVAR
  5
631
102
{ACAD_REACTORS
330
62C
102
}
330
62C
100
DictionaryVariables
280
     0
  1
1:1
  0
DICTIONARYVAR
  5
62E
102
{ACAD_REACTORS
330
62C
102
}
330
62C
100
DictionaryVariables
280
     0
  1
STANDARD
  0
DICTIONARYVAR
  5
62D
102
{ACAD_REACTORS
330
62C
102
}
330
62C
100
DictionaryVariables
280
     0
  1
STANDARD
  0
DICTIONARYVAR
  5
62F
102
{ACAD_REACTORS
330
62C
102
}
330
62C
100
DictionaryVariables
280
     0
  1
Imperial24
  0
DICTIONARYVAR
  5
630
102
{ACAD_REACTORS
330
62C
102
}
330
62C
100
DictionaryVariables
280
     0
  1
Imperial24
  0
DICTIONARY
  5
1A
330
19
100
AcDbDictionary
280
     1
281
     1
  3
BUMPTILE
360
1C
  3
DIFFUSETILE
360
1B
  3
OPACITYTILE
360
1F
  3
REFLECTIONTILE
360
1E
  3
REFRACTIONTILE
360
20
  3
SPECULARTILE
360
1D
  0
DICTIONARY
  5
12
330
11
100
AcDbDictionary
280
     1
281
     1
  3
BUMPTILE
360
14
  3
DIFFUSETILE
360
13
  3
FBXASSET
360
E1
  3
OPACITYTILE
360
17
  3
REFLECTIONTILE
360
16
  3
REFRACTIONTILE
360
18
  3
SPECULARTILE
360
15
  0
DICTIONARY
  5
22
330
21
100
AcDbDictionary
280
     1
281
     1
  3
BUMPTILE
360
24
  3
DIFFUSETILE
360
23
  3
OPACITYTILE
360
27
  3
REFLECTIONTILE
360
26
  3
REFRACTIONTILE
360
28
  3
SPECULARTILE
360
25
  0
DICTIONARY
  5
872
330
67
100
AcDbDictionary
280
     1
281
     1
  3
ACAD_XREC_ROUNDTRIP
360
873
  0
DICTIONARY
  5
632
330
65
100
AcDbDictionary
280
     1
281
     1
  3
ACAD_ROUNDTRIP_2008_TABLESTYLE_CELLSTYLEMAP
360
785
  0
DICTIONARY
  5
84C
330
2F
100
AcDbDictionary
280
     1
281
     1
  3
ACAD_XREC_ROUNDTRIP
360
84D
  0
DICTIONARY
  5
84A
330
2E
100
AcDbDictionary
280
     1
281
     1
  3
ACAD_XREC_ROUNDTRIP
360
84B
  0
DICTIONARY
  5
858
330
35
100
AcDbDictionary
280
     1
281
     1
  3
ACAD_XREC_ROUNDTRIP
360
859
  0
DICTIONARY
  5
860
330
39
100
AcDbDictionary
280
     1
281
     1
  3
ACAD_XREC_ROUNDTRIP
360
861
  0
DICTIONARY
  5
852
330
32
100
AcDbDictionary
280
     1
281
     1
  3
ACAD_XREC_ROUNDTRIP
360
853
  0
DICTIONARY
  5
856
330
34
100
AcDbDictionary
280
     1
281
     1
  3
ACAD_XREC_ROUNDTRIP
360
857
  0
DICTIONARY
  5
870
330
41
100
AcDbDictionary
280
     1
281
     1
  3
ACAD_XREC_ROUNDTRIP
360
871
  0
DICTIONARY
  5
85E
330
38
100
AcDbDictionary
280
     1
281
     1
  3
ACAD_XREC_ROUNDTRIP
360
85F
  0
DICTIONARY
  5
842
330
2A
100
AcDbDictionary
280
     1
281
     1
  3
ACAD_XREC_ROUNDTRIP
360
843
  0
DICTIONARY
  5
844
330
2B
100
AcDbDictionary
280
     1
281
     1
  3
ACAD_XREC_ROUNDTRIP
360
845
  0
DICTIONARY
  5
846
330
2C
100
AcDbDictionary
280
     1
281
     1
  3
ACAD_XREC_ROUNDTRIP
360
847
  0
DICTIONARY
  5
848
330
2D
100
AcDbDictionary
280
     1
281
     1
  3
ACAD_XREC_ROUNDTRIP
360
849
  0
DICTIONARY
  5
850
330
31
100
AcDbDictionary
280
     1
281
     1
  3
ACAD_XREC_ROUNDTRIP
360
851
  0
DICTIONARY
  5
86C
330
3F
100
AcDbDictionary
280
     1
281
     1
  3
ACAD_XREC_ROUNDTRIP
360
86D
  0
DICTIONARY
  5
85C
330
37
100
AcDbDictionary
280
     1
281
     1
  3
ACAD_XREC_ROUNDTRIP
360
85D
  0
DICTIONARY
  5
86E
330
40
100
AcDbDictionary
280
     1
281
     1
  3
ACAD_XREC_ROUNDTRIP
360
86F
  0
DICTIONARY
  5
854
330
33
100
AcDbDictionary
280
     1
281
     1
  3
ACAD_XREC_ROUNDTRIP
360
855
  0
DICTIONARY
  5
86A
330
3E
100
AcDbDictionary
280
     1
281
     1
  3
ACAD_XREC_ROUNDTRIP
360
86B
  0
DICTIONARY
  5
868
330
3D
100
AcDbDictionary
280
     1
281
     1
  3
ACAD_XREC_ROUNDTRIP
360
869
  0
DICTIONARY
  5
862
330
3A
100
AcDbDictionary
280
     1
281
     1
  3
ACAD_XREC_ROUNDTRIP
360
863
  0
DICTIONARY
  5
864
330
3B
100
AcDbDictionary
280
     1
281
     1
  3
ACAD_XREC_ROUNDTRIP
360
865
  0
DICTIONARY
  5
85A
330
36
100
AcDbDictionary
280
     1
281
     1
  3
ACAD_XREC_ROUNDTRIP
360
85B
  0
DICTIONARY
  5
84E
330
30
100
AcDbDictionary
280
     1
281
     1
  3
ACAD_XREC_ROUNDTRIP
360
84F
  0
DICTIONARY
  5
866
330
3C
100
AcDbDictionary
280
     1
281
     1
  3
ACAD_XREC_ROUNDTRIP
360
867
  0
XRECORD
  5
1C
102
{ACAD_REACTORS
330
1A
102
}
330
1A
100
AcDbXrecord
280
     1
270
     1
271
     1
  0
XRECORD
  5
1B
102
{ACAD_REACTORS
330
1A
102
}
330
1A
100
AcDbXrecord
280
     1
270
     1
271
     1
  0
XRECORD
  5
1F
102
{ACAD_REACTORS
330
1A
102
}
330
1A
100
AcDbXrecord
280
     1
270
     1
271
     1
  0
XRECORD
  5
1E
102
{ACAD_REACTORS
330
1A
102
}
330
1A
100
AcDbXrecord
280
     1
270
     1
271
     1
  0
XRECORD
  5
20
102
{ACAD_REACTORS
330
1A
102
}
330
1A
100
AcDbXrecord
280
     1
270
     1
271
     1
  0
XRECORD
  5
1D
102
{ACAD_REACTORS
330
1A
102
}
330
1A
100
AcDbXrecord
280
     1
270
     1
271
     1
  0
XRECORD
  5
14
102
{ACAD_REACTORS
330
12
102
}
330
12
100
AcDbXrecord
280
     1
270
     1
271
     1
  0
XRECORD
  5
13
102
{ACAD_REACTORS
330
12
102
}
330
12
100
AcDbXrecord
280
     1
270
     1
271
     1
  0
XRECORD
  5
E1
102
{ACAD_REACTORS
330
12
102
}
330
12
100
AcDbXrecord
280
     1
 70
     1
 90
1959938040
 71
     1
  1
870FAC74-F41D-4C55-A1E9-C575C28F739E
311
504B03040A00000800005B687B433DEE336E79000000790000001B0000006175746F6465736B2D64657369676E2D7061636B6167652E786D6C3C3F786D6C2076657273696F6E3D22312E302220656E636F64696E673D227574662D3822203F3E3C666F726D6174733E3C666F726D61743E687474703A2F2F736368656D612E
311
6175746F6465736B2E636F6D2F64657369676E2D7061636B6167652F323030393C2F666F726D61743E3C2F666F726D6174733E504B03041400060808005B687B43FAA28935A700000035010000130000005B436F6E74656E745F54797065735D2E786D6CA58FC10E823010447FA5D93B143D1863281ED43FE0076ADD4223DD
311
36ED62F0EF2DE16ABC78DC9DC99B99F6BCF849BC30651748C1AE6E402099F070342898D9564710E7AEEDDF11B3285ECA0A46E67892329B11BDCE75884845B12179CDE54C838CDA3CF58072DF34076902311257BC32A06BAF68F53CB1B82DE5BDE5DE1D81B86CBEBED814E818276734975A321846AE3227D41EE4578023FB1F
311
A00CF80158D5122CD76EB9FB00504B03041400060808005B687B43EF9FB315F90000009701000008000000636F72652E786D6C8D905D6EC3201084AF82F6B5C206FFC8A9858952D53E412F808038283158FC443D7E71E248ED5B9F7635CCC78E861DBF971BBA6B1F8CB303D08200D2563A65EC3C408A677C0074E4CC3B177F
311
D90059B1E8013619389BBD4BEB2E4967A3B631ABD629BD8B22041D01C95B5E0608F2A217518814B3235C8B55C8AB9875415F5B8653320A3D8F1895FF3367A33DF0A979FF9CC66AC4534B3BDC4CA7033E90AEC1A7B1A564AA3FE8D875ACDC60CEA2595EF7A5D7226A05BC22B4C694E2AAFBA2754FAABE6DDF08ED0961E566FF
311
03A555FD134AC6C6BADAE33EB1009CE6208F07CE42F4B9D0DD904B8828887BCE5372566E35E5F1E830CFAD52FE03504B03041400060808005B687B431BCDADD97C0000009D00000007000000636E782E786D6C4DCCD10AC2201886E15B91FFDC661653411D087A1FA3B921391DA6D1E5B7C50E3AFAE0E1E395C3678DE8EDCB
311
2BE4A4E07A21807C7AE429A44541AB33E680062D4BCEF5EF06288DAB57703068B994DCB693263F8F2DD65D6348CF13F9CD72DB1B8E69CF04BE1B4EB16184612E1C138E5A42A9834ECBEE57DAF708EB2F504B03041400060808005B687B43D134F4902B0100001E0200002D00000038334538453642382D323637392D344238
311
322D423730372D3839463739463245303232462F636F72652E786D6C8D51DB8EC22014FC15C2939B4D5BA06AABA19898E817EC0F5438BA440B0D978D9FBFB0ADEEEE9B2FA59933336760F8EE3EDCD01738AFADE9302D094660A455DA5C3A1CC3B96831DA09EEAC0D7F6818997E800E67180B7E71368E3324AD096042428D55
311
3083BDF7103092B7F4D3612F3F61E8CB3E86C4F0D772ECE5B5BF4049CB344E3CC17D7029009A96E42F166D7D680FEB7D5BB075B32996FB9615FB863445BB39369B233B10C68EBC9A8482C7A8D52CD72AC5D1670DEE55932C163CE8E1115F3AE803282C18A1754169C19A0F5A6F09DBAE56EF846E09E155A6FF13C551BD288A
311
DA849ACD712799C782F26A1A08AE6C3CDD1E61E03E5A1750DEB7F020DF7095AE9B1CD6CBD9C107EBD2732EAEA7E7ECE90EC30914B263487563B1FA5D51E5B604AF7EAA4C676E567C03504B03041400060808005B687B436A77868595000000F50000002C00000038334538453642382D323637392D344238322D423730372D
311
3839463739463245303232462F636E782E786D6C5D8E4B0EC2300C44AF12795F023B164E2A246EC00942E396887C503E88E313438550375EBC9979328EAFE0C5937271292A38ECF620284EC9BAB82868751E8E20468D39A5FA5703114D20058C41E392537BACC8D26C9AAF9D7A17EF2B3C9542F56CAAE99897C2A7C9F82EA0
311
38B402FA97A3E458A3E4B146BEABE232DD2898DE456E6C0514AE642D5951BEB58D477E3EEC5A7E58BF01504B03041400060808005B687B433F2F7558FD000000A00100003700000038334538453642382D323637392D344238322D423730372D3839463739463245303232462F4173736574446174612F636F72652E786D6C
311
8D505B6E842014DD8AB9BF0D0A3EAA6390898DBA826E802863C98C6078345D7E61B449FBD71F2E398F7B4F0EBD7E6D8FE453182BB5EA80A41812A166BD48B576E0DD0D35905C19355ABB5F324814DF440711064657A3FD7E42B3564E281750A5177182DC5AE120991FE1D3819D3FC4C653EE5D50D87BBAF3F9CE57919234D0
311
41C7A8752604488E23F105D6C71503779C6607CBA8F7723935720937E54D0A036C2A2FC334E6039A2A52A372EA1BD4E0BA44FD58113C156F64AC6B9A4533A34E6E3F196723B8130BB01C93021182F2FA9D142DCEDBAA7AC1A4C5986651FEC7E4F7E59F262F952BF233EE61B3C05E439027C16816FB0AE3596698B15BF60D50
311
4B03041400060808005B687B436920F04877010000860500003600000038334538453642382D323637392D344238322D423730372D3839463739463245303232462F4173736574446174612F636E782E786D6CD5544D6B032110FD2BE2B5EC57426809AEA1B4979C5268E8DDB8B3A9C4D545674BFBEFABBB860D949C7A6873
311
5119DF7B333EC6619BCF4E930F705E5953D32A2F2901236DA3CCB1A603B6D903251BCE9CB57801A3C4880E6A1AC394B3A3B3439F420DB462D018A25A99530A3E43AB8CC290638BE0045AF7E26C0F0E15784AA416DED7D4CB77E8442E06B40DF853DE081479953BF076701282624C4AB4954287DC60B2C1533E4B93B33699C5
311
5911399C0D4E9178AA695C2F5967D2CCC90FCAB0223038F3E8821189895F7D2842F4BD5652C4B7145622601640203A56843D803943D541A2480702A1A17C5156CBACAAB2C5FDBE5AAECBC57AB5BA2BAB7559B222C2393B58AB134999E091ED89B4E16090F2008AD79C15D152CEE29AB05BE351180973F57F62E7CF326EC9C4
311
47EF01F7E2A061D73E4DA6FFB62B4749326A925D4BCEAAD7DA71848FE8B9825B72F01543A3776FD31819DFF1CB369C044952F49393D7DC9BC0093B66CF9569FFF5172EC691197EB40B83957F03504B03041400060808005B687B43268121A384000000200100004F00000038334538453642382D323637392D344238322D42
311
3730372D3839463739463245303232462F4173736574446174612F446566696E6974696F6E4974657261746F7250726F706572746965732E62696EEB60D8CDF21F0A18808011881B1818197881B47B6A5E6A5166727072466A6E22033B50C4A9D227B132B508C4844A320145415C97D4B4C4D29C129036DFCCE2E4D49C9CC4
311
BCD4FCD26241A03C54A9426E6209D0BCC41C3D90264EA0044CA01864423AC43646A0B8040303C849924026836F6249718C3B442E261D42EB15E4A583E4E88001504B03041400060808005B687B43C0EAD3B3F4000000300200004500000038334538453642382D323637392D344238322D423730372D383946373946324530
311
3232462F4173736574446174612F496E7374616E636550726F706572746965732E62696EEB60D8CDF21F0A18808011881B1818197881B47B6A5E6A5166727072466A6EA20A50C0C2DCC0CDD1D9DC44D7CDC4D045D7C4D9D454D7D1D0D552D7D9D4DCD4D9C8C2CDDCD8D2951DA80EAA11A4C5D8D0C4C5D5C8D452D7D4C4C458
311
D7C4CCC850D7C9CDC945D7D0DCD8C0D9CCD9D9D2D1D512642783664CFFA1AF1A57ECA13413D0980606060618DF1EC806A20FF640B701690606010706010638507160C00F801A210AE00C081793842B003398810A1A18C0E001D40D3C601E3A010A4384CC07A85A74550C0C293B1D18F002EC5A41C683C213A4F5833D0B9062
311
04623E200E2E4F2C49CED0752A4ACC4B494D01B9172848330400504B03041400060808005B687B43FB8A3A5551000000570000004700000038334538453642382D323637392D344238322D423730372D3839463739463245303232462F4173736574446174612F41737365745461626C654F66436F6E74656E74732E62696E
311
53616060B030377073743637D175333174D135713635D5753474B5D4753635377536B2703337B6741502AACB4D2C492DCA4CCC492C28484D2C4ACC4B4E050A82112F90744FCD03CA26072767A4E6260200504B03041400060808005B687B43F865834058000000680000004500000038334538453642382D323637392D3442
311
38322D423730372D3839463739463245303232462F4173736574446174612F53747265616D56657273696F6E5461626C652E696E66558CBD0A80300C06F73E4B117FB66E451741D041DC5BF98480A492E4FDD18EAEC7DD4555D89EF28DF51A0B1BD8340C4DE7DD848B988C0ACF0649566493F2408C508DDEBB99D5129FF8F1
311
AF8CF5B9503E20FAE5A16B5AF702504B03041400060808005B687B43418C81ECFB0000009E0100003500000038334538453642382D323637392D344238322D423730372D3839463739463245303232462F536368656D61732F636F72652E786D6C8D50DB6A843010FD9530AF259A78412B31CB96EA0FB43F10346BC3AE89E4
311
52FAF94DD442FBD69799E15C98C36197AFF5813EA575CAE81E684600493D9959E9A587E06FB80574E1CC1AE37FC90069B1CA1E120C9C2DD684ED8426A3BDD43EA2DACCF2048573D2039A1EF1E8C14D1F721599083E2ADC3DDBC474178BCC6816E9A8E3CC791B03A0E3499AC0DF769363F9C17116829A4F859AE3477553D202
311
1FABE7D77128063CD6B4C1D5786D714B9A0A5F879A92B17CA143D3B03C9939F36AFD49385929BC9C8117849698525C34EFB4EC48D1D5F513A11D212C4FF23FA6B0CDFF3405A57D599C710F9B034E63909DE02C4F6DC5B55719776A967F03504B03041400060808005B687B43752D4FCD28010000D303000034000000383345
311
38453642382D323637392D344238322D423730372D3839463739463245303232462F536368656D61732F636E782E786D6CD5934D4F03211086FF0AE16AF6836D1A4DC3D283074F5EAC7F00D9692565990D1F46FFBDC396434DBC6AF44298E119DECC0B23F7EFB3636F10A2453F72D1F69C813738597F1A794EC7E68EB3BD92
311
01315D619C793DC3C84B9A2B790A98979A9AE0A8B34B9475D69F6BF21EE719FDC1BCC2AC39334EC738F2B886ADCE092788E776D249B7A20D10310703744311610E8D76A405BEC991ABC35AC58ED681EC0AA0640EB6EA9498AB6BB596FA931D114AC614A8AB4AA68F8514F4B2386B74A2E6BB15BC304A263B43254D009D60E2
311
6AE8C5A611A2196E9FC566D70FBBEDF6A617BBBE975DC1957C4174B5C8FA0401176690363E7145503956B22BB62859D6CA3E808760CDA5B19F77E78BDC3FB0E709FC04E191DE2058ED7ECBA5EF54FFAA59DD3A7FF4B5024DA9FA04504B03041400060808005B687B432F7B2A8D8D0100005E0600003D000000383345384536
311
42382D323637392D344238322D423730372D3839463739463245303232462F536368656D61732F436F6D6D6F6E536368656D612E786D6CC5944D6EC2301085F79C22F20550BB4E90A0486D24D44551BA1FE201AC3A76E43841B97D9D716A151228B448CD2A9267BE37CF3F2F9E5715DA75BEC702669388BE384B9751033261
311
4FBA28B4F2AB6C3689A76E2554ADAD116A17099EB00554D8574565BD91224FD81664852CE2B8154A58A1556AD180D566091612664DED569B4E85C89E16E0A9B2B84343744F7E4753390A3B1530085C2BD91E211F89D94302D46B10936CAFC4265D326F95451236E83C7F5BE91CFB9E3104743B67DBD2D938F13C3A124D749E
311
26750EF22A1A551EB9BD06ADA0F879D09BD159FA3AC6BD7CE837AB7C607BD0860F8E1EA4D487A296569412DD55AAB1FADA973B4F9083BB8EDAB4FF3802C72A37A2EC5ED2608A7BB8CDDE56F432ECBE2E360A841CA8FC7ABBDDD1248C2EA913094F69A1B5445024FA2238473550BCEC8BB05B8A99EEA5F6BCC0CF6AC109DE27
311
C7B30BAFDF28F8C11D2C90FB5C21787326969A2ED91EA8B72F1F6D37D888D158BBD0EF3691A49D9F10AE0363E733C8B58751DC3FA1E6BC019523FF2B329ECEBB54F4893D9B7C02504B03041400060808005B687B437229482E27050000001600003E00000038334538453642382D323637392D344238322D423730372D3839
311
463739463245303232462F536368656D61732F47656E65726963536368656D612E786D6CDD586D4FE33810FECEAFB0F27D4BCB1DAB5BA9456A41F4FA0171A2705F2D37718AEF9CA4B29D42EFD7DF783C3549CBB601F676B587549197F1CC3CF3F278E2E1D85AE9E6E9A32CC4C509C3BFE1C3EC8AAD851E2553594AA3D2F03A
311
B938199EC2AB2836115606B93B5966D2DC0807D24237C4BD4894779B15C9172429562B298C285389CABD40949E954E2EA5612A1B2541E39FD2585595095BD50BADD251920B6D65C28C145955EACD2871A686FBB5777D801A4949543A7746954BD4A9AB54686FF1A83E946C291FB7FD0E5ABF6AA414057875C4E97D23147CC4
311
B1636152555A8A1271A495AE0C5F6C78B5F84BA62E0919C94368B45848C8E3A59761930DBB0D323E93A4237A1D647CB49721EB3C53795EFB000BADABA7B42A4BD02F33E12BC68E120B91D4006C2DF4DD28E9F77E199CA3F169F366D2BC198F9241C29A3E2138B41CFDB8D69570886CC70FAE0AB1943C1799443B4D6533FF8A
311
5DFB57172754C68C0D27555D6696ADA44965E960F5368BAA4C8D2CE09955FF485454A852157501EE268CAE15204C756DD51A44426915E23948010EBADE970AD1F59623A85344156FF1AE85D1C85C4374D55AB90D178EF733B94CD8D1C0A3BB14D0BB860A8C2B5A7983CD2FDFC3E8525716E22AADED06AF771E2B66FAB2D487
311
B80D8FCAB915546579219DD0542E79AB277E57CB470D3F673158B4FE40B81C10955D0923CB74D3CDF7E8F97D73E9CF59A0AE01E1FFDE8946A40E361AAE60577BA6E219F4CECF623EA1D548066AE720DD50CD1DE29B5EDF9349A09F7D32614433A3041A81AEF7A57C3F04B28B05DC85720804C7E4EA1A4832DDF027E9BBE23D
311
154E1A8EC52450E9A190FC100A4E6B57D58E572B91020977C20F8923F2BDC4C5814A8E13D342A47FE722953CADF5EBEC34210976E925427A71CF8FF9452B2DBAB352E75C695D171C7EAAC4B92A8C03FD58BA731062332F0402BECA215BC3A3B5626115A94EFD2CC19D2C605715AE36921AE4F379FFC5CAA51762F70D210F01
311
5D8E00824C73E06858C9958661921762D5211177B883AF8586D10352021793ED93D6C8718D4A191A46D878151D42F75A115DD4C58A8B02A60898ABBA6CC6BDB32F3B7F31F0E3A0E608FBE7618F3AD01C9F06FD7EBF5B8304C130B2BC8733303CFB01E99C1470738D490917909470D14ACA0462FC4A32683F6E591715AF60FC
311
079D71F6A7F61B170B05D31CBB4D716003295F6FA4232698BE0676755A51ACB4847904150F3EC794CDE9C58773063B478799F2EC1C4CBF89E2095004B85FC110B24C59D7A0825F23BC1BF1CCAEB62F7DBC70795446D1DB8D56061395D2DB68052EA72C3CC0F760A8996B5315ECD63DC2F7DB0D7DEB056E24A5D1089A6C9930
311
D06D595A19F8F2B4DC884CD560AB4BEF455C775E037439AAC0D2422BD126F9F075AB680D3F7F244C7B0E5808B848416712D5E57009B447A8275A96197B52EEB11362CA59DB3A8CEE3C932BF74816A04F483B8C1AF8615095CCE7EBDEC0B6C1AE50F4C3650956BA94A5177B0B8910C2186FBADF456C5A883F017113E4DBB534
311
466592017680EB37A96F85D85BF9819029937CE9BF6436DC12BF843D7A002C411100E024CAA628CAE624FA9D723E38FB0DB698FF22E9345A2F11D6C1086C533F45D19F3B0245150F2D1AFCEB1F7ADEA506890D532BEC15386B93397C17F806387A48B5F6875EC0B5F6741A8E6FB6FF1F66BDE742230DD66AD7C4385BFBAD21
311
FB36A65EB4BD6652F95DD69FB9080F0811CE5A8F6E600787B324015FD7470ECBF6C186B5780C146DAB96F608BDFDF8153F6EA7F377841B567DD8F21F46AE957C7A87755A89BBEF413786A7637F7E174E542F4EFE05504B03041400060808005B687B430A3355BE74010000170400004500000038334538453642382D323637
311
392D344238322D423730372D3839463739463245303232462F536368656D61732F52656E6465724D6174657269616C536368656D612E786D6CAD93DF6AC23014C6EF7D8A90075895B1BB54D00EA430D968A7B725B6C73690269244C5B75FFED955866C0C7B9593F3E577724EBE9285D660CABA839ECE27C87F6493BFA213E5
311
292E4034A0D6D480629407159E4F486215837A4935047926FB5E8A91CCA5065D2E0CB4A0106B521C345B509A4981D1E1B8E3AC4EF19E720D1829A08D14FC9262A38E363EB9BBCC7CE10819A09BE2CD03F3FEC0A10761A8B1C4B55BF0825EFE86F6644BFA85FABE2A1FCAFB507062707E287305C2BE55FD4F66691413AD1FA8
311
3E5353773F38FE29FCBC82761859D64956833F5A7B1B54654715349537180E068919ED331871BA03EBB2D286B6ACA546032244026E4BF9F186A9AD149A489BDE10ECB673E6E8E0F56EF771CCDAFBE03C2E4C64CE06663ECADD01932454BB16224B293950319EC22713A632B26DF9D5C8FB60F2D8BCCBDBCE4912CF0EAC4C72
311
197E963835A7AC6AB7EBEF5AA478FAF43C7BF1C16A1C2CC7C122C5DF3D3904CA3CC2B7E456A12049FC3B85FF723EF902504B010214000A00000800005B687B433DEE336E79000000790000001B00000000000000000000000000000000006175746F6465736B2D64657369676E2D7061636B6167652E786D6C504B01021400
311
1400060808005B687B43FAA28935A7000000350100001300000000000000000000000000B20000005B436F6E74656E745F54797065735D2E786D6C504B010214001400060808005B687B43EF9FB315F90000009701000008000000000000000000000000008A010000636F72652E786D6C504B010214001400060808005B68
311
7B431BCDADD97C0000009D0000000700000000000000000000000000A9020000636E782E786D6C504B010214001400060808005B687B43D134F4902B0100001E0200002D000000000000000000000000004A03000038334538453642382D323637392D344238322D423730372D3839463739463245303232462F636F72652E
311
786D6C504B010214001400060808005B687B436A77868595000000F50000002C00000000000000000000000000C004000038334538453642382D323637392D344238322D423730372D3839463739463245303232462F636E782E786D6C504B010214001400060808005B687B433F2F7558FD000000A0010000370000000000
311
00000000000000009F05000038334538453642382D323637392D344238322D423730372D3839463739463245303232462F4173736574446174612F636F72652E786D6C504B010214001400060808005B687B436920F04877010000860500003600000000000000000000000000F106000038334538453642382D323637392D
311
344238322D423730372D3839463739463245303232462F4173736574446174612F636E782E786D6C504B010214001400060808005B687B43268121A384000000200100004F00000000000000000000000000BC08000038334538453642382D323637392D344238322D423730372D3839463739463245303232462F41737365
311
74446174612F446566696E6974696F6E4974657261746F7250726F706572746965732E62696E504B010214001400060808005B687B43C0EAD3B3F4000000300200004500000000000000000000000000AD09000038334538453642382D323637392D344238322D423730372D3839463739463245303232462F417373657444
311
6174612F496E7374616E636550726F706572746965732E62696E504B010214001400060808005B687B43FB8A3A5551000000570000004700000000000000000000000000040B000038334538453642382D323637392D344238322D423730372D3839463739463245303232462F4173736574446174612F4173736574546162
311
6C654F66436F6E74656E74732E62696E504B010214001400060808005B687B43F865834058000000680000004500000000000000000000000000BA0B000038334538453642382D323637392D344238322D423730372D3839463739463245303232462F4173736574446174612F53747265616D56657273696F6E5461626C65
311
2E696E66504B010214001400060808005B687B43418C81ECFB0000009E0100003500000000000000000000000000750C000038334538453642382D323637392D344238322D423730372D3839463739463245303232462F536368656D61732F636F72652E786D6C504B010214001400060808005B687B43752D4FCD28010000
311
D30300003400000000000000000000000000C30D000038334538453642382D323637392D344238322D423730372D3839463739463245303232462F536368656D61732F636E782E786D6C504B010214001400060808005B687B432F7B2A8D8D0100005E0600003D000000000000000000000000003D0F000038334538453642
311
382D323637392D344238322D423730372D3839463739463245303232462F536368656D61732F436F6D6D6F6E536368656D612E786D6C504B010214001400060808005B687B437229482E27050000001600003E000000000000000000000000002511000038334538453642382D323637392D344238322D423730372D383946
311
3739463245303232462F536368656D61732F47656E65726963536368656D612E786D6C504B010214001400060808005B687B430A3355BE74010000170400004500000000000000000000000000A816000038334538453642382D323637392D344238322D423730372D3839463739463245303232462F536368656D61732F52
311
656E6465724D6174657269616C536368656D612E786D6C504B050600000000110011005A0600007F1800000000
310
504B03040A00000800005B687B433DEE336E79000000790000001B0000006175746F6465736B2D64657369676E2D7061636B6167652E786D6C3C3F786D6C2076657273696F6E3D22312E302220656E636F64696E673D227574662D3822203F3E3C666F726D6174733E3C666F726D61743E687474703A2F2F736368656D612E
310
6175746F6465736B2E636F6D2F64657369676E2D7061636B6167652F323030393C2F666F726D61743E3C2F666F726D6174733E504B03041400060808005B687B43D486FD9CA0000000F4000000130000005B436F6E74656E745F54797065735D2E786D6C7D8EC10E82300C865F65E91D8A1E8C310C0EEA1BF002731658846E
310
D98AC1B77784ABF1D8FE5FBFBF75BBCE937A534CCEB38643598122B6FEE978D0B0485F9C41B54DDD7D022595594E1A469170414C76A4D9A4D207E29CF43ECE46F218070CC6BECC4078ACAA135ACF422C856C0E68EA1BF5669944DDD7BCDE7B1F8E415D77AECB980613C2E4AC91FC167A2B244592486606FC29C8FD7F045B9A
310
EF7053A7E60B504B03041400060808005B687B432A4345CCEA0000007C01000008000000636F72652E786D6C8D90D18E832010457F85CCEB0605B5BBD6204DB5FEC1FE00016A492B1881A69FBFD8DA64F76D9F6672E79E99C96587C7744377BD78E36C0B342380B4954E193BB610C319D7800E9C2DCE855F3640564CBA8555
310
06CEC6C5C57993A4B341DB9054EB94DE44E1BD0E80E42D352D7879D193C8440CC9E1AFD92CE4558C3AA3EF2EC1311A855E478C4AFBCCD9E80578399C3A52F725A684F6B83A7615AE3F870A5765379C4847F7FB63CFF215E62C98E97D5F2E5A04AD8017842696E2E2EB9B960D299ADDEE83D0861096AFF63F509CD53FA1686C
310
288BEDDD17E681D3F4C873C059BE6691CA33A854D7DCF80F504B03041400060808005B687B4355019EA25F0000007C00000007000000636E782E786D6C4DCB3B0E80201045D1AD90E915ED2CF8AC45050C11660C8261F98AB1B07AC9C97D42D718D865D3E909258CFD00CCE24AC6E326A164D74DC0B4128928FF326038472B
310
A13128B1252AC747C6BAB984FC68F0B87FE8960A5C09FE86CFB69FBA01504B03041400060808005B687B439D09612E66010000020300000C0000006662782F636F72652E786D6C8D52ED8E8230107C95A67F2FD016F04E4DA911F50DEE052A548E082D292DF1F16FF9309C17630C49696676766707F8EED6D4A857B6AB8C4E
310
310B29464AE7A6A8749962EF2EC11AA39DE0D618F7A70C232D1B95E201C68297D6F8768672A39DD20E506D0A3583B2EB94C328AFE192E22EFF518D0CA57750D15DC356E65759AA908540439DE09DB360004D4386138BCBF9C6C9840BEE7D55CC6C55C0B4EA52298B457C3A66747D880346D92148F65912AC3F4F4990C4D9E9
310
4833B6D9EC0F9C0C62C15DD5DCDDE55649A70A2C22CA40CB82E8EB9BC55B1A6D57AB0FCAB6947232943F887C5BBC29F295767134DB9D641D160C8C8CC4BF6D2122873AD9831F2238194284D798F063D0100884ECE4B9BEEF7105A857B9333601A6307EA17A597B0553291A1F4E26163A8F0D60B3A77DA2177D5EF7800F2875
310
09D6A483EBD9BB613A9FA6CE51B4CA06BDBB216D6C23EBC5DC64713997414FE5B9A98D7D474DE655C91C2619FE5EF10B504B03041400060808005B687B43CEF4EAD97D0000009D0000000B0000006662782F636E782E786D6C4DCCD10A83201886E15B91FFDC6562AE400D72EE3E6259C84CC3E9D8E5AF46073BFAE0E1E315
310
FD67F5E86DD3CBC520A1BE1040363CE2E4C222A1E419B7807A25528CF9EF06288CAB95703028B1A458B693263B8FC5E75DBD0BCF134DD76A5E338AD99D30CC86E18ABB866AAC0D6B6E9A134328874A89EA57DAF708AB2F504B03041400060808005B687B430E6C93E32C01000015020000310000006662782F453938433631
310
34322D344630342D344242372D393532432D4345343544433630453032362F636F72652E786D6C8D515B6EC32010BC8AC557AACA36604C1EC2448A9B9EA017706C92A0C460F1A872FC2EB523B57FF961D1ECCCEC6857EC1FE33DFB56CE6B6B1A440A8C32657A3B687369500CE77C83B2BD14CEDAF0878632D38DAA41094652
310
5C9C8DD302F5D6046502A0C60E6A013BEF5540597F874F837C7F556357743100C3DF8AA9EB6FDD4515A48036F0A4F0C141806C1E925E248FDB4DCB09A339FBC42C6787C33ADFD6B4CDDB23AB3F5A8E8F987251CE422962D4C322D703C4D167ADDCAB26492C45D0E3337EEF5417D48024C5A4CA09C9E9FA8B543B4C7775FD8E
310
C90E635126FA3F519C861745519B50D125EE2CF3481251CE0D29061B4FF76718F598AC0B599AB7F2AA7F43121718734E31E3A099B9B00130E56C31F5C13AD8F0EA76027A05ACE4CC9914653A1294DF0B424D07953F504B03041400060808005B687B435D3961D35601000033030000300000006662782F4539384336313432
310
2D344630342D344242372D393532432D4345343544433630453032362F636E782E786D6CBD93CD6EC32010845F0571ADFC839DA4518489D4439FA0875E316C121A1B2CC055F3F65D1292E69243A5AA1764CD0E33AB4F986FBFC6817C820FC6D98EB2B2A604AC72DAD87D47E7B82BD6946C05F7CEC53B1B25568ED0D12453C1
310
F7DECD539634ECE43C445407638F59F410DCEC150494D34D323825070C005BCC28C2D883D6A0C9CD885F3BF0B80A8AFD89C40390D79777E2FA0F5031F02AA5085EA50EC1D3999BEE4C94A84186D0D1A00E30CA52CED16908C752CB284B565EBB1EECF49344D2856BE5EC0D49E51D4D271579A31239F20A878287E8915E36C5
310
D30454C8691A8C9211215767E3C523F86C6C5C2DB2D720788FEEB659ADD718769E091ECD08D9A13CC8089A8AA6666DC158D13CBFB17653379BE5F2A9669BBAE655B20BDE3B37E44B1803DE4D44391BC1462A18AFD2F811BEEC23DA7864EDFCE9172011406EBDD0B965FC251FB66A178B7FE4539DDF37E2F2F817886F504B03
310
041400060808005B687B4332195E54500700004F1C0000340000006662782F45393843363134322D344630342D344242372D393532432D4345343544433630453032362F6F626A656374732E786D6CED595B6FA3481AFD2B887DD97D3036BE7492156194389DC89AC94C6BA26ECD4324548632A90D17AB0AD2F6FEFA3D7501
310
0336693C937D9B071B1BAACE77BFD487F7D32E4DAC37CA05CBB36BDB7526B645B3308F58165FDB65B1195DDAD64FBEC7F3BC682CB3AD8CA4F4DA96B76DDF8B795E6ECDAD886E4899149DBBF7B77F5822A419B5AD3021425CDB227CA129714859E41115AF4E440AE2C49B9DE33A7A611B36E664FBD201DD124EB3029CE27E06
310
144B33E5B6FF4EECB1EF8DE573DF93DF66D574D0AA59FFAAB192BACD25CB4441B2F088A50ECC74104B33777EF779BAB81A2DE6F3D968FE69EA8E6EEF6FEF46EEC56CB2FCB45C5EDD7CBE027BEB3C4F8C4C11DDD22C82FDF6B6EF7A63F9A416DD68E014D7619E6534548A84AA94585D4046054835D43769FF75A5448DC74AC2
310
C6FF997C6E5868DCEE18A167D54045B47021882157495C5D9BF2E5EBFF407031C429B9A0D2A945C1615DA31E8EA8B0FD8937D6777D6F7DB00513564A0ACA1949AC84AD39E1300A96CA25BEA7371818191C1C50969440594E3F6EFB1622F3C7A1738ACB4D992432326C5F055680F0A385509CB1FF527EE0BEA919F0040B972C
310
2B2E0D97C57E4B6DFFCA1BAB9BBE272FB3A979A815696D1212C35120A67EDA117429437F7567FB3FDFAF774F321D9C26BEE5F996F2423A9DB4A3E20B8E6CAE524B86AC3BC872720384D14A353B0F4AF91D9AFF15D9E3C00AECC6D96EBE9B9BB5052799D8E43C856DAC89359AE06B62B9EA5BFE6EFCF2C6F5E6B6F5FAF48930
310
95AABAFCEBFA6CCBA07465F86FA8D3F7DEE0F0399F99474F2149E0CF8F2C8382A49358498E5B48ED9BF5CEF657489C48F4D84512DF85C860F70D3FBDB1813958A50A2F137519346A684C8718096A531E09367AECF480EAC15978305353C43EF52E3EC45D6FEE9E7E7E2AF98684F4D1C4F41DDDB08C15A89AA7196AE9BC2511
310
AA5DC8D9566EB57D23549D2A9C035A6BD32BDD7FCF7904ED1C1BE9A969A4D4F0276022692869ADB8D29CFCD34320C4BE389739CAFB0105482E0B7C03FF9189902609C9685E5674EB9428BDBB4E13A6D1B0FD99B6CB6CDAF17B4EDF986C45106987152D4D7CD3BDCAC35799477A84F9BAFA155E6BA3DEE3F28E473F0C508CF8
310
4E8AF0E5C7584F6ADDE816B922A291D14EAD85F5A130847992F360BD0F74CE3C89FCAD157848A7DA721205B1A822B84A4EB1962188D866530A64E813F6FBB65A367D64E2CCDC85D5FCEE84F51C791B59807013C11D1A014B494C830D89FAC835A9D5D84241F64073BA4920177B63C53E20453089687C8E6ACE02BFFA50F438
310
C985601915A87C2795DFD4C6C4414AD2D6AC589656ED289A8920A50549CED18084E951AE2A60AA5B0ED184FC98C7DA7BDFB35813F4FFE4119CA02BCDB380A1A9DD0DD085EB2CA6837887B755D84A8CA4443312EE83EF94C52FC5004A75485646D4D78E19431C6ECA22C8B724845B0F803D8A1569D40EE89A84AFB212056199
310
7C9483089A6C029624651AE0C3329C618684F6302D34C075EE2B688AF68E14251F42E4D362724447771FDD14D820B461097AEF2025DB1EADB712A2EA6CAC5AF906BD2798D665BA0D489A97D9204771665D8F34F05DB34AD881FCCAA6130D68056C007D0FDD7A5D6AAB9C0D574F021C0C8B971E4DB4B25305A990FA0165A646
310
5CAACCB70F0449B7893E201ED5DB762573EBF07C9F003781FFB104D27C50C19A77945075B6CD7E135A95D9BEE4CC98B17829D37546D8E9886C95F3475288E7075DB69F637D75B6595C910528BAA21A198D4EDD6B9E34613FF88306FFBA7230E5E9815F49DBA5342B88EC481FE58FE47772BA4CF453D2FB56B22F184CEBB787
310
A733E5C18EC1E85F642B49BF9F49C1EC5ACA1EED8854E508F5551E72D064C2AD8C17CCFE3EEA34E7237F1F7570AC46FED7672004B5CA7AC657A47F9E71D431B1FC174F3CB7FB5FC85ECE7C4C0BAAACD59A5B85D2F5CF3A9ED47553362B1F713C5183951AB5AE6E275B2C24E2AA580CEE12AB4CA801FB38FED3DD445F75D6E4
310
8CF5639D9A83F3BA09F7A8136A9D8DD591383BAAC1ADB47D7931B9BF595ECC47F773F76E345F2E16A31BF7F3D568B9B8582CA797F717B3ABCFB5828C7BD4094F95401F1D03521E2EE6AF4C83462C8C92459EB008D384C88A698E530C660A0366FE3CA54275284036589179933060F79B1ECE16649D50B33B7C21986A270205
310
003A2AC3A27DDFFA07E6A972A4796D63D2E5BCE2CB389A6DA1005FDB6F72001952E1AC311B93534805DE8961E88764B1EC7DF4A6FA7FBD4BEAA65522EA25434A85914BE70F23007AC42D4676AD0989E2CD3C3F4FF08A1D8B14F8B92E0BF4715A96C38D5A18450676D74299495FC2B257437A87687C5F2CD7516B5A1A1934DE
310
7FD70934EAA8203C56437AC99F61E9E6EECB18C3416BF59BB54DCA18B61C8E34E214CE5CCABE085E04AF30985B229BE9E5BF9FBFF01CEFA552EB9EC105AC7FEE2E3FFDEB7999A7699EE95BCF3738004678BB653DBDE05D55F48CD68FCA3702E2793A7167CF6A126F5E0E046B22A84322F18A1BDEB8E4AC5674CBFCF0CBA3AA
310
612C3196A6E878E8EACE3279116DAD063A1A4CEB3773166248BE039211A302BB92F6DD61FC582D05AB1C6374FF7F504B03041400060800005B687B43000000000000000000000000350000006662782F45393843363134322D344630342D344242372D393532432D4345343544433630453032362F76657274696365732E62
310
696E504B03041400060808005B687B43F270F1330600000004000000360000006662782F45393843363134322D344630342D344242372D393532432D4345343544433630453032362F747269616E676C65732E62696E636660600000504B03041400060800005B687B43000000000000000000000000370000006662782F45
310
393843363134322D344630342D344242372D393532432D4345343544433630453032362F617474726962757465732E62696E504B03041400060808005B687B43B28BD8DE8F00000041010000360000006662782F45393843363134322D344630342D344242372D393532432D4345343544433630453032362F646972656374
310
6F72792E786D6C858F410EC2201045AF4266AF15DDB800BA74E7C21B903225242D6328188F2FA5C4183471359997F9FF81E89FF3C41E1816475E02DF1F80A11FC8386F25A438EECEC07A250251FC3803E6F58C12560C4AD840E95E91C151A72936F496F35732D860FE635F62C8F2DA16B505C545B74125BAA2FA9E05D7CC05
310
3D063734D5A7665FD55B6B8D15D5F1BFEAFD8490FFA45E504B03041400060808005B687B4339E86B54FD000000A00100003B0000006662782F45393843363134322D344630342D344242372D393532432D4345343544433630453032362F7265736F75726365732F636F72652E786D6C8D504B6E833010BD0A9A6D65B081B4
310
09328E02E106BD806526D44AB0913F558F5F13A8D4EEBA9919BD8FE6E9F1F3D7FCC83ED1796D4D0B2CA790A15176D4666A21861B39427616DC591B7EC9203372C6165618049F9C8DCB0E296B029A90506347DC41E93D06C8D4231D2D78F581B3CC650C49E1EFF922D55D4E98B33CD14927B80F2E05C8B627EB04E1D0DBE814
310
7A5E6CACE031EA71D7E831FDD4378D0E44355C3B7AEC4BC228EB497DE96A727C1D6A5257DD70A51D3B9D2E3D2F56B3E041CF3F19954319700451525611C648F9F6CEAA8696CDE1F0425943292F56F91F535CC67F9AA236A12AF7B89BCD836029C89310BC58FB4AEB5966DA6BB7E21B504B010214000A00000800005B687B43
310
3DEE336E79000000790000001B00000000000000000000000000000000006175746F6465736B2D64657369676E2D7061636B6167652E786D6C504B010214001400060808005B687B43D486FD9CA0000000F40000001300000000000000000000000000B20000005B436F6E74656E745F54797065735D2E786D6C504B010214
310
001400060808005B687B432A4345CCEA0000007C010000080000000000000000000000000083010000636F72652E786D6C504B010214001400060808005B687B4355019EA25F0000007C000000070000000000000000000000000093020000636E782E786D6C504B010214001400060808005B687B439D09612E6601000002
310
0300000C00000000000000000000000000170300006662782F636F72652E786D6C504B010214001400060808005B687B43CEF4EAD97D0000009D0000000B00000000000000000000000000A70400006662782F636E782E786D6C504B010214001400060808005B687B430E6C93E32C01000015020000310000000000000000
310
00000000004D0500006662782F45393843363134322D344630342D344242372D393532432D4345343544433630453032362F636F72652E786D6C504B010214001400060808005B687B435D3961D356010000330300003000000000000000000000000000C80600006662782F45393843363134322D344630342D344242372D
310
393532432D4345343544433630453032362F636E782E786D6C504B010214001400060808005B687B4332195E54500700004F1C000034000000000000000000000000006C0800006662782F45393843363134322D344630342D344242372D393532432D4345343544433630453032362F6F626A656374732E786D6C504B0102
310
14001400060800005B687B4300000000000000000000000035000000000000000000000000000E1000006662782F45393843363134322D344630342D344242372D393532432D4345343544433630453032362F76657274696365732E62696E504B010214001400060808005B687B43F270F133060000000400000036000000
310
00000000000000000000611000006662782F45393843363134322D344630342D344242372D393532432D4345343544433630453032362F747269616E676C65732E62696E504B010214001400060800005B687B430000000000000000000000003700000000000000000000000000BB1000006662782F45393843363134322D
310
344630342D344242372D393532432D4345343544433630453032362F617474726962757465732E62696E504B010214001400060808005B687B43B28BD8DE8F000000410100003600000000000000000000000000101100006662782F45393843363134322D344630342D344242372D393532432D4345343544433630453032
310
362F6469726563746F72792E786D6C504B010214001400060808005B687B4339E86B54FD000000A00100003B00000000000000000000000000F31100006662782F45393843363134322D344630342D344242372D393532432D4345343544433630453032362F7265736F75726365732F636F72652E786D6C504B0506000000
310
000E000E0080040000491300000000
  0
XRECORD
  5
17
102
{ACAD_REACTORS
330
12
102
}
330
12
100
AcDbXrecord
280
     1
270
     1
271
     1
  0
XRECORD
  5
16
102
{ACAD_REACTORS
330
12
102
}
330
12
100
AcDbXrecord
280
     1
270
     1
271
     1
  0
XRECORD
  5
18
102
{ACAD_REACTORS
330
12
102
}
330
12
100
AcDbXrecord
280
     1
270
     1
271
     1
  0
XRECORD
  5
15
102
{ACAD_REACTORS
330
12
102
}
330
12
100
AcDbXrecord
280
     1
270
     1
271
     1
  0
XRECORD
  5
24
102
{ACAD_REACTORS
330
22
102
}
330
22
100
AcDbXrecord
280
     1
270
     1
271
     1
  0
XRECORD
  5
23
102
{ACAD_REACTORS
330
22
102
}
330
22
100
AcDbXrecord
280
     1
270
     1
271
     1
  0
XRECORD
  5
27
102
{ACAD_REACTORS
330
22
102
}
330
22
100
AcDbXrecord
280
     1
270
     1
271
     1
  0
XRECORD
  5
26
102
{ACAD_REACTORS
330
22
102
}
330
22
100
AcDbXrecord
280
     1
270
     1
271
     1
  0
XRECORD
  5
28
102
{ACAD_REACTORS
330
22
102
}
330
22
100
AcDbXrecord
280
     1
270
     1
271
     1
  0
XRECORD
  5
25
102
{ACAD_REACTORS
330
22
102
}
330
22
100
AcDbXrecord
280
     1
270
     1
271
     1
  0
XRECORD
  5
873
102
{ACAD_REACTORS
330
872
102
}
330
872
100
AcDbXrecord
280
     1
102
ACAD_ROUNDTRIP_2012_MLEADER_STYLE
298
     1
  0
CELLSTYLEMAP
  5
785
102
{ACAD_REACTORS
330
632
102
}
330
632
100
AcDbCellStyleMap
 90
        3
300
CELLSTYLE
  1
TABLEFORMAT_BEGIN
 90
        5
170
     1
 91
        0
 92
    32768
 62
   257
 93
        1
300
CONTENTFORMAT
  1
CONTENTFORMAT_BEGIN
 90
        0
 91
        0
 92
      512
 93
        0
300

 40
0.0
140
1.0
 94
        5
 62
     0
340
55
144
0.25
309
CONTENTFORMAT_END
171
     1
301
MARGIN
  1
CELLMARGIN_BEGIN
 40
0.06
 40
0.06
 40
0.06
 40
0.06
 40
0.18
 40
0.18
309
CELLMARGIN_END
 94
        6
 95
        1
302
GRIDFORMAT
  1
GRIDFORMAT_BEGIN
 90
        0
 91
        1
 62
     0
 92
       -2
340
0
 93
        0
 40
0.045
309
GRIDFORMAT_END
 95
        2
302
GRIDFORMAT
  1
GRIDFORMAT_BEGIN
 90
        0
 91
        1
 62
     0
 92
       -2
340
0
 93
        0
 40
0.045
309
GRIDFORMAT_END
 95
        4
302
GRIDFORMAT
  1
GRIDFORMAT_BEGIN
 90
        0
 91
        1
 62
     0
 92
       -2
340
0
 93
        0
 40
0.045
309
GRIDFORMAT_END
 95
        8
302
GRIDFORMAT
  1
GRIDFORMAT_BEGIN
 90
        0
 91
        1
 62
     0
 92
       -2
340
0
 93
        0
 40
0.045
309
GRIDFORMAT_END
 95
       16
302
GRIDFORMAT
  1
GRIDFORMAT_BEGIN
 90
        0
 91
        1
 62
     0
 92
       -2
340
0
 93
        0
 40
0.045
309
GRIDFORMAT_END
 95
       32
302
GRIDFORMAT
  1
GRIDFORMAT_BEGIN
 90
        0
 91
        1
 62
     0
 92
       -2
340
0
 93
        0
 40
0.045
309
GRIDFORMAT_END
309
TABLEFORMAT_END
  1
CELLSTYLE_BEGIN
 90
        1
 91
        1
300
_TITLE
309
CELLSTYLE_END
300
CELLSTYLE
  1
TABLEFORMAT_BEGIN
 90
        5
170
     1
 91
        0
 92
        0
 62
   257
 93
        1
300
CONTENTFORMAT
  1
CONTENTFORMAT_BEGIN
 90
        0
 91
        0
 92
      512
 93
        0
300

 40
0.0
140
1.0
 94
        5
 62
     0
340
55
144
0.18
309
CONTENTFORMAT_END
171
     1
301
MARGIN
  1
CELLMARGIN_BEGIN
 40
0.06
 40
0.06
 40
0.06
 40
0.06
 40
0.18
 40
0.18
309
CELLMARGIN_END
 94
        6
 95
        1
302
GRIDFORMAT
  1
GRIDFORMAT_BEGIN
 90
        0
 91
        1
 62
     0
 92
       -2
340
0
 93
        0
 40
0.045
309
GRIDFORMAT_END
 95
        2
302
GRIDFORMAT
  1
GRIDFORMAT_BEGIN
 90
        0
 91
        1
 62
     0
 92
       -2
340
0
 93
        0
 40
0.045
309
GRIDFORMAT_END
 95
        4
302
GRIDFORMAT
  1
GRIDFORMAT_BEGIN
 90
        0
 91
        1
 62
     0
 92
       -2
340
0
 93
        0
 40
0.045
309
GRIDFORMAT_END
 95
        8
302
GRIDFORMAT
  1
GRIDFORMAT_BEGIN
 90
        0
 91
        1
 62
     0
 92
       -2
340
0
 93
        0
 40
0.045
309
GRIDFORMAT_END
 95
       16
302
GRIDFORMAT
  1
GRIDFORMAT_BEGIN
 90
        0
 91
        1
 62
     0
 92
       -2
340
0
 93
        0
 40
0.045
309
GRIDFORMAT_END
 95
       32
302
GRIDFORMAT
  1
GRIDFORMAT_BEGIN
 90
        0
 91
        1
 62
     0
 92
       -2
340
0
 93
        0
 40
0.045
309
GRIDFORMAT_END
309
TABLEFORMAT_END
  1
CELLSTYLE_BEGIN
 90
        2
 91
        1
300
_HEADER
309
CELLSTYLE_END
300
CELLSTYLE
  1
TABLEFORMAT_BEGIN
 90
        5
170
     1
 91
        0
 92
        0
 62
   257
 93
        1
300
CONTENTFORMAT
  1
CONTENTFORMAT_BEGIN
 90
        0
 91
        0
 92
      512
 93
        0
300

 40
0.0
140
1.0
 94
        2
 62
     0
340
55
144
0.18
309
CONTENTFORMAT_END
171
     1
301
MARGIN
  1
CELLMARGIN_BEGIN
 40
0.06
 40
0.06
 40
0.06
 40
0.06
 40
0.18
 40
0.18
309
CELLMARGIN_END
 94
        6
 95
        1
302
GRIDFORMAT
  1
GRIDFORMAT_BEGIN
 90
        0
 91
        1
 62
     0
 92
       -2
340
0
 93
        0
 40
0.045
309
GRIDFORMAT_END
 95
        2
302
GRIDFORMAT
  1
GRIDFORMAT_BEGIN
 90
        0
 91
        1
 62
     0
 92
       -2
340
0
 93
        0
 40
0.045
309
GRIDFORMAT_END
 95
        4
302
GRIDFORMAT
  1
GRIDFORMAT_BEGIN
 90
        0
 91
        1
 62
     0
 92
       -2
340
0
 93
        0
 40
0.045
309
GRIDFORMAT_END
 95
        8
302
GRIDFORMAT
  1
GRIDFORMAT_BEGIN
 90
        0
 91
        1
 62
     0
 92
       -2
340
0
 93
        0
 40
0.045
309
GRIDFORMAT_END
 95
       16
302
GRIDFORMAT
  1
GRIDFORMAT_BEGIN
 90
        0
 91
        1
 62
     0
 92
       -2
340
0
 93
        0
 40
0.045
309
GRIDFORMAT_END
 95
       32
302
GRIDFORMAT
  1
GRIDFORMAT_BEGIN
 90
        0
 91
        1
 62
     0
 92
       -2
340
0
 93
        0
 40
0.045
309
GRIDFORMAT_END
309
TABLEFORMAT_END
  1
CELLSTYLE_BEGIN
 90
        3
 91
        2
300
_DATA
309
CELLSTYLE_END
  0
XRECORD
  5
84D
102
{ACAD_REACTORS
330
84C
102
}
330
84C
100
AcDbXrecord
280
     1
102
RTVSPost2010Prop28
280
     1
102
RTVSPost2010PropOp28
 70
     1
102
RTVSPost2010Prop29
280
     1
102
RTVSPost2010PropOp29
 70
     1
102
RTVSPost2010Prop30
280
     0
102
RTVSPost2010PropOp30
 70
     1
102
RTVSPost2010Prop31
280
     0
102
RTVSPost2010PropOp31
 70
     1
102
RTVSPost2010Prop32
280
     0
102
RTVSPost2010PropOp32
 70
     1
102
RTVSPost2010Prop33
280
     0
102
RTVSPost2010PropOp33
 70
     1
102
RTVSPost2010Prop34
280
     0
102
RTVSPost2010PropOp34
 70
     1
102
RTVSPost2010Prop35
280
     0
102
RTVSPost2010PropOp35
 70
     1
102
RTVSPost2010Prop36
280
     0
102
RTVSPost2010PropOp36
 70
     1
102
RTVSPost2010Prop37
 90
       50
102
RTVSPost2010PropOp37
 70
     1
102
RTVSPost2010Prop38
140
0.0
102
RTVSPost2010PropOp38
 70
     1
102
RTVSPost2010Prop39
140
1.0
102
RTVSPost2010PropOp39
 70
     1
102
RTVSPost2010Prop40
 90
        0
102
RTVSPost2010PropOp40
 70
     1
102
RTVSPost2010Prop41ColorIndex
 90
       18
102
RTVSPost2010Prop41ColorRGB
 90
        0
102
RTVSPost2010PropOp41
 70
     1
102
RTVSPost2010Prop42
 90
       50
102
RTVSPost2010PropOp42
 70
     1
102
RTVSPost2010Prop43
 90
        3
102
RTVSPost2010PropOp43
 70
     1
102
RTVSPost2010Prop44ColorIndex
 90
        5
102
RTVSPost2010Prop44ColorRGB
 90
      255
102
RTVSPost2010PropOp44
 70
     1
102
RTVSPost2010Prop45
280
     0
102
RTVSPost2010PropOp45
 70
     1
102
RTVSPost2010Prop46
 90
       50
102
RTVSPost2010PropOp46
 70
     1
102
RTVSPost2010Prop47
 90
       50
102
RTVSPost2010PropOp47
 70
     1
102
RTVSPost2010Prop48
 90
       50
102
RTVSPost2010PropOp48
 70
     1
102
RTVSPost2010Prop49
280
     0
102
RTVSPost2010PropOp49
 70
     1
102
RTVSPost2010Prop50
 90
       50
102
RTVSPost2010PropOp50
 70
     1
102
RTVSPost2010Prop51ColorIndex
 90
      256
102
RTVSPost2010Prop51ColorRGB
 90
-16777216
102
RTVSPost2010PropOp51
 70
     0
102
RTVSPost2010Prop52
140
1.0
102
RTVSPost2010PropOp52
 70
     0
102
RTVSPost2010Prop53
 90
        2
102
RTVSPost2010PropOp53
 70
     1
102
RTVSPost2010Prop54
  1
strokes_ogs.tif
102
RTVSPost2010PropOp54
 70
     1
102
RTVSPost2010Prop55
280
     0
102
RTVSPost2010PropOp55
 70
     1
102
RTVSPost2010Prop56
140
1.0
102
RTVSPost2010PropOp56
 70
     1
102
RTVSPost2010Prop57
140
1.0
102
RTVSPost2010PropOp57
 70
     1
  0
XRECORD
  5
84B
102
{ACAD_REACTORS
330
84A
102
}
330
84A
100
AcDbXrecord
280
     1
102
RTVSPost2010Prop28
280
     0
102
RTVSPost2010PropOp28
 70
     1
102
RTVSPost2010Prop29
280
     1
102
RTVSPost2010PropOp29
 70
     1
102
RTVSPost2010Prop30
280
     1
102
RTVSPost2010PropOp30
 70
     1
102
RTVSPost2010Prop31
280
     0
102
RTVSPost2010PropOp31
 70
     1
102
RTVSPost2010Prop32
280
     0
102
RTVSPost2010PropOp32
 70
     1
102
RTVSPost2010Prop33
280
     0
102
RTVSPost2010PropOp33
 70
     1
102
RTVSPost2010Prop34
280
     0
102
RTVSPost2010PropOp34
 70
     1
102
RTVSPost2010Prop35
280
     0
102
RTVSPost2010PropOp35
 70
     1
102
RTVSPost2010Prop36
280
     0
102
RTVSPost2010PropOp36
 70
     1
102
RTVSPost2010Prop37
 90
       50
102
RTVSPost2010PropOp37
 70
     1
102
RTVSPost2010Prop38
140
0.0
102
RTVSPost2010PropOp38
 70
     1
102
RTVSPost2010Prop39
140
1.0
102
RTVSPost2010PropOp39
 70
     1
102
RTVSPost2010Prop40
 90
        0
102
RTVSPost2010PropOp40
 70
     1
102
RTVSPost2010Prop41ColorIndex
 90
       18
102
RTVSPost2010Prop41ColorRGB
 90
        0
102
RTVSPost2010PropOp41
 70
     1
102
RTVSPost2010Prop42
 90
       50
102
RTVSPost2010PropOp42
 70
     1
102
RTVSPost2010Prop43
 90
        3
102
RTVSPost2010PropOp43
 70
     1
102
RTVSPost2010Prop44ColorIndex
 90
        5
102
RTVSPost2010Prop44ColorRGB
 90
      255
102
RTVSPost2010PropOp44
 70
     1
102
RTVSPost2010Prop45
280
     0
102
RTVSPost2010PropOp45
 70
     1
102
RTVSPost2010Prop46
 90
       50
102
RTVSPost2010PropOp46
 70
     1
102
RTVSPost2010Prop47
 90
       50
102
RTVSPost2010PropOp47
 70
     1
102
RTVSPost2010Prop48
 90
       50
102
RTVSPost2010PropOp48
 70
     1
102
RTVSPost2010Prop49
280
     0
102
RTVSPost2010PropOp49
 70
     1
102
RTVSPost2010Prop50
 90
       50
102
RTVSPost2010PropOp50
 70
     1
102
RTVSPost2010Prop51ColorIndex
 90
      256
102
RTVSPost2010Prop51ColorRGB
 90
-16777216
102
RTVSPost2010PropOp51
 70
     0
102
RTVSPost2010Prop52
140
1.0
102
RTVSPost2010PropOp52
 70
     0
102
RTVSPost2010Prop53
 90
        2
102
RTVSPost2010PropOp53
 70
     1
102
RTVSPost2010Prop54
  1
strokes_ogs.tif
102
RTVSPost2010PropOp54
 70
     1
102
RTVSPost2010Prop55
280
     0
102
RTVSPost2010PropOp55
 70
     1
102
RTVSPost2010Prop56
140
1.0
102
RTVSPost2010PropOp56
 70
     1
102
RTVSPost2010Prop57
140
1.0
102
RTVSPost2010PropOp57
 70
     1
  0
XRECORD
  5
859
102
{ACAD_REACTORS
330
858
102
}
330
858
100
AcDbXrecord
280
     1
102
RTVSPost2010Prop28
280
     0
102
RTVSPost2010PropOp28
 70
     1
102
RTVSPost2010Prop29
280
     1
102
RTVSPost2010PropOp29
 70
     1
102
RTVSPost2010Prop30
280
     1
102
RTVSPost2010PropOp30
 70
     1
102
RTVSPost2010Prop31
280
     0
102
RTVSPost2010PropOp31
 70
     1
102
RTVSPost2010Prop32
280
     0
102
RTVSPost2010PropOp32
 70
     1
102
RTVSPost2010Prop33
280
     0
102
RTVSPost2010PropOp33
 70
     1
102
RTVSPost2010Prop34
280
     0
102
RTVSPost2010PropOp34
 70
     1
102
RTVSPost2010Prop35
280
     0
102
RTVSPost2010PropOp35
 70
     1
102
RTVSPost2010Prop36
280
     0
102
RTVSPost2010PropOp36
 70
     1
102
RTVSPost2010Prop37
 90
       50
102
RTVSPost2010PropOp37
 70
     1
102
RTVSPost2010Prop38
140
0.0
102
RTVSPost2010PropOp38
 70
     1
102
RTVSPost2010Prop39
140
1.0
102
RTVSPost2010PropOp39
 70
     1
102
RTVSPost2010Prop40
 90
        0
102
RTVSPost2010PropOp40
 70
     1
102
RTVSPost2010Prop41ColorIndex
 90
       18
102
RTVSPost2010Prop41ColorRGB
 90
        0
102
RTVSPost2010PropOp41
 70
     1
102
RTVSPost2010Prop42
 90
       50
102
RTVSPost2010PropOp42
 70
     1
102
RTVSPost2010Prop43
 90
        3
102
RTVSPost2010PropOp43
 70
     1
102
RTVSPost2010Prop44ColorIndex
 90
        5
102
RTVSPost2010Prop44ColorRGB
 90
      255
102
RTVSPost2010PropOp44
 70
     1
102
RTVSPost2010Prop45
280
     0
102
RTVSPost2010PropOp45
 70
     1
102
RTVSPost2010Prop46
 90
       50
102
RTVSPost2010PropOp46
 70
     1
102
RTVSPost2010Prop47
 90
       50
102
RTVSPost2010PropOp47
 70
     1
102
RTVSPost2010Prop48
 90
       50
102
RTVSPost2010PropOp48
 70
     1
102
RTVSPost2010Prop49
280
     0
102
RTVSPost2010PropOp49
 70
     1
102
RTVSPost2010Prop50
 90
       50
102
RTVSPost2010PropOp50
 70
     1
102
RTVSPost2010Prop51ColorIndex
 90
      256
102
RTVSPost2010Prop51ColorRGB
 90
-16777216
102
RTVSPost2010PropOp51
 70
     0
102
RTVSPost2010Prop52
140
1.0
102
RTVSPost2010PropOp52
 70
     0
102
RTVSPost2010Prop53
 90
        2
102
RTVSPost2010PropOp53
 70
     1
102
RTVSPost2010Prop54
  1
strokes_ogs.tif
102
RTVSPost2010PropOp54
 70
     1
102
RTVSPost2010Prop55
280
     0
102
RTVSPost2010PropOp55
 70
     1
102
RTVSPost2010Prop56
140
1.0
102
RTVSPost2010PropOp56
 70
     1
102
RTVSPost2010Prop57
140
1.0
102
RTVSPost2010PropOp57
 70
     1
  0
XRECORD
  5
861
102
{ACAD_REACTORS
330
860
102
}
330
860
100
AcDbXrecord
280
     1
102
RTVSPost2010Prop28
280
     0
102
RTVSPost2010PropOp28
 70
     1
102
RTVSPost2010Prop29
280
     1
102
RTVSPost2010PropOp29
 70
     1
102
RTVSPost2010Prop30
280
     1
102
RTVSPost2010PropOp30
 70
     1
102
RTVSPost2010Prop31
280
     0
102
RTVSPost2010PropOp31
 70
     1
102
RTVSPost2010Prop32
280
     0
102
RTVSPost2010PropOp32
 70
     1
102
RTVSPost2010Prop33
280
     0
102
RTVSPost2010PropOp33
 70
     1
102
RTVSPost2010Prop34
280
     0
102
RTVSPost2010PropOp34
 70
     1
102
RTVSPost2010Prop35
280
     0
102
RTVSPost2010PropOp35
 70
     1
102
RTVSPost2010Prop36
280
     0
102
RTVSPost2010PropOp36
 70
     1
102
RTVSPost2010Prop37
 90
       50
102
RTVSPost2010PropOp37
 70
     1
102
RTVSPost2010Prop38
140
0.0
102
RTVSPost2010PropOp38
 70
     1
102
RTVSPost2010Prop39
140
1.0
102
RTVSPost2010PropOp39
 70
     1
102
RTVSPost2010Prop40
 90
        0
102
RTVSPost2010PropOp40
 70
     1
102
RTVSPost2010Prop41ColorIndex
 90
       18
102
RTVSPost2010Prop41ColorRGB
 90
        0
102
RTVSPost2010PropOp41
 70
     1
102
RTVSPost2010Prop42
 90
       50
102
RTVSPost2010PropOp42
 70
     1
102
RTVSPost2010Prop43
 90
        3
102
RTVSPost2010PropOp43
 70
     1
102
RTVSPost2010Prop44ColorIndex
 90
        5
102
RTVSPost2010Prop44ColorRGB
 90
      255
102
RTVSPost2010PropOp44
 70
     1
102
RTVSPost2010Prop45
280
     0
102
RTVSPost2010PropOp45
 70
     1
102
RTVSPost2010Prop46
 90
       50
102
RTVSPost2010PropOp46
 70
     1
102
RTVSPost2010Prop47
 90
       50
102
RTVSPost2010PropOp47
 70
     1
102
RTVSPost2010Prop48
 90
       50
102
RTVSPost2010PropOp48
 70
     1
102
RTVSPost2010Prop49
280
     0
102
RTVSPost2010PropOp49
 70
     1
102
RTVSPost2010Prop50
 90
       50
102
RTVSPost2010PropOp50
 70
     1
102
RTVSPost2010Prop51ColorIndex
 90
      256
102
RTVSPost2010Prop51ColorRGB
 90
-16777216
102
RTVSPost2010PropOp51
 70
     0
102
RTVSPost2010Prop52
140
1.0
102
RTVSPost2010PropOp52
 70
     0
102
RTVSPost2010Prop53
 90
        2
102
RTVSPost2010PropOp53
 70
     1
102
RTVSPost2010Prop54
  1
strokes_ogs.tif
102
RTVSPost2010PropOp54
 70
     1
102
RTVSPost2010Prop55
280
     0
102
RTVSPost2010PropOp55
 70
     1
102
RTVSPost2010Prop56
140
1.0
102
RTVSPost2010PropOp56
 70
     1
102
RTVSPost2010Prop57
140
1.0
102
RTVSPost2010PropOp57
 70
     1
  0
XRECORD
  5
853
102
{ACAD_REACTORS
330
852
102
}
330
852
100
AcDbXrecord
280
     1
102
RTVSPost2010Prop28
280
     0
102
RTVSPost2010PropOp28
 70
     1
102
RTVSPost2010Prop29
280
     1
102
RTVSPost2010PropOp29
 70
     1
102
RTVSPost2010Prop30
280
     1
102
RTVSPost2010PropOp30
 70
     1
102
RTVSPost2010Prop31
280
     0
102
RTVSPost2010PropOp31
 70
     1
102
RTVSPost2010Prop32
280
     0
102
RTVSPost2010PropOp32
 70
     1
102
RTVSPost2010Prop33
280
     0
102
RTVSPost2010PropOp33
 70
     1
102
RTVSPost2010Prop34
280
     0
102
RTVSPost2010PropOp34
 70
     1
102
RTVSPost2010Prop35
280
     0
102
RTVSPost2010PropOp35
 70
     1
102
RTVSPost2010Prop36
280
     0
102
RTVSPost2010PropOp36
 70
     1
102
RTVSPost2010Prop37
 90
       50
102
RTVSPost2010PropOp37
 70
     1
102
RTVSPost2010Prop38
140
0.0
102
RTVSPost2010PropOp38
 70
     1
102
RTVSPost2010Prop39
140
1.0
102
RTVSPost2010PropOp39
 70
     1
102
RTVSPost2010Prop40
 90
        0
102
RTVSPost2010PropOp40
 70
     1
102
RTVSPost2010Prop41ColorIndex
 90
       18
102
RTVSPost2010Prop41ColorRGB
 90
        0
102
RTVSPost2010PropOp41
 70
     1
102
RTVSPost2010Prop42
 90
       50
102
RTVSPost2010PropOp42
 70
     1
102
RTVSPost2010Prop43
 90
        3
102
RTVSPost2010PropOp43
 70
     1
102
RTVSPost2010Prop44ColorIndex
 90
        5
102
RTVSPost2010Prop44ColorRGB
 90
      255
102
RTVSPost2010PropOp44
 70
     1
102
RTVSPost2010Prop45
280
     0
102
RTVSPost2010PropOp45
 70
     1
102
RTVSPost2010Prop46
 90
       50
102
RTVSPost2010PropOp46
 70
     1
102
RTVSPost2010Prop47
 90
       50
102
RTVSPost2010PropOp47
 70
     1
102
RTVSPost2010Prop48
 90
       50
102
RTVSPost2010PropOp48
 70
     1
102
RTVSPost2010Prop49
280
     0
102
RTVSPost2010PropOp49
 70
     1
102
RTVSPost2010Prop50
 90
       50
102
RTVSPost2010PropOp50
 70
     1
102
RTVSPost2010Prop51ColorIndex
 90
      256
102
RTVSPost2010Prop51ColorRGB
 90
-16777216
102
RTVSPost2010PropOp51
 70
     0
102
RTVSPost2010Prop52
140
1.0
102
RTVSPost2010PropOp52
 70
     0
102
RTVSPost2010Prop53
 90
        2
102
RTVSPost2010PropOp53
 70
     1
102
RTVSPost2010Prop54
  1
strokes_ogs.tif
102
RTVSPost2010PropOp54
 70
     1
102
RTVSPost2010Prop55
280
     0
102
RTVSPost2010PropOp55
 70
     1
102
RTVSPost2010Prop56
140
1.0
102
RTVSPost2010PropOp56
 70
     1
102
RTVSPost2010Prop57
140
1.0
102
RTVSPost2010PropOp57
 70
     1
  0
XRECORD
  5
857
102
{ACAD_REACTORS
330
856
102
}
330
856
100
AcDbXrecord
280
     1
102
RTVSPost2010Prop28
280
     0
102
RTVSPost2010PropOp28
 70
     1
102
RTVSPost2010Prop29
280
     1
102
RTVSPost2010PropOp29
 70
     1
102
RTVSPost2010Prop30
280
     1
102
RTVSPost2010PropOp30
 70
     1
102
RTVSPost2010Prop31
280
     0
102
RTVSPost2010PropOp31
 70
     1
102
RTVSPost2010Prop32
280
     0
102
RTVSPost2010PropOp32
 70
     1
102
RTVSPost2010Prop33
280
     0
102
RTVSPost2010PropOp33
 70
     1
102
RTVSPost2010Prop34
280
     0
102
RTVSPost2010PropOp34
 70
     1
102
RTVSPost2010Prop35
280
     0
102
RTVSPost2010PropOp35
 70
     1
102
RTVSPost2010Prop36
280
     0
102
RTVSPost2010PropOp36
 70
     1
102
RTVSPost2010Prop37
 90
       50
102
RTVSPost2010PropOp37
 70
     1
102
RTVSPost2010Prop38
140
0.0
102
RTVSPost2010PropOp38
 70
     1
102
RTVSPost2010Prop39
140
1.0
102
RTVSPost2010PropOp39
 70
     1
102
RTVSPost2010Prop40
 90
        0
102
RTVSPost2010PropOp40
 70
     1
102
RTVSPost2010Prop41ColorIndex
 90
       18
102
RTVSPost2010Prop41ColorRGB
 90
        0
102
RTVSPost2010PropOp41
 70
     1
102
RTVSPost2010Prop42
 90
       50
102
RTVSPost2010PropOp42
 70
     1
102
RTVSPost2010Prop43
 90
        3
102
RTVSPost2010PropOp43
 70
     1
102
RTVSPost2010Prop44ColorIndex
 90
        5
102
RTVSPost2010Prop44ColorRGB
 90
      255
102
RTVSPost2010PropOp44
 70
     1
102
RTVSPost2010Prop45
280
     0
102
RTVSPost2010PropOp45
 70
     1
102
RTVSPost2010Prop46
 90
       50
102
RTVSPost2010PropOp46
 70
     1
102
RTVSPost2010Prop47
 90
       50
102
RTVSPost2010PropOp47
 70
     1
102
RTVSPost2010Prop48
 90
       50
102
RTVSPost2010PropOp48
 70
     1
102
RTVSPost2010Prop49
280
     0
102
RTVSPost2010PropOp49
 70
     1
102
RTVSPost2010Prop50
 90
       50
102
RTVSPost2010PropOp50
 70
     1
102
RTVSPost2010Prop51ColorIndex
 90
      256
102
RTVSPost2010Prop51ColorRGB
 90
-16777216
102
RTVSPost2010PropOp51
 70
     0
102
RTVSPost2010Prop52
140
1.0
102
RTVSPost2010PropOp52
 70
     0
102
RTVSPost2010Prop53
 90
        2
102
RTVSPost2010PropOp53
 70
     1
102
RTVSPost2010Prop54
  1
strokes_ogs.tif
102
RTVSPost2010PropOp54
 70
     1
102
RTVSPost2010Prop55
280
     0
102
RTVSPost2010PropOp55
 70
     1
102
RTVSPost2010Prop56
140
1.0
102
RTVSPost2010PropOp56
 70
     1
102
RTVSPost2010Prop57
140
1.0
102
RTVSPost2010PropOp57
 70
     1
  0
XRECORD
  5
871
102
{ACAD_REACTORS
330
870
102
}
330
870
100
AcDbXrecord
280
     1
102
RTVSPost2010Prop28
280
     0
102
RTVSPost2010PropOp28
 70
     0
102
RTVSPost2010Prop29
280
     1
102
RTVSPost2010PropOp29
 70
     0
102
RTVSPost2010Prop30
280
     1
102
RTVSPost2010PropOp30
 70
     0
102
RTVSPost2010Prop31
280
     0
102
RTVSPost2010PropOp31
 70
     0
102
RTVSPost2010Prop32
280
     0
102
RTVSPost2010PropOp32
 70
     0
102
RTVSPost2010Prop33
280
     0
102
RTVSPost2010PropOp33
 70
     0
102
RTVSPost2010Prop34
280
     0
102
RTVSPost2010PropOp34
 70
     0
102
RTVSPost2010Prop35
280
     0
102
RTVSPost2010PropOp35
 70
     0
102
RTVSPost2010Prop36
280
     0
102
RTVSPost2010PropOp36
 70
     0
102
RTVSPost2010Prop37
 90
       50
102
RTVSPost2010PropOp37
 70
     0
102
RTVSPost2010Prop38
140
0.0
102
RTVSPost2010PropOp38
 70
     0
102
RTVSPost2010Prop39
140
1.0
102
RTVSPost2010PropOp39
 70
     0
102
RTVSPost2010Prop40
 90
        0
102
RTVSPost2010PropOp40
 70
     0
102
RTVSPost2010Prop41ColorIndex
 90
       18
102
RTVSPost2010Prop41ColorRGB
 90
        0
102
RTVSPost2010PropOp41
 70
     0
102
RTVSPost2010Prop42
 90
       50
102
RTVSPost2010PropOp42
 70
     0
102
RTVSPost2010Prop43
 90
        3
102
RTVSPost2010PropOp43
 70
     0
102
RTVSPost2010Prop44ColorIndex
 90
        5
102
RTVSPost2010Prop44ColorRGB
 90
      255
102
RTVSPost2010PropOp44
 70
     0
102
RTVSPost2010Prop45
280
     0
102
RTVSPost2010PropOp45
 70
     0
102
RTVSPost2010Prop46
 90
       50
102
RTVSPost2010PropOp46
 70
     0
102
RTVSPost2010Prop47
 90
       50
102
RTVSPost2010PropOp47
 70
     0
102
RTVSPost2010Prop48
 90
       50
102
RTVSPost2010PropOp48
 70
     0
102
RTVSPost2010Prop49
280
     0
102
RTVSPost2010PropOp49
 70
     0
102
RTVSPost2010Prop50
 90
       50
102
RTVSPost2010PropOp50
 70
     0
102
RTVSPost2010Prop51ColorIndex
 90
      256
102
RTVSPost2010Prop51ColorRGB
 90
-16777216
102
RTVSPost2010PropOp51
 70
     0
102
RTVSPost2010Prop52
140
1.0
102
RTVSPost2010PropOp52
 70
     0
102
RTVSPost2010Prop53
 90
        2
102
RTVSPost2010PropOp53
 70
     0
102
RTVSPost2010Prop54
  1
strokes_ogs.tif
102
RTVSPost2010PropOp54
 70
     0
102
RTVSPost2010Prop55
280
     0
102
RTVSPost2010PropOp55
 70
     0
102
RTVSPost2010Prop56
140
1.0
102
RTVSPost2010PropOp56
 70
     0
102
RTVSPost2010Prop57
140
1.0
102
RTVSPost2010PropOp57
 70
     0
  0
XRECORD
  5
85F
102
{ACAD_REACTORS
330
85E
102
}
330
85E
100
AcDbXrecord
280
     1
102
RTVSPost2010Prop28
280
     0
102
RTVSPost2010PropOp28
 70
     1
102
RTVSPost2010Prop29
280
     1
102
RTVSPost2010PropOp29
 70
     1
102
RTVSPost2010Prop30
280
     1
102
RTVSPost2010PropOp30
 70
     1
102
RTVSPost2010Prop31
280
     0
102
RTVSPost2010PropOp31
 70
     1
102
RTVSPost2010Prop32
280
     0
102
RTVSPost2010PropOp32
 70
     1
102
RTVSPost2010Prop33
280
     0
102
RTVSPost2010PropOp33
 70
     1
102
RTVSPost2010Prop34
280
     0
102
RTVSPost2010PropOp34
 70
     1
102
RTVSPost2010Prop35
280
     0
102
RTVSPost2010PropOp35
 70
     1
102
RTVSPost2010Prop36
280
     0
102
RTVSPost2010PropOp36
 70
     1
102
RTVSPost2010Prop37
 90
       50
102
RTVSPost2010PropOp37
 70
     1
102
RTVSPost2010Prop38
140
0.0
102
RTVSPost2010PropOp38
 70
     1
102
RTVSPost2010Prop39
140
1.0
102
RTVSPost2010PropOp39
 70
     1
102
RTVSPost2010Prop40
 90
        0
102
RTVSPost2010PropOp40
 70
     1
102
RTVSPost2010Prop41ColorIndex
 90
       18
102
RTVSPost2010Prop41ColorRGB
 90
        0
102
RTVSPost2010PropOp41
 70
     1
102
RTVSPost2010Prop42
 90
       50
102
RTVSPost2010PropOp42
 70
     1
102
RTVSPost2010Prop43
 90
        3
102
RTVSPost2010PropOp43
 70
     1
102
RTVSPost2010Prop44ColorIndex
 90
        5
102
RTVSPost2010Prop44ColorRGB
 90
      255
102
RTVSPost2010PropOp44
 70
     1
102
RTVSPost2010Prop45
280
     0
102
RTVSPost2010PropOp45
 70
     1
102
RTVSPost2010Prop46
 90
       50
102
RTVSPost2010PropOp46
 70
     1
102
RTVSPost2010Prop47
 90
       50
102
RTVSPost2010PropOp47
 70
     1
102
RTVSPost2010Prop48
 90
       50
102
RTVSPost2010PropOp48
 70
     1
102
RTVSPost2010Prop49
280
     0
102
RTVSPost2010PropOp49
 70
     1
102
RTVSPost2010Prop50
 90
       50
102
RTVSPost2010PropOp50
 70
     1
102
RTVSPost2010Prop51ColorIndex
 90
      256
102
RTVSPost2010Prop51ColorRGB
 90
-16777216
102
RTVSPost2010PropOp51
 70
     0
102
RTVSPost2010Prop52
140
1.0
102
RTVSPost2010PropOp52
 70
     0
102
RTVSPost2010Prop53
 90
        2
102
RTVSPost2010PropOp53
 70
     1
102
RTVSPost2010Prop54
  1
strokes_ogs.tif
102
RTVSPost2010PropOp54
 70
     1
102
RTVSPost2010Prop55
280
     0
102
RTVSPost2010PropOp55
 70
     1
102
RTVSPost2010Prop56
140
1.0
102
RTVSPost2010PropOp56
 70
     1
102
RTVSPost2010Prop57
140
1.0
102
RTVSPost2010PropOp57
 70
     1
  0
XRECORD
  5
843
102
{ACAD_REACTORS
330
842
102
}
330
842
100
AcDbXrecord
280
     1
102
RTVSPost2010Prop28
280
     0
102
RTVSPost2010PropOp28
 70
     1
102
RTVSPost2010Prop29
280
     1
102
RTVSPost2010PropOp29
 70
     1
102
RTVSPost2010Prop30
280
     1
102
RTVSPost2010PropOp30
 70
     1
102
RTVSPost2010Prop31
280
     0
102
RTVSPost2010PropOp31
 70
     1
102
RTVSPost2010Prop32
280
     0
102
RTVSPost2010PropOp32
 70
     1
102
RTVSPost2010Prop33
280
     0
102
RTVSPost2010PropOp33
 70
     1
102
RTVSPost2010Prop34
280
     0
102
RTVSPost2010PropOp34
 70
     1
102
RTVSPost2010Prop35
280
     0
102
RTVSPost2010PropOp35
 70
     1
102
RTVSPost2010Prop36
280
     0
102
RTVSPost2010PropOp36
 70
     1
102
RTVSPost2010Prop37
 90
       50
102
RTVSPost2010PropOp37
 70
     1
102
RTVSPost2010Prop38
140
0.0
102
RTVSPost2010PropOp38
 70
     1
102
RTVSPost2010Prop39
140
1.0
102
RTVSPost2010PropOp39
 70
     1
102
RTVSPost2010Prop40
 90
        0
102
RTVSPost2010PropOp40
 70
     1
102
RTVSPost2010Prop41ColorIndex
 90
       18
102
RTVSPost2010Prop41ColorRGB
 90
        0
102
RTVSPost2010PropOp41
 70
     1
102
RTVSPost2010Prop42
 90
       50
102
RTVSPost2010PropOp42
 70
     1
102
RTVSPost2010Prop43
 90
        3
102
RTVSPost2010PropOp43
 70
     1
102
RTVSPost2010Prop44ColorIndex
 90
        5
102
RTVSPost2010Prop44ColorRGB
 90
      255
102
RTVSPost2010PropOp44
 70
     1
102
RTVSPost2010Prop45
280
     0
102
RTVSPost2010PropOp45
 70
     1
102
RTVSPost2010Prop46
 90
       50
102
RTVSPost2010PropOp46
 70
     1
102
RTVSPost2010Prop47
 90
       50
102
RTVSPost2010PropOp47
 70
     1
102
RTVSPost2010Prop48
 90
       50
102
RTVSPost2010PropOp48
 70
     1
102
RTVSPost2010Prop49
280
     0
102
RTVSPost2010PropOp49
 70
     1
102
RTVSPost2010Prop50
 90
       50
102
RTVSPost2010PropOp50
 70
     1
102
RTVSPost2010Prop51ColorIndex
 90
      256
102
RTVSPost2010Prop51ColorRGB
 90
-16777216
102
RTVSPost2010PropOp51
 70
     0
102
RTVSPost2010Prop52
140
1.0
102
RTVSPost2010PropOp52
 70
     0
102
RTVSPost2010Prop53
 90
        2
102
RTVSPost2010PropOp53
 70
     1
102
RTVSPost2010Prop54
  1
strokes_ogs.tif
102
RTVSPost2010PropOp54
 70
     1
102
RTVSPost2010Prop55
280
     0
102
RTVSPost2010PropOp55
 70
     1
102
RTVSPost2010Prop56
140
1.0
102
RTVSPost2010PropOp56
 70
     1
102
RTVSPost2010Prop57
140
1.0
102
RTVSPost2010PropOp57
 70
     1
  0
XRECORD
  5
845
102
{ACAD_REACTORS
330
844
102
}
330
844
100
AcDbXrecord
280
     1
102
RTVSPost2010Prop28
280
     0
102
RTVSPost2010PropOp28
 70
     1
102
RTVSPost2010Prop29
280
     1
102
RTVSPost2010PropOp29
 70
     1
102
RTVSPost2010Prop30
280
     1
102
RTVSPost2010PropOp30
 70
     1
102
RTVSPost2010Prop31
280
     0
102
RTVSPost2010PropOp31
 70
     1
102
RTVSPost2010Prop32
280
     0
102
RTVSPost2010PropOp32
 70
     1
102
RTVSPost2010Prop33
280
     0
102
RTVSPost2010PropOp33
 70
     1
102
RTVSPost2010Prop34
280
     0
102
RTVSPost2010PropOp34
 70
     1
102
RTVSPost2010Prop35
280
     0
102
RTVSPost2010PropOp35
 70
     1
102
RTVSPost2010Prop36
280
     0
102
RTVSPost2010PropOp36
 70
     1
102
RTVSPost2010Prop37
 90
       50
102
RTVSPost2010PropOp37
 70
     1
102
RTVSPost2010Prop38
140
0.0
102
RTVSPost2010PropOp38
 70
     1
102
RTVSPost2010Prop39
140
1.0
102
RTVSPost2010PropOp39
 70
     1
102
RTVSPost2010Prop40
 90
        0
102
RTVSPost2010PropOp40
 70
     1
102
RTVSPost2010Prop41ColorIndex
 90
       18
102
RTVSPost2010Prop41ColorRGB
 90
        0
102
RTVSPost2010PropOp41
 70
     1
102
RTVSPost2010Prop42
 90
       50
102
RTVSPost2010PropOp42
 70
     1
102
RTVSPost2010Prop43
 90
        3
102
RTVSPost2010PropOp43
 70
     1
102
RTVSPost2010Prop44ColorIndex
 90
        5
102
RTVSPost2010Prop44ColorRGB
 90
      255
102
RTVSPost2010PropOp44
 70
     1
102
RTVSPost2010Prop45
280
     0
102
RTVSPost2010PropOp45
 70
     1
102
RTVSPost2010Prop46
 90
       50
102
RTVSPost2010PropOp46
 70
     1
102
RTVSPost2010Prop47
 90
       50
102
RTVSPost2010PropOp47
 70
     1
102
RTVSPost2010Prop48
 90
       50
102
RTVSPost2010PropOp48
 70
     1
102
RTVSPost2010Prop49
280
     0
102
RTVSPost2010PropOp49
 70
     1
102
RTVSPost2010Prop50
 90
       50
102
RTVSPost2010PropOp50
 70
     1
102
RTVSPost2010Prop51ColorIndex
 90
      256
102
RTVSPost2010Prop51ColorRGB
 90
-16777216
102
RTVSPost2010PropOp51
 70
     0
102
RTVSPost2010Prop52
140
1.0
102
RTVSPost2010PropOp52
 70
     0
102
RTVSPost2010Prop53
 90
        2
102
RTVSPost2010PropOp53
 70
     1
102
RTVSPost2010Prop54
  1
strokes_ogs.tif
102
RTVSPost2010PropOp54
 70
     1
102
RTVSPost2010Prop55
280
     0
102
RTVSPost2010PropOp55
 70
     1
102
RTVSPost2010Prop56
140
1.0
102
RTVSPost2010PropOp56
 70
     1
102
RTVSPost2010Prop57
140
1.0
102
RTVSPost2010PropOp57
 70
     1
  0
XRECORD
  5
847
102
{ACAD_REACTORS
330
846
102
}
330
846
100
AcDbXrecord
280
     1
102
RTVSPost2010Prop28
280
     0
102
RTVSPost2010PropOp28
 70
     1
102
RTVSPost2010Prop29
280
     1
102
RTVSPost2010PropOp29
 70
     1
102
RTVSPost2010Prop30
280
     1
102
RTVSPost2010PropOp30
 70
     1
102
RTVSPost2010Prop31
280
     0
102
RTVSPost2010PropOp31
 70
     1
102
RTVSPost2010Prop32
280
     0
102
RTVSPost2010PropOp32
 70
     1
102
RTVSPost2010Prop33
280
     0
102
RTVSPost2010PropOp33
 70
     1
102
RTVSPost2010Prop34
280
     0
102
RTVSPost2010PropOp34
 70
     1
102
RTVSPost2010Prop35
280
     0
102
RTVSPost2010PropOp35
 70
     1
102
RTVSPost2010Prop36
280
     0
102
RTVSPost2010PropOp36
 70
     1
102
RTVSPost2010Prop37
 90
       50
102
RTVSPost2010PropOp37
 70
     1
102
RTVSPost2010Prop38
140
0.0
102
RTVSPost2010PropOp38
 70
     1
102
RTVSPost2010Prop39
140
1.0
102
RTVSPost2010PropOp39
 70
     1
102
RTVSPost2010Prop40
 90
        0
102
RTVSPost2010PropOp40
 70
     1
102
RTVSPost2010Prop41ColorIndex
 90
       18
102
RTVSPost2010Prop41ColorRGB
 90
        0
102
RTVSPost2010PropOp41
 70
     1
102
RTVSPost2010Prop42
 90
       50
102
RTVSPost2010PropOp42
 70
     1
102
RTVSPost2010Prop43
 90
        3
102
RTVSPost2010PropOp43
 70
     1
102
RTVSPost2010Prop44ColorIndex
 90
        5
102
RTVSPost2010Prop44ColorRGB
 90
      255
102
RTVSPost2010PropOp44
 70
     1
102
RTVSPost2010Prop45
280
     0
102
RTVSPost2010PropOp45
 70
     1
102
RTVSPost2010Prop46
 90
       50
102
RTVSPost2010PropOp46
 70
     1
102
RTVSPost2010Prop47
 90
       50
102
RTVSPost2010PropOp47
 70
     1
102
RTVSPost2010Prop48
 90
       50
102
RTVSPost2010PropOp48
 70
     1
102
RTVSPost2010Prop49
280
     0
102
RTVSPost2010PropOp49
 70
     1
102
RTVSPost2010Prop50
 90
       50
102
RTVSPost2010PropOp50
 70
     1
102
RTVSPost2010Prop51ColorIndex
 90
      256
102
RTVSPost2010Prop51ColorRGB
 90
-16777216
102
RTVSPost2010PropOp51
 70
     0
102
RTVSPost2010Prop52
140
1.0
102
RTVSPost2010PropOp52
 70
     0
102
RTVSPost2010Prop53
 90
        2
102
RTVSPost2010PropOp53
 70
     1
102
RTVSPost2010Prop54
  1
strokes_ogs.tif
102
RTVSPost2010PropOp54
 70
     1
102
RTVSPost2010Prop55
280
     0
102
RTVSPost2010PropOp55
 70
     1
102
RTVSPost2010Prop56
140
1.0
102
RTVSPost2010PropOp56
 70
     1
102
RTVSPost2010Prop57
140
1.0
102
RTVSPost2010PropOp57
 70
     1
  0
XRECORD
  5
849
102
{ACAD_REACTORS
330
848
102
}
330
848
100
AcDbXrecord
280
     1
102
RTVSPost2010Prop28
280
     0
102
RTVSPost2010PropOp28
 70
     1
102
RTVSPost2010Prop29
280
     1
102
RTVSPost2010PropOp29
 70
     1
102
RTVSPost2010Prop30
280
     1
102
RTVSPost2010PropOp30
 70
     1
102
RTVSPost2010Prop31
280
     0
102
RTVSPost2010PropOp31
 70
     1
102
RTVSPost2010Prop32
280
     0
102
RTVSPost2010PropOp32
 70
     1
102
RTVSPost2010Prop33
280
     0
102
RTVSPost2010PropOp33
 70
     1
102
RTVSPost2010Prop34
280
     0
102
RTVSPost2010PropOp34
 70
     1
102
RTVSPost2010Prop35
280
     0
102
RTVSPost2010PropOp35
 70
     1
102
RTVSPost2010Prop36
280
     0
102
RTVSPost2010PropOp36
 70
     1
102
RTVSPost2010Prop37
 90
       50
102
RTVSPost2010PropOp37
 70
     1
102
RTVSPost2010Prop38
140
0.0
102
RTVSPost2010PropOp38
 70
     1
102
RTVSPost2010Prop39
140
1.0
102
RTVSPost2010PropOp39
 70
     1
102
RTVSPost2010Prop40
 90
        0
102
RTVSPost2010PropOp40
 70
     1
102
RTVSPost2010Prop41ColorIndex
 90
       18
102
RTVSPost2010Prop41ColorRGB
 90
        0
102
RTVSPost2010PropOp41
 70
     1
102
RTVSPost2010Prop42
 90
       50
102
RTVSPost2010PropOp42
 70
     1
102
RTVSPost2010Prop43
 90
        3
102
RTVSPost2010PropOp43
 70
     1
102
RTVSPost2010Prop44ColorIndex
 90
        5
102
RTVSPost2010Prop44ColorRGB
 90
      255
102
RTVSPost2010PropOp44
 70
     1
102
RTVSPost2010Prop45
280
     0
102
RTVSPost2010PropOp45
 70
     1
102
RTVSPost2010Prop46
 90
       50
102
RTVSPost2010PropOp46
 70
     1
102
RTVSPost2010Prop47
 90
       50
102
RTVSPost2010PropOp47
 70
     1
102
RTVSPost2010Prop48
 90
       50
102
RTVSPost2010PropOp48
 70
     1
102
RTVSPost2010Prop49
280
     0
102
RTVSPost2010PropOp49
 70
     1
102
RTVSPost2010Prop50
 90
       50
102
RTVSPost2010PropOp50
 70
     1
102
RTVSPost2010Prop51ColorIndex
 90
      256
102
RTVSPost2010Prop51ColorRGB
 90
-16777216
102
RTVSPost2010PropOp51
 70
     0
102
RTVSPost2010Prop52
140
1.0
102
RTVSPost2010PropOp52
 70
     0
102
RTVSPost2010Prop53
 90
        2
102
RTVSPost2010PropOp53
 70
     1
102
RTVSPost2010Prop54
  1
strokes_ogs.tif
102
RTVSPost2010PropOp54
 70
     1
102
RTVSPost2010Prop55
280
     0
102
RTVSPost2010PropOp55
 70
     1
102
RTVSPost2010Prop56
140
1.0
102
RTVSPost2010PropOp56
 70
     1
102
RTVSPost2010Prop57
140
1.0
102
RTVSPost2010PropOp57
 70
     1
  0
XRECORD
  5
851
102
{ACAD_REACTORS
330
850
102
}
330
850
100
AcDbXrecord
280
     1
102
RTVSPost2010Prop28
280
     0
102
RTVSPost2010PropOp28
 70
     1
102
RTVSPost2010Prop29
280
     1
102
RTVSPost2010PropOp29
 70
     1
102
RTVSPost2010Prop30
280
     1
102
RTVSPost2010PropOp30
 70
     1
102
RTVSPost2010Prop31
280
     0
102
RTVSPost2010PropOp31
 70
     1
102
RTVSPost2010Prop32
280
     0
102
RTVSPost2010PropOp32
 70
     1
102
RTVSPost2010Prop33
280
     0
102
RTVSPost2010PropOp33
 70
     1
102
RTVSPost2010Prop34
280
     0
102
RTVSPost2010PropOp34
 70
     1
102
RTVSPost2010Prop35
280
     0
102
RTVSPost2010PropOp35
 70
     1
102
RTVSPost2010Prop36
280
     0
102
RTVSPost2010PropOp36
 70
     1
102
RTVSPost2010Prop37
 90
       50
102
RTVSPost2010PropOp37
 70
     1
102
RTVSPost2010Prop38
140
0.0
102
RTVSPost2010PropOp38
 70
     1
102
RTVSPost2010Prop39
140
1.0
102
RTVSPost2010PropOp39
 70
     1
102
RTVSPost2010Prop40
 90
        0
102
RTVSPost2010PropOp40
 70
     1
102
RTVSPost2010Prop41ColorIndex
 90
       18
102
RTVSPost2010Prop41ColorRGB
 90
        0
102
RTVSPost2010PropOp41
 70
     1
102
RTVSPost2010Prop42
 90
       50
102
RTVSPost2010PropOp42
 70
     1
102
RTVSPost2010Prop43
 90
        3
102
RTVSPost2010PropOp43
 70
     1
102
RTVSPost2010Prop44ColorIndex
 90
        5
102
RTVSPost2010Prop44ColorRGB
 90
      255
102
RTVSPost2010PropOp44
 70
     1
102
RTVSPost2010Prop45
280
     0
102
RTVSPost2010PropOp45
 70
     1
102
RTVSPost2010Prop46
 90
       50
102
RTVSPost2010PropOp46
 70
     1
102
RTVSPost2010Prop47
 90
       50
102
RTVSPost2010PropOp47
 70
     1
102
RTVSPost2010Prop48
 90
       50
102
RTVSPost2010PropOp48
 70
     1
102
RTVSPost2010Prop49
280
     0
102
RTVSPost2010PropOp49
 70
     1
102
RTVSPost2010Prop50
 90
       50
102
RTVSPost2010PropOp50
 70
     1
102
RTVSPost2010Prop51ColorIndex
 90
      256
102
RTVSPost2010Prop51ColorRGB
 90
-16777216
102
RTVSPost2010PropOp51
 70
     0
102
RTVSPost2010Prop52
140
1.0
102
RTVSPost2010PropOp52
 70
     0
102
RTVSPost2010Prop53
 90
        2
102
RTVSPost2010PropOp53
 70
     1
102
RTVSPost2010Prop54
  1
strokes_ogs.tif
102
RTVSPost2010PropOp54
 70
     1
102
RTVSPost2010Prop55
280
     0
102
RTVSPost2010PropOp55
 70
     1
102
RTVSPost2010Prop56
140
1.0
102
RTVSPost2010PropOp56
 70
     1
102
RTVSPost2010Prop57
140
1.0
102
RTVSPost2010PropOp57
 70
     1
  0
XRECORD
  5
86D
102
{ACAD_REACTORS
330
86C
102
}
330
86C
100
AcDbXrecord
280
     1
102
RTVSPost2010Prop28
280
     0
102
RTVSPost2010PropOp28
 70
     0
102
RTVSPost2010Prop29
280
     1
102
RTVSPost2010PropOp29
 70
     0
102
RTVSPost2010Prop30
280
     1
102
RTVSPost2010PropOp30
 70
     0
102
RTVSPost2010Prop31
280
     0
102
RTVSPost2010PropOp31
 70
     0
102
RTVSPost2010Prop32
280
     0
102
RTVSPost2010PropOp32
 70
     0
102
RTVSPost2010Prop33
280
     0
102
RTVSPost2010PropOp33
 70
     0
102
RTVSPost2010Prop34
280
     0
102
RTVSPost2010PropOp34
 70
     0
102
RTVSPost2010Prop35
280
     0
102
RTVSPost2010PropOp35
 70
     0
102
RTVSPost2010Prop36
280
     0
102
RTVSPost2010PropOp36
 70
     0
102
RTVSPost2010Prop37
 90
       50
102
RTVSPost2010PropOp37
 70
     0
102
RTVSPost2010Prop38
140
0.0
102
RTVSPost2010PropOp38
 70
     0
102
RTVSPost2010Prop39
140
1.0
102
RTVSPost2010PropOp39
 70
     0
102
RTVSPost2010Prop40
 90
        0
102
RTVSPost2010PropOp40
 70
     0
102
RTVSPost2010Prop41ColorIndex
 90
       18
102
RTVSPost2010Prop41ColorRGB
 90
        0
102
RTVSPost2010PropOp41
 70
     0
102
RTVSPost2010Prop42
 90
       50
102
RTVSPost2010PropOp42
 70
     0
102
RTVSPost2010Prop43
 90
        3
102
RTVSPost2010PropOp43
 70
     0
102
RTVSPost2010Prop44ColorIndex
 90
        5
102
RTVSPost2010Prop44ColorRGB
 90
      255
102
RTVSPost2010PropOp44
 70
     0
102
RTVSPost2010Prop45
280
     0
102
RTVSPost2010PropOp45
 70
     0
102
RTVSPost2010Prop46
 90
       50
102
RTVSPost2010PropOp46
 70
     0
102
RTVSPost2010Prop47
 90
       50
102
RTVSPost2010PropOp47
 70
     0
102
RTVSPost2010Prop48
 90
       50
102
RTVSPost2010PropOp48
 70
     0
102
RTVSPost2010Prop49
280
     0
102
RTVSPost2010PropOp49
 70
     0
102
RTVSPost2010Prop50
 90
       50
102
RTVSPost2010PropOp50
 70
     0
102
RTVSPost2010Prop51ColorIndex
 90
      256
102
RTVSPost2010Prop51ColorRGB
 90
-16777216
102
RTVSPost2010PropOp51
 70
     0
102
RTVSPost2010Prop52
140
1.0
102
RTVSPost2010PropOp52
 70
     0
102
RTVSPost2010Prop53
 90
        2
102
RTVSPost2010PropOp53
 70
     0
102
RTVSPost2010Prop54
  1
strokes_ogs.tif
102
RTVSPost2010PropOp54
 70
     0
102
RTVSPost2010Prop55
280
     0
102
RTVSPost2010PropOp55
 70
     0
102
RTVSPost2010Prop56
140
1.0
102
RTVSPost2010PropOp56
 70
     0
102
RTVSPost2010Prop57
140
1.0
102
RTVSPost2010PropOp57
 70
     0
  0
XRECORD
  5
85D
102
{ACAD_REACTORS
330
85C
102
}
330
85C
100
AcDbXrecord
280
     1
102
RTVSPost2010Prop28
280
     0
102
RTVSPost2010PropOp28
 70
     1
102
RTVSPost2010Prop29
280
     1
102
RTVSPost2010PropOp29
 70
     1
102
RTVSPost2010Prop30
280
     1
102
RTVSPost2010PropOp30
 70
     1
102
RTVSPost2010Prop31
280
     0
102
RTVSPost2010PropOp31
 70
     1
102
RTVSPost2010Prop32
280
     0
102
RTVSPost2010PropOp32
 70
     1
102
RTVSPost2010Prop33
280
     0
102
RTVSPost2010PropOp33
 70
     1
102
RTVSPost2010Prop34
280
     0
102
RTVSPost2010PropOp34
 70
     1
102
RTVSPost2010Prop35
280
     0
102
RTVSPost2010PropOp35
 70
     1
102
RTVSPost2010Prop36
280
     0
102
RTVSPost2010PropOp36
 70
     1
102
RTVSPost2010Prop37
 90
       50
102
RTVSPost2010PropOp37
 70
     1
102
RTVSPost2010Prop38
140
0.0
102
RTVSPost2010PropOp38
 70
     1
102
RTVSPost2010Prop39
140
1.0
102
RTVSPost2010PropOp39
 70
     1
102
RTVSPost2010Prop40
 90
        0
102
RTVSPost2010PropOp40
 70
     1
102
RTVSPost2010Prop41ColorIndex
 90
       18
102
RTVSPost2010Prop41ColorRGB
 90
        0
102
RTVSPost2010PropOp41
 70
     1
102
RTVSPost2010Prop42
 90
       50
102
RTVSPost2010PropOp42
 70
     1
102
RTVSPost2010Prop43
 90
        3
102
RTVSPost2010PropOp43
 70
     1
102
RTVSPost2010Prop44ColorIndex
 90
        5
102
RTVSPost2010Prop44ColorRGB
 90
      255
102
RTVSPost2010PropOp44
 70
     1
102
RTVSPost2010Prop45
280
     0
102
RTVSPost2010PropOp45
 70
     1
102
RTVSPost2010Prop46
 90
       50
102
RTVSPost2010PropOp46
 70
     1
102
RTVSPost2010Prop47
 90
       50
102
RTVSPost2010PropOp47
 70
     1
102
RTVSPost2010Prop48
 90
       50
102
RTVSPost2010PropOp48
 70
     1
102
RTVSPost2010Prop49
280
     0
102
RTVSPost2010PropOp49
 70
     1
102
RTVSPost2010Prop50
 90
       50
102
RTVSPost2010PropOp50
 70
     1
102
RTVSPost2010Prop51ColorIndex
 90
      256
102
RTVSPost2010Prop51ColorRGB
 90
-16777216
102
RTVSPost2010PropOp51
 70
     0
102
RTVSPost2010Prop52
140
1.0
102
RTVSPost2010PropOp52
 70
     0
102
RTVSPost2010Prop53
 90
        2
102
RTVSPost2010PropOp53
 70
     1
102
RTVSPost2010Prop54
  1
strokes_ogs.tif
102
RTVSPost2010PropOp54
 70
     1
102
RTVSPost2010Prop55
280
     0
102
RTVSPost2010PropOp55
 70
     1
102
RTVSPost2010Prop56
140
1.0
102
RTVSPost2010PropOp56
 70
     1
102
RTVSPost2010Prop57
140
1.0
102
RTVSPost2010PropOp57
 70
     1
  0
XRECORD
  5
86F
102
{ACAD_REACTORS
330
86E
102
}
330
86E
100
AcDbXrecord
280
     1
102
RTVSPost2010Prop28
280
     0
102
RTVSPost2010PropOp28
 70
     0
102
RTVSPost2010Prop29
280
     1
102
RTVSPost2010PropOp29
 70
     0
102
RTVSPost2010Prop30
280
     1
102
RTVSPost2010PropOp30
 70
     0
102
RTVSPost2010Prop31
280
     0
102
RTVSPost2010PropOp31
 70
     0
102
RTVSPost2010Prop32
280
     0
102
RTVSPost2010PropOp32
 70
     0
102
RTVSPost2010Prop33
280
     0
102
RTVSPost2010PropOp33
 70
     0
102
RTVSPost2010Prop34
280
     0
102
RTVSPost2010PropOp34
 70
     0
102
RTVSPost2010Prop35
280
     0
102
RTVSPost2010PropOp35
 70
     0
102
RTVSPost2010Prop36
280
     0
102
RTVSPost2010PropOp36
 70
     0
102
RTVSPost2010Prop37
 90
       50
102
RTVSPost2010PropOp37
 70
     0
102
RTVSPost2010Prop38
140
0.0
102
RTVSPost2010PropOp38
 70
     0
102
RTVSPost2010Prop39
140
1.0
102
RTVSPost2010PropOp39
 70
     0
102
RTVSPost2010Prop40
 90
        0
102
RTVSPost2010PropOp40
 70
     0
102
RTVSPost2010Prop41ColorIndex
 90
       18
102
RTVSPost2010Prop41ColorRGB
 90
        0
102
RTVSPost2010PropOp41
 70
     0
102
RTVSPost2010Prop42
 90
       50
102
RTVSPost2010PropOp42
 70
     0
102
RTVSPost2010Prop43
 90
        3
102
RTVSPost2010PropOp43
 70
     0
102
RTVSPost2010Prop44ColorIndex
 90
        5
102
RTVSPost2010Prop44ColorRGB
 90
      255
102
RTVSPost2010PropOp44
 70
     0
102
RTVSPost2010Prop45
280
     0
102
RTVSPost2010PropOp45
 70
     0
102
RTVSPost2010Prop46
 90
       50
102
RTVSPost2010PropOp46
 70
     0
102
RTVSPost2010Prop47
 90
       50
102
RTVSPost2010PropOp47
 70
     0
102
RTVSPost2010Prop48
 90
       50
102
RTVSPost2010PropOp48
 70
     0
102
RTVSPost2010Prop49
280
     0
102
RTVSPost2010PropOp49
 70
     0
102
RTVSPost2010Prop50
 90
       50
102
RTVSPost2010PropOp50
 70
     0
102
RTVSPost2010Prop51ColorIndex
 90
      256
102
RTVSPost2010Prop51ColorRGB
 90
-16777216
102
RTVSPost2010PropOp51
 70
     0
102
RTVSPost2010Prop52
140
1.0
102
RTVSPost2010PropOp52
 70
     0
102
RTVSPost2010Prop53
 90
        2
102
RTVSPost2010PropOp53
 70
     0
102
RTVSPost2010Prop54
  1
strokes_ogs.tif
102
RTVSPost2010PropOp54
 70
     0
102
RTVSPost2010Prop55
280
     0
102
RTVSPost2010PropOp55
 70
     0
102
RTVSPost2010Prop56
140
1.0
102
RTVSPost2010PropOp56
 70
     0
102
RTVSPost2010Prop57
140
1.0
102
RTVSPost2010PropOp57
 70
     0
  0
XRECORD
  5
855
102
{ACAD_REACTORS
330
854
102
}
330
854
100
AcDbXrecord
280
     1
102
RTVSPost2010Prop28
280
     0
102
RTVSPost2010PropOp28
 70
     1
102
RTVSPost2010Prop29
280
     1
102
RTVSPost2010PropOp29
 70
     1
102
RTVSPost2010Prop30
280
     1
102
RTVSPost2010PropOp30
 70
     1
102
RTVSPost2010Prop31
280
     0
102
RTVSPost2010PropOp31
 70
     1
102
RTVSPost2010Prop32
280
     0
102
RTVSPost2010PropOp32
 70
     1
102
RTVSPost2010Prop33
280
     0
102
RTVSPost2010PropOp33
 70
     1
102
RTVSPost2010Prop34
280
     0
102
RTVSPost2010PropOp34
 70
     1
102
RTVSPost2010Prop35
280
     0
102
RTVSPost2010PropOp35
 70
     1
102
RTVSPost2010Prop36
280
     0
102
RTVSPost2010PropOp36
 70
     1
102
RTVSPost2010Prop37
 90
       50
102
RTVSPost2010PropOp37
 70
     1
102
RTVSPost2010Prop38
140
0.0
102
RTVSPost2010PropOp38
 70
     1
102
RTVSPost2010Prop39
140
1.0
102
RTVSPost2010PropOp39
 70
     1
102
RTVSPost2010Prop40
 90
        0
102
RTVSPost2010PropOp40
 70
     1
102
RTVSPost2010Prop41ColorIndex
 90
       18
102
RTVSPost2010Prop41ColorRGB
 90
        0
102
RTVSPost2010PropOp41
 70
     1
102
RTVSPost2010Prop42
 90
       50
102
RTVSPost2010PropOp42
 70
     1
102
RTVSPost2010Prop43
 90
        3
102
RTVSPost2010PropOp43
 70
     1
102
RTVSPost2010Prop44ColorIndex
 90
        5
102
RTVSPost2010Prop44ColorRGB
 90
      255
102
RTVSPost2010PropOp44
 70
     1
102
RTVSPost2010Prop45
280
     0
102
RTVSPost2010PropOp45
 70
     1
102
RTVSPost2010Prop46
 90
       50
102
RTVSPost2010PropOp46
 70
     1
102
RTVSPost2010Prop47
 90
       50
102
RTVSPost2010PropOp47
 70
     1
102
RTVSPost2010Prop48
 90
       50
102
RTVSPost2010PropOp48
 70
     1
102
RTVSPost2010Prop49
280
     0
102
RTVSPost2010PropOp49
 70
     1
102
RTVSPost2010Prop50
 90
       50
102
RTVSPost2010PropOp50
 70
     1
102
RTVSPost2010Prop51ColorIndex
 90
      256
102
RTVSPost2010Prop51ColorRGB
 90
-16777216
102
RTVSPost2010PropOp51
 70
     0
102
RTVSPost2010Prop52
140
1.0
102
RTVSPost2010PropOp52
 70
     0
102
RTVSPost2010Prop53
 90
        2
102
RTVSPost2010PropOp53
 70
     1
102
RTVSPost2010Prop54
  1
strokes_ogs.tif
102
RTVSPost2010PropOp54
 70
     1
102
RTVSPost2010Prop55
280
     0
102
RTVSPost2010PropOp55
 70
     1
102
RTVSPost2010Prop56
140
1.0
102
RTVSPost2010PropOp56
 70
     1
102
RTVSPost2010Prop57
140
1.0
102
RTVSPost2010PropOp57
 70
     1
  0
XRECORD
  5
86B
102
{ACAD_REACTORS
330
86A
102
}
330
86A
100
AcDbXrecord
280
     1
102
RTVSPost2010Prop28
280
     0
102
RTVSPost2010PropOp28
 70
     1
102
RTVSPost2010Prop29
280
     1
102
RTVSPost2010PropOp29
 70
     1
102
RTVSPost2010Prop30
280
     1
102
RTVSPost2010PropOp30
 70
     1
102
RTVSPost2010Prop31
280
     0
102
RTVSPost2010PropOp31
 70
     1
102
RTVSPost2010Prop32
280
     0
102
RTVSPost2010PropOp32
 70
     1
102
RTVSPost2010Prop33
280
     0
102
RTVSPost2010PropOp33
 70
     1
102
RTVSPost2010Prop34
280
     0
102
RTVSPost2010PropOp34
 70
     1
102
RTVSPost2010Prop35
280
     0
102
RTVSPost2010PropOp35
 70
     1
102
RTVSPost2010Prop36
280
     0
102
RTVSPost2010PropOp36
 70
     1
102
RTVSPost2010Prop37
 90
       50
102
RTVSPost2010PropOp37
 70
     1
102
RTVSPost2010Prop38
140
0.0
102
RTVSPost2010PropOp38
 70
     1
102
RTVSPost2010Prop39
140
1.0
102
RTVSPost2010PropOp39
 70
     1
102
RTVSPost2010Prop40
 90
        0
102
RTVSPost2010PropOp40
 70
     1
102
RTVSPost2010Prop41ColorIndex
 90
       18
102
RTVSPost2010Prop41ColorRGB
 90
        0
102
RTVSPost2010PropOp41
 70
     1
102
RTVSPost2010Prop42
 90
       50
102
RTVSPost2010PropOp42
 70
     1
102
RTVSPost2010Prop43
 90
        3
102
RTVSPost2010PropOp43
 70
     1
102
RTVSPost2010Prop44ColorIndex
 90
        5
102
RTVSPost2010Prop44ColorRGB
 90
      255
102
RTVSPost2010PropOp44
 70
     1
102
RTVSPost2010Prop45
280
     0
102
RTVSPost2010PropOp45
 70
     1
102
RTVSPost2010Prop46
 90
       50
102
RTVSPost2010PropOp46
 70
     1
102
RTVSPost2010Prop47
 90
       50
102
RTVSPost2010PropOp47
 70
     1
102
RTVSPost2010Prop48
 90
       50
102
RTVSPost2010PropOp48
 70
     1
102
RTVSPost2010Prop49
280
     0
102
RTVSPost2010PropOp49
 70
     1
102
RTVSPost2010Prop50
 90
       50
102
RTVSPost2010PropOp50
 70
     1
102
RTVSPost2010Prop51ColorIndex
 90
      256
102
RTVSPost2010Prop51ColorRGB
 90
-16777216
102
RTVSPost2010PropOp51
 70
     0
102
RTVSPost2010Prop52
140
1.0
102
RTVSPost2010PropOp52
 70
     0
102
RTVSPost2010Prop53
 90
        2
102
RTVSPost2010PropOp53
 70
     1
102
RTVSPost2010Prop54
  1
strokes_ogs.tif
102
RTVSPost2010PropOp54
 70
     1
102
RTVSPost2010Prop55
280
     0
102
RTVSPost2010PropOp55
 70
     1
102
RTVSPost2010Prop56
140
1.0
102
RTVSPost2010PropOp56
 70
     1
102
RTVSPost2010Prop57
140
1.0
102
RTVSPost2010PropOp57
 70
     1
  0
XRECORD
  5
869
102
{ACAD_REACTORS
330
868
102
}
330
868
100
AcDbXrecord
280
     1
102
RTVSPost2010Prop28
280
     0
102
RTVSPost2010PropOp28
 70
     1
102
RTVSPost2010Prop29
280
     1
102
RTVSPost2010PropOp29
 70
     1
102
RTVSPost2010Prop30
280
     1
102
RTVSPost2010PropOp30
 70
     1
102
RTVSPost2010Prop31
280
     0
102
RTVSPost2010PropOp31
 70
     1
102
RTVSPost2010Prop32
280
     0
102
RTVSPost2010PropOp32
 70
     1
102
RTVSPost2010Prop33
280
     0
102
RTVSPost2010PropOp33
 70
     1
102
RTVSPost2010Prop34
280
     0
102
RTVSPost2010PropOp34
 70
     1
102
RTVSPost2010Prop35
280
     0
102
RTVSPost2010PropOp35
 70
     1
102
RTVSPost2010Prop36
280
     0
102
RTVSPost2010PropOp36
 70
     1
102
RTVSPost2010Prop37
 90
       50
102
RTVSPost2010PropOp37
 70
     1
102
RTVSPost2010Prop38
140
0.0
102
RTVSPost2010PropOp38
 70
     1
102
RTVSPost2010Prop39
140
1.0
102
RTVSPost2010PropOp39
 70
     1
102
RTVSPost2010Prop40
 90
        0
102
RTVSPost2010PropOp40
 70
     1
102
RTVSPost2010Prop41ColorIndex
 90
       18
102
RTVSPost2010Prop41ColorRGB
 90
        0
102
RTVSPost2010PropOp41
 70
     1
102
RTVSPost2010Prop42
 90
       50
102
RTVSPost2010PropOp42
 70
     1
102
RTVSPost2010Prop43
 90
        3
102
RTVSPost2010PropOp43
 70
     1
102
RTVSPost2010Prop44ColorIndex
 90
        5
102
RTVSPost2010Prop44ColorRGB
 90
      255
102
RTVSPost2010PropOp44
 70
     1
102
RTVSPost2010Prop45
280
     0
102
RTVSPost2010PropOp45
 70
     1
102
RTVSPost2010Prop46
 90
       50
102
RTVSPost2010PropOp46
 70
     1
102
RTVSPost2010Prop47
 90
       50
102
RTVSPost2010PropOp47
 70
     1
102
RTVSPost2010Prop48
 90
       50
102
RTVSPost2010PropOp48
 70
     1
102
RTVSPost2010Prop49
280
     0
102
RTVSPost2010PropOp49
 70
     1
102
RTVSPost2010Prop50
 90
       50
102
RTVSPost2010PropOp50
 70
     1
102
RTVSPost2010Prop51ColorIndex
 90
      256
102
RTVSPost2010Prop51ColorRGB
 90
-16777216
102
RTVSPost2010PropOp51
 70
     0
102
RTVSPost2010Prop52
140
1.0
102
RTVSPost2010PropOp52
 70
     0
102
RTVSPost2010Prop53
 90
        2
102
RTVSPost2010PropOp53
 70
     1
102
RTVSPost2010Prop54
  1
strokes_ogs.tif
102
RTVSPost2010PropOp54
 70
     1
102
RTVSPost2010Prop55
280
     0
102
RTVSPost2010PropOp55
 70
     1
102
RTVSPost2010Prop56
140
1.0
102
RTVSPost2010PropOp56
 70
     1
102
RTVSPost2010Prop57
140
1.0
102
RTVSPost2010PropOp57
 70
     1
  0
XRECORD
  5
863
102
{ACAD_REACTORS
330
862
102
}
330
862
100
AcDbXrecord
280
     1
102
RTVSPost2010Prop28
280
     0
102
RTVSPost2010PropOp28
 70
     1
102
RTVSPost2010Prop29
280
     1
102
RTVSPost2010PropOp29
 70
     1
102
RTVSPost2010Prop30
280
     1
102
RTVSPost2010PropOp30
 70
     1
102
RTVSPost2010Prop31
280
     0
102
RTVSPost2010PropOp31
 70
     1
102
RTVSPost2010Prop32
280
     0
102
RTVSPost2010PropOp32
 70
     1
102
RTVSPost2010Prop33
280
     0
102
RTVSPost2010PropOp33
 70
     1
102
RTVSPost2010Prop34
280
     0
102
RTVSPost2010PropOp34
 70
     1
102
RTVSPost2010Prop35
280
     0
102
RTVSPost2010PropOp35
 70
     1
102
RTVSPost2010Prop36
280
     0
102
RTVSPost2010PropOp36
 70
     1
102
RTVSPost2010Prop37
 90
       50
102
RTVSPost2010PropOp37
 70
     1
102
RTVSPost2010Prop38
140
0.0
102
RTVSPost2010PropOp38
 70
     1
102
RTVSPost2010Prop39
140
1.0
102
RTVSPost2010PropOp39
 70
     1
102
RTVSPost2010Prop40
 90
        0
102
RTVSPost2010PropOp40
 70
     1
102
RTVSPost2010Prop41ColorIndex
 90
       18
102
RTVSPost2010Prop41ColorRGB
 90
        0
102
RTVSPost2010PropOp41
 70
     1
102
RTVSPost2010Prop42
 90
       50
102
RTVSPost2010PropOp42
 70
     1
102
RTVSPost2010Prop43
 90
        3
102
RTVSPost2010PropOp43
 70
     1
102
RTVSPost2010Prop44ColorIndex
 90
        5
102
RTVSPost2010Prop44ColorRGB
 90
      255
102
RTVSPost2010PropOp44
 70
     1
102
RTVSPost2010Prop45
280
     0
102
RTVSPost2010PropOp45
 70
     1
102
RTVSPost2010Prop46
 90
       50
102
RTVSPost2010PropOp46
 70
     1
102
RTVSPost2010Prop47
 90
       50
102
RTVSPost2010PropOp47
 70
     1
102
RTVSPost2010Prop48
 90
       50
102
RTVSPost2010PropOp48
 70
     1
102
RTVSPost2010Prop49
280
     0
102
RTVSPost2010PropOp49
 70
     1
102
RTVSPost2010Prop50
 90
       50
102
RTVSPost2010PropOp50
 70
     1
102
RTVSPost2010Prop51ColorIndex
 90
      256
102
RTVSPost2010Prop51ColorRGB
 90
-16777216
102
RTVSPost2010PropOp51
 70
     0
102
RTVSPost2010Prop52
140
1.0
102
RTVSPost2010PropOp52
 70
     0
102
RTVSPost2010Prop53
 90
        2
102
RTVSPost2010PropOp53
 70
     1
102
RTVSPost2010Prop54
  1
strokes_ogs.tif
102
RTVSPost2010PropOp54
 70
     1
102
RTVSPost2010Prop55
280
     0
102
RTVSPost2010PropOp55
 70
     1
102
RTVSPost2010Prop56
140
1.0
102
RTVSPost2010PropOp56
 70
     1
102
RTVSPost2010Prop57
140
1.0
102
RTVSPost2010PropOp57
 70
     1
  0
XRECORD
  5
865
102
{ACAD_REACTORS
330
864
102
}
330
864
100
AcDbXrecord
280
     1
102
RTVSPost2010Prop28
280
     0
102
RTVSPost2010PropOp28
 70
     1
102
RTVSPost2010Prop29
280
     1
102
RTVSPost2010PropOp29
 70
     1
102
RTVSPost2010Prop30
280
     1
102
RTVSPost2010PropOp30
 70
     1
102
RTVSPost2010Prop31
280
     0
102
RTVSPost2010PropOp31
 70
     1
102
RTVSPost2010Prop32
280
     0
102
RTVSPost2010PropOp32
 70
     1
102
RTVSPost2010Prop33
280
     0
102
RTVSPost2010PropOp33
 70
     1
102
RTVSPost2010Prop34
280
     0
102
RTVSPost2010PropOp34
 70
     1
102
RTVSPost2010Prop35
280
     0
102
RTVSPost2010PropOp35
 70
     1
102
RTVSPost2010Prop36
280
     0
102
RTVSPost2010PropOp36
 70
     1
102
RTVSPost2010Prop37
 90
       50
102
RTVSPost2010PropOp37
 70
     1
102
RTVSPost2010Prop38
140
0.0
102
RTVSPost2010PropOp38
 70
     1
102
RTVSPost2010Prop39
140
1.0
102
RTVSPost2010PropOp39
 70
     1
102
RTVSPost2010Prop40
 90
        0
102
RTVSPost2010PropOp40
 70
     1
102
RTVSPost2010Prop41ColorIndex
 90
       18
102
RTVSPost2010Prop41ColorRGB
 90
        0
102
RTVSPost2010PropOp41
 70
     1
102
RTVSPost2010Prop42
 90
       50
102
RTVSPost2010PropOp42
 70
     1
102
RTVSPost2010Prop43
 90
        3
102
RTVSPost2010PropOp43
 70
     1
102
RTVSPost2010Prop44ColorIndex
 90
        5
102
RTVSPost2010Prop44ColorRGB
 90
      255
102
RTVSPost2010PropOp44
 70
     1
102
RTVSPost2010Prop45
280
     0
102
RTVSPost2010PropOp45
 70
     1
102
RTVSPost2010Prop46
 90
       50
102
RTVSPost2010PropOp46
 70
     1
102
RTVSPost2010Prop47
 90
       50
102
RTVSPost2010PropOp47
 70
     1
102
RTVSPost2010Prop48
 90
       50
102
RTVSPost2010PropOp48
 70
     1
102
RTVSPost2010Prop49
280
     0
102
RTVSPost2010PropOp49
 70
     1
102
RTVSPost2010Prop50
 90
       50
102
RTVSPost2010PropOp50
 70
     1
102
RTVSPost2010Prop51ColorIndex
 90
      256
102
RTVSPost2010Prop51ColorRGB
 90
-16777216
102
RTVSPost2010PropOp51
 70
     0
102
RTVSPost2010Prop52
140
1.0
102
RTVSPost2010PropOp52
 70
     0
102
RTVSPost2010Prop53
 90
        2
102
RTVSPost2010PropOp53
 70
     1
102
RTVSPost2010Prop54
  1
strokes_ogs.tif
102
RTVSPost2010PropOp54
 70
     1
102
RTVSPost2010Prop55
280
     0
102
RTVSPost2010PropOp55
 70
     1
102
RTVSPost2010Prop56
140
1.0
102
RTVSPost2010PropOp56
 70
     1
102
RTVSPost2010Prop57
140
1.0
102
RTVSPost2010PropOp57
 70
     1
  0
XRECORD
  5
85B
102
{ACAD_REACTORS
330
85A
102
}
330
85A
100
AcDbXrecord
280
     1
102
RTVSPost2010Prop28
280
     0
102
RTVSPost2010PropOp28
 70
     1
102
RTVSPost2010Prop29
280
     1
102
RTVSPost2010PropOp29
 70
     1
102
RTVSPost2010Prop30
280
     1
102
RTVSPost2010PropOp30
 70
     1
102
RTVSPost2010Prop31
280
     0
102
RTVSPost2010PropOp31
 70
     1
102
RTVSPost2010Prop32
280
     0
102
RTVSPost2010PropOp32
 70
     1
102
RTVSPost2010Prop33
280
     0
102
RTVSPost2010PropOp33
 70
     1
102
RTVSPost2010Prop34
280
     0
102
RTVSPost2010PropOp34
 70
     1
102
RTVSPost2010Prop35
280
     0
102
RTVSPost2010PropOp35
 70
     1
102
RTVSPost2010Prop36
280
     0
102
RTVSPost2010PropOp36
 70
     1
102
RTVSPost2010Prop37
 90
       50
102
RTVSPost2010PropOp37
 70
     1
102
RTVSPost2010Prop38
140
0.0
102
RTVSPost2010PropOp38
 70
     1
102
RTVSPost2010Prop39
140
1.0
102
RTVSPost2010PropOp39
 70
     1
102
RTVSPost2010Prop40
 90
        0
102
RTVSPost2010PropOp40
 70
     1
102
RTVSPost2010Prop41ColorIndex
 90
       18
102
RTVSPost2010Prop41ColorRGB
 90
        0
102
RTVSPost2010PropOp41
 70
     1
102
RTVSPost2010Prop42
 90
       50
102
RTVSPost2010PropOp42
 70
     1
102
RTVSPost2010Prop43
 90
        3
102
RTVSPost2010PropOp43
 70
     1
102
RTVSPost2010Prop44ColorIndex
 90
        5
102
RTVSPost2010Prop44ColorRGB
 90
      255
102
RTVSPost2010PropOp44
 70
     1
102
RTVSPost2010Prop45
280
     0
102
RTVSPost2010PropOp45
 70
     1
102
RTVSPost2010Prop46
 90
       50
102
RTVSPost2010PropOp46
 70
     1
102
RTVSPost2010Prop47
 90
       50
102
RTVSPost2010PropOp47
 70
     1
102
RTVSPost2010Prop48
 90
       50
102
RTVSPost2010PropOp48
 70
     1
102
RTVSPost2010Prop49
280
     0
102
RTVSPost2010PropOp49
 70
     1
102
RTVSPost2010Prop50
 90
       50
102
RTVSPost2010PropOp50
 70
     1
102
RTVSPost2010Prop51ColorIndex
 90
      256
102
RTVSPost2010Prop51ColorRGB
 90
-16777216
102
RTVSPost2010PropOp51
 70
     0
102
RTVSPost2010Prop52
140
1.0
102
RTVSPost2010PropOp52
 70
     0
102
RTVSPost2010Prop53
 90
        2
102
RTVSPost2010PropOp53
 70
     1
102
RTVSPost2010Prop54
  1
strokes_ogs.tif
102
RTVSPost2010PropOp54
 70
     1
102
RTVSPost2010Prop55
280
     0
102
RTVSPost2010PropOp55
 70
     1
102
RTVSPost2010Prop56
140
1.0
102
RTVSPost2010PropOp56
 70
     1
102
RTVSPost2010Prop57
140
1.0
102
RTVSPost2010PropOp57
 70
     1
  0
XRECORD
  5
84F
102
{ACAD_REACTORS
330
84E
102
}
330
84E
100
AcDbXrecord
280
     1
102
RTVSPost2010Prop28
280
     0
102
RTVSPost2010PropOp28
 70
     1
102
RTVSPost2010Prop29
280
     1
102
RTVSPost2010PropOp29
 70
     1
102
RTVSPost2010Prop30
280
     1
102
RTVSPost2010PropOp30
 70
     1
102
RTVSPost2010Prop31
280
     0
102
RTVSPost2010PropOp31
 70
     1
102
RTVSPost2010Prop32
280
     0
102
RTVSPost2010PropOp32
 70
     1
102
RTVSPost2010Prop33
280
     0
102
RTVSPost2010PropOp33
 70
     1
102
RTVSPost2010Prop34
280
     0
102
RTVSPost2010PropOp34
 70
     1
102
RTVSPost2010Prop35
280
     0
102
RTVSPost2010PropOp35
 70
     1
102
RTVSPost2010Prop36
280
     0
102
RTVSPost2010PropOp36
 70
     1
102
RTVSPost2010Prop37
 90
       50
102
RTVSPost2010PropOp37
 70
     1
102
RTVSPost2010Prop38
140
0.0
102
RTVSPost2010PropOp38
 70
     1
102
RTVSPost2010Prop39
140
1.0
102
RTVSPost2010PropOp39
 70
     1
102
RTVSPost2010Prop40
 90
        0
102
RTVSPost2010PropOp40
 70
     1
102
RTVSPost2010Prop41ColorIndex
 90
       18
102
RTVSPost2010Prop41ColorRGB
 90
        0
102
RTVSPost2010PropOp41
 70
     1
102
RTVSPost2010Prop42
 90
       50
102
RTVSPost2010PropOp42
 70
     1
102
RTVSPost2010Prop43
 90
        3
102
RTVSPost2010PropOp43
 70
     1
102
RTVSPost2010Prop44ColorIndex
 90
        5
102
RTVSPost2010Prop44ColorRGB
 90
      255
102
RTVSPost2010PropOp44
 70
     1
102
RTVSPost2010Prop45
280
     0
102
RTVSPost2010PropOp45
 70
     1
102
RTVSPost2010Prop46
 90
       50
102
RTVSPost2010PropOp46
 70
     1
102
RTVSPost2010Prop47
 90
       50
102
RTVSPost2010PropOp47
 70
     1
102
RTVSPost2010Prop48
 90
       50
102
RTVSPost2010PropOp48
 70
     1
102
RTVSPost2010Prop49
280
     0
102
RTVSPost2010PropOp49
 70
     1
102
RTVSPost2010Prop50
 90
       50
102
RTVSPost2010PropOp50
 70
     1
102
RTVSPost2010Prop51ColorIndex
 90
      256
102
RTVSPost2010Prop51ColorRGB
 90
-16777216
102
RTVSPost2010PropOp51
 70
     0
102
RTVSPost2010Prop52
140
1.0
102
RTVSPost2010PropOp52
 70
     0
102
RTVSPost2010Prop53
 90
        2
102
RTVSPost2010PropOp53
 70
     1
102
RTVSPost2010Prop54
  1
strokes_ogs.tif
102
RTVSPost2010PropOp54
 70
     1
102
RTVSPost2010Prop55
280
     0
102
RTVSPost2010PropOp55
 70
     1
102
RTVSPost2010Prop56
140
1.0
102
RTVSPost2010PropOp56
 70
     1
102
RTVSPost2010Prop57
140
1.0
102
RTVSPost2010PropOp57
 70
     1
  0
XRECORD
  5
867
102
{ACAD_REACTORS
330
866
102
}
330
866
100
AcDbXrecord
280
     1
102
RTVSPost2010Prop28
280
     0
102
RTVSPost2010PropOp28
 70
     1
102
RTVSPost2010Prop29
280
     1
102
RTVSPost2010PropOp29
 70
     1
102
RTVSPost2010Prop30
280
     1
102
RTVSPost2010PropOp30
 70
     1
102
RTVSPost2010Prop31
280
     0
102
RTVSPost2010PropOp31
 70
     1
102
RTVSPost2010Prop32
280
     0
102
RTVSPost2010PropOp32
 70
     1
102
RTVSPost2010Prop33
280
     0
102
RTVSPost2010PropOp33
 70
     1
102
RTVSPost2010Prop34
280
     0
102
RTVSPost2010PropOp34
 70
     1
102
RTVSPost2010Prop35
280
     0
102
RTVSPost2010PropOp35
 70
     1
102
RTVSPost2010Prop36
280
     0
102
RTVSPost2010PropOp36
 70
     1
102
RTVSPost2010Prop37
 90
       50
102
RTVSPost2010PropOp37
 70
     1
102
RTVSPost2010Prop38
140
0.0
102
RTVSPost2010PropOp38
 70
     1
102
RTVSPost2010Prop39
140
1.0
102
RTVSPost2010PropOp39
 70
     1
102
RTVSPost2010Prop40
 90
        0
102
RTVSPost2010PropOp40
 70
     1
102
RTVSPost2010Prop41ColorIndex
 90
       18
102
RTVSPost2010Prop41ColorRGB
 90
        0
102
RTVSPost2010PropOp41
 70
     1
102
RTVSPost2010Prop42
 90
       50
102
RTVSPost2010PropOp42
 70
     1
102
RTVSPost2010Prop43
 90
        3
102
RTVSPost2010PropOp43
 70
     1
102
RTVSPost2010Prop44ColorIndex
 90
        5
102
RTVSPost2010Prop44ColorRGB
 90
      255
102
RTVSPost2010PropOp44
 70
     1
102
RTVSPost2010Prop45
280
     0
102
RTVSPost2010PropOp45
 70
     1
102
RTVSPost2010Prop46
 90
       50
102
RTVSPost2010PropOp46
 70
     1
102
RTVSPost2010Prop47
 90
       50
102
RTVSPost2010PropOp47
 70
     1
102
RTVSPost2010Prop48
 90
       50
102
RTVSPost2010PropOp48
 70
     1
102
RTVSPost2010Prop49
280
     0
102
RTVSPost2010PropOp49
 70
     1
102
RTVSPost2010Prop50
 90
       50
102
RTVSPost2010PropOp50
 70
     1
102
RTVSPost2010Prop51ColorIndex
 90
      256
102
RTVSPost2010Prop51ColorRGB
 90
-16777216
102
RTVSPost2010PropOp51
 70
     0
102
RTVSPost2010Prop52
140
1.0
102
RTVSPost2010PropOp52
 70
     0
102
RTVSPost2010Prop53
 90
        2
102
RTVSPost2010PropOp53
 70
     1
102
RTVSPost2010Prop54
  1
strokes_ogs.tif
102
RTVSPost2010PropOp54
 70
     1
102
RTVSPost2010Prop55
280
     0
102
RTVSPost2010PropOp55
 70
     1
102
RTVSPost2010Prop56
140
1.0
102
RTVSPost2010PropOp56
 70
     1
102
RTVSPost2010Prop57
140
1.0
102
RTVSPost2010PropOp57
 70
     1
  0
ENDSEC
  0
EOF
