  0
SECTION
  2
HEADER
  9
$ACADVER
  1
AC1027
  9
$ACADMAINTVER
 70
   125
  9
$DWGCODEPAGE
  3
ANSI_1252
  9
$AUTHOR
  1
Peter Kaiser
  9
$CUSTOMPROPERTYTAG
  1
Manager
  9
$CUSTOMPROPERTY
  1

  9
$CUSTOMPROPERTYTAG
  1
Firma
  9
$CUSTOMPROPERTY
  1

  9
$CUSTOMPROPERTYTAG
  1
Kategorie
  9
$CUSTOMPROPERTY
  1

  9
$CUSTOMPROPERTYTAG
  1
Bauteilnummer
  9
$CUSTOMPROPERTY
  1
anvas01c
  9
$CUSTOMPROPERTYTAG
  1
Beschreibung
  9
$CUSTOMPROPERTY
  1

  9
$CUSTOMPROPERTYTAG
  1
Projekt
  9
$CUSTOMPROPERTY
  1

  9
$CUSTOMPROPERTYTAG
  1
Konstrukteur
  9
$CUSTOMPROPERTY
  1
Peter Kaiser
  9
$CUSTOMPROPERTYTAG
  1
Ingenieur
  9
$CUSTOMPROPERTY
  1

  9
$CUSTOMPROPERTYTAG
  1
Bevollmächtigter
  9
$CUSTOMPROPERTY
  1

  9
$CUSTOMPROPERTYTAG
  1
Kostenstelle
  9
$CUSTOMPROPERTY
  1

  9
$CUSTOMPROPERTYTAG
  1
Kosten
  9
$CUSTOMPROPERTY
  1

  9
$CUSTOMPROPERTYTAG
  1
Zulieferer
  9
$CUSTOMPROPERTY
  1

  9
$CUSTOMPROPERTYTAG
  1
Benutzerstatus
  9
$CUSTOMPROPERTY
  1

  9
$CUSTOMPROPERTYTAG
  1
Konstruktionsstatus
  9
$CUSTOMPROPERTY
  1
InBearbeitung
  9
$CUSTOMPROPERTYTAG
  1
Kontrolliert von
  9
$CUSTOMPROPERTY
  1

  9
$CUSTOMPROPERTYTAG
  1
Konstruktion genehmigt von
  9
$CUSTOMPROPERTY
  1

  9
$CUSTOMPROPERTYTAG
  1
Fertigung genehmigt von
  9
$CUSTOMPROPERTY
  1

  9
$CUSTOMPROPERTYTAG
  1
Erstellungsdatum
  9
$CUSTOMPROPERTY
  1
12/23/2010
  9
$CUSTOMPROPERTYTAG
  1
Bestandsnummer
  9
$CUSTOMPROPERTY
  1

  9
$REQUIREDVERSIONS
160
                 0
  9
$INSBASE
 10
0.0
 20
0.0
 30
0.0
  9
$EXTMIN
 10
0.0
 20
0.0
 30
0.0
  9
$EXTMAX
 10
210.0
 20
297.0
 30
0.0
  9
$LIMMIN
 10
0.0
 20
0.0
  9
$LIMMAX
 10
210.0
 20
297.0
  9
$ORTHOMODE
 70
     0
  9
$REGENMODE
 70
     1
  9
$FILLMODE
 70
     1
  9
$QTEXTMODE
 70
     0
  9
$MIRRTEXT
 70
     0
  9
$LTSCALE
 40
1.0
  9
$ATTMODE
 70
     1
  9
$TEXTSIZE
 40
0.2
  9
$TRACEWID
 40
0.05
  9
$TEXTSTYLE
  7
Standard
  9
$CLAYER
  8
0
  9
$CELTYPE
  6
ByLayer
  9
$CECOLOR
 62
   256
  9
$CELTSCALE
 40
1.0
  9
$DISPSILH
 70
     0
  9
$DIMSCALE
 40
1.0
  9
$DIMASZ
 40
0.18
  9
$DIMEXO
 40
0.0625
  9
$DIMDLI
 40
0.38
  9
$DIMRND
 40
0.0
  9
$DIMDLE
 40
0.0
  9
$DIMEXE
 40
0.18
  9
$DIMTP
 40
0.0
  9
$DIMTM
 40
0.0
  9
$DIMTXT
 40
0.18
  9
$DIMCEN
 40
0.09
  9
$DIMTSZ
 40
0.0
  9
$DIMTOL
 70
     0
  9
$DIMLIM
 70
     0
  9
$DIMTIH
 70
     1
  9
$DIMTOH
 70
     1
  9
$DIMSE1
 70
     0
  9
$DIMSE2
 70
     0
  9
$DIMTAD
 70
     0
  9
$DIMZIN
 70
     0
  9
$DIMBLK
  1

  9
$DIMASO
 70
     1
  9
$DIMSHO
 70
     1
  9
$DIMPOST
  1

  9
$DIMAPOST
  1

  9
$DIMALT
 70
     0
  9
$DIMALTD
 70
     2
  9
$DIMALTF
 40
25.4
  9
$DIMLFAC
 40
1.0
  9
$DIMTOFL
 70
     0
  9
$DIMTVP
 40
0.0
  9
$DIMTIX
 70
     0
  9
$DIMSOXD
 70
     0
  9
$DIMSAH
 70
     0
  9
$DIMBLK1
  1

  9
$DIMBLK2
  1

  9
$DIMSTYLE
  2
Standard
  9
$DIMCLRD
 70
     0
  9
$DIMCLRE
 70
     0
  9
$DIMCLRT
 70
     0
  9
$DIMTFAC
 40
1.0
  9
$DIMGAP
 40
0.09
  9
$DIMJUST
 70
     0
  9
$DIMSD1
 70
     0
  9
$DIMSD2
 70
     0
  9
$DIMTOLJ
 70
     1
  9
$DIMTZIN
 70
     0
  9
$DIMALTZ
 70
     0
  9
$DIMALTTZ
 70
     0
  9
$DIMUPT
 70
     0
  9
$DIMDEC
 70
     4
  9
$DIMTDEC
 70
     4
  9
$DIMALTU
 70
     2
  9
$DIMALTTD
 70
     2
  9
$DIMTXSTY
  7
Standard
  9
$DIMAUNIT
 70
     0
  9
$DIMADEC
 70
     0
  9
$DIMALTRND
 40
0.0
  9
$DIMAZIN
 70
     0
  9
$DIMDSEP
 70
    46
  9
$DIMATFIT
 70
     3
  9
$DIMFRAC
 70
     0
  9
$DIMLDRBLK
  1

  9
$DIMLUNIT
 70
     2
  9
$DIMLWD
 70
    -2
  9
$DIMLWE
 70
    -2
  9
$DIMTMOVE
 70
     0
  9
$DIMFXL
 40
1.0
  9
$DIMFXLON
 70
     0
  9
$DIMJOGANG
 40
0.7853981633974483
  9
$DIMTFILL
 70
     0
  9
$DIMTFILLCLR
 70
     0
  9
$DIMARCSYM
 70
     0
  9
$DIMLTYPE
  6

  9
$DIMLTEX1
  6

  9
$DIMLTEX2
  6

  9
$DIMTXTDIRECTION
 70
     0
  9
$LUNITS
 70
     2
  9
$LUPREC
 70
     4
  9
$SKETCHINC
 40
0.1
  9
$FILLETRAD
 40
0.0
  9
$AUNITS
 70
     0
  9
$AUPREC
 70
     0
  9
$MENU
  1
.
  9
$ELEVATION
 40
0.0
  9
$PELEVATION
 40
0.0
  9
$THICKNESS
 40
0.0
  9
$LIMCHECK
 70
     0
  9
$CHAMFERA
 40
0.0
  9
$CHAMFERB
 40
0.0
  9
$CHAMFERC
 40
0.0
  9
$CHAMFERD
 40
0.0
  9
$SKPOLY
 70
     0
  9
$TDCREATE
 40
2458277.372743056
  9
$TDUCREATE
 40
2458277.289409722
  9
$TDUPDATE
 40
2458277.372743056
  9
$TDUUPDATE
 40
2458277.289409722
  9
$TDINDWG
 40
0.0000347222
  9
$TDUSRTIMER
 40
0.0000347222
  9
$USRTIMER
 70
     1
  9
$ANGBASE
 50
0.0
  9
$ANGDIR
 70
     0
  9
$PDMODE
 70
     0
  9
$PDSIZE
 40
0.0
  9
$PLINEWID
 40
0.0
  9
$SPLFRAME
 70
     0
  9
$SPLINETYPE
 70
     6
  9
$SPLINESEGS
 70
     8
  9
$HANDSEED
  5
5DC
  9
$SURFTAB1
 70
     6
  9
$SURFTAB2
 70
     6
  9
$SURFTYPE
 70
     6
  9
$SURFU
 70
     6
  9
$SURFV
 70
     6
  9
$UCSBASE
  2

  9
$UCSNAME
  2

  9
$UCSORG
 10
0.0
 20
0.0
 30
0.0
  9
$UCSXDIR
 10
1.0
 20
0.0
 30
0.0
  9
$UCSYDIR
 10
0.0
 20
1.0
 30
0.0
  9
$UCSORTHOREF
  2

  9
$UCSORTHOVIEW
 70
     0
  9
$UCSORGTOP
 10
0.0
 20
0.0
 30
0.0
  9
$UCSORGBOTTOM
 10
0.0
 20
0.0
 30
0.0
  9
$UCSORGLEFT
 10
0.0
 20
0.0
 30
0.0
  9
$UCSORGRIGHT
 10
0.0
 20
0.0
 30
0.0
  9
$UCSORGFRONT
 10
0.0
 20
0.0
 30
0.0
  9
$UCSORGBACK
 10
0.0
 20
0.0
 30
0.0
  9
$PUCSBASE
  2

  9
$PUCSNAME
  2

  9
$PUCSORG
 10
0.0
 20
0.0
 30
0.0
  9
$PUCSXDIR
 10
1.0
 20
0.0
 30
0.0
  9
$PUCSYDIR
 10
0.0
 20
1.0
 30
0.0
  9
$PUCSORTHOREF
  2

  9
$PUCSORTHOVIEW
 70
     0
  9
$PUCSORGTOP
 10
0.0
 20
0.0
 30
0.0
  9
$PUCSORGBOTTOM
 10
0.0
 20
0.0
 30
0.0
  9
$PUCSORGLEFT
 10
0.0
 20
0.0
 30
0.0
  9
$PUCSORGRIGHT
 10
0.0
 20
0.0
 30
0.0
  9
$PUCSORGFRONT
 10
0.0
 20
0.0
 30
0.0
  9
$PUCSORGBACK
 10
0.0
 20
0.0
 30
0.0
  9
$USERI1
 70
     0
  9
$USERI2
 70
     0
  9
$USERI3
 70
     0
  9
$USERI4
 70
     0
  9
$USERI5
 70
     0
  9
$USERR1
 40
0.0
  9
$USERR2
 40
0.0
  9
$USERR3
 40
0.0
  9
$USERR4
 40
0.0
  9
$USERR5
 40
0.0
  9
$WORLDVIEW
 70
     1
  9
$SHADEDGE
 70
     3
  9
$SHADEDIF
 70
    70
  9
$TILEMODE
 70
     1
  9
$MAXACTVP
 70
    64
  9
$PINSBASE
 10
0.0
 20
0.0
 30
0.0
  9
$PLIMCHECK
 70
     0
  9
$PEXTMIN
 10
0.0
 20
0.0
 30
0.0
  9
$PEXTMAX
 10
210.0
 20
297.0
 30
0.0
  9
$PLIMMIN
 10
0.0
 20
0.0
  9
$PLIMMAX
 10
210.0
 20
297.0
  9
$UNITMODE
 70
     0
  9
$VISRETAIN
 70
     1
  9
$PLINEGEN
 70
     0
  9
$PSLTSCALE
 70
     1
  9
$TREEDEPTH
 70
  3020
  9
$CMLSTYLE
  2
Standard
  9
$CMLJUST
 70
     0
  9
$CMLSCALE
 40
1.0
  9
$PROXYGRAPHICS
 70
     1
  9
$MEASUREMENT
 70
     1
  9
$CELWEIGHT
370
    -1
  9
$ENDCAPS
280
     0
  9
$JOINSTYLE
280
     0
  9
$LWDISPLAY
290
     0
  9
$INSUNITS
 70
     4
  9
$HYPERLINKBASE
  1

  9
$STYLESHEET
  1

  9
$XEDIT
290
     1
  9
$CEPSNTYPE
380
     0
  9
$PSTYLEMODE
290
     1
  9
$FINGERPRINTGUID
  2
{D0C0FDD4-6072-C448-B036-785D9DEEAA38}
  9
$VERSIONGUID
  2
{4F304A86-6633-574C-9B50-9C1F78881E13}
  9
$EXTNAMES
290
     1
  9
$PSVPSCALE
 40
0.0
  9
$OLESTARTUP
290
     0
  9
$SORTENTS
280
   127
  9
$INDEXCTL
280
     0
  9
$HIDETEXT
280
     1
  9
$XCLIPFRAME
280
     2
  9
$HALOGAP
280
     0
  9
$OBSCOLOR
 70
   257
  9
$OBSLTYPE
280
     0
  9
$INTERSECTIONDISPLAY
280
     0
  9
$INTERSECTIONCOLOR
 70
   257
  9
$DIMASSOC
280
     1
  9
$PROJECTNAME
  1

  9
$CAMERADISPLAY
290
     0
  9
$LENSLENGTH
 40
50.0
  9
$CAMERAHEIGHT
 40
0.0
  9
$STEPSPERSEC
 40
2.0
  9
$STEPSIZE
 40
6.0
  9
$3DDWFPREC
 40
2.0
  9
$PSOLWIDTH
 40
0.25
  9
$PSOLHEIGHT
 40
4.0
  9
$LOFTANG1
 40
1.570796326794896
  9
$LOFTANG2
 40
1.570796326794896
  9
$LOFTMAG1
 40
0.0
  9
$LOFTMAG2
 40
0.0
  9
$LOFTPARAM
 70
     7
  9
$LOFTNORMALS
280
     1
  9
$LATITUDE
 40
37.795
  9
$LONGITUDE
 40
-122.394
  9
$NORTHDIRECTION
 40
0.0
  9
$TIMEZONE
 70
 -8000
  9
$LIGHTGLYPHDISPLAY
280
     1
  9
$TILEMODELIGHTSYNCH
280
     1
  9
$CMATERIAL
347
11
  9
$SOLIDHIST
280
     0
  9
$SHOWHIST
280
     1
  9
$DWFFRAME
280
     2
  9
$DGNFRAME
280
     0
  9
$REALWORLDSCALE
290
     1
  9
$INTERFERECOLOR
 62
     1
  9
$INTERFEREOBJVS
345
33
  9
$INTERFEREVPVS
346
30
  9
$CSHADOW
280
     0
  9
$SHADOWPLANELOCATION
 40
0.0
  0
ENDSEC
  0
SECTION
  2
CLASSES
  0
CLASS
  1
ACDBDICTIONARYWDFLT
  2
AcDbDictionaryWithDefault
  3
ObjectDBX Classes
 90
        0
 91
        1
280
     0
281
     0
  0
CLASS
  1
MATERIAL
  2
AcDbMaterial
  3
ObjectDBX Classes
 90
     1153
 91
        3
280
     0
281
     0
  0
CLASS
  1
VISUALSTYLE
  2
AcDbVisualStyle
  3
ObjectDBX Classes
 90
     4095
 91
       24
280
     0
281
     0
  0
CLASS
  1
SCALE
  2
AcDbScale
  3
ObjectDBX Classes
 90
     1153
 91
       17
280
     0
281
     0
  0
CLASS
  1
TABLESTYLE
  2
AcDbTableStyle
  3
ObjectDBX Classes
 90
     4095
 91
        1
280
     0
281
     0
  0
CLASS
  1
MLEADERSTYLE
  2
AcDbMLeaderStyle
  3
ACDB_MLEADERSTYLE_CLASS
 90
     4095
 91
        1
280
     0
281
     0
  0
CLASS
  1
ACDBSECTIONVIEWSTYLE
  2
AcDbSectionViewStyle
  3
ObjectDBX Classes
 90
     1025
 91
        1
280
     0
281
     0
  0
CLASS
  1
ACDBDETAILVIEWSTYLE
  2
AcDbDetailViewStyle
  3
ObjectDBX Classes
 90
     1025
 91
        1
280
     0
281
     0
  0
CLASS
  1
DICTIONARYVAR
  2
AcDbDictionaryVar
  3
ObjectDBX Classes
 90
        0
 91
        5
280
     0
281
     0
  0
CLASS
  1
CELLSTYLEMAP
  2
AcDbCellStyleMap
  3
ObjectDBX Classes
 90
     1152
 91
        1
280
     0
281
     0
  0
ENDSEC
  0
SECTION
  2
TABLES
  0
TABLE
  2
VPORT
  5
8
330
0
100
AcDbSymbolTable
 70
     1
1001
ACAD
1000
DbSaveVer
1071
       56
  0
VPORT
  5
57
330
8
100
AcDbSymbolTableRecord
100
AcDbViewportTableRecord
  2
*Active
 70
     0
 10
0.0
 20
0.0
 11
1.0
 21
1.0
 12
105.0
 22
148.5
 13
0.0
 23
0.0
 14
1.0
 24
1.0
 15
0.0
 25
0.0
 16
0.0
 26
0.0
 36
1.0
 17
0.0
 27
0.0
 37
0.0
 40
297.0
 41
0.7070707070707071
 42
50.0
 43
0.0
 44
0.0
 50
0.0
 51
0.0
 71
     0
 72
   100
 73
     1
 74
     1
 75
     0
 76
     0
 77
     0
 78
     0
281
     0
 65
     1
110
0.0
120
0.0
130
0.0
111
1.0
121
0.0
131
0.0
112
0.0
122
1.0
132
0.0
 79
     0
146
0.0
 60
     3
 61
     5
292
     1
282
     1
141
0.0
142
0.0
 63
   250
421
  3355443
  0
ENDTAB
  0
TABLE
  2
LTYPE
  5
5
330
0
100
AcDbSymbolTable
 70
    59
  0
LTYPE
  5
5B
330
5
100
AcDbSymbolTableRecord
100
AcDbLinetypeTableRecord
  2
ByBlock
 70
     0
  3

 72
    65
 73
     0
 40
0.0
  0
LTYPE
  5
5C
330
5
100
AcDbSymbolTableRecord
100
AcDbLinetypeTableRecord
  2
ByLayer
 70
     0
  3

 72
    65
 73
     0
 40
0.0
  0
LTYPE
  5
5D
330
5
100
AcDbSymbolTableRecord
100
AcDbLinetypeTableRecord
  2
Continuous
 70
     0
  3
Solid line
 72
    65
 73
     0
 40
0.0
  0
LTYPE
  5
78
330
5
100
AcDbSymbolTableRecord
100
AcDbLinetypeTableRecord
  2
Section_View_Lines
 70
     0
  3
Section View Lines
 72
    65
 73
     4
 40
0.8406
 49
0.6614
 74
     0
 49
-0.0827
 74
     0
 49
0.0138
 74
     0
 49
-0.0827
 74
     0
  0
LTYPE
  5
79
330
5
100
AcDbSymbolTableRecord
100
AcDbLinetypeTableRecord
  2
CHAIN
 70
     0
  3
Chain ____ _ ____ _ ____ _ ____ _ ____ _ ____
 72
    65
 73
     4
 40
0.3543
 49
0.2362
 74
     0
 49
-0.0295
 74
     0
 49
0.0591
 74
     0
 49
-0.0295
 74
     0
  0
LTYPE
  5
7A
330
5
100
AcDbSymbolTableRecord
100
AcDbLinetypeTableRecord
  2
DASH_DOT
 70
     0
  3
Dash dot _._._._._._._._._._._._._._._.
 72
    65
 73
     4
 40
0.37
 49
0.24
 74
     0
 49
-0.06
 74
     0
 49
0.01
 74
     0
 49
-0.06
 74
     0
  0
LTYPE
  5
7B
330
5
100
AcDbSymbolTableRecord
100
AcDbLinetypeTableRecord
  2
DASH_DOUBLE_DOT
 70
     0
  3
Dash Double Dot __ __ . __ __ . __ __ . __ _
 72
    65
 73
     6
 40
0.4398
 49
0.24
 74
     0
 49
-0.06
 74
     0
 49
0.0098
 74
     0
 49
-0.06
 74
     0
 49
0.01
 74
     0
 49
-0.06
 74
     0
  0
LTYPE
  5
7C
330
5
100
AcDbSymbolTableRecord
100
AcDbLinetypeTableRecord
  2
DASH_TRIPLE_DOT
 70
     0
  3
Dash Triple-Dot _ . . . _ . . . _ . . . _
 72
    65
 73
     8
 40
0.51
 49
0.24
 74
     0
 49
-0.06
 74
     0
 49
0.01
 74
     0
 49
-0.06
 74
     0
 49
0.01
 74
     0
 49
-0.06
 74
     0
 49
0.01
 74
     0
 49
-0.06
 74
     0
  0
LTYPE
  5
7D
330
5
100
AcDbSymbolTableRecord
100
AcDbLinetypeTableRecord
  2
DASHED
 70
     0
  3
Dashed __ __ __ __ __ __ __ __ __ __ __ __ __ _
 72
    65
 73
     2
 40
0.2067
 49
0.1654
 74
     0
 49
-0.0413
 74
     0
  0
LTYPE
  5
7E
330
5
100
AcDbSymbolTableRecord
100
AcDbLinetypeTableRecord
  2
DASHED_SPACE
 70
     0
  3
Dashed Space _._._._._._._._._._._._._._._.
 72
    65
 73
     2
 40
0.2067
 49
0.1654
 74
     0
 49
-0.0413
 74
     0
  0
LTYPE
  5
7F
330
5
100
AcDbSymbolTableRecord
100
AcDbLinetypeTableRecord
  2
DOTTED
 70
     0
  3
Dotted . . . . . . . . . . . . . . . . . . . . 
 72
    65
 73
     2
 40
0.0482
 49
0.0069
 74
     0
 49
-0.0413
 74
     0
  0
LTYPE
  5
80
330
5
100
AcDbSymbolTableRecord
100
AcDbLinetypeTableRecord
  2
DOUBLE_DASH_CHAIN
 70
     0
  3
Double Dash Chain ___ _ _ ___ _ _ ___ _ _ ___ _
 72
    65
 73
     6
 40
1.240299999999999
 49
0.6614
 74
     0
 49
-0.0827
 74
     0
 49
0.1654
 74
     0
 49
-0.0827
 74
     0
 49
0.1654
 74
     0
 49
-0.0827
 74
     0
  0
LTYPE
  5
81
330
5
100
AcDbSymbolTableRecord
100
AcDbLinetypeTableRecord
  2
DOUBLE_DASH_DOT
 70
     0
  3
Double Dash Dot __ __ . __ __ . __ __ . __ _
 72
    65
 73
     6
 40
0.67
 49
0.24
 74
     0
 49
-0.06
 74
     0
 49
0.24
 74
     0
 49
-0.06
 74
     0
 49
0.01
 74
     0
 49
-0.06
 74
     0
  0
LTYPE
  5
82
330
5
100
AcDbSymbolTableRecord
100
AcDbLinetypeTableRecord
  2
DOUBLE_DASH_DOUBLE_DOT
 70
     0
  3
Double-dash double-dot _ _ . . _ _ . . _
 72
    65
 73
     8
 40
0.7400000000000001
 49
0.24
 74
     0
 49
-0.06
 74
     0
 49
0.24
 74
     0
 49
-0.06
 74
     0
 49
0.01
 74
     0
 49
-0.06
 74
     0
 49
0.01
 74
     0
 49
-0.06
 74
     0
  0
LTYPE
  5
83
330
5
100
AcDbSymbolTableRecord
100
AcDbLinetypeTableRecord
  2
DOUBLE_DASH_TRIPLE_DOT
 70
     0
  3
Double Dash Triple Dot __ __ . . . __ __ . . .
 72
    65
 73
    10
 40
0.8100000000000001
 49
0.24
 74
     0
 49
-0.06
 74
     0
 49
0.24
 74
     0
 49
-0.06
 74
     0
 49
0.01
 74
     0
 49
-0.06
 74
     0
 49
0.01
 74
     0
 49
-0.06
 74
     0
 49
0.01
 74
     0
 49
-0.06
 74
     0
  0
LTYPE
  5
84
330
5
100
AcDbSymbolTableRecord
100
AcDbLinetypeTableRecord
  2
LONG_DASH_DOTTED
 70
     0
  3
Long-Dash Dot ____ . ____ . ____ . ____ . _
 72
    65
 73
     4
 40
0.3001
 49
0.2362
 74
     0
 49
-0.0295
 74
     0
 49
0.0049
 74
     0
 49
-0.0295
 74
     0
  0
LTYPE
  5
85
330
5
100
AcDbSymbolTableRecord
100
AcDbLinetypeTableRecord
  2
LONG_DASH_DOUBLE_DOT
 70
     0
  3
Long Dash Double Dot ____ . . ____ . . ____ . .
 72
    65
 73
     6
 40
0.3345
 49
0.2362
 74
     0
 49
-0.0295
 74
     0
 49
0.0049
 74
     0
 49
-0.0295
 74
     0
 49
0.0049
 74
     0
 49
-0.0295
 74
     0
  0
LTYPE
  5
86
330
5
100
AcDbSymbolTableRecord
100
AcDbLinetypeTableRecord
  2
LONG_DASH_TRIPLE_DOT
 70
     0
  3
Long Dash Triple Dot ____ ... ____ ... ____
 72
    65
 73
     8
 40
0.75
 49
0.48
 74
     0
 49
-0.06
 74
     0
 49
0.01
 74
     0
 49
-0.06
 74
     0
 49
0.01
 74
     0
 49
-0.06
 74
     0
 49
0.01
 74
     0
 49
-0.06
 74
     0
  0
LTYPE
  5
87
330
5
100
AcDbSymbolTableRecord
100
AcDbLinetypeTableRecord
  2
BORDER
 70
     0
  3
Border __ __ . __ __ . __ __ . __ __ . __ __ .
 72
    65
 73
     6
 40
44.45
 49
12.7
 74
     0
 49
-6.349999999999999
 74
     0
 49
12.7
 74
     0
 49
-6.349999999999999
 74
     0
 49
0.0
 74
     0
 49
-6.349999999999999
 74
     0
  0
LTYPE
  5
88
330
5
100
AcDbSymbolTableRecord
100
AcDbLinetypeTableRecord
  2
BORDER2
 70
     0
  3
Border (.5x) __.__.__.__.__.__.__.__.__.__.__.
 72
    65
 73
     6
 40
22.225
 49
6.349999999999999
 74
     0
 49
-3.174999999999999
 74
     0
 49
6.349999999999999
 74
     0
 49
-3.174999999999999
 74
     0
 49
0.0
 74
     0
 49
-3.174999999999999
 74
     0
  0
LTYPE
  5
89
330
5
100
AcDbSymbolTableRecord
100
AcDbLinetypeTableRecord
  2
BORDERX2
 70
     0
  3
Border (2x) ____  ____  .  ____  ____  .  ___
 72
    65
 73
     6
 40
88.9
 49
25.4
 74
     0
 49
-12.7
 74
     0
 49
25.4
 74
     0
 49
-12.7
 74
     0
 49
0.0
 74
     0
 49
-12.7
 74
     0
  0
LTYPE
  5
8A
330
5
100
AcDbSymbolTableRecord
100
AcDbLinetypeTableRecord
  2
CENTER
 70
     0
  3
Center ____ _ ____ _ ____ _ ____ _ ____ _ ____
 72
    65
 73
     4
 40
50.8
 49
31.75
 74
     0
 49
-6.349999999999999
 74
     0
 49
6.349999999999999
 74
     0
 49
-6.349999999999999
 74
     0
  0
LTYPE
  5
8B
330
5
100
AcDbSymbolTableRecord
100
AcDbLinetypeTableRecord
  2
CENTER2
 70
     0
  3
Center (.5x) ___ _ ___ _ ___ _ ___ _ ___ _ ___
 72
    65
 73
     4
 40
28.575
 49
19.05
 74
     0
 49
-3.174999999999999
 74
     0
 49
3.174999999999999
 74
     0
 49
-3.174999999999999
 74
     0
  0
LTYPE
  5
8C
330
5
100
AcDbSymbolTableRecord
100
AcDbLinetypeTableRecord
  2
CENTERX2
 70
     0
  3
Center (2x) ________  __  ________  __  _____
 72
    65
 73
     4
 40
101.6
 49
63.5
 74
     0
 49
-12.7
 74
     0
 49
12.7
 74
     0
 49
-12.7
 74
     0
  0
LTYPE
  5
8D
330
5
100
AcDbSymbolTableRecord
100
AcDbLinetypeTableRecord
  2
DASHDOT2
 70
     0
  3
Dash dot (.5x) _._._._._._._._._._._._._._._.
 72
    65
 73
     4
 40
12.7
 49
6.349999999999999
 74
     0
 49
-3.174999999999999
 74
     0
 49
0.0
 74
     0
 49
-3.174999999999999
 74
     0
  0
LTYPE
  5
8E
330
5
100
AcDbSymbolTableRecord
100
AcDbLinetypeTableRecord
  2
DASHDOTX2
 70
     0
  3
Dash dot (2x) ____  .  ____  .  ____  .  ___
 72
    65
 73
     4
 40
50.8
 49
25.4
 74
     0
 49
-12.7
 74
     0
 49
0.0
 74
     0
 49
-12.7
 74
     0
  0
LTYPE
  5
8F
330
5
100
AcDbSymbolTableRecord
100
AcDbLinetypeTableRecord
  2
DASHED2
 70
     0
  3
Dashed (.5x) _ _ _ _ _ _ _ _ _ _ _ _ _ _ _ _ _
 72
    65
 73
     2
 40
9.524999999999998
 49
6.349999999999999
 74
     0
 49
-3.174999999999999
 74
     0
  0
LTYPE
  5
90
330
5
100
AcDbSymbolTableRecord
100
AcDbLinetypeTableRecord
  2
DASHEDX2
 70
     0
  3
Dashed (2x) ____  ____  ____  ____  ____  ___
 72
    65
 73
     2
 40
38.1
 49
25.4
 74
     0
 49
-12.7
 74
     0
  0
LTYPE
  5
91
330
5
100
AcDbSymbolTableRecord
100
AcDbLinetypeTableRecord
  2
DIVIDE
 70
     0
  3
Divide ____ . . ____ . . ____ . . ____ . . ____
 72
    65
 73
     6
 40
31.75
 49
12.7
 74
     0
 49
-6.349999999999999
 74
     0
 49
0.0
 74
     0
 49
-6.349999999999999
 74
     0
 49
0.0
 74
     0
 49
-6.349999999999999
 74
     0
  0
LTYPE
  5
92
330
5
100
AcDbSymbolTableRecord
100
AcDbLinetypeTableRecord
  2
DIVIDE2
 70
     0
  3
Divide (.5x) __..__..__..__..__..__..__..__.._
 72
    65
 73
     6
 40
15.875
 49
6.349999999999999
 74
     0
 49
-3.174999999999999
 74
     0
 49
0.0
 74
     0
 49
-3.174999999999999
 74
     0
 49
0.0
 74
     0
 49
-3.174999999999999
 74
     0
  0
LTYPE
  5
93
330
5
100
AcDbSymbolTableRecord
100
AcDbLinetypeTableRecord
  2
DIVIDEX2
 70
     0
  3
Divide (2x) ________  .  .  ________  .  .  _
 72
    65
 73
     6
 40
63.49999999999999
 49
25.4
 74
     0
 49
-12.7
 74
     0
 49
0.0
 74
     0
 49
-12.7
 74
     0
 49
0.0
 74
     0
 49
-12.7
 74
     0
  0
LTYPE
  5
94
330
5
100
AcDbSymbolTableRecord
100
AcDbLinetypeTableRecord
  2
DOT
 70
     0
  3
Dot . . . . . . . . . . . . . . . . . . . . . .
 72
    65
 73
     2
 40
6.349999999999999
 49
0.0
 74
     0
 49
-6.349999999999999
 74
     0
  0
LTYPE
  5
95
330
5
100
AcDbSymbolTableRecord
100
AcDbLinetypeTableRecord
  2
DOT2
 70
     0
  3
Dot (.5x) .....................................
 72
    65
 73
     2
 40
3.174999999999999
 49
0.0
 74
     0
 49
-3.174999999999999
 74
     0
  0
LTYPE
  5
96
330
5
100
AcDbSymbolTableRecord
100
AcDbLinetypeTableRecord
  2
DOTX2
 70
     0
  3
Dot (2x) .  .  .  .  .  .  .  .  .  .  .  .  . 
 72
    65
 73
     2
 40
12.7
 49
0.0
 74
     0
 49
-12.7
 74
     0
  0
LTYPE
  5
97
330
5
100
AcDbSymbolTableRecord
100
AcDbLinetypeTableRecord
  2
HIDDEN
 70
     0
  3
Hidden __ __ __ __ __ __ __ __ __ __ __ __ __ _
 72
    65
 73
     2
 40
9.524999999999998
 49
6.349999999999999
 74
     0
 49
-3.174999999999999
 74
     0
  0
LTYPE
  5
98
330
5
100
AcDbSymbolTableRecord
100
AcDbLinetypeTableRecord
  2
HIDDEN2
 70
     0
  3
Hidden (.5x) _ _ _ _ _ _ _ _ _ _ _ _ _ _ _ _ _
 72
    65
 73
     2
 40
4.762499999999999
 49
3.174999999999999
 74
     0
 49
-1.587499999999999
 74
     0
  0
LTYPE
  5
99
330
5
100
AcDbSymbolTableRecord
100
AcDbLinetypeTableRecord
  2
HIDDENX2
 70
     0
  3
Hidden (2x) ____ ____ ____ ____ ____ ____ ____
 72
    65
 73
     2
 40
19.05
 49
12.7
 74
     0
 49
-6.349999999999999
 74
     0
  0
LTYPE
  5
9A
330
5
100
AcDbSymbolTableRecord
100
AcDbLinetypeTableRecord
  2
PHANTOM
 70
     0
  3
Phantom ______  __  __  ______  __  __  ______
 72
    65
 73
     6
 40
63.5
 49
31.75
 74
     0
 49
-6.349999999999999
 74
     0
 49
6.349999999999999
 74
     0
 49
-6.349999999999999
 74
     0
 49
6.349999999999999
 74
     0
 49
-6.349999999999999
 74
     0
  0
LTYPE
  5
9B
330
5
100
AcDbSymbolTableRecord
100
AcDbLinetypeTableRecord
  2
PHANTOM2
 70
     0
  3
Phantom (.5x) ___ _ _ ___ _ _ ___ _ _ ___ _ _
 72
    65
 73
     6
 40
31.75
 49
15.875
 74
     0
 49
-3.174999999999999
 74
     0
 49
3.174999999999999
 74
     0
 49
-3.174999999999999
 74
     0
 49
3.174999999999999
 74
     0
 49
-3.174999999999999
 74
     0
  0
LTYPE
  5
9C
330
5
100
AcDbSymbolTableRecord
100
AcDbLinetypeTableRecord
  2
PHANTOMX2
 70
     0
  3
Phantom (2x) ____________    ____    ____   _
 72
    65
 73
     6
 40
127.0
 49
63.5
 74
     0
 49
-12.7
 74
     0
 49
12.7
 74
     0
 49
-12.7
 74
     0
 49
12.7
 74
     0
 49
-12.7
 74
     0
  0
LTYPE
  5
9D
330
5
100
AcDbSymbolTableRecord
100
AcDbLinetypeTableRecord
  2
ACAD_ISO02W100
 70
     0
  3
ISO dash __ __ __ __ __ __ __ __ __ __ __ __ __
 72
    65
 73
     2
 40
15.0
 49
12.0
 74
     0
 49
-3.0
 74
     0
  0
LTYPE
  5
9E
330
5
100
AcDbSymbolTableRecord
100
AcDbLinetypeTableRecord
  2
ACAD_ISO03W100
 70
     0
  3
ISO dash space __    __    __    __    __    __
 72
    65
 73
     2
 40
30.0
 49
12.0
 74
     0
 49
-18.0
 74
     0
  0
LTYPE
  5
9F
330
5
100
AcDbSymbolTableRecord
100
AcDbLinetypeTableRecord
  2
ACAD_ISO04W100
 70
     0
  3
ISO long-dash dot ____ . ____ . ____ . ____ . _
 72
    65
 73
     4
 40
30.0
 49
24.0
 74
     0
 49
-3.0
 74
     0
 49
0.0
 74
     0
 49
-3.0
 74
     0
  0
LTYPE
  5
A0
330
5
100
AcDbSymbolTableRecord
100
AcDbLinetypeTableRecord
  2
ACAD_ISO05W100
 70
     0
  3
ISO long-dash double-dot ____ .. ____ .. ____ .
 72
    65
 73
     6
 40
33.0
 49
24.0
 74
     0
 49
-3.0
 74
     0
 49
0.0
 74
     0
 49
-3.0
 74
     0
 49
0.0
 74
     0
 49
-3.0
 74
     0
  0
LTYPE
  5
A1
330
5
100
AcDbSymbolTableRecord
100
AcDbLinetypeTableRecord
  2
ACAD_ISO06W100
 70
     0
  3
ISO long-dash triple-dot ____ ... ____ ... ____
 72
    65
 73
     8
 40
36.0
 49
24.0
 74
     0
 49
-3.0
 74
     0
 49
0.0
 74
     0
 49
-3.0
 74
     0
 49
0.0
 74
     0
 49
-3.0
 74
     0
 49
0.0
 74
     0
 49
-3.0
 74
     0
  0
LTYPE
  5
A2
330
5
100
AcDbSymbolTableRecord
100
AcDbLinetypeTableRecord
  2
ACAD_ISO07W100
 70
     0
  3
ISO dot . . . . . . . . . . . . . . . . . . . .
 72
    65
 73
     2
 40
3.0
 49
0.0
 74
     0
 49
-3.0
 74
     0
  0
LTYPE
  5
A3
330
5
100
AcDbSymbolTableRecord
100
AcDbLinetypeTableRecord
  2
ACAD_ISO08W100
 70
     0
  3
ISO long-dash short-dash ____ __ ____ __ ____ _
 72
    65
 73
     4
 40
36.0
 49
24.0
 74
     0
 49
-3.0
 74
     0
 49
6.0
 74
     0
 49
-3.0
 74
     0
  0
LTYPE
  5
A4
330
5
100
AcDbSymbolTableRecord
100
AcDbLinetypeTableRecord
  2
ACAD_ISO09W100
 70
     0
  3
ISO long-dash double-short-dash ____ __ __ ____
 72
    65
 73
     6
 40
45.0
 49
24.0
 74
     0
 49
-3.0
 74
     0
 49
6.0
 74
     0
 49
-3.0
 74
     0
 49
6.0
 74
     0
 49
-3.0
 74
     0
  0
LTYPE
  5
A5
330
5
100
AcDbSymbolTableRecord
100
AcDbLinetypeTableRecord
  2
ACAD_ISO10W100
 70
     0
  3
ISO dash dot __ . __ . __ . __ . __ . __ . __ .
 72
    65
 73
     4
 40
18.0
 49
12.0
 74
     0
 49
-3.0
 74
     0
 49
0.0
 74
     0
 49
-3.0
 74
     0
  0
LTYPE
  5
A6
330
5
100
AcDbSymbolTableRecord
100
AcDbLinetypeTableRecord
  2
ACAD_ISO11W100
 70
     0
  3
ISO double-dash dot __ __ . __ __ . __ __ . __ 
 72
    65
 73
     6
 40
33.0
 49
12.0
 74
     0
 49
-3.0
 74
     0
 49
12.0
 74
     0
 49
-3.0
 74
     0
 49
0.0
 74
     0
 49
-3.0
 74
     0
  0
LTYPE
  5
A7
330
5
100
AcDbSymbolTableRecord
100
AcDbLinetypeTableRecord
  2
ACAD_ISO12W100
 70
     0
  3
ISO dash double-dot __ . . __ . . __ . . __ . .
 72
    65
 73
     6
 40
21.0
 49
12.0
 74
     0
 49
-3.0
 74
     0
 49
0.0
 74
     0
 49
-3.0
 74
     0
 49
0.0
 74
     0
 49
-3.0
 74
     0
  0
LTYPE
  5
A8
330
5
100
AcDbSymbolTableRecord
100
AcDbLinetypeTableRecord
  2
ACAD_ISO13W100
 70
     0
  3
ISO double-dash double-dot __ __ . . __ __ . . 
 72
    65
 73
     8
 40
36.0
 49
12.0
 74
     0
 49
-3.0
 74
     0
 49
12.0
 74
     0
 49
-3.0
 74
     0
 49
0.0
 74
     0
 49
-3.0
 74
     0
 49
0.0
 74
     0
 49
-3.0
 74
     0
  0
LTYPE
  5
A9
330
5
100
AcDbSymbolTableRecord
100
AcDbLinetypeTableRecord
  2
ACAD_ISO14W100
 70
     0
  3
ISO dash triple-dot __ . . . __ . . . __ . . . 
 72
    65
 73
     8
 40
24.0
 49
12.0
 74
     0
 49
-3.0
 74
     0
 49
0.0
 74
     0
 49
-3.0
 74
     0
 49
0.0
 74
     0
 49
-3.0
 74
     0
 49
0.0
 74
     0
 49
-3.0
 74
     0
  0
LTYPE
  5
AA
330
5
100
AcDbSymbolTableRecord
100
AcDbLinetypeTableRecord
  2
ACAD_ISO15W100
 70
     0
  3
ISO double-dash triple-dot __ __ . . . __ __ . 
 72
    65
 73
    10
 40
39.0
 49
12.0
 74
     0
 49
-3.0
 74
     0
 49
12.0
 74
     0
 49
-3.0
 74
     0
 49
0.0
 74
     0
 49
-3.0
 74
     0
 49
0.0
 74
     0
 49
-3.0
 74
     0
 49
0.0
 74
     0
 49
-3.0
 74
     0
  0
LTYPE
  5
AD
330
5
100
AcDbSymbolTableRecord
100
AcDbLinetypeTableRecord
  2
FENCELINE1
 70
     0
  3
Fenceline circle ----0-----0----0-----0----0---
 72
    65
 73
     4
 40
36.83
 49
6.349999999999999
 74
     0
 49
-2.54
 74
     4
 75
   133
340
AC
 46
2.54
 50
0.0
 44
-2.54
 45
0.0
 49
-2.54
 74
     0
 49
25.4
 74
     0
  0
LTYPE
  5
AE
330
5
100
AcDbSymbolTableRecord
100
AcDbLinetypeTableRecord
  2
FENCELINE2
 70
     0
  3
Fenceline square ----[]-----[]----[]-----[]----
 72
    65
 73
     4
 40
36.83
 49
6.349999999999999
 74
     0
 49
-2.54
 74
     4
 75
   132
340
AC
 46
2.54
 50
0.0
 44
-2.54
 45
0.0
 49
-2.54
 74
     0
 49
25.4
 74
     0
  0
LTYPE
  5
AF
330
5
100
AcDbSymbolTableRecord
100
AcDbLinetypeTableRecord
  2
TRACKS
 70
     0
  3
Tracks -|-|-|-|-|-|-|-|-|-|-|-|-|-|-|-|-|-|-|-|
 72
    65
 73
     2
 40
7.62
 49
3.81
 74
     4
 75
   130
340
AC
 46
6.349999999999999
 50
0.0
 44
0.0
 45
0.0
 49
3.81
 74
     0
  0
LTYPE
  5
B0
330
5
100
AcDbSymbolTableRecord
100
AcDbLinetypeTableRecord
  2
BATTING
 70
     0
  3
Batting SSSSSSSSSSSSSSSSSSSSSSSSSSSSSSSSSSSSSSS
 72
    65
 73
     4
 40
10.16254
 49
0.00254
 74
     0
 49
-2.54
 74
     4
 75
   134
340
AC
 46
2.54
 50
0.0
 44
-2.54
 45
0.0
 49
-5.08
 74
     4
 75
   134
340
AC
 46
2.54
 50
180.0
 44
2.54
 45
0.0
 49
-2.54
 74
     0
  0
LTYPE
  5
B1
330
5
100
AcDbSymbolTableRecord
100
AcDbLinetypeTableRecord
  2
HOT_WATER_SUPPLY
 70
     0
  3
Hot water supply ---- HW ---- HW ---- HW ----
 72
    65
 73
     3
 40
22.86
 49
12.7
 74
     0
 49
-5.08
 74
     2
 75
     0
340
55
 46
2.54
 50
0.0
 44
-2.54
 45
-1.27
  9
HW
 49
-5.08
 74
     0
  0
LTYPE
  5
B2
330
5
100
AcDbSymbolTableRecord
100
AcDbLinetypeTableRecord
  2
GAS_LINE
 70
     0
  3
Gas line ----GAS----GAS----GAS----GAS----GAS---
 72
    65
 73
     3
 40
24.13
 49
12.7
 74
     0
 49
-5.08
 74
     2
 75
     0
340
55
 46
2.54
 50
0.0
 44
-2.54
 45
-1.27
  9
GAS
 49
-6.349999999999999
 74
     0
  0
LTYPE
  5
B3
330
5
100
AcDbSymbolTableRecord
100
AcDbLinetypeTableRecord
  2
ZIGZAG
 70
     0
  3
Zig zag /\/\/\/\/\/\/\/\/\/\/\/\/\/\/\/\/\/\/\/
 72
    65
 73
     4
 40
20.32254
 49
0.00254
 74
     0
 49
-5.08
 74
     4
 75
   131
340
AC
 46
5.08
 50
0.0
 44
-5.08
 45
0.0
 49
-10.16
 74
     4
 75
   131
340
AC
 46
5.08
 50
180.0
 44
5.08
 45
0.0
 49
-5.08
 74
     0
  0
ENDTAB
  0
TABLE
  2
LAYER
  5
2
330
0
100
AcDbSymbolTable
 70
    27
  0
LAYER
  5
54
330
2
100
AcDbSymbolTableRecord
100
AcDbLayerTableRecord
  2
0
 70
     0
 62
     7
  6
Continuous
370
    -3
390
F
347
21
348
0
  0
LAYER
  5
B8
330
2
100
AcDbSymbolTableRecord
100
AcDbLayerTableRecord
  2
Bemaßung (ISO)
 70
     0
 62
     7
  6
Continuous
370
    25
390
F
347
21
348
0
  0
LAYER
  5
BB
330
2
100
AcDbSymbolTableRecord
100
AcDbLayerTableRecord
  2
Bruchlinie (ISO)
 70
     0
 62
     7
  6
Continuous
370
    50
390
F
347
21
348
0
  0
LAYER
  5
C0
330
2
100
AcDbSymbolTableRecord
100
AcDbLayerTableRecord
  2
Rahmen (ISO)
 70
     0
 62
     7
  6
Continuous
370
    70
390
F
347
21
348
0
  0
LAYER
  5
C4
330
2
100
AcDbSymbolTableRecord
100
AcDbLayerTableRecord
  2
Schraffur (ISO)
 70
     0
 62
     7
  6
Continuous
370
    18
390
F
347
21
348
0
  0
LAYER
  5
C5
330
2
100
AcDbSymbolTableRecord
100
AcDbLayerTableRecord
  2
Sichtbar (ISO)
 70
     0
 62
     7
  6
Continuous
370
    50
390
F
347
21
348
0
  0
LAYER
  5
C7
330
2
100
AcDbSymbolTableRecord
100
AcDbLayerTableRecord
  2
Skizziergeometrie (ISO)
 70
     0
 62
     7
  6
Continuous
370
    25
390
F
347
21
348
0
  0
LAYER
  5
C8
330
2
100
AcDbSymbolTableRecord
100
AcDbLayerTableRecord
  2
Symbol (ISO)
 70
     0
 62
     7
  6
Continuous
370
    25
390
F
347
21
348
0
  0
LAYER
  5
C9
330
2
100
AcDbSymbolTableRecord
100
AcDbLayerTableRecord
  2
Titel (ISO)
 70
     0
 62
     7
  6
Continuous
370
    50
390
F
347
21
348
0
  0
LAYER
  5
2BE
330
2
100
AcDbSymbolTableRecord
100
AcDbLayerTableRecord
  2
Defpoints
 70
     0
 62
     7
  6
Continuous
290
     0
370
    -3
390
F
347
21
348
0
  0
ENDTAB
  0
TABLE
  2
STYLE
  5
3
330
0
100
AcDbSymbolTable
 70
    14
  0
STYLE
  5
55
330
3
100
AcDbSymbolTableRecord
100
AcDbTextStyleTableRecord
  2
Standard
 70
     0
 40
0.0
 41
1.0
 50
0.0
 71
     0
 42
0.2
  3
arial.ttf
  4

1001
ACAD
1000
Arial
1071
      256
  0
STYLE
  5
5A
330
3
100
AcDbSymbolTableRecord
100
AcDbTextStyleTableRecord
  2
Annotative
 70
     0
 40
0.0
 41
1.0
 50
0.0
 71
     0
 42
0.2
  3
txt
  4

1001
AcadAnnotative
1000
AnnotativeData
1002
{
1070
     1
1070
     1
1002
}
  0
STYLE
  5
AC
330
3
100
AcDbSymbolTableRecord
100
AcDbTextStyleTableRecord
  2

 70
     1
 40
0.0
 41
1.0
 50
0.0
 71
     0
 42
0.2
  3
ltypeshp.shx
  4

  0
STYLE
  5
CD
330
3
100
AcDbSymbolTableRecord
100
AcDbTextStyleTableRecord
  2
Bezeichnungstext (DIN)
 70
     0
 40
0.0
 41
1.0
 50
0.0
 71
     0
 42
0.2
  3
arial.ttf
  4

1001
ACAD
1000
Arial
1071
      256
  0
STYLE
  5
CE
330
3
100
AcDbSymbolTableRecord
100
AcDbTextStyleTableRecord
  2
Notiztext (DIN)
 70
     0
 40
0.0
 41
1.0
 50
0.0
 71
     0
 42
0.2
  3
arial.ttf
  4

1001
ACAD
1000
Arial
1071
      256
  0
STYLE
  5
1B4
330
3
100
AcDbSymbolTableRecord
100
AcDbTextStyleTableRecord
  2
Textstil54
 70
     0
 40
0.0
 41
1.0
 50
0.0
 71
     0
 42
0.2
  3

  4

1001
ACAD
1000
Arial
1071
 33554688
  0
STYLE
  5
1BD
330
3
100
AcDbSymbolTableRecord
100
AcDbTextStyleTableRecord
  2
Textstil55
 70
     0
 40
0.0
 41
1.0
 50
0.0
 71
     0
 42
0.2
  3

  4

1001
ACAD
1000
Arial
1071
 33554688
  0
STYLE
  5
1C0
330
3
100
AcDbSymbolTableRecord
100
AcDbTextStyleTableRecord
  2
Textstil58
 70
     0
 40
0.0
 41
1.0
 50
0.0
 71
     0
 42
0.2
  3

  4

1001
ACAD
1000
Arial
1071
 33554688
  0
STYLE
  5
1C7
330
3
100
AcDbSymbolTableRecord
100
AcDbTextStyleTableRecord
  2
Textstil61
 70
     0
 40
0.0
 41
1.0
 50
0.0
 71
     0
 42
0.2
  3

  4

1001
ACAD
1000
Arial
1071
 33554688
  0
STYLE
  5
1D0
330
3
100
AcDbSymbolTableRecord
100
AcDbTextStyleTableRecord
  2
Textstil29
 70
     0
 40
0.0
 41
1.0
 50
0.0
 71
     0
 42
0.2
  3
arial.ttf
  4

1001
ACAD
1000
Arial
1071
      256
  0
STYLE
  5
1D2
330
3
100
AcDbSymbolTableRecord
100
AcDbTextStyleTableRecord
  2
Textstil57
 70
     0
 40
0.0
 41
1.0
 50
0.0
 71
     0
 42
0.2
  3

  4

1001
ACAD
1000
Arial
1071
 33554688
  0
STYLE
  5
1F3
330
3
100
AcDbSymbolTableRecord
100
AcDbTextStyleTableRecord
  2
Textstil59
 70
     0
 40
0.0
 41
1.0
 50
0.0
 71
     0
 42
0.2
  3

  4

1001
ACAD
1000
Arial
1071
 33554688
  0
STYLE
  5
1F6
330
3
100
AcDbSymbolTableRecord
100
AcDbTextStyleTableRecord
  2
Textstil56
 70
     0
 40
0.0
 41
1.0
 50
0.0
 71
     0
 42
0.2
  3

  4

1001
ACAD
1000
Arial
1071
 33554688
  0
STYLE
  5
1FB
330
3
100
AcDbSymbolTableRecord
100
AcDbTextStyleTableRecord
  2
Textstil53
 70
     0
 40
0.0
 41
1.0
 50
0.0
 71
     0
 42
0.2
  3

  4

1001
ACAD
1000
Arial
1071
 33554688
  0
ENDTAB
  0
TABLE
  2
VIEW
  5
6
330
0
100
AcDbSymbolTable
 70
     0
  0
ENDTAB
  0
TABLE
  2
UCS
  5
7
330
0
100
AcDbSymbolTable
 70
     0
  0
ENDTAB
  0
TABLE
  2
APPID
  5
9
330
0
100
AcDbSymbolTable
 70
     3
  0
APPID
  5
56
330
9
100
AcDbSymbolTableRecord
100
AcDbRegAppTableRecord
  2
ACAD
 70
     0
  0
APPID
  5
5E
330
9
100
AcDbSymbolTableRecord
100
AcDbRegAppTableRecord
  2
AcadAnnotative
 70
     0
  0
APPID
  5
1CF
330
9
100
AcDbSymbolTableRecord
100
AcDbRegAppTableRecord
  2
AcadAnnoPO
 70
     0
  0
ENDTAB
  0
TABLE
  2
DIMSTYLE
  5
A
330
0
100
AcDbSymbolTable
 70
    11
100
AcDbDimStyleTable
 71
     2
340
D3
340
58
  0
DIMSTYLE
105
58
330
A
100
AcDbSymbolTableRecord
100
AcDbDimStyleTableRecord
  2
Standard
 70
     0
340
55
  0
DIMSTYLE
105
59
330
A
100
AcDbSymbolTableRecord
100
AcDbDimStyleTableRecord
  2
Annotative
 70
     0
340
55
1001
AcadAnnotative
1000
AnnotativeData
1002
{
1070
     1
1070
     1
1002
}
  0
DIMSTYLE
105
CF
330
A
100
AcDbSymbolTableRecord
100
AcDbDimStyleTableRecord
  2
Standard - Methode 2a (DIN)
 70
     0
 41
2.5
 42
0.8
 43
5.999999999999999
 44
3.174999999999999
 45
0.00000001
 46
10.0
 77
     1
 78
     8
 79
     2
140
2.5
143
0.03937
146
1.399999976158142
147
0.8
170
     1
171
     3
172
     1
176
   256
177
   256
178
   256
179
     2
271
     2
272
     2
274
     3
278
    44
284
     8
286
     8
340
CE
371
    -1
372
    -1
  0
DIMSTYLE
105
D0
330
A
100
AcDbSymbolTableRecord
100
AcDbDimStyleTableRecord
  2
Standard - Methode 2a (DIN)$7
 70
     0
 41
2.5
 42
0.8
 43
5.999999999999999
 44
3.174999999999999
 45
0.00000001
 46
10.0
 77
     1
 78
     8
 79
     2
140
2.5
143
0.03937
146
1.399999976158142
147
0.8
170
     1
171
     3
172
     1
176
   256
177
   256
178
   256
179
     2
271
     2
272
     2
274
     3
278
    44
284
     8
286
     8
340
CE
371
    -1
372
    -1
  0
DIMSTYLE
105
D1
330
A
100
AcDbSymbolTableRecord
100
AcDbDimStyleTableRecord
  2
Standard - Methode 2b (DIN)
 70
     0
 41
2.5
 42
0.0
 43
5.999999999999999
 44
3.174999999999999
 45
0.00000001
 46
10.0
 77
     1
 78
     8
 79
     2
140
2.5
143
0.03937
146
1.399999976158142
147
0.8
171
     3
172
     1
176
   256
177
   256
178
   256
271
     2
272
     2
274
     3
278
    44
284
     8
286
     8
340
CE
371
    -1
372
    -1
  0
DIMSTYLE
105
D2
330
A
100
AcDbSymbolTableRecord
100
AcDbDimStyleTableRecord
  2
Standard - Methode 2b (DIN)$7
 70
     0
 41
2.5
 42
0.0
 43
5.999999999999999
 44
3.174999999999999
 45
0.00000001
 46
10.0
 77
     1
 78
     8
 79
     2
140
2.5
143
0.03937
146
1.399999976158142
147
0.8
171
     3
172
     1
176
   256
177
   256
178
   256
271
     2
272
     2
274
     3
278
    44
284
     8
286
     8
340
CE
371
    -1
372
    -1
  0
DIMSTYLE
105
D3
102
{ACAD_REACTORS
330
2BD
330
3A6
102
}
330
A
100
AcDbSymbolTableRecord
100
AcDbDimStyleTableRecord
  2
Standard (DIN)
 70
     0
 41
2.5
 42
0.0
 43
6.999999999999999
 44
2.0
 45
0.00000001
 46
10.0
 73
     0
 74
     0
 77
     1
 78
     8
 79
     2
140
2.5
143
0.03937
146
0.6000000238418579
147
0.4
171
     3
172
     1
176
   256
177
   256
178
   256
271
     2
272
     2
274
     3
284
     8
285
     8
340
CE
371
    -1
372
    -1
  0
DIMSTYLE
105
D4
330
A
100
AcDbSymbolTableRecord
100
AcDbDimStyleTableRecord
  2
Standard (DIN)$7
 70
     0
 41
2.5
 42
0.0
 43
6.999999999999999
 44
2.0
 45
0.00000001
 46
10.0
 73
     0
 74
     0
 77
     1
 78
     8
 79
     2
140
2.5
143
0.03937
146
0.6000000238418579
147
0.4
171
     3
172
     1
176
   256
177
   256
178
   256
271
     2
272
     2
274
     3
284
     8
285
     8
340
CE
371
    -1
372
    -1
  0
DIMSTYLE
105
D5
330
A
100
AcDbSymbolTableRecord
100
AcDbDimStyleTableRecord
  2
Alternativ (ISO)
 70
     0
 41
2.5
340
55
  0
DIMSTYLE
105
E0
330
A
100
AcDbSymbolTableRecord
100
AcDbDimStyleTableRecord
  2
Bezug (ISO)
 70
     0
 41
2.5
340
55
  0
DIMSTYLE
105
EF
330
A
100
AcDbSymbolTableRecord
100
AcDbDimStyleTableRecord
  2
Groß (ISO)
 70
     0
 41
5.0
340
55
  0
ENDTAB
  0
TABLE
  2
BLOCK_RECORD
  5
1
330
0
100
AcDbSymbolTable
 70
     8
  0
BLOCK_RECORD
  5
70
330
1
100
AcDbSymbolTableRecord
100
AcDbBlockTableRecord
  2
*Model_Space
340
73
 70
     0
280
     1
281
     0
  0
BLOCK_RECORD
  5
6C
330
1
100
AcDbSymbolTableRecord
100
AcDbBlockTableRecord
  2
*Paper_Space
340
6F
 70
     0
280
     1
281
     0
  0
BLOCK_RECORD
  5
74
330
1
100
AcDbSymbolTableRecord
100
AcDbBlockTableRecord
  2
*Paper_Space0
340
77
 70
     0
280
     1
281
     0
  0
BLOCK_RECORD
  5
D6
330
1
100
AcDbSymbolTableRecord
100
AcDbBlockTableRecord
  2
DatumFilled45
340
0
 70
     0
280
     1
281
     0
  0
BLOCK_RECORD
  5
E1
330
1
100
AcDbSymbolTableRecord
100
AcDbBlockTableRecord
  2
Filled-1
340
0
 70
     0
280
     1
281
     0
  0
BLOCK_RECORD
  5
F0
330
1
100
AcDbSymbolTableRecord
100
AcDbBlockTableRecord
  2
Ränder Standardrahmen
340
0
102
{BLKREFS
331
116
102
}
 70
     0
280
     1
281
     0
  0
BLOCK_RECORD
  5
117
330
1
100
AcDbSymbolTableRecord
100
AcDbBlockTableRecord
  2
Schriftfelder perma_schriftfeld
340
0
102
{BLKREFS
331
202
102
}
 70
     0
280
     1
281
     0
  0
BLOCK_RECORD
  5
2BF
330
1
100
AcDbSymbolTableRecord
100
AcDbBlockTableRecord
  2
*D5
340
0
 70
     0
280
     1
281
     0
  0
BLOCK_RECORD
  5
3A7
330
1
100
AcDbSymbolTableRecord
100
AcDbBlockTableRecord
  2
*D6
340
0
 70
     0
280
     1
281
     0
  0
BLOCK_RECORD
  5
494
330
1
100
AcDbSymbolTableRecord
100
AcDbBlockTableRecord
  2
Tabelle1
340
0
102
{BLKREFS
331
4AA
102
}
 70
     0
280
     1
281
     0
  0
ENDTAB
  0
ENDSEC
  0
SECTION
  2
BLOCKS
  0
BLOCK
  5
71
330
70
100
AcDbEntity
  8
0
100
AcDbBlockBegin
  2
*Model_Space
 70
     0
 10
0.0
 20
0.0
 30
0.0
  3
*Model_Space
  1

  0
ENDBLK
  5
72
330
70
100
AcDbEntity
  8
0
100
AcDbBlockEnd
  0
BLOCK
  5
6D
330
6C
100
AcDbEntity
 67
     1
  8
0
100
AcDbBlockBegin
  2
*Paper_Space
 70
     0
 10
0.0
 20
0.0
 30
0.0
  3
*Paper_Space
  1

  0
ENDBLK
  5
6E
330
6C
100
AcDbEntity
 67
     1
  8
0
100
AcDbBlockEnd
  0
BLOCK
  5
75
330
74
100
AcDbEntity
 67
     1
  8
0
100
AcDbBlockBegin
  2
*Paper_Space0
 70
     0
 10
0.0
 20
0.0
 30
0.0
  3
*Paper_Space0
  1

  0
ENDBLK
  5
76
330
74
100
AcDbEntity
 67
     1
  8
0
100
AcDbBlockEnd
  0
BLOCK
  5
D7
330
D6
100
AcDbEntity
  8
0
100
AcDbBlockBegin
  2
DatumFilled45
 70
     0
 10
0.0
 20
0.0
 30
0.0
  3
DatumFilled45
  1

  0
POLYLINE
  5
D9
330
D6
100
AcDbEntity
  8
0
 62
     0
100
AcDb2dPolyline
 66
     1
 10
0.0
 20
0.0
 30
0.0
 70
   128
  0
VERTEX
  5
DA
330
D9
100
AcDbEntity
  8
0
 62
     0
100
AcDbVertex
100
AcDb2dVertex
 10
0.0
 20
1.0
 30
0.0
  0
VERTEX
  5
DB
330
D9
100
AcDbEntity
  8
0
 62
     0
100
AcDbVertex
100
AcDb2dVertex
 10
0.0
 20
-1.0
 30
0.0
  0
VERTEX
  5
DD
330
D9
100
AcDbEntity
  8
0
 62
     0
100
AcDbVertex
100
AcDb2dVertex
 10
-1.0
 20
0.0
 30
0.0
  0
VERTEX
  5
DE
330
D9
100
AcDbEntity
  8
0
 62
     0
100
AcDbVertex
100
AcDb2dVertex
 10
0.0
 20
1.0
 30
0.0
  0
SEQEND
  5
DC
330
D9
100
AcDbEntity
  8
0
 62
     0
  0
SOLID
  5
DF
330
D6
100
AcDbEntity
  8
0
 62
     0
100
AcDbTrace
 10
0.0
 20
1.0
 30
0.0
 11
0.0
 21
-1.0
 31
0.0
 12
-1.0
 22
0.0
 32
0.0
 13
0.0
 23
1.0
 33
0.0
  0
ENDBLK
  5
D8
330
D6
100
AcDbEntity
  8
0
100
AcDbBlockEnd
  0
BLOCK
  5
E2
330
E1
100
AcDbEntity
  8
0
100
AcDbBlockBegin
  2
Filled-1
 70
     0
 10
0.0
 20
0.0
 30
0.0
  3
Filled-1
  1

  0
LINE
  5
E4
330
E1
100
AcDbEntity
  8
0
 62
     0
100
AcDbLine
 10
-1.0
 20
0.0
 30
0.0
 11
0.0
 21
0.0
 31
0.0
  0
POLYLINE
  5
E5
330
E1
100
AcDbEntity
  8
0
 62
     0
100
AcDb2dPolyline
 66
     1
 10
0.0
 20
0.0
 30
0.0
 70
   128
  0
VERTEX
  5
E6
330
E5
100
AcDbEntity
  8
0
 62
     0
100
AcDbVertex
100
AcDb2dVertex
 10
-1.0
 20
-0.1
 30
0.0
  0
VERTEX
  5
E7
330
E5
100
AcDbEntity
  8
0
 62
     0
100
AcDbVertex
100
AcDb2dVertex
 10
0.0
 20
0.0
 30
0.0
  0
VERTEX
  5
E9
330
E5
100
AcDbEntity
  8
0
 62
     0
100
AcDbVertex
100
AcDb2dVertex
 10
-1.0
 20
0.1
 30
0.0
  0
VERTEX
  5
EA
330
E5
100
AcDbEntity
  8
0
 62
     0
100
AcDbVertex
100
AcDb2dVertex
 10
-1.0
 20
-0.1
 30
0.0
  0
SEQEND
  5
E8
330
E5
100
AcDbEntity
  8
0
 62
     0
  0
SOLID
  5
EB
330
E1
100
AcDbEntity
  8
0
 62
     0
100
AcDbTrace
 10
-1.0
 20
-0.1
 30
0.0
 11
0.0
 21
0.0
 31
0.0
 12
-1.0
 22
0.1
 32
0.0
 13
-1.0
 23
-0.1
 33
0.0
  0
LINE
  5
EC
330
E1
100
AcDbEntity
  8
0
 62
     0
100
AcDbLine
 10
-1.0
 20
-0.1
 30
0.0
 11
0.0
 21
0.0
 31
0.0
  0
LINE
  5
ED
330
E1
100
AcDbEntity
  8
0
 62
     0
100
AcDbLine
 10
0.0
 20
0.0
 30
0.0
 11
-1.0
 21
0.1
 31
0.0
  0
LINE
  5
EE
330
E1
100
AcDbEntity
  8
0
 62
     0
100
AcDbLine
 10
-1.0
 20
0.1
 30
0.0
 11
-1.0
 21
-0.1
 31
0.0
  0
ENDBLK
  5
E3
330
E1
100
AcDbEntity
  8
0
100
AcDbBlockEnd
  0
BLOCK
  5
F1
330
F0
100
AcDbEntity
  8
0
100
AcDbBlockBegin
  2
Ränder Standardrahmen
 70
     0
 10
0.0
 20
0.0
 30
0.0
  3
Ränder Standardrahmen
  1

  0
POLYLINE
  5
F3
330
F0
100
AcDbEntity
  8
Rahmen (ISO)
100
AcDb2dPolyline
 66
     1
 10
0.0
 20
0.0
 30
0.0
 70
   128
  0
VERTEX
  5
F4
330
F3
100
AcDbEntity
  8
Rahmen (ISO)
100
AcDbVertex
100
AcDb2dVertex
 10
10.0
 20
10.0
 30
0.0
  0
VERTEX
  5
F5
330
F3
100
AcDbEntity
  8
Rahmen (ISO)
100
AcDbVertex
100
AcDb2dVertex
 10
10.0
 20
287.0000076293946
 30
0.0
  0
VERTEX
  5
F7
330
F3
100
AcDbEntity
  8
Rahmen (ISO)
100
AcDbVertex
100
AcDb2dVertex
 10
200.0
 20
287.0000076293946
 30
0.0
  0
VERTEX
  5
F8
330
F3
100
AcDbEntity
  8
Rahmen (ISO)
100
AcDbVertex
100
AcDb2dVertex
 10
200.0
 20
10.0
 30
0.0
  0
VERTEX
  5
F9
330
F3
100
AcDbEntity
  8
Rahmen (ISO)
100
AcDbVertex
100
AcDb2dVertex
 10
10.0
 20
10.0
 30
0.0
  0
SEQEND
  5
F6
330
F3
100
AcDbEntity
  8
Rahmen (ISO)
  0
POLYLINE
  5
FA
330
F0
100
AcDbEntity
  8
Rahmen (ISO)
100
AcDb2dPolyline
 66
     1
 10
0.0
 20
0.0
 30
0.0
 70
   128
  0
VERTEX
  5
FB
330
FA
100
AcDbEntity
  8
Rahmen (ISO)
100
AcDbVertex
100
AcDb2dVertex
 10
105.0
 20
0.0
 30
0.0
  0
VERTEX
  5
FC
330
FA
100
AcDbEntity
  8
Rahmen (ISO)
100
AcDbVertex
100
AcDb2dVertex
 10
105.0
 20
10.0
 30
0.0
  0
VERTEX
  5
FE
330
FA
100
AcDbEntity
  8
Rahmen (ISO)
100
AcDbVertex
100
AcDb2dVertex
 10
102.1132469177246
 20
5.0
 30
0.0
  0
VERTEX
  5
FF
330
FA
100
AcDbEntity
  8
Rahmen (ISO)
100
AcDbVertex
100
AcDb2dVertex
 10
107.8867530822754
 20
5.0
 30
0.0
  0
VERTEX
  5
100
330
FA
100
AcDbEntity
  8
Rahmen (ISO)
100
AcDbVertex
100
AcDb2dVertex
 10
105.0
 20
10.0
 30
0.0
  0
SEQEND
  5
FD
330
FA
100
AcDbEntity
  8
Rahmen (ISO)
  0
POLYLINE
  5
101
330
F0
100
AcDbEntity
  8
Rahmen (ISO)
100
AcDb2dPolyline
 66
     1
 10
0.0
 20
0.0
 30
0.0
 70
   128
  0
VERTEX
  5
102
330
101
100
AcDbEntity
  8
Rahmen (ISO)
100
AcDbVertex
100
AcDb2dVertex
 10
105.0
 20
297.0000076293946
 30
0.0
  0
VERTEX
  5
103
330
101
100
AcDbEntity
  8
Rahmen (ISO)
100
AcDbVertex
100
AcDb2dVertex
 10
105.0
 20
287.0000076293946
 30
0.0
  0
VERTEX
  5
105
330
101
100
AcDbEntity
  8
Rahmen (ISO)
100
AcDbVertex
100
AcDb2dVertex
 10
102.1132469177246
 20
292.0000076293945
 30
0.0
  0
VERTEX
  5
106
330
101
100
AcDbEntity
  8
Rahmen (ISO)
100
AcDbVertex
100
AcDb2dVertex
 10
107.8867530822754
 20
292.0000076293945
 30
0.0
  0
VERTEX
  5
107
330
101
100
AcDbEntity
  8
Rahmen (ISO)
100
AcDbVertex
100
AcDb2dVertex
 10
105.0
 20
287.0000076293946
 30
0.0
  0
SEQEND
  5
104
330
101
100
AcDbEntity
  8
Rahmen (ISO)
  0
POLYLINE
  5
108
330
F0
100
AcDbEntity
  8
Rahmen (ISO)
100
AcDb2dPolyline
 66
     1
 10
0.0
 20
0.0
 30
0.0
 70
   128
  0
VERTEX
  5
109
330
108
100
AcDbEntity
  8
Rahmen (ISO)
100
AcDbVertex
100
AcDb2dVertex
 10
0.0
 20
148.5000038146973
 30
0.0
  0
VERTEX
  5
10A
330
108
100
AcDbEntity
  8
Rahmen (ISO)
100
AcDbVertex
100
AcDb2dVertex
 10
10.0
 20
148.5000038146973
 30
0.0
  0
VERTEX
  5
10C
330
108
100
AcDbEntity
  8
Rahmen (ISO)
100
AcDbVertex
100
AcDb2dVertex
 10
5.0
 20
151.3867473602295
 30
0.0
  0
VERTEX
  5
10D
330
108
100
AcDbEntity
  8
Rahmen (ISO)
100
AcDbVertex
100
AcDb2dVertex
 10
5.0
 20
145.6132507324219
 30
0.0
  0
VERTEX
  5
10E
330
108
100
AcDbEntity
  8
Rahmen (ISO)
100
AcDbVertex
100
AcDb2dVertex
 10
10.0
 20
148.5000038146973
 30
0.0
  0
SEQEND
  5
10B
330
108
100
AcDbEntity
  8
Rahmen (ISO)
  0
POLYLINE
  5
10F
330
F0
100
AcDbEntity
  8
Rahmen (ISO)
100
AcDb2dPolyline
 66
     1
 10
0.0
 20
0.0
 30
0.0
 70
   128
  0
VERTEX
  5
110
330
10F
100
AcDbEntity
  8
Rahmen (ISO)
100
AcDbVertex
100
AcDb2dVertex
 10
210.0
 20
148.5000038146973
 30
0.0
  0
VERTEX
  5
111
330
10F
100
AcDbEntity
  8
Rahmen (ISO)
100
AcDbVertex
100
AcDb2dVertex
 10
200.0
 20
148.5000038146973
 30
0.0
  0
VERTEX
  5
113
330
10F
100
AcDbEntity
  8
Rahmen (ISO)
100
AcDbVertex
100
AcDb2dVertex
 10
205.0
 20
151.3867473602295
 30
0.0
  0
VERTEX
  5
114
330
10F
100
AcDbEntity
  8
Rahmen (ISO)
100
AcDbVertex
100
AcDb2dVertex
 10
205.0
 20
145.6132507324219
 30
0.0
  0
VERTEX
  5
115
330
10F
100
AcDbEntity
  8
Rahmen (ISO)
100
AcDbVertex
100
AcDb2dVertex
 10
200.0
 20
148.5000038146973
 30
0.0
  0
SEQEND
  5
112
330
10F
100
AcDbEntity
  8
Rahmen (ISO)
  0
ENDBLK
  5
F2
330
F0
100
AcDbEntity
  8
0
100
AcDbBlockEnd
  0
BLOCK
  5
118
330
117
100
AcDbEntity
  8
0
100
AcDbBlockBegin
  2
Schriftfelder perma_schriftfeld
 70
     2
 10
0.0
 20
0.0
 30
0.0
  3
Schriftfelder perma_schriftfeld
  1

  0
HATCH
  5
121
330
117
100
AcDbEntity
  8
Schraffur (ISO)
 62
   242
420
 13640771
100
AcDbHatch
 10
0.0
 20
0.0
 30
0.0
210
0.0
220
0.0
230
1.0
  2
SOLID
 70
     1
 71
     0
 91
        2
 92
        0
 93
        1
 72
     2
 10
243.4855390241711
 20
143.7748975342685
 40
1.785530546623794
 50
0.0
 51
360.0
 73
     1
 97
        0
 92
        1
 93
        6
 72
     1
 10
241.6008123360682
 20
146.8003798493811
 11
241.6008123360681
 21
146.3290777908515
 72
     2
 10
243.4855390241711
 20
143.7748975342685
 40
3.174276527331191
 50
233.5764263576677
 51
486.4235736423323
 73
     0
 72
     1
 10
241.6008123360681
 20
141.2207172776856
 11
241.6008123360681
 21
138.0215213284808
 72
     1
 10
241.6008123360681
 20
138.0215213284808
 11
240.2120663553608
 21
138.0215213284808
 72
     1
 10
240.2120663553608
 20
138.0215213284808
 11
240.2120663553608
 21
146.8003798493811
 72
     1
 10
240.2120663553608
 20
146.8003798493811
 11
241.6008123360682
 21
146.8003798493811
 97
        0
 75
     0
 76
     1
 98
        1
 10
0.0
 20
0.0
450
        0
451
        0
460
0.0
461
0.0
452
        0
462
0.0
453
        0
470

  0
HATCH
  5
129
330
117
100
AcDbEntity
  8
Schraffur (ISO)
 62
   242
420
 13640771
100
AcDbHatch
 10
0.0
 20
0.0
 30
0.0
210
0.0
220
0.0
230
1.0
  2
SOLID
 70
     1
 71
     0
 91
        1
 92
        1
 93
        7
 72
     2
 10
254.2483203746534
 20
146.3043991419856
 40
0.4959807073954986
 50
90.0
 51
180.0
 73
     1
 72
     1
 10
253.7523396672579
 20
146.3043991419856
 11
253.7523396672579
 21
140.6998171484165
 72
     1
 10
253.7523396672579
 20
140.6998171484165
 11
255.1410856479653
 21
140.6998171484165
 72
     1
 10
255.1410856479653
 20
140.6998171484165
 11
255.1410856479653
 21
145.4116338686737
 72
     1
 10
255.1410856479653
 20
145.4116338686737
 11
257.0258123360682
 21
145.4116338686737
 72
     1
 10
257.0258123360682
 20
145.4116338686737
 11
257.0258123360682
 21
146.8003798493811
 72
     1
 10
257.0258123360682
 20
146.8003798493811
 11
254.2483203746534
 21
146.8003798493811
 97
        0
 75
     0
 76
     1
 98
        1
 10
0.0
 20
0.0
450
        0
451
        0
460
0.0
461
0.0
452
        0
462
0.0
453
        0
470

  0
HATCH
  5
138
330
117
100
AcDbEntity
  8
Schraffur (ISO)
 62
   242
420
 13640771
100
AcDbHatch
 10
0.0
 20
0.0
 30
0.0
210
0.0
220
0.0
230
1.0
  2
SOLID
 70
     1
 71
     0
 91
        1
 92
        1
 93
       14
 72
     2
 10
263.6223557444282
 20
146.3043991419856
 40
0.4959807073954986
 50
0.0
 51
90.0
 73
     1
 72
     1
 10
263.6223557444282
 20
146.8003798493811
 11
257.8689795386405
 21
146.8003798493811
 72
     2
 10
257.8689795386405
 20
146.3043991419856
 40
0.4959807073954986
 50
90.0
 51
180.0
 73
     1
 72
     1
 10
257.372998831245
 20
146.3043991419856
 11
257.372998831245
 21
140.6998171484165
 72
     1
 10
257.372998831245
 20
140.6998171484165
 11
258.7617448119524
 21
140.6998171484165
 72
     1
 10
258.7617448119524
 20
140.6998171484165
 11
258.7617448119524
 21
145.4116338686737
 72
     1
 10
258.7617448119524
 20
145.4116338686737
 11
260.0512946511807
 21
145.4116338686737
 72
     1
 10
260.0512946511807
 20
145.4116338686737
 11
260.0512946511807
 21
140.6998171484165
 72
     1
 10
260.0512946511807
 20
140.6998171484165
 11
261.4400406318881
 21
140.6998171484165
 72
     1
 10
261.4400406318881
 20
140.6998171484165
 11
261.4400406318881
 21
145.4116338686737
 72
     1
 10
261.4400406318881
 20
145.4116338686737
 11
262.7295904711163
 21
145.4116338686737
 72
     1
 10
262.7295904711163
 20
145.4116338686737
 11
262.7295904711163
 21
140.6998171484164
 72
     1
 10
262.7295904711163
 20
140.6998171484165
 11
264.1183364518238
 21
140.6998171484165
 72
     1
 10
264.1183364518238
 20
140.6998171484165
 11
264.1183364518237
 21
146.3043991419856
 97
        0
 75
     0
 76
     1
 98
        1
 10
0.0
 20
0.0
450
        0
451
        0
460
0.0
461
0.0
452
        0
462
0.0
453
        0
470

  0
HATCH
  5
140
330
117
100
AcDbEntity
  8
Schraffur (ISO)
 62
   242
420
 13640771
100
AcDbHatch
 10
0.0
 20
0.0
 30
0.0
210
0.0
220
0.0
230
1.0
  2
SOLID
 70
     1
 71
     0
 91
        2
 92
        0
 93
        1
 72
     2
 10
267.6893975450714
 20
143.7748975342685
 40
1.785530546623792
 50
0.0
 51
360.0
 73
     1
 97
        0
 92
        1
 93
        6
 72
     2
 10
267.6893975450714
 20
143.7748975342685
 40
3.174276527331189
 50
51.31781254651136
 51
308.6821874534886
 73
     1
 72
     1
 10
269.6733203746534
 20
141.2969787143252
 11
269.6733203746534
 21
140.6998171484165
 72
     1
 10
269.6733203746534
 20
140.6998171484165
 11
271.0620663553608
 21
140.6998171484165
 72
     1
 10
271.0620663553608
 20
140.6998171484165
 11
271.0620663553608
 21
146.8003798493811
 72
     1
 10
271.0620663553608
 20
146.8003798493811
 11
269.6733203746534
 21
146.8003798493811
 72
     1
 10
269.6733203746534
 20
146.8003798493811
 11
269.6733203746534
 21
146.2528163542119
 97
        0
 75
     0
 76
     1
 98
        1
 10
0.0
 20
0.0
450
        0
451
        0
460
0.0
461
0.0
452
        0
462
0.0
453
        0
470

  0
HATCH
  5
145
330
117
100
AcDbEntity
  8
Schraffur (ISO)
 62
   242
420
 13640771
100
AcDbHatch
 10
0.0
 20
0.0
 30
0.0
210
0.0
220
0.0
230
1.0
  2
SOLID
 70
     1
 71
     0
 91
        1
 92
        1
 93
        4
 72
     1
 10
242.49357760938
 20
138.0215213284808
 11
271.0620663553608
 21
138.0215213284808
 72
     1
 10
271.0620663553608
 20
138.0215213284808
 11
271.0620663553608
 21
139.4102673091882
 72
     1
 10
271.0620663553608
 20
139.4102673091882
 11
242.49357760938
 21
139.4102673091882
 72
     1
 10
242.49357760938
 20
139.4102673091882
 11
242.49357760938
 21
138.0215213284808
 97
        0
 75
     0
 76
     1
 98
        1
 10
0.0
 20
0.0
450
        0
451
        0
460
0.0
461
0.0
452
        0
462
0.0
453
        0
470

  0
HATCH
  5
14C
330
117
100
AcDbEntity
  8
Schraffur (ISO)
 62
   242
420
 13640771
100
AcDbHatch
 10
0.0
 20
0.0
 30
0.0
210
0.0
220
0.0
230
1.0
  2
SOLID
 70
     1
 71
     0
 91
        2
 92
        0
 93
        2
 72
     2
 10
250.2055390241711
 20
143.7748975342685
 40
1.78553054662284
 50
22.88538047613576
 51
157.1146195238642
 73
     1
 72
     1
 10
248.5605571144858
 20
144.4692705246212
 11
251.8505209338564
 21
144.4692705246212
 97
        0
 92
        1
 93
        4
 72
     2
 10
250.2055390241711
 20
143.7748975342685
 40
3.17427652733119
 50
349.193077125136
 51
698.9381823983302
 73
     1
 72
     1
 10
253.1677523978849
 20
142.6341419072579
 11
251.5791459302305
 21
142.6341419072579
 72
     2
 10
250.2055390241711
 20
143.7748975342685
 40
1.78553054662492
 50
39.70901655308167
 51
160.5287793655139
 73
     0
 72
     1
 10
248.5221246807924
 20
143.1797206853938
 11
253.3235184966065
 21
143.1797206853938
 97
        0
 75
     0
 76
     1
 98
        1
 10
0.0
 20
0.0
450
        0
451
        0
460
0.0
461
0.0
452
        0
462
0.0
453
        0
470

  0
LINE
  5
14D
330
117
100
AcDbEntity
  8
Titel (ISO)
100
AcDbLine
 10
137.5127883584022
 20
114.0882056155221
 30
0.0
 11
327.5127883584023
 21
114.0882056155221
 31
0.0
  0
LINE
  5
14E
330
117
100
AcDbEntity
  8
Titel (ISO)
100
AcDbLine
 10
327.5127883584023
 20
114.0882056155221
 30
0.0
 11
327.5127883584023
 21
169.3382056155221
 31
0.0
  0
LINE
  5
14F
330
117
100
AcDbEntity
  8
Titel (ISO)
100
AcDbLine
 10
327.5127883584023
 20
169.3382056155221
 30
0.0
 11
137.5127883584022
 21
169.3382056155221
 31
0.0
  0
LINE
  5
150
330
117
100
AcDbEntity
  8
Titel (ISO)
100
AcDbLine
 10
137.5127883584022
 20
169.3382056155221
 30
0.0
 11
137.5127883584022
 21
114.0882056155221
 31
0.0
  0
LINE
  5
151
330
117
100
AcDbEntity
  8
Titel (ISO)
100
AcDbLine
 10
192.1127883584023
 20
114.0882056155221
 30
0.0
 11
192.1127883584023
 21
169.3382056155221
 31
0.0
  0
LINE
  5
152
330
117
100
AcDbEntity
  8
Titel (ISO)
100
AcDbLine
 10
236.3127883584021
 20
114.0882056155221
 30
0.0
 11
236.3127883584021
 21
169.3382056155221
 31
0.0
  0
LINE
  5
153
330
117
100
AcDbEntity
  8
Titel (ISO)
100
AcDbLine
 10
137.5127883584022
 20
152.3382056155222
 30
0.0
 11
327.5127883584023
 21
152.3382056155222
 31
0.0
  0
LINE
  5
154
330
117
100
AcDbEntity
  8
Titel (ISO)
100
AcDbLine
 10
192.1127883584023
 20
131.0882056155222
 30
0.0
 11
327.5127883584023
 21
131.0882056155222
 31
0.0
  0
LINE
  5
155
330
117
100
AcDbEntity
  8
Titel (ISO)
100
AcDbLine
 10
236.3127883584021
 20
162.5882056155222
 30
0.0
 11
327.5127883584023
 21
162.5882056155222
 31
0.0
  0
LINE
  5
156
330
117
100
AcDbEntity
  8
Titel (ISO)
100
AcDbLine
 10
137.5127883584022
 20
118.3382056155221
 30
0.0
 11
192.1127883584023
 21
118.3382056155221
 31
0.0
  0
LINE
  5
157
330
117
100
AcDbEntity
  8
Titel (ISO)
100
AcDbLine
 10
192.1127883584023
 20
118.3382056155221
 30
0.0
 11
236.3127883584021
 21
118.3382056155221
 31
0.0
  0
LINE
  5
158
330
117
100
AcDbEntity
  8
Titel (ISO)
100
AcDbLine
 10
236.3127883584021
 20
118.3382056155221
 30
0.0
 11
327.5127883584023
 21
118.3382056155221
 31
0.0
  0
LINE
  5
159
330
117
100
AcDbEntity
  8
Titel (ISO)
100
AcDbLine
 10
311.7127883584024
 20
118.3382056155221
 30
0.0
 11
311.7127883584024
 21
131.0882056155222
 31
0.0
  0
LINE
  5
15A
330
117
100
AcDbEntity
  8
Titel (ISO)
100
AcDbLine
 10
311.7127883584021
 20
124.0197845628906
 30
0.0
 11
327.5127883584021
 21
124.0197845628906
 31
0.0
  0
LINE
  5
15B
330
117
100
AcDbEntity
  8
Titel (ISO)
100
AcDbLine
 10
192.1127883584023
 20
122.5882056155221
 30
0.0
 11
137.5127883584022
 21
122.5882056155221
 31
0.0
  0
LINE
  5
15C
330
117
100
AcDbEntity
  8
Titel (ISO)
100
AcDbLine
 10
137.5127883584022
 20
126.8382056155221
 30
0.0
 11
192.1127883584023
 21
126.8382056155221
 31
0.0
  0
LINE
  5
15D
330
117
100
AcDbEntity
  8
Titel (ISO)
100
AcDbLine
 10
137.5127883584022
 20
131.0882056155222
 30
0.0
 11
192.1127883584023
 21
131.0882056155222
 31
0.0
  0
LINE
  5
15E
330
117
100
AcDbEntity
  8
Titel (ISO)
100
AcDbLine
 10
137.5127883584022
 20
135.3382056155222
 30
0.0
 11
192.1127883584023
 21
135.3382056155222
 31
0.0
  0
LINE
  5
15F
330
117
100
AcDbEntity
  8
Titel (ISO)
100
AcDbLine
 10
192.1127883584023
 20
135.3382056155222
 30
0.0
 11
236.3127883584021
 21
135.3382056155222
 31
0.0
  0
LINE
  5
160
330
117
100
AcDbEntity
  8
Titel (ISO)
100
AcDbLine
 10
137.5127883584022
 20
139.5882056155222
 30
0.0
 11
192.1127883584023
 21
139.5882056155222
 31
0.0
  0
LINE
  5
161
330
117
100
AcDbEntity
  8
Titel (ISO)
100
AcDbLine
 10
192.1127883584023
 20
139.5882056155222
 30
0.0
 11
236.3127883584021
 21
139.5882056155222
 31
0.0
  0
LINE
  5
162
330
117
100
AcDbEntity
  8
Titel (ISO)
100
AcDbLine
 10
137.5127883584022
 20
143.8382056155222
 30
0.0
 11
192.1127883584023
 21
143.8382056155222
 31
0.0
  0
LINE
  5
163
330
117
100
AcDbEntity
  8
Titel (ISO)
100
AcDbLine
 10
192.1127883584023
 20
143.8382056155222
 30
0.0
 11
236.3127883584021
 21
143.8382056155222
 31
0.0
  0
LINE
  5
164
330
117
100
AcDbEntity
  8
Titel (ISO)
100
AcDbLine
 10
137.5127883584022
 20
148.0882056155222
 30
0.0
 11
192.1127883584023
 21
148.0882056155222
 31
0.0
  0
LINE
  5
165
330
117
100
AcDbEntity
  8
Titel (ISO)
100
AcDbLine
 10
192.1127883584023
 20
148.0882056155222
 30
0.0
 11
236.3127883584021
 21
148.0882056155222
 31
0.0
  0
LINE
  5
166
330
117
100
AcDbEntity
  8
Titel (ISO)
100
AcDbLine
 10
145.0127883584023
 20
114.0882056155222
 30
0.0
 11
145.0127883584023
 21
152.3382056155222
 31
0.0
  0
LINE
  5
167
330
117
100
AcDbEntity
  8
Titel (ISO)
100
AcDbLine
 10
172.0127883584022
 20
114.0882056155221
 30
0.0
 11
172.0127883584022
 21
152.3382056155222
 31
0.0
  0
LINE
  5
168
330
117
100
AcDbEntity
  8
Titel (ISO)
100
AcDbLine
 10
182.6127883584021
 20
114.0882056155221
 30
0.0
 11
182.6127883584021
 21
152.3382056155222
 31
0.0
  0
LINE
  5
169
330
117
100
AcDbEntity
  8
Titel (ISO)
100
AcDbLine
 10
202.5127883584021
 20
135.3382056155222
 30
0.0
 11
202.5127883584021
 21
152.3382056155222
 31
0.0
  0
LINE
  5
16A
330
117
100
AcDbEntity
  8
Titel (ISO)
100
AcDbLine
 10
218.1127883584023
 20
131.0882056155222
 30
0.0
 11
218.1127883584023
 21
152.3382056155222
 31
0.0
  0
LINE
  5
16B
330
117
100
AcDbEntity
  8
Titel (ISO)
100
AcDbLine
 10
218.1127883584023
 20
152.3382056155222
 30
0.0
 11
218.1127883584023
 21
169.3382056155221
 31
0.0
  0
LINE
  5
16C
330
117
100
AcDbEntity
  8
Skizziergeometrie (ISO)
 62
   242
420
 13640771
370
     9
100
AcDbLine
 10
241.6008123360682
 20
146.8003798493811
 30
0.0
 11
240.2120663553608
 21
146.8003798493811
 31
0.0
  0
LINE
  5
16D
330
117
100
AcDbEntity
  8
Skizziergeometrie (ISO)
 62
   242
420
 13640771
370
     9
100
AcDbLine
 10
241.6008123360681
 20
146.3290777908515
 30
0.0
 11
241.6008123360682
 21
146.8003798493811
 31
0.0
  0
LINE
  5
16E
330
117
100
AcDbEntity
  8
Skizziergeometrie (ISO)
 62
   242
420
 13640771
370
     9
100
AcDbLine
 10
240.2120663553608
 20
146.8003798493811
 30
0.0
 11
240.2120663553608
 21
138.0215213284808
 31
0.0
  0
CIRCLE
  5
16F
330
117
100
AcDbEntity
  8
Skizziergeometrie (ISO)
 62
   242
420
 13640771
370
     9
100
AcDbCircle
 10
243.4855390241711
 20
143.7748975342685
 30
0.0
 40
1.785530546623794
  0
LINE
  5
170
330
117
100
AcDbEntity
  8
Skizziergeometrie (ISO)
 62
   242
420
 13640771
370
     9
100
AcDbLine
 10
240.2120663553608
 20
138.0215213284808
 30
0.0
 11
241.6008123360681
 21
138.0215213284808
 31
0.0
  0
LINE
  5
171
330
117
100
AcDbEntity
  8
Skizziergeometrie (ISO)
 62
   242
420
 13640771
370
     9
100
AcDbLine
 10
241.6008123360681
 20
138.0215213284808
 30
0.0
 11
241.6008123360681
 21
141.2207172776856
 31
0.0
  0
ARC
  5
172
330
117
100
AcDbEntity
  8
Skizziergeometrie (ISO)
 62
   242
420
 13640771
370
     9
100
AcDbCircle
 10
243.4855390241711
 20
143.7748975342685
 30
0.0
 40
3.17427652733119
100
AcDbArc
 50
233.5764263576676
 51
126.4235736423323
  0
LINE
  5
173
330
117
100
AcDbEntity
  8
Skizziergeometrie (ISO)
 62
   242
420
 13640771
370
     9
100
AcDbLine
 10
242.49357760938
 20
139.4102673091882
 30
0.0
 11
242.49357760938
 21
138.0215213284808
 31
0.0
  0
ARC
  5
174
330
117
100
AcDbEntity
  8
Skizziergeometrie (ISO)
 62
   242
420
 13640771
370
     9
100
AcDbCircle
 10
254.2483203746534
 20
146.3043991419856
 30
0.0
 40
0.4959807073954986
100
AcDbArc
 50
90.0
 51
180.0
  0
LINE
  5
175
330
117
100
AcDbEntity
  8
Skizziergeometrie (ISO)
 62
   242
420
 13640771
370
     9
100
AcDbLine
 10
255.1410856479653
 20
145.4116338686737
 30
0.0
 11
255.1410856479653
 21
140.6998171484165
 31
0.0
  0
LINE
  5
176
330
117
100
AcDbEntity
  8
Skizziergeometrie (ISO)
 62
   242
420
 13640771
370
     9
100
AcDbLine
 10
253.7523396672579
 20
140.6998171484165
 30
0.0
 11
253.7523396672579
 21
146.3043991419856
 31
0.0
  0
ARC
  5
177
330
117
100
AcDbEntity
  8
Skizziergeometrie (ISO)
 62
   242
420
 13640771
370
     9
100
AcDbCircle
 10
250.2055390241711
 20
143.7748975342685
 30
0.0
 40
3.17427652733119
100
AcDbArc
 50
349.1930771251181
 51
338.9381823983282
  0
LINE
  5
178
330
117
100
AcDbEntity
  8
Skizziergeometrie (ISO)
 62
   242
420
 13640771
370
     9
100
AcDbLine
 10
255.1410856479653
 20
140.6998171484165
 30
0.0
 11
253.7523396672579
 21
140.6998171484165
 31
0.0
  0
LINE
  5
179
330
117
100
AcDbEntity
  8
Skizziergeometrie (ISO)
 62
   242
420
 13640771
370
     9
100
AcDbLine
 10
269.6733203746534
 20
146.2528163542119
 30
0.0
 11
269.6733203746534
 21
146.8003798493811
 31
0.0
  0
LINE
  5
17A
330
117
100
AcDbEntity
  8
Skizziergeometrie (ISO)
 62
   242
420
 13640771
370
     9
100
AcDbLine
 10
271.0620663553608
 20
146.8003798493811
 30
0.0
 11
271.0620663553608
 21
140.6998171484165
 31
0.0
  0
LINE
  5
17B
330
117
100
AcDbEntity
  8
Skizziergeometrie (ISO)
 62
   242
420
 13640771
370
     9
100
AcDbLine
 10
271.0620663553608
 20
140.6998171484165
 30
0.0
 11
269.6733203746534
 21
140.6998171484165
 31
0.0
  0
CIRCLE
  5
17C
330
117
100
AcDbEntity
  8
Skizziergeometrie (ISO)
 62
   242
420
 13640771
370
     9
100
AcDbCircle
 10
267.6893975450714
 20
143.7748975342685
 30
0.0
 40
1.785530546623792
  0
ARC
  5
17D
330
117
100
AcDbEntity
  8
Skizziergeometrie (ISO)
 62
   242
420
 13640771
370
     9
100
AcDbCircle
 10
263.6223557444282
 20
146.3043991419856
 30
0.0
 40
0.4959807073954986
100
AcDbArc
 50
0.0
 51
90.0
  0
LINE
  5
17E
330
117
100
AcDbEntity
  8
Skizziergeometrie (ISO)
 62
   242
420
 13640771
370
     9
100
AcDbLine
 10
264.1183364518237
 20
146.3043991419856
 30
0.0
 11
264.1183364518238
 21
140.6998171484165
 31
0.0
  0
LINE
  5
17F
330
117
100
AcDbEntity
  8
Skizziergeometrie (ISO)
 62
   242
420
 13640771
370
     9
100
AcDbLine
 10
262.7295904711163
 20
145.4116338686737
 30
0.0
 11
262.7295904711163
 21
140.6998171484165
 31
0.0
  0
LINE
  5
180
330
117
100
AcDbEntity
  8
Skizziergeometrie (ISO)
 62
   242
420
 13640771
370
     9
100
AcDbLine
 10
261.4400406318881
 20
145.4116338686737
 30
0.0
 11
262.7295904711163
 21
145.4116338686737
 31
0.0
  0
LINE
  5
181
330
117
100
AcDbEntity
  8
Skizziergeometrie (ISO)
 62
   242
420
 13640771
370
     9
100
AcDbLine
 10
261.4400406318881
 20
145.4116338686737
 30
0.0
 11
261.4400406318881
 21
140.6998171484165
 31
0.0
  0
LINE
  5
182
330
117
100
AcDbEntity
  8
Skizziergeometrie (ISO)
 62
   242
420
 13640771
370
     9
100
AcDbLine
 10
269.6733203746534
 20
140.6998171484165
 30
0.0
 11
269.6733203746534
 21
141.2969787143252
 31
0.0
  0
LINE
  5
183
330
117
100
AcDbEntity
  8
Skizziergeometrie (ISO)
 62
   242
420
 13640771
370
     9
100
AcDbLine
 10
257.372998831245
 20
146.3043991419856
 30
0.0
 11
257.372998831245
 21
140.6998171484165
 31
0.0
  0
LINE
  5
184
330
117
100
AcDbEntity
  8
Skizziergeometrie (ISO)
 62
   242
420
 13640771
370
     9
100
AcDbLine
 10
257.372998831245
 20
140.6998171484165
 30
0.0
 11
258.7617448119524
 21
140.6998171484165
 31
0.0
  0
LINE
  5
185
330
117
100
AcDbEntity
  8
Skizziergeometrie (ISO)
 62
   242
420
 13640771
370
     9
100
AcDbLine
 10
258.7617448119524
 20
140.6998171484165
 30
0.0
 11
258.7617448119524
 21
145.4116338686737
 31
0.0
  0
LINE
  5
186
330
117
100
AcDbEntity
  8
Skizziergeometrie (ISO)
 62
   242
420
 13640771
370
     9
100
AcDbLine
 10
260.0512946511807
 20
140.6998171484165
 30
0.0
 11
260.0512946511807
 21
145.4116338686737
 31
0.0
  0
LINE
  5
187
330
117
100
AcDbEntity
  8
Skizziergeometrie (ISO)
 62
   242
420
 13640771
370
     9
100
AcDbLine
 10
257.8689795386405
 20
146.8003798493811
 30
0.0
 11
263.6223557444282
 21
146.8003798493811
 31
0.0
  0
LINE
  5
188
330
117
100
AcDbEntity
  8
Skizziergeometrie (ISO)
 62
   242
420
 13640771
370
     9
100
AcDbLine
 10
260.0512946511807
 20
140.6998171484165
 30
0.0
 11
261.4400406318881
 21
140.6998171484165
 31
0.0
  0
ARC
  5
189
330
117
100
AcDbEntity
  8
Skizziergeometrie (ISO)
 62
   242
420
 13640771
370
     9
100
AcDbCircle
 10
257.8689795386405
 20
146.3043991419856
 30
0.0
 40
0.4959807073954986
100
AcDbArc
 50
90.0
 51
180.0
  0
LINE
  5
18A
330
117
100
AcDbEntity
  8
Skizziergeometrie (ISO)
 62
   242
420
 13640771
370
     9
100
AcDbLine
 10
257.0258123360682
 20
145.4116338686737
 30
0.0
 11
255.1410856479653
 21
145.4116338686737
 31
0.0
  0
LINE
  5
18B
330
117
100
AcDbEntity
  8
Skizziergeometrie (ISO)
 62
   242
420
 13640771
370
     9
100
AcDbLine
 10
257.0258123360682
 20
146.8003798493811
 30
0.0
 11
257.0258123360682
 21
145.4116338686737
 31
0.0
  0
LINE
  5
18C
330
117
100
AcDbEntity
  8
Skizziergeometrie (ISO)
 62
   242
420
 13640771
370
     9
100
AcDbLine
 10
254.2483203746534
 20
146.8003798493811
 30
0.0
 11
257.0258123360682
 21
146.8003798493811
 31
0.0
  0
ARC
  5
18D
330
117
100
AcDbEntity
  8
Skizziergeometrie (ISO)
 62
   242
420
 13640771
370
     9
100
AcDbCircle
 10
267.6893975450714
 20
143.7748975342685
 30
0.0
 40
3.17427652733119
100
AcDbArc
 50
51.31781254651136
 51
308.6821874534886
  0
LINE
  5
18E
330
117
100
AcDbEntity
  8
Skizziergeometrie (ISO)
 62
   242
420
 13640771
370
     9
100
AcDbLine
 10
271.0620663553608
 20
139.4102673091882
 30
0.0
 11
271.0620663553608
 21
138.0215213284808
 31
0.0
  0
LINE
  5
18F
330
117
100
AcDbEntity
  8
Skizziergeometrie (ISO)
 62
   242
420
 13640771
370
     9
100
AcDbLine
 10
269.6733203746534
 20
146.8003798493811
 30
0.0
 11
271.0620663553608
 21
146.8003798493811
 31
0.0
  0
LINE
  5
190
330
117
100
AcDbEntity
  8
Skizziergeometrie (ISO)
 62
   242
420
 13640771
370
     9
100
AcDbLine
 10
262.7295904711163
 20
140.6998171484165
 30
0.0
 11
264.1183364518238
 21
140.6998171484165
 31
0.0
  0
LINE
  5
191
330
117
100
AcDbEntity
  8
Skizziergeometrie (ISO)
 62
   242
420
 13640771
370
     9
100
AcDbLine
 10
258.7617448119524
 20
145.4116338686737
 30
0.0
 11
260.0512946511807
 21
145.4116338686737
 31
0.0
  0
LINE
  5
192
330
117
100
AcDbEntity
  8
Skizziergeometrie (ISO)
 62
   242
420
 13640771
370
     9
100
AcDbLine
 10
242.49357760938
 20
139.4102673091882
 30
0.0
 11
271.0620663553608
 21
139.4102673091882
 31
0.0
  0
LINE
  5
193
330
117
100
AcDbEntity
  8
Skizziergeometrie (ISO)
 62
   242
420
 13640771
370
     9
100
AcDbLine
 10
242.49357760938
 20
138.0215213284808
 30
0.0
 11
271.0620663553608
 21
138.0215213284808
 31
0.0
  0
LINE
  5
194
330
117
100
AcDbEntity
  8
Skizziergeometrie (ISO)
 62
   242
420
 13640771
370
     9
100
AcDbLine
 10
251.5791459302305
 20
142.6341419072579
 30
0.0
 11
253.1677523978849
 21
142.6341419072579
 31
0.0
  0
LINE
  5
195
330
117
100
AcDbEntity
  8
Skizziergeometrie (ISO)
 62
   242
420
 13640771
370
     9
100
AcDbLine
 10
248.5605571144858
 20
144.4692705246212
 30
0.0
 11
251.8505209338564
 21
144.4692705246212
 31
0.0
  0
ARC
  5
196
330
117
100
AcDbEntity
  8
Skizziergeometrie (ISO)
 62
   242
420
 13640771
370
     9
100
AcDbCircle
 10
250.2055390241711
 20
143.7748975342685
 30
0.0
 40
1.78553054662284
100
AcDbArc
 50
22.88538047613576
 51
157.1146195238642
  0
LINE
  5
197
330
117
100
AcDbEntity
  8
Skizziergeometrie (ISO)
 62
   242
420
 13640771
370
     9
100
AcDbLine
 10
248.5221246807924
 20
143.1797206853938
 30
0.0
 11
253.3235184966065
 21
143.1797206853938
 31
0.0
  0
ARC
  5
198
330
117
100
AcDbEntity
  8
Skizziergeometrie (ISO)
 62
   242
420
 13640771
370
     9
100
AcDbCircle
 10
250.2055390241711
 20
143.7748975342685
 30
0.0
 40
1.78553054662492
100
AcDbArc
 50
199.471220634486
 51
320.2909834469179
  0
ARC
  5
199
330
117
100
AcDbEntity
  8
Skizziergeometrie (ISO)
 62
   242
420
 13640771
370
     9
100
AcDbCircle
 10
250.2055390241711
 20
143.7748975342685
 30
0.0
 40
3.17427652733119
100
AcDbArc
 50
349.1930771251364
 51
338.9381823983304
  0
LINE
  5
19A
330
117
100
AcDbEntity
  8
Titel (ISO)
100
AcDbLine
 10
281.9127883584023
 20
169.3382056155221
 30
0.0
 11
281.9127883584023
 21
162.5882056155222
 31
0.0
  0
LINE
  5
19B
330
117
100
AcDbEntity
  8
Titel (ISO)
100
AcDbLine
 10
137.5127883584022
 20
152.3382056155222
 30
0.0
 11
145.0127883584023
 21
152.3382056155222
 31
0.0
  0
LINE
  5
19C
330
117
100
AcDbEntity
  8
Titel (ISO)
100
AcDbLine
 10
145.0127883584023
 20
152.3382056155222
 30
0.0
 11
172.0127883584022
 21
152.3382056155222
 31
0.0
  0
LINE
  5
19D
330
117
100
AcDbEntity
  8
Titel (ISO)
100
AcDbLine
 10
172.0127883584022
 20
152.3382056155222
 30
0.0
 11
182.6127883584021
 21
152.3382056155222
 31
0.0
  0
LINE
  5
19E
330
117
100
AcDbEntity
  8
Titel (ISO)
100
AcDbLine
 10
182.6127883584021
 20
152.3382056155222
 30
0.0
 11
182.6127883584021
 21
148.0882056155222
 31
0.0
  0
LINE
  5
19F
330
117
100
AcDbEntity
  8
Titel (ISO)
100
AcDbLine
 10
192.1127883584023
 20
148.0882056155222
 30
0.0
 11
182.6127883584021
 21
148.0882056155222
 31
0.0
  0
LINE
  5
1A0
330
117
100
AcDbEntity
  8
Titel (ISO)
100
AcDbLine
 10
236.3127883584021
 20
118.3382056155221
 30
0.0
 11
311.7127883584024
 21
118.3382056155221
 31
0.0
  0
LINE
  5
1A1
330
117
100
AcDbEntity
  8
Titel (ISO)
100
AcDbLine
 10
202.5127883584021
 20
152.3382056155222
 30
0.0
 11
202.5127883584022
 21
149.0882056155222
 31
0.0
  0
LINE
  5
1A2
330
117
100
AcDbEntity
  8
Titel (ISO)
100
AcDbLine
 10
202.5127883584022
 20
149.0882056155222
 30
0.0
 11
202.5127883584022
 21
145.4048899025636
 31
0.0
  0
LINE
  5
1A3
330
117
100
AcDbEntity
  8
Titel (ISO)
100
AcDbLine
 10
202.5127883584022
 20
142.8382056155222
 30
0.0
 11
202.5127883584022
 21
140.5882056155222
 31
0.0
  0
LINE
  5
1A4
330
117
100
AcDbEntity
  8
Titel (ISO)
100
AcDbLine
 10
137.5127883584022
 20
152.3382056155222
 30
0.0
 11
137.5127883584022
 21
148.0882056155222
 31
0.0
  0
LINE
  5
1A5
330
117
100
AcDbEntity
  8
Titel (ISO)
100
AcDbLine
 10
137.5127883584022
 20
148.0882056155222
 30
0.0
 11
137.5127883584022
 21
143.8382056155222
 31
0.0
  0
LINE
  5
1A6
330
117
100
AcDbEntity
  8
Titel (ISO)
100
AcDbLine
 10
137.5127883584022
 20
143.8382056155222
 30
0.0
 11
137.5127883584022
 21
139.5882056155222
 31
0.0
  0
LINE
  5
1A7
330
117
100
AcDbEntity
  8
Titel (ISO)
100
AcDbLine
 10
137.5127883584022
 20
139.5882056155222
 30
0.0
 11
137.5127883584022
 21
135.3382056155222
 31
0.0
  0
LINE
  5
1A8
330
117
100
AcDbEntity
  8
Titel (ISO)
100
AcDbLine
 10
137.5127883584022
 20
135.3382056155222
 30
0.0
 11
137.5127883584022
 21
131.0882056155222
 31
0.0
  0
LINE
  5
1A9
330
117
100
AcDbEntity
  8
Titel (ISO)
100
AcDbLine
 10
137.5127883584022
 20
131.0882056155222
 30
0.0
 11
137.5127883584022
 21
126.8382056155221
 31
0.0
  0
LINE
  5
1AA
330
117
100
AcDbEntity
  8
Titel (ISO)
100
AcDbLine
 10
137.5127883584022
 20
126.8382056155221
 30
0.0
 11
137.5127883584022
 21
122.5882056155221
 31
0.0
  0
LINE
  5
1AB
330
117
100
AcDbEntity
  8
Titel (ISO)
100
AcDbLine
 10
137.5127883584022
 20
122.5882056155221
 30
0.0
 11
137.5127883584022
 21
118.3382056155221
 31
0.0
  0
LINE
  5
1AC
330
117
100
AcDbEntity
  8
Titel (ISO)
100
AcDbLine
 10
137.5127883584022
 20
118.3382056155221
 30
0.0
 11
137.5127883584022
 21
114.0882056155221
 31
0.0
  0
LINE
  5
1AD
330
117
100
AcDbEntity
  8
Titel (ISO)
100
AcDbLine
 10
236.3127883584021
 20
131.0882056155222
 30
0.0
 11
236.3127883584021
 21
118.3382056155221
 31
0.0
  0
LINE
  5
1AE
330
117
100
AcDbEntity
  8
Titel (ISO)
100
AcDbLine
 10
192.1127883584023
 20
118.3382056155221
 30
0.0
 11
192.1127883584023
 21
114.0882056155221
 31
0.0
  0
LINE
  5
1AF
330
117
100
AcDbEntity
  8
Titel (ISO)
100
AcDbLine
 10
236.3127883584021
 20
169.3382056155221
 30
0.0
 11
236.3127883584021
 21
162.5882056155222
 31
0.0
  0
LINE
  5
1B0
330
117
100
AcDbEntity
  8
Titel (ISO)
100
AcDbLine
 10
218.1127883584023
 20
169.3382056155221
 30
0.0
 11
236.3127883584021
 21
169.3382056155221
 31
0.0
  0
LINE
  5
1B1
330
117
100
AcDbEntity
  8
Titel (ISO)
100
AcDbLine
 10
192.1127883584023
 20
148.0882056155222
 30
0.0
 11
202.5127883584021
 21
148.0882056155222
 31
0.0
  0
LINE
  5
1B2
330
117
100
AcDbEntity
  8
Titel (ISO)
100
AcDbLine
 10
192.1127883584023
 20
148.0882056155222
 30
0.0
 11
192.1127883584023
 21
143.8382056155222
 31
0.0
  0
LINE
  5
1B3
330
117
100
AcDbEntity
  8
Titel (ISO)
100
AcDbLine
 10
202.5127883584021
 20
143.8382056155222
 30
0.0
 11
202.5127883584021
 21
139.5882056155222
 31
0.0
  0
TEXT
  5
1B5
330
117
100
AcDbEntity
  8
Titel (ISO)
100
AcDbText
 10
239.0576584647693
 20
126.9673826906516
 30
0.0
 40
2.5
  1
Benennung
  7
Textstil54
 72
     1
 11
248.6611714811056
 21
128.2173826906516
 31
0.0
100
AcDbText
 73
     2
  0
MTEXT
  5
1B8
330
117
100
AcDbEntity
  8
Titel (ISO)
100
AcDbMText
 10
237.7860525909858
 20
117.5074129338006
 30
0.0
 40
2.000000029802322
 41
26.70426845550537
 46
0.0
 71
     1
 72
     1
  1
\fArial|b1|i0;\H2.0000;Zeichnungsnummer
  7
Notiztext (DIN)
 73
     1
 44
1.0
  0
MTEXT
  5
1BA
330
117
100
AcDbEntity
  8
Titel (ISO)
100
AcDbMText
 10
288.7221859486278
 20
165.963205690028
 30
0.0
 40
2.5
 41
8.898102374642249
 46
0.0
 71
     5
 72
     1
  1
\fArial|b1|i0;\H2.5000;Mat.:
  7
Notiztext (DIN)
 73
     1
 44
1.0
  0
MTEXT
  5
1BB
330
117
100
AcDbEntity
  8
Titel (ISO)
100
AcDbMText
 10
244.9733924311281
 20
165.9632056155222
 30
0.0
 40
2.5
 41
15.32774329185486
 46
0.0
 71
     5
 72
     1
  1
\fArial|b1|i0;\H2.5000;Maßstab:
  7
Notiztext (DIN)
 73
     1
 44
1.0
  0
MTEXT
  5
1BC
330
117
100
AcDbEntity
  8
Titel (ISO)
100
AcDbMText
 10
227.2127883584022
 20
160.8850043886321
 30
0.0
 40
1.800000071525573
 41
14.41225028934489
 46
0.0
 71
     5
 72
     1
  1
\fArial|b1|i0;\H1.8000;all\Pdimensions\P[mm]
  7
Notiztext (DIN)
 73
     2
 44
0.9442214965820312
  0
TEXT
  5
1BE
330
117
100
AcDbEntity
  8
Titel (ISO)
100
AcDbText
 10
205.9662671223585
 20
149.4531826526858
 30
0.0
 40
2.000000029802322
  1
Datum
  7
Textstil55
 72
     1
 11
210.3127883584022
 21
149.193973916073
 31
0.0
100
AcDbText
 73
     1
  0
TEXT
  5
1BF
330
117
100
AcDbEntity
  8
Titel (ISO)
100
AcDbText
 10
223.4078769562283
 20
149.4531826526858
 30
0.0
 40
2.000000029802322
  1
Name
  7
Textstil55
 72
     1
 11
227.2127883584022
 21
149.193973916073
 31
0.0
100
AcDbText
 73
     1
  0
TEXT
  5
1C1
330
117
100
AcDbEntity
  8
Titel (ISO)
100
AcDbText
 10
192.9291407012698
 20
145.3632056289332
 30
0.0
 40
1.199999973177909
  1
Gezeichnet
  7
Textstil58
 72
     1
 11
197.4009005182067
 21
145.9632056155222
 31
0.0
100
AcDbText
 73
     2
  0
TEXT
  5
1C2
330
117
100
AcDbEntity
  8
Titel (ISO)
100
AcDbText
 10
192.870827629209
 20
141.0861068043681
 30
0.0
 40
1.199999973177909
  1
Kontrolliert
  7
Textstil58
 11
192.870827629209
 21
140.9305815681942
 31
0.0
100
AcDbText
 73
     1
  0
TEXT
  5
1C3
330
117
100
AcDbEntity
  8
Titel (ISO)
100
AcDbText
 10
192.8851600792527
 20
136.8229567039743
 30
0.0
 40
1.199999973177909
  1
Norm
  7
Textstil58
 11
192.8851600792527
 21
136.6674314678004
 31
0.0
100
AcDbText
 73
     1
  0
TEXT
  5
1C4
330
117
100
AcDbEntity
  8
Titel (ISO)
100
AcDbText
 10
193.8939368309822
 20
126.9673826906517
 30
0.0
 40
2.5
  1
Projekt
  7
Textstil54
 72
     1
 11
199.8139573292884
 21
128.2173826906517
 31
0.0
100
AcDbText
 73
     2
  0
MTEXT
  5
1C5
330
117
100
AcDbEntity
  8
Titel (ISO)
100
AcDbMText
 10
193.2211565676084
 20
117.2459800067279
 30
0.0
 40
2.000000029802322
 41
9.780488014221333
 46
0.0
 71
     1
 72
     1
  1
\fArial|b1|i0;\H2.0000;Ers. für
  7
Notiztext (DIN)
 73
     1
 44
1.0
  0
MTEXT
  5
1C6
330
117
100
AcDbEntity
  8
Titel (ISO)
100
AcDbMText
 10
139.0940728591497
 20
167.9495696034075
 30
0.0
 40
2.5
 41
25.80983161926269
 46
0.0
 71
     1
 72
     1
  1
\fArial|b1|i0;\H2.5000;Artikelnummer:
  7
Notiztext (DIN)
 73
     1
 44
1.0
  0
TEXT
  5
1C8
330
117
100
AcDbEntity
  8
Titel (ISO)
100
AcDbText
 10
184.5091047358998
 20
115.4632055857198
 30
0.0
 40
1.500000059604644
  1
Name
  7
Textstil61
 72
     1
 11
187.3627883584022
 21
116.2132056155221
 31
0.0
100
AcDbText
 73
     2
  0
TEXT
  5
1C9
330
117
100
AcDbEntity
  8
Titel (ISO)
100
AcDbText
 10
174.0528973504091
 20
115.4632055857198
 30
0.0
 40
1.500000059604644
  1
Datum
  7
Textstil61
 72
     1
 11
177.3127883584022
 21
116.2132056155221
 31
0.0
100
AcDbText
 73
     2
  0
TEXT
  5
1CA
330
117
100
AcDbEntity
  8
Titel (ISO)
100
AcDbText
 10
152.3429381455341
 20
115.4632055857198
 30
0.0
 40
1.500000059604644
  1
Änderungen
  7
Textstil61
 72
     1
 11
158.5127883584023
 21
116.2132056155221
 31
0.0
100
AcDbText
 73
     2
  0
TEXT
  5
1CB
330
117
100
AcDbEntity
  8
Titel (ISO)
100
AcDbText
 10
138.0607077213921
 20
115.4632055857198
 30
0.0
 40
1.500000059604644
  1
Status
  7
Textstil61
 72
     1
 11
141.2627883584022
 21
116.2132056155221
 31
0.0
100
AcDbText
 73
     2
  0
MTEXT
  5
1CC
330
117
100
AcDbEntity
  8
Titel (ISO)
100
AcDbMText
 10
205.1127883584022
 20
160.5440745190697
 30
0.0
 40
1.800000071525573
 41
24.15695313319205
 46
0.0
 71
     5
 72
     1
  1
\fArial|b1|i0;\H1.8000;Allgemeintoleranz/\Pgeneral tolerance\PDIN ISO 2768-mK
  7
Notiztext (DIN)
 73
     2
 44
0.9442214965820312
  0
MTEXT
  5
1CD
102
{ACAD_XDICTIONARY
360
4C1
102
}
330
117
100
AcDbEntity
  8
Titel (ISO)
100
AcDbMText
 10
274.2620663553609
 20
145.2581066594439
 30
0.0
 40
2.5
 41
52.19999999999998
 46
0.0
 71
     1
 72
     1
  3
{\fArial|b1|i0|c0|p34;\H0.8x;perma-tec\H0.5x; \fArial|b0|i0|c0|p34;\H1.4986x;GmbH & Co. KG\P\H0.96757x;Hammelburger Str.21                      Tel. : +49 9704 609-0\H1.53156x; \H0.65293x;\P97717 EUERDORF / GERMANY    Fax : +49 9704 609-50\H1.33407x;
  1
 }
  7
Notiztext (DIN)
 73
     1
 44
0.6820859909057618
  0
ATTDEF
  5
1CE
102
{ACAD_XDICTIONARY
360
4C3
102
}
330
117
100
AcDbEntity
  8
Titel (ISO)
100
AcDbText
 10
317.4151665002901
 20
119.9107299359876
 30
0.0
 40
2.5
  1
A4
  7
Notiztext (DIN)
100
AcDbAttributeDefinition
280
     0
  3
Blattgröße
  2
Blattgröße_001
 70
     0
280
     0
  0
ATTDEF
  5
1D1
102
{ACAD_XDICTIONARY
360
4C6
102
}
330
117
100
AcDbEntity
  8
Titel (ISO)
100
AcDbText
 10
318.5706223294316
 20
125.0802934428788
 30
0.0
 40
5.0
  1
1
  7
Textstil29
100
AcDbAttributeDefinition
280
     0
  3
Blattnummer
  2
Blattnummer_001
 70
     0
280
     0
  0
ATTDEF
  5
1D3
102
{ACAD_XDICTIONARY
360
4C9
102
}
330
117
100
AcDbEntity
  8
Titel (ISO)
100
AcDbText
 10
140.3597187401804
 20
119.5632055745207
 30
0.0
 40
1.800000071525573
  1
A
  7
Textstil57
100
AcDbAttributeDefinition
280
     0
  3
Status1
  2
Status1_001
 70
     0
280
     0
  0
ATTDEF
  5
1D4
102
{ACAD_XDICTIONARY
360
4CC
102
}
330
117
100
AcDbEntity
  8
Titel (ISO)
100
AcDbText
 10
148.5870545390441
 20
119.5779395451783
 30
0.0
 40
1.800000071525573
  1
Art.Nr. neu hinzu
  7
Textstil57
100
AcDbAttributeDefinition
280
     0
  3
Änderungen1
  2
Änderungen1_001
 70
     0
280
     0
  0
ATTDEF
  5
1D5
102
{ACAD_XDICTIONARY
360
4CF
102
}
330
117
100
AcDbEntity
  8
Titel (ISO)
100
AcDbText
 10
172.4413693097346
 20
119.5748699679579
 30
0.0
 40
1.800000071525573
  1
21.11.13
  7
Textstil57
100
AcDbAttributeDefinition
280
     0
  3
Datum1
  2
Datum1_001
 70
     0
280
     0
  0
ATTDEF
  5
1D6
102
{ACAD_XDICTIONARY
360
4D2
102
}
330
117
100
AcDbEntity
  8
Titel (ISO)
100
AcDbText
 10
183.6909600874405
 20
119.5779395451783
 30
0.0
 40
1.800000071525573
  1
Bader
  7
Textstil57
100
AcDbAttributeDefinition
280
     0
  3
Name1
  2
Name1_001
 70
     0
280
     0
  0
ATTDEF
  5
1D7
102
{ACAD_XDICTIONARY
360
4D5
102
}
330
117
100
AcDbEntity
  8
Titel (ISO)
100
AcDbText
 10
140.3247255598686
 20
123.8132055745207
 30
0.0
 40
1.800000071525573
  1
B
  7
Textstil57
100
AcDbAttributeDefinition
280
     0
  3
Status2
  2
Status2_001
 70
     0
280
     0
  0
ATTDEF
  5
1D8
102
{ACAD_XDICTIONARY
360
4D8
102
}
330
117
100
AcDbEntity
  8
Titel (ISO)
100
AcDbText
 10
150.3704789040572
 20
124.0624552448117
 30
0.0
 40
1.800000071525573
  1
Text geändert
  7
Textstil57
100
AcDbAttributeDefinition
280
     0
  3
Änderungen2
  2
Änderungen2_001
 70
     0
280
     0
  0
ATTDEF
  5
1D9
102
{ACAD_XDICTIONARY
360
4DB
102
}
330
117
100
AcDbEntity
  8
Titel (ISO)
100
AcDbText
 10
172.4254075081888
 20
123.8248699679579
 30
0.0
 40
1.800000071525573
  1
21.04.15
  7
Textstil57
100
AcDbAttributeDefinition
280
     0
  3
Datum2
  2
Datum2_001
 70
     0
280
     0
  0
ATTDEF
  5
1DA
102
{ACAD_XDICTIONARY
360
4DE
102
}
330
117
100
AcDbEntity
  8
Titel (ISO)
100
AcDbText
 10
183.6909600874405
 20
123.8279395451783
 30
0.0
 40
1.800000071525573
  1
Bader
  7
Textstil57
100
AcDbAttributeDefinition
280
     0
  3
Name2
  2
Name2_001
 70
     0
280
     0
  0
ATTDEF
  5
1DB
102
{ACAD_XDICTIONARY
360
4E1
102
}
330
117
100
AcDbEntity
  8
Titel (ISO)
100
AcDbText
 10
140.3597187401804
 20
128.0632055745207
 30
0.0
 40
1.800000071525573
  1
C
  7
Textstil57
100
AcDbAttributeDefinition
280
     0
  3
Status3
  2
Status3_001
 70
     0
280
     0
  0
ATTDEF
  5
1DC
102
{ACAD_XDICTIONARY
360
4E4
102
}
330
117
100
AcDbEntity
  8
Titel (ISO)
100
AcDbText
 10
147.2517884481994
 20
128.324119638249
 30
0.0
 40
1.800000071525573
  1
Art. Nr. 113864 erg.
  7
Textstil57
100
AcDbAttributeDefinition
280
     0
  3
Änderungen3
  2
Änderungen3_001
 70
     0
280
     0
  0
ATTDEF
  5
1DD
102
{ACAD_XDICTIONARY
360
4E7
102
}
330
117
100
AcDbEntity
  8
Titel (ISO)
100
AcDbText
 10
172.4223379309685
 20
128.075483883402
 30
0.0
 40
1.800000071525573
  1
06.06.18
  7
Textstil57
100
AcDbAttributeDefinition
280
     0
  3
Datum3
  2
Datum3_001
 70
     0
280
     0
  0
ATTDEF
  5
1DE
102
{ACAD_XDICTIONARY
360
4EA
102
}
330
117
100
AcDbEntity
  8
Titel (ISO)
100
AcDbText
 10
183.6909600874405
 20
128.0779395451783
 30
0.0
 40
1.800000071525573
  1
Bader
  7
Textstil57
100
AcDbAttributeDefinition
280
     0
  3
Name3
  2
Name3_001
 70
     0
280
     0
  0
ATTDEF
  5
1DF
102
{ACAD_XDICTIONARY
360
4ED
102
}
330
117
100
AcDbEntity
  8
Titel (ISO)
100
AcDbText
 10
141.2627883584022
 20
132.3132055797594
 30
0.0
 40
1.800000071525573
  1

  7
Textstil57
 72
     1
 11
141.2627883584022
 21
133.2132056155222
 31
0.0
100
AcDbAttributeDefinition
280
     0
  3
Status4
  2
Status4
 70
     0
 74
     2
280
     0
  0
ATTDEF
  5
1E0
102
{ACAD_XDICTIONARY
360
4F0
102
}
330
117
100
AcDbEntity
  8
Titel (ISO)
100
AcDbText
 10
158.6264137958634
 20
132.3132055797594
 30
0.0
 40
1.800000071525573
  1

  7
Textstil57
 72
     1
 11
158.6264137958634
 21
133.2132056155222
 31
0.0
100
AcDbAttributeDefinition
280
     0
  3
Änderungen4
  2
Änderungen4
 70
     0
 74
     2
280
     0
  0
ATTDEF
  5
1E1
102
{ACAD_XDICTIONARY
360
4F3
102
}
330
117
100
AcDbEntity
  8
Titel (ISO)
100
AcDbText
 10
177.3127883584022
 20
132.3132055797594
 30
0.0
 40
1.800000071525573
  1

  7
Textstil57
 72
     1
 11
177.3127883584022
 21
133.2132056155222
 31
0.0
100
AcDbAttributeDefinition
280
     0
  3
Datum4
  2
Datum4
 70
     0
 74
     2
280
     0
  0
ATTDEF
  5
1E2
102
{ACAD_XDICTIONARY
360
4F6
102
}
330
117
100
AcDbEntity
  8
Titel (ISO)
100
AcDbText
 10
187.3627883584022
 20
132.3132055797594
 30
0.0
 40
1.800000071525573
  1

  7
Textstil57
 72
     1
 11
187.3627883584022
 21
133.2132056155222
 31
0.0
100
AcDbAttributeDefinition
280
     0
  3
Name4
  2
Name4
 70
     0
 74
     2
280
     0
  0
ATTDEF
  5
1E3
102
{ACAD_XDICTIONARY
360
4F9
102
}
330
117
100
AcDbEntity
  8
Titel (ISO)
100
AcDbText
 10
141.2627883584022
 20
136.5632055797594
 30
0.0
 40
1.800000071525573
  1

  7
Textstil57
 72
     1
 11
141.2627883584022
 21
137.4632056155222
 31
0.0
100
AcDbAttributeDefinition
280
     0
  3
Status5
  2
Status5
 70
     0
 74
     2
280
     0
  0
ATTDEF
  5
1E4
102
{ACAD_XDICTIONARY
360
4FC
102
}
330
117
100
AcDbEntity
  8
Titel (ISO)
100
AcDbText
 10
158.6264137958634
 20
136.5632055797594
 30
0.0
 40
1.800000071525573
  1

  7
Textstil57
 72
     1
 11
158.6264137958634
 21
137.4632056155222
 31
0.0
100
AcDbAttributeDefinition
280
     0
  3
Änderungen5
  2
Änderungen5
 70
     0
 74
     2
280
     0
  0
ATTDEF
  5
1E5
102
{ACAD_XDICTIONARY
360
4FF
102
}
330
117
100
AcDbEntity
  8
Titel (ISO)
100
AcDbText
 10
177.3127883584022
 20
136.5632055797594
 30
0.0
 40
1.800000071525573
  1

  7
Textstil57
 72
     1
 11
177.3127883584022
 21
137.4632056155222
 31
0.0
100
AcDbAttributeDefinition
280
     0
  3
Datum5
  2
Datum5
 70
     0
 74
     2
280
     0
  0
ATTDEF
  5
1E6
102
{ACAD_XDICTIONARY
360
502
102
}
330
117
100
AcDbEntity
  8
Titel (ISO)
100
AcDbText
 10
187.3627883584022
 20
136.5632055797594
 30
0.0
 40
1.800000071525573
  1

  7
Textstil57
 72
     1
 11
187.3627883584022
 21
137.4632056155222
 31
0.0
100
AcDbAttributeDefinition
280
     0
  3
Name5
  2
Name5
 70
     0
 74
     2
280
     0
  0
ATTDEF
  5
1E7
102
{ACAD_XDICTIONARY
360
505
102
}
330
117
100
AcDbEntity
  8
Titel (ISO)
100
AcDbText
 10
141.2627883584022
 20
140.8132055797594
 30
0.0
 40
1.800000071525573
  1

  7
Textstil57
 72
     1
 11
141.2627883584022
 21
141.7132056155222
 31
0.0
100
AcDbAttributeDefinition
280
     0
  3
Status6
  2
Status6
 70
     0
 74
     2
280
     0
  0
ATTDEF
  5
1E8
102
{ACAD_XDICTIONARY
360
508
102
}
330
117
100
AcDbEntity
  8
Titel (ISO)
100
AcDbText
 10
158.6264137958634
 20
140.8132055797594
 30
0.0
 40
1.800000071525573
  1

  7
Textstil57
 72
     1
 11
158.6264137958634
 21
141.7132056155222
 31
0.0
100
AcDbAttributeDefinition
280
     0
  3
Änderungen6
  2
Änderungen6
 70
     0
 74
     2
280
     0
  0
ATTDEF
  5
1E9
102
{ACAD_XDICTIONARY
360
50B
102
}
330
117
100
AcDbEntity
  8
Titel (ISO)
100
AcDbText
 10
177.3127883584022
 20
140.8132055797594
 30
0.0
 40
1.800000071525573
  1

  7
Textstil57
 72
     1
 11
177.3127883584022
 21
141.7132056155222
 31
0.0
100
AcDbAttributeDefinition
280
     0
  3
Datum6
  2
Datum6
 70
     0
 74
     2
280
     0
  0
ATTDEF
  5
1EA
102
{ACAD_XDICTIONARY
360
50E
102
}
330
117
100
AcDbEntity
  8
Titel (ISO)
100
AcDbText
 10
187.3627883584022
 20
140.8132055797594
 30
0.0
 40
1.800000071525573
  1

  7
Textstil57
 72
     1
 11
187.3627883584022
 21
141.7132056155222
 31
0.0
100
AcDbAttributeDefinition
280
     0
  3
Name6
  2
Name6
 70
     0
 74
     2
280
     0
  0
ATTDEF
  5
1EB
102
{ACAD_XDICTIONARY
360
511
102
}
330
117
100
AcDbEntity
  8
Titel (ISO)
100
AcDbText
 10
141.2627883584022
 20
145.0632055797594
 30
0.0
 40
1.800000071525573
  1

  7
Textstil57
 72
     1
 11
141.2627883584022
 21
145.9632056155222
 31
0.0
100
AcDbAttributeDefinition
280
     0
  3
Status7
  2
Status7
 70
     0
 74
     2
280
     0
  0
ATTDEF
  5
1EC
102
{ACAD_XDICTIONARY
360
514
102
}
330
117
100
AcDbEntity
  8
Titel (ISO)
100
AcDbText
 10
158.6264137958634
 20
145.0632055797594
 30
0.0
 40
1.800000071525573
  1

  7
Textstil57
 72
     1
 11
158.6264137958634
 21
145.9632056155222
 31
0.0
100
AcDbAttributeDefinition
280
     0
  3
Änderungen7
  2
Änderungen7
 70
     0
 74
     2
280
     0
  0
ATTDEF
  5
1ED
102
{ACAD_XDICTIONARY
360
517
102
}
330
117
100
AcDbEntity
  8
Titel (ISO)
100
AcDbText
 10
177.3127883584022
 20
145.0632055797594
 30
0.0
 40
1.800000071525573
  1

  7
Textstil57
 72
     1
 11
177.3127883584022
 21
145.9632056155222
 31
0.0
100
AcDbAttributeDefinition
280
     0
  3
Datum7
  2
Datum7
 70
     0
 74
     2
280
     0
  0
ATTDEF
  5
1EE
102
{ACAD_XDICTIONARY
360
51A
102
}
330
117
100
AcDbEntity
  8
Titel (ISO)
100
AcDbText
 10
187.3627883584022
 20
145.0632055797594
 30
0.0
 40
1.800000071525573
  1

  7
Textstil57
 72
     1
 11
187.3627883584022
 21
145.9632056155222
 31
0.0
100
AcDbAttributeDefinition
280
     0
  3
Name7
  2
Name7
 70
     0
 74
     2
280
     0
  0
ATTDEF
  5
1EF
102
{ACAD_XDICTIONARY
360
51D
102
}
330
117
100
AcDbEntity
  8
Titel (ISO)
100
AcDbText
 10
141.2627883584022
 20
149.3132055797594
 30
0.0
 40
1.800000071525573
  1

  7
Textstil57
 72
     1
 11
141.2627883584022
 21
150.2132056155222
 31
0.0
100
AcDbAttributeDefinition
280
     0
  3
Status8
  2
Status8
 70
     0
 74
     2
280
     0
  0
ATTDEF
  5
1F0
102
{ACAD_XDICTIONARY
360
520
102
}
330
117
100
AcDbEntity
  8
Titel (ISO)
100
AcDbText
 10
158.6264137958634
 20
149.3132055797594
 30
0.0
 40
1.800000071525573
  1

  7
Textstil57
 72
     1
 11
158.6264137958634
 21
150.2132056155222
 31
0.0
100
AcDbAttributeDefinition
280
     0
  3
Änderungen8
  2
Änderungen8
 70
     0
 74
     2
280
     0
  0
ATTDEF
  5
1F1
102
{ACAD_XDICTIONARY
360
523
102
}
330
117
100
AcDbEntity
  8
Titel (ISO)
100
AcDbText
 10
177.3127883584022
 20
149.3132055797594
 30
0.0
 40
1.800000071525573
  1

  7
Textstil57
 72
     1
 11
177.3127883584022
 21
150.2132056155222
 31
0.0
100
AcDbAttributeDefinition
280
     0
  3
Datum8
  2
Datum8
 70
     0
 74
     2
280
     0
  0
ATTDEF
  5
1F2
102
{ACAD_XDICTIONARY
360
526
102
}
330
117
100
AcDbEntity
  8
Titel (ISO)
100
AcDbText
 10
187.3627883584022
 20
149.3132055797594
 30
0.0
 40
1.800000071525573
  1

  7
Textstil57
 72
     1
 11
187.3627883584022
 21
150.2132056155222
 31
0.0
100
AcDbAttributeDefinition
280
     0
  3
Name8
  2
Name8
 70
     0
 74
     2
280
     0
  0
ATTDEF
  5
1F4
102
{ACAD_XDICTIONARY
360
529
102
}
330
117
100
AcDbEntity
  8
Titel (ISO)
100
AcDbText
 10
149.4913355969909
 20
158.8668550539054
 30
0.0
 40
3.499999940395355
  1
siehe Tabelle
  7
Textstil59
100
AcDbAttributeDefinition
280
     0
  3
Artikelnummer_neu
  2
Artikelnummer_neu_001
 70
     0
280
     0
  0
ATTDEF
  5
1F5
102
{ACAD_XDICTIONARY
360
52C
102
}
330
117
100
AcDbEntity
  8
Titel (ISO)
100
AcDbText
 10
164.8127883584022
 20
153.8382056155221
 30
0.0
 40
2.5
  1

  7
Textstil54
 72
     1
 11
164.8127883584022
 21
156.3382056155221
 31
0.0
100
AcDbAttributeDefinition
280
     0
  3
Artikelnummer_alt
  2
Artikelnummer_alt
 70
     0
 74
     3
280
     0
  0
ATTDEF
  5
1F7
102
{ACAD_XDICTIONARY
360
52F
102
}
330
117
100
AcDbEntity
  8
Titel (ISO)
100
AcDbText
 10
310.8360288650731
 20
164.4632055559175
 30
0.0
 40
3.000000119209289
  1

  7
Textstil56
 72
     1
 11
310.8360288650731
 21
165.9632056155222
 31
0.0
100
AcDbAttributeDefinition
280
     0
  3
Material
  2
Material
 70
     0
 74
     2
280
     0
  0
ATTDEF
  5
1F8
102
{ACAD_XDICTIONARY
360
532
102
}
330
117
100
AcDbEntity
  8
Titel (ISO)
100
AcDbText
 10
263.4438747667064
 20
164.4570663927457
 30
0.0
 40
3.000000119209289
  1
1:1
  7
Textstil56
100
AcDbAttributeDefinition
280
     0
  3
Maßstab
  2
Maßstab_001
 70
     0
280
     0
  0
ATTDEF
  5
1F9
102
{ACAD_XDICTIONARY
360
535
102
}
330
117
100
AcDbEntity
  8
Titel (ISO)
100
AcDbText
 10
205.4223379309685
 20
145.075483883402
 30
0.0
 40
1.800000071525573
  1
06.06.18
  7
Textstil57
100
AcDbAttributeDefinition
280
     0
  3
Gezeichnet_Datum
  2
Gezeichnet_Datum_001
 70
     0
280
     0
  0
ATTDEF
  5
1FA
102
{ACAD_XDICTIONARY
360
538
102
}
330
117
100
AcDbEntity
  8
Titel (ISO)
100
AcDbText
 10
223.5409600874405
 20
145.0779395451783
 30
0.0
 40
1.800000071525573
  1
Bader
  7
Textstil57
100
AcDbAttributeDefinition
280
     0
  3
Gezeichnet_Name
  2
Gezeichnet_Name_001
 70
     0
280
     0
  0
ATTDEF
  5
1FC
102
{ACAD_XDICTIONARY
360
53B
102
}
330
117
100
AcDbEntity
  8
Titel (ISO)
100
AcDbText
 10
274.0127883584021
 20
120.7378396112869
 30
0.0
 40
4.000000059604644
  1

  7
Textstil53
 72
     1
 11
274.0127883584021
 21
122.7378396410893
 31
0.0
100
AcDbAttributeDefinition
280
     0
  3
Benennung
  2
Benennung
 70
     0
 74
     2
280
     0
  0
ATTDEF
  5
1FD
102
{ACAD_XDICTIONARY
360
53E
102
}
330
117
100
AcDbEntity
  8
Titel (ISO)
100
AcDbText
 10
267.5016718628334
 20
114.9640582685513
 30
0.0
 40
2.5
  1
AN VAS 01 C
  7
Textstil54
100
AcDbAttributeDefinition
280
     0
  3
Zeichnungsnummer
  2
Zeichnungsnummer_001
 70
     0
280
     0
  0
ATTDEF
  5
1FE
102
{ACAD_XDICTIONARY
360
541
102
}
330
117
100
AcDbEntity
  8
Titel (ISO)
100
AcDbText
 10
209.4732556850479
 20
114.9640582685513
 30
0.0
 40
2.5
  1
AN VAS 01 B
  7
Textstil54
100
AcDbAttributeDefinition
280
     0
  3
Ers._für
  2
Ers._für_001
 70
     0
280
     0
  0
ATTDEF
  5
1FF
102
{ACAD_XDICTIONARY
360
544
102
}
330
117
100
AcDbEntity
  8
Titel (ISO)
100
AcDbText
 10
194.5961440228488
 20
120.7705817558491
 30
0.0
 40
4.000000059604644
  1
Anschlussteile
  7
Textstil53
100
AcDbAttributeDefinition
280
     0
  3
Projekt
  2
Projekt_001
 70
     0
280
     0
  0
ATTDEF
  5
200
102
{ACAD_XDICTIONARY
360
547
102
}
330
117
100
AcDbEntity
  8
Titel (ISO)
100
AcDbText
 10
205.4223379309686
 20
140.825483883402
 30
0.0
 40
1.800000071525573
  1
06.06.18
  7
Textstil57
100
AcDbAttributeDefinition
280
     0
  3
Kontroll_Datum
  2
Kontroll_Datum_001
 70
     0
280
     0
  0
ATTDEF
  5
201
102
{ACAD_XDICTIONARY
360
54A
102
}
330
117
100
AcDbEntity
  8
Titel (ISO)
100
AcDbText
 10
223.4095821824103
 20
140.8138194899647
 30
0.0
 40
1.800000071525573
  1
Scheit
  7
Textstil57
100
AcDbAttributeDefinition
280
     0
  3
Kontroll__Name
  2
Kontroll__Name_001
 70
     0
280
     0
  0
ENDBLK
  5
119
330
117
100
AcDbEntity
  8
0
100
AcDbBlockEnd
  0
BLOCK
  5
2C0
330
2BF
100
AcDbEntity
  8
0
100
AcDbBlockBegin
  2
*D5
 70
     1
 10
0.0
 20
0.0
 30
0.0
  3
*D5
  1

  0
LINE
  5
39D
330
2BF
100
AcDbEntity
  8
Bemaßung (ISO)
440
 16777216
100
AcDbLine
 10
100.9826096858766
 20
94.5975631590068
 30
0.0
 11
85.92672067299913
 21
94.59756315900678
 31
0.0
  0
LINE
  5
39E
330
2BF
100
AcDbEntity
  8
Bemaßung (ISO)
440
 16777216
100
AcDbLine
 10
100.9826096858766
 20
266.7054700471084
 30
0.0
 11
85.92672067299909
 21
266.7054700471084
 31
0.0
  0
LINE
  5
39F
330
2BF
100
AcDbEntity
  8
Bemaßung (ISO)
440
 16777216
100
AcDbLine
 10
87.92672067299912
 20
97.0975631590068
 30
0.0
 11
87.92672067299909
 21
264.2054700471084
 31
0.0
  0
SOLID
  5
3A0
330
2BF
100
AcDbEntity
  8
Bemaßung (ISO)
440
 16777216
100
AcDbTrace
 10
87.51005400633244
 20
97.0975631590068
 30
0.0
 11
88.3433873396658
 21
97.0975631590068
 31
0.0
 12
87.92672067299914
 22
94.59756315900678
 32
0.0
 13
87.92672067299914
 23
94.59756315900678
 33
0.0
  0
SOLID
  5
3A1
330
2BF
100
AcDbEntity
  8
Bemaßung (ISO)
440
 16777216
100
AcDbTrace
 10
87.51005400633243
 20
264.2054700471084
 30
0.0
 11
88.34338733966577
 21
264.2054700471084
 31
0.0
 12
87.92672067299909
 22
266.7054700471084
 32
0.0
 13
87.92672067299909
 23
266.7054700471084
 33
0.0
  0
MTEXT
  5
3A2
330
2BF
100
AcDbEntity
  8
Bemaßung (ISO)
440
 16777216
100
AcDbMText
 10
85.02672065844723
 20
168.0688347948624
 30
0.0
 40
2.5
 41
0.0
 46
0.0
 71
     1
 72
     1
  1
\A1; L
  7
Notiztext (DIN)
 11
0.0000000000000001
 21
1.0
 31
0.0
 73
     1
 44
1.0
  0
POINT
  5
3A3
330
2BF
100
AcDbEntity
  8
Defpoints
 62
     0
440
 16777216
100
AcDbPoint
 10
100.9826096858766
 20
94.5975631590068
 30
0.0
  0
POINT
  5
3A4
330
2BF
100
AcDbEntity
  8
Defpoints
 62
     0
440
 16777216
100
AcDbPoint
 10
100.9826096858766
 20
266.7054700471084
 30
0.0
  0
POINT
  5
3A5
330
2BF
100
AcDbEntity
  8
Defpoints
 62
     0
440
 16777216
100
AcDbPoint
 10
87.92672067299909
 20
266.7054700471084
 30
0.0
  0
ENDBLK
  5
2C1
330
2BF
100
AcDbEntity
  8
0
100
AcDbBlockEnd
  0
BLOCK
  5
3A8
330
3A7
100
AcDbEntity
  8
0
100
AcDbBlockBegin
  2
*D6
 70
     1
 10
0.0
 20
0.0
 30
0.0
  3
*D6
  1

  0
LINE
  5
48B
330
3A7
100
AcDbEntity
  8
Bemaßung (ISO)
440
 16777216
100
AcDbLine
 10
108.9826096858765
 20
94.59756315900676
 30
0.0
 11
108.9826096858765
 21
85.06517083249653
 31
0.0
  0
LINE
  5
48C
330
3A7
100
AcDbEntity
  8
Bemaßung (ISO)
440
 16777216
100
AcDbLine
 10
100.9826096858765
 20
94.59756315900676
 30
0.0
 11
100.9826096858765
 21
85.06517083249653
 31
0.0
  0
LINE
  5
48D
330
3A7
100
AcDbEntity
  8
Bemaßung (ISO)
440
 16777216
100
AcDbLine
 10
106.4826096858765
 20
87.06517083249654
 30
0.0
 11
103.4826096858765
 21
87.06517083249654
 31
0.0
  0
SOLID
  5
48E
330
3A7
100
AcDbEntity
  8
Bemaßung (ISO)
440
 16777216
100
AcDbTrace
 10
106.4826096858765
 20
87.4818374991632
 30
0.0
 11
106.4826096858765
 21
86.64850416582986
 31
0.0
 12
108.9826096858765
 22
87.06517083249654
 32
0.0
 13
108.9826096858765
 23
87.06517083249654
 33
0.0
  0
SOLID
  5
48F
330
3A7
100
AcDbEntity
  8
Bemaßung (ISO)
440
 16777216
100
AcDbTrace
 10
103.4826096858765
 20
87.4818374991632
 30
0.0
 11
103.4826096858765
 21
86.64850416582986
 31
0.0
 12
100.9826096858765
 22
87.06517083249654
 32
0.0
 13
100.9826096858765
 23
87.06517083249654
 33
0.0
  0
MTEXT
  5
490
330
3A7
100
AcDbEntity
  8
Bemaßung (ISO)
440
 16777216
100
AcDbMText
 10
102.7379719511832
 20
91.22666876550665
 30
0.0
 40
2.5
 41
0.0
 46
0.0
 71
     1
 72
     1
  1
\A1;{\fAIGDT|b0|i0;\H2.5000;\ln}\fArial|b0|i0;\H2.5000;8
  7
Notiztext (DIN)
 73
     1
 44
1.0
  0
POINT
  5
491
330
3A7
100
AcDbEntity
  8
Defpoints
 62
     0
440
 16777216
100
AcDbPoint
 10
108.9826096858765
 20
94.59756315900676
 30
0.0
  0
POINT
  5
492
330
3A7
100
AcDbEntity
  8
Defpoints
 62
     0
440
 16777216
100
AcDbPoint
 10
100.9826096858765
 20
94.59756315900676
 30
0.0
  0
POINT
  5
493
330
3A7
100
AcDbEntity
  8
Defpoints
 62
     0
440
 16777216
100
AcDbPoint
 10
100.9826096858765
 20
87.06517083249654
 30
0.0
  0
ENDBLK
  5
3A9
330
3A7
100
AcDbEntity
  8
0
100
AcDbBlockEnd
  0
BLOCK
  5
495
330
494
100
AcDbEntity
  8
0
100
AcDbBlockBegin
  2
Tabelle1
 70
     0
 10
0.0
 20
0.0
 30
0.0
  3
Tabelle1
  1

  0
LINE
  5
497
330
494
100
AcDbEntity
  8
Symbol (ISO)
100
AcDbLine
 10
9.999999999999928
 20
86.02800000000002
 30
0.0
 11
72.82541509160421
 21
86.02800000000002
 31
0.0
  0
LINE
  5
498
330
494
100
AcDbEntity
  8
Symbol (ISO)
100
AcDbLine
 10
9.999999999999928
 20
86.02800000000002
 30
0.0
 11
9.999999999999928
 21
81.75000000000002
 31
0.0
  0
MTEXT
  5
499
330
494
100
AcDbEntity
  8
Symbol (ISO)
100
AcDbMText
 10
18.74123638654945
 20
82.6189924530089
 30
0.0
 40
2.5
 41
0.0
 46
0.0
 71
     7
 72
     1
  1
Artikelnummer
  7
Notiztext (DIN)
 73
     1
 44
1.0
  0
LINE
  5
49A
330
494
100
AcDbEntity
  8
Symbol (ISO)
100
AcDbLine
 10
49.99999999999992
 20
86.02800000000002
 30
0.0
 11
49.99999999999992
 21
81.75000000000002
 31
0.0
  0
MTEXT
  5
49B
330
494
100
AcDbEntity
  8
Symbol (ISO)
100
AcDbMText
 10
60.70986226435262
 20
82.63900007450581
 30
0.0
 40
2.5
 41
0.0
 46
0.0
 71
     7
 72
     1
  1
L
  7
Notiztext (DIN)
 73
     1
 44
1.0
  0
LINE
  5
49C
330
494
100
AcDbEntity
  8
Symbol (ISO)
100
AcDbLine
 10
72.82541509160421
 20
86.02800000000002
 30
0.0
 11
72.82541509160421
 21
81.75000000000002
 31
0.0
  0
MTEXT
  5
49D
330
494
100
AcDbEntity
  8
Symbol (ISO)
100
AcDbMText
 10
29.51505336910479
 20
77.75000000000003
 30
0.0
 40
2.5
 41
0.0
 46
0.0
 71
     7
 72
     1
  1
 
  7
Notiztext (DIN)
 73
     1
 44
1.0
  0
MTEXT
  5
49E
330
494
100
AcDbEntity
  8
Symbol (ISO)
100
AcDbMText
 10
60.92776091490694
 20
77.75000000000003
 30
0.0
 40
2.5
 41
0.0
 46
0.0
 71
     7
 72
     1
  1
 
  7
Notiztext (DIN)
 73
     1
 44
1.0
  0
LINE
  5
49F
330
494
100
AcDbEntity
  8
Symbol (ISO)
100
AcDbLine
 10
9.999999999999928
 20
81.75000000000002
 30
0.0
 11
72.82541509160421
 21
81.75000000000002
 31
0.0
  0
MTEXT
  5
4A0
330
494
100
AcDbEntity
  8
Symbol (ISO)
100
AcDbMText
 10
24.57292491567209
 20
72.22427603229883
 30
0.0
 40
2.5
 41
0.0
 46
0.0
 71
     7
 72
     1
  1
101549
  7
Notiztext (DIN)
 73
     1
 44
1.0
  0
MTEXT
  5
4A1
330
494
100
AcDbEntity
  8
Symbol (ISO)
100
AcDbMText
 10
54.53269831554681
 20
72.22427603229883
 30
0.0
 40
2.5
 41
0.0
 46
0.0
 71
     7
 72
     1
  1
1000 mm
  7
Notiztext (DIN)
 73
     1
 44
1.0
  0
LINE
  5
4A2
330
494
100
AcDbEntity
  8
Symbol (ISO)
100
AcDbLine
 10
9.999999999999928
 20
76.25000000000003
 30
0.0
 11
72.82541509160421
 21
76.25000000000003
 31
0.0
  0
MTEXT
  5
4A3
330
494
100
AcDbEntity
  8
Symbol (ISO)
100
AcDbMText
 10
24.57292491567209
 20
66.72427603229883
 30
0.0
 40
2.5
 41
0.0
 46
0.0
 71
     7
 72
     1
  1
101550
  7
Notiztext (DIN)
 73
     1
 44
1.0
  0
MTEXT
  5
4A4
330
494
100
AcDbEntity
  8
Symbol (ISO)
100
AcDbMText
 10
54.53269831554681
 20
66.72427603229883
 30
0.0
 40
2.5
 41
0.0
 46
0.0
 71
     7
 72
     1
  1
1500 mm
  7
Notiztext (DIN)
 73
     1
 44
1.0
  0
LINE
  5
4A5
330
494
100
AcDbEntity
  8
Symbol (ISO)
100
AcDbLine
 10
9.999999999999928
 20
70.75000000000002
 30
0.0
 11
72.82541509160421
 21
70.75000000000002
 31
0.0
  0
LINE
  5
4A6
330
494
100
AcDbEntity
  8
Symbol (ISO)
100
AcDbLine
 10
9.999999999999928
 20
65.25000000000003
 30
0.0
 11
72.82541509160421
 21
65.25000000000003
 31
0.0
  0
LINE
  5
4A7
330
494
100
AcDbEntity
  8
Symbol (ISO)
100
AcDbLine
 10
9.999999999999928
 20
81.75000000000002
 30
0.0
 11
9.999999999999928
 21
65.25000000000003
 31
0.0
  0
LINE
  5
4A8
330
494
100
AcDbEntity
  8
Symbol (ISO)
100
AcDbLine
 10
49.99999999999992
 20
81.75000000000002
 30
0.0
 11
49.99999999999992
 21
65.25000000000003
 31
0.0
  0
LINE
  5
4A9
330
494
100
AcDbEntity
  8
Symbol (ISO)
100
AcDbLine
 10
72.82541509160421
 20
81.75000000000002
 30
0.0
 11
72.82541509160421
 21
65.25000000000003
 31
0.0
  0
ENDBLK
  5
496
330
494
100
AcDbEntity
  8
0
100
AcDbBlockEnd
  0
ENDSEC
  0
SECTION
  2
ENTITIES
  0
INSERT
  5
116
330
70
100
AcDbEntity
  8
0
100
AcDbBlockReference
  2
Ränder Standardrahmen
 10
0.0
 20
0.0
 30
0.0
  0
INSERT
  5
202
330
70
100
AcDbEntity
  8
0
100
AcDbBlockReference
 66
     1
  2
Schriftfelder perma_schriftfeld
 10
-127.5127883584023
 20
-104.0882056155221
 30
0.0
  0
ATTRIB
  5
204
102
{ACAD_XDICTIONARY
360
54D
102
}
330
202
100
AcDbEntity
  8
Titel (ISO)
100
AcDbText
 10
189.9023781418878
 20
15.82252432046546
 30
0.0
 40
2.5
  1
A4
  7
Notiztext (DIN)
100
AcDbAttribute
280
     0
  2
Blattgröße_001
 70
     0
280
     0
  0
ATTRIB
  5
205
102
{ACAD_XDICTIONARY
360
550
102
}
330
202
100
AcDbEntity
  8
Titel (ISO)
100
AcDbText
 10
191.0578339710292
 20
20.99208782735671
 30
0.0
 40
5.0
  1
1
  7
Textstil29
100
AcDbAttribute
280
     0
  2
Blattnummer_001
 70
     0
280
     0
  0
ATTRIB
  5
207
102
{ACAD_XDICTIONARY
360
553
102
}
330
202
100
AcDbEntity
  8
Titel (ISO)
100
AcDbText
 10
12.84693038177812
 20
15.47499995899853
 30
0.0
 40
1.800000071525573
  1
A
  7
Textstil57
100
AcDbAttribute
280
     0
  2
Status1_001
 70
     0
280
     0
  0
ATTRIB
  5
208
102
{ACAD_XDICTIONARY
360
556
102
}
330
202
100
AcDbEntity
  8
Titel (ISO)
100
AcDbText
 10
21.07426618064177
 20
15.48973392965615
 30
0.0
 40
1.800000071525573
  1
Art.Nr. neu hinzu
  7
Textstil57
100
AcDbAttribute
280
     0
  2
Änderungen1_001
 70
     0
280
     0
  0
ATTRIB
  5
209
102
{ACAD_XDICTIONARY
360
559
102
}
330
202
100
AcDbEntity
  8
Titel (ISO)
100
AcDbText
 10
44.92858095133228
 20
15.4866643524358
 30
0.0
 40
1.800000071525573
  1
21.11.13
  7
Textstil57
100
AcDbAttribute
280
     0
  2
Datum1_001
 70
     0
280
     0
  0
ATTRIB
  5
20A
102
{ACAD_XDICTIONARY
360
55C
102
}
330
202
100
AcDbEntity
  8
Titel (ISO)
100
AcDbText
 10
56.17817172903824
 20
15.48973392965613
 30
0.0
 40
1.800000071525573
  1
Bader
  7
Textstil57
100
AcDbAttribute
280
     0
  2
Name1_001
 70
     0
280
     0
  0
ATTRIB
  5
20B
102
{ACAD_XDICTIONARY
360
55F
102
}
330
202
100
AcDbEntity
  8
Titel (ISO)
100
AcDbText
 10
12.81193720146633
 20
19.72499995899854
 30
0.0
 40
1.800000071525573
  1
B
  7
Textstil57
100
AcDbAttribute
280
     0
  2
Status2_001
 70
     0
280
     0
  0
ATTRIB
  5
20C
102
{ACAD_XDICTIONARY
360
562
102
}
330
202
100
AcDbEntity
  8
Titel (ISO)
100
AcDbText
 10
22.85769054565493
 20
19.97424962928954
 30
0.0
 40
1.800000071525573
  1
Text geändert
  7
Textstil57
100
AcDbAttribute
280
     0
  2
Änderungen2_001
 70
     0
280
     0
  0
ATTRIB
  5
20D
102
{ACAD_XDICTIONARY
360
565
102
}
330
202
100
AcDbEntity
  8
Titel (ISO)
100
AcDbText
 10
44.91261914978656
 20
19.7366643524358
 30
0.0
 40
1.800000071525573
  1
21.04.15
  7
Textstil57
100
AcDbAttribute
280
     0
  2
Datum2_001
 70
     0
280
     0
  0
ATTRIB
  5
20E
102
{ACAD_XDICTIONARY
360
568
102
}
330
202
100
AcDbEntity
  8
Titel (ISO)
100
AcDbText
 10
56.17817172903824
 20
19.73973392965613
 30
0.0
 40
1.800000071525573
  1
Bader
  7
Textstil57
100
AcDbAttribute
280
     0
  2
Name2_001
 70
     0
280
     0
  0
ATTRIB
  5
20F
102
{ACAD_XDICTIONARY
360
56B
102
}
330
202
100
AcDbEntity
  8
Titel (ISO)
100
AcDbText
 10
12.84693038177812
 20
23.97499995899854
 30
0.0
 40
1.800000071525573
  1
C
  7
Textstil57
100
AcDbAttribute
280
     0
  2
Status3_001
 70
     0
280
     0
  0
ATTRIB
  5
210
102
{ACAD_XDICTIONARY
360
56E
102
}
330
202
100
AcDbEntity
  8
Titel (ISO)
100
AcDbText
 10
19.73900008979715
 20
24.23591402272681
 30
0.0
 40
1.800000071525573
  1
Art. Nr. 113864 erg.
  7
Textstil57
100
AcDbAttribute
280
     0
  2
Änderungen3_001
 70
     0
280
     0
  0
ATTRIB
  5
211
102
{ACAD_XDICTIONARY
360
571
102
}
330
202
100
AcDbEntity
  8
Titel (ISO)
100
AcDbText
 10
44.90954957256622
 20
23.98727826787988
 30
0.0
 40
1.800000071525573
  1
06.06.18
  7
Textstil57
100
AcDbAttribute
280
     0
  2
Datum3_001
 70
     0
280
     0
  0
ATTRIB
  5
212
102
{ACAD_XDICTIONARY
360
574
102
}
330
202
100
AcDbEntity
  8
Titel (ISO)
100
AcDbText
 10
56.17817172903824
 20
23.98973392965614
 30
0.0
 40
1.800000071525573
  1
Bader
  7
Textstil57
100
AcDbAttribute
280
     0
  2
Name3_001
 70
     0
280
     0
  0
ATTRIB
  5
213
102
{ACAD_XDICTIONARY
360
577
102
}
330
202
100
AcDbEntity
  8
Titel (ISO)
100
AcDbText
 10
13.74999999999993
 20
28.22499996423724
 30
0.0
 40
1.800000071525573
  1

  7
Textstil57
 72
     1
 11
13.74999999999993
 21
29.12500000000003
 31
0.0
100
AcDbAttribute
280
     0
  2
Status4
 70
     0
 74
     2
280
     0
  0
ATTRIB
  5
214
102
{ACAD_XDICTIONARY
360
57A
102
}
330
202
100
AcDbEntity
  8
Titel (ISO)
100
AcDbText
 10
31.11362543746111
 20
28.22499996423724
 30
0.0
 40
1.800000071525573
  1

  7
Textstil57
 72
     1
 11
31.11362543746111
 21
29.12500000000003
 31
0.0
100
AcDbAttribute
280
     0
  2
Änderungen4
 70
     0
 74
     2
280
     0
  0
ATTRIB
  5
215
102
{ACAD_XDICTIONARY
360
57D
102
}
330
202
100
AcDbEntity
  8
Titel (ISO)
100
AcDbText
 10
49.79999999999989
 20
28.22499996423724
 30
0.0
 40
1.800000071525573
  1

  7
Textstil57
 72
     1
 11
49.79999999999989
 21
29.12500000000003
 31
0.0
100
AcDbAttribute
280
     0
  2
Datum4
 70
     0
 74
     2
280
     0
  0
ATTRIB
  5
216
102
{ACAD_XDICTIONARY
360
580
102
}
330
202
100
AcDbEntity
  8
Titel (ISO)
100
AcDbText
 10
59.84999999999992
 20
28.22499996423724
 30
0.0
 40
1.800000071525573
  1

  7
Textstil57
 72
     1
 11
59.84999999999992
 21
29.12500000000003
 31
0.0
100
AcDbAttribute
280
     0
  2
Name4
 70
     0
 74
     2
280
     0
  0
ATTRIB
  5
217
102
{ACAD_XDICTIONARY
360
583
102
}
330
202
100
AcDbEntity
  8
Titel (ISO)
100
AcDbText
 10
13.74999999999993
 20
32.47499996423726
 30
0.0
 40
1.800000071525573
  1

  7
Textstil57
 72
     1
 11
13.74999999999993
 21
33.37500000000004
 31
0.0
100
AcDbAttribute
280
     0
  2
Status5
 70
     0
 74
     2
280
     0
  0
ATTRIB
  5
218
102
{ACAD_XDICTIONARY
360
586
102
}
330
202
100
AcDbEntity
  8
Titel (ISO)
100
AcDbText
 10
31.11362543746111
 20
32.47499996423726
 30
0.0
 40
1.800000071525573
  1

  7
Textstil57
 72
     1
 11
31.11362543746111
 21
33.37500000000004
 31
0.0
100
AcDbAttribute
280
     0
  2
Änderungen5
 70
     0
 74
     2
280
     0
  0
ATTRIB
  5
219
102
{ACAD_XDICTIONARY
360
589
102
}
330
202
100
AcDbEntity
  8
Titel (ISO)
100
AcDbText
 10
49.79999999999989
 20
32.47499996423726
 30
0.0
 40
1.800000071525573
  1

  7
Textstil57
 72
     1
 11
49.79999999999989
 21
33.37500000000004
 31
0.0
100
AcDbAttribute
280
     0
  2
Datum5
 70
     0
 74
     2
280
     0
  0
ATTRIB
  5
21A
102
{ACAD_XDICTIONARY
360
58C
102
}
330
202
100
AcDbEntity
  8
Titel (ISO)
100
AcDbText
 10
59.84999999999992
 20
32.47499996423726
 30
0.0
 40
1.800000071525573
  1

  7
Textstil57
 72
     1
 11
59.84999999999992
 21
33.37500000000004
 31
0.0
100
AcDbAttribute
280
     0
  2
Name5
 70
     0
 74
     2
280
     0
  0
ATTRIB
  5
21B
102
{ACAD_XDICTIONARY
360
58F
102
}
330
202
100
AcDbEntity
  8
Titel (ISO)
100
AcDbText
 10
13.74999999999993
 20
36.72499996423726
 30
0.0
 40
1.800000071525573
  1

  7
Textstil57
 72
     1
 11
13.74999999999993
 21
37.62500000000005
 31
0.0
100
AcDbAttribute
280
     0
  2
Status6
 70
     0
 74
     2
280
     0
  0
ATTRIB
  5
21C
102
{ACAD_XDICTIONARY
360
592
102
}
330
202
100
AcDbEntity
  8
Titel (ISO)
100
AcDbText
 10
31.11362543746111
 20
36.72499996423726
 30
0.0
 40
1.800000071525573
  1

  7
Textstil57
 72
     1
 11
31.11362543746111
 21
37.62500000000005
 31
0.0
100
AcDbAttribute
280
     0
  2
Änderungen6
 70
     0
 74
     2
280
     0
  0
ATTRIB
  5
21D
102
{ACAD_XDICTIONARY
360
595
102
}
330
202
100
AcDbEntity
  8
Titel (ISO)
100
AcDbText
 10
49.79999999999989
 20
36.72499996423726
 30
0.0
 40
1.800000071525573
  1

  7
Textstil57
 72
     1
 11
49.79999999999989
 21
37.62500000000005
 31
0.0
100
AcDbAttribute
280
     0
  2
Datum6
 70
     0
 74
     2
280
     0
  0
ATTRIB
  5
21E
102
{ACAD_XDICTIONARY
360
598
102
}
330
202
100
AcDbEntity
  8
Titel (ISO)
100
AcDbText
 10
59.84999999999992
 20
36.72499996423726
 30
0.0
 40
1.800000071525573
  1

  7
Textstil57
 72
     1
 11
59.84999999999992
 21
37.62500000000005
 31
0.0
100
AcDbAttribute
280
     0
  2
Name6
 70
     0
 74
     2
280
     0
  0
ATTRIB
  5
21F
102
{ACAD_XDICTIONARY
360
59B
102
}
330
202
100
AcDbEntity
  8
Titel (ISO)
100
AcDbText
 10
13.74999999999993
 20
40.97499996423727
 30
0.0
 40
1.800000071525573
  1

  7
Textstil57
 72
     1
 11
13.74999999999993
 21
41.87500000000006
 31
0.0
100
AcDbAttribute
280
     0
  2
Status7
 70
     0
 74
     2
280
     0
  0
ATTRIB
  5
220
102
{ACAD_XDICTIONARY
360
59E
102
}
330
202
100
AcDbEntity
  8
Titel (ISO)
100
AcDbText
 10
31.11362543746111
 20
40.97499996423727
 30
0.0
 40
1.800000071525573
  1

  7
Textstil57
 72
     1
 11
31.11362543746111
 21
41.87500000000006
 31
0.0
100
AcDbAttribute
280
     0
  2
Änderungen7
 70
     0
 74
     2
280
     0
  0
ATTRIB
  5
221
102
{ACAD_XDICTIONARY
360
5A1
102
}
330
202
100
AcDbEntity
  8
Titel (ISO)
100
AcDbText
 10
49.79999999999989
 20
40.97499996423727
 30
0.0
 40
1.800000071525573
  1

  7
Textstil57
 72
     1
 11
49.79999999999989
 21
41.87500000000006
 31
0.0
100
AcDbAttribute
280
     0
  2
Datum7
 70
     0
 74
     2
280
     0
  0
ATTRIB
  5
222
102
{ACAD_XDICTIONARY
360
5A4
102
}
330
202
100
AcDbEntity
  8
Titel (ISO)
100
AcDbText
 10
59.84999999999992
 20
40.97499996423727
 30
0.0
 40
1.800000071525573
  1

  7
Textstil57
 72
     1
 11
59.84999999999992
 21
41.87500000000006
 31
0.0
100
AcDbAttribute
280
     0
  2
Name7
 70
     0
 74
     2
280
     0
  0
ATTRIB
  5
223
102
{ACAD_XDICTIONARY
360
5A7
102
}
330
202
100
AcDbEntity
  8
Titel (ISO)
100
AcDbText
 10
13.74999999999993
 20
45.22499996423729
 30
0.0
 40
1.800000071525573
  1

  7
Textstil57
 72
     1
 11
13.74999999999993
 21
46.12500000000007
 31
0.0
100
AcDbAttribute
280
     0
  2
Status8
 70
     0
 74
     2
280
     0
  0
ATTRIB
  5
224
102
{ACAD_XDICTIONARY
360
5AA
102
}
330
202
100
AcDbEntity
  8
Titel (ISO)
100
AcDbText
 10
31.11362543746111
 20
45.22499996423729
 30
0.0
 40
1.800000071525573
  1

  7
Textstil57
 72
     1
 11
31.11362543746111
 21
46.12500000000007
 31
0.0
100
AcDbAttribute
280
     0
  2
Änderungen8
 70
     0
 74
     2
280
     0
  0
ATTRIB
  5
225
102
{ACAD_XDICTIONARY
360
5AD
102
}
330
202
100
AcDbEntity
  8
Titel (ISO)
100
AcDbText
 10
49.79999999999989
 20
45.22499996423729
 30
0.0
 40
1.800000071525573
  1

  7
Textstil57
 72
     1
 11
49.79999999999989
 21
46.12500000000007
 31
0.0
100
AcDbAttribute
280
     0
  2
Datum8
 70
     0
 74
     2
280
     0
  0
ATTRIB
  5
226
102
{ACAD_XDICTIONARY
360
5B0
102
}
330
202
100
AcDbEntity
  8
Titel (ISO)
100
AcDbText
 10
59.84999999999992
 20
45.22499996423729
 30
0.0
 40
1.800000071525573
  1

  7
Textstil57
 72
     1
 11
59.84999999999992
 21
46.12500000000007
 31
0.0
100
AcDbAttribute
280
     0
  2
Name8
 70
     0
 74
     2
280
     0
  0
ATTRIB
  5
227
102
{ACAD_XDICTIONARY
360
5B3
102
}
330
202
100
AcDbEntity
  8
Titel (ISO)
100
AcDbText
 10
21.97854723858866
 20
54.77864943838324
 30
0.0
 40
3.499999940395355
  1
siehe Tabelle
  7
Textstil59
100
AcDbAttribute
280
     0
  2
Artikelnummer_neu_001
 70
     0
280
     0
  0
ATTRIB
  5
228
102
{ACAD_XDICTIONARY
360
5B6
102
}
330
202
100
AcDbEntity
  8
Titel (ISO)
100
AcDbText
 10
37.2999999999999
 20
49.75000000000001
 30
0.0
 40
2.5
  1

  7
Textstil54
 72
     1
 11
37.2999999999999
 21
52.25000000000001
 31
0.0
100
AcDbAttribute
280
     0
  2
Artikelnummer_alt
 70
     0
 74
     3
280
     0
  0
ATTRIB
  5
229
102
{ACAD_XDICTIONARY
360
5B9
102
}
330
202
100
AcDbEntity
  8
Titel (ISO)
100
AcDbText
 10
183.3232405066708
 20
60.37499994039539
 30
0.0
 40
3.000000119209289
  1

  7
Textstil56
 72
     1
 11
183.3232405066708
 21
61.87500000000003
 31
0.0
100
AcDbAttribute
280
     0
  2
Material
 70
     0
 74
     2
280
     0
  0
ATTRIB
  5
22A
102
{ACAD_XDICTIONARY
360
5BC
102
}
330
202
100
AcDbEntity
  8
Titel (ISO)
100
AcDbText
 10
135.931086408304
 20
60.36886077722358
 30
0.0
 40
3.000000119209289
  1
1:1
  7
Textstil56
100
AcDbAttribute
280
     0
  2
Maßstab_001
 70
     0
280
     0
  0
ATTRIB
  5
22B
102
{ACAD_XDICTIONARY
360
5BF
102
}
330
202
100
AcDbEntity
  8
Titel (ISO)
100
AcDbText
 10
77.9095495725662
 20
40.98727826787991
 30
0.0
 40
1.800000071525573
  1
06.06.18
  7
Textstil57
100
AcDbAttribute
280
     0
  2
Gezeichnet_Datum_001
 70
     0
280
     0
  0
ATTRIB
  5
22C
102
{ACAD_XDICTIONARY
360
5C2
102
}
330
202
100
AcDbEntity
  8
Titel (ISO)
100
AcDbText
 10
96.02817172903819
 20
40.98973392965617
 30
0.0
 40
1.800000071525573
  1
Bader
  7
Textstil57
100
AcDbAttribute
280
     0
  2
Gezeichnet_Name_001
 70
     0
280
     0
  0
ATTRIB
  5
22D
102
{ACAD_XDICTIONARY
360
5C5
102
}
330
202
100
AcDbEntity
  8
Titel (ISO)
100
AcDbText
 10
146.4999999999998
 20
16.6496339957648
 30
0.0
 40
4.000000059604644
  1

  7
Textstil53
 72
     1
 11
146.4999999999998
 21
18.64963402556712
 31
0.0
100
AcDbAttribute
280
     0
  2
Benennung
 70
     0
 74
     2
280
     0
  0
ATTRIB
  5
22E
102
{ACAD_XDICTIONARY
360
5C8
102
}
330
202
100
AcDbEntity
  8
Titel (ISO)
100
AcDbText
 10
139.988883504431
 20
10.87585265302916
 30
0.0
 40
2.5
  1
AN VAS 01 C
  7
Textstil54
100
AcDbAttribute
280
     0
  2
Zeichnungsnummer_001
 70
     0
280
     0
  0
ATTRIB
  5
22F
102
{ACAD_XDICTIONARY
360
5CB
102
}
330
202
100
AcDbEntity
  8
Titel (ISO)
100
AcDbText
 10
81.96046732664559
 20
10.87585265302914
 30
0.0
 40
2.5
  1
AN VAS 01 B
  7
Textstil54
100
AcDbAttribute
280
     0
  2
Ers._für_001
 70
     0
280
     0
  0
ATTRIB
  5
230
102
{ACAD_XDICTIONARY
360
5CE
102
}
330
202
100
AcDbEntity
  8
Titel (ISO)
100
AcDbText
 10
67.08335566444652
 20
16.68237614032697
 30
0.0
 40
4.000000059604644
  1
Anschlussteile
  7
Textstil53
100
AcDbAttribute
280
     0
  2
Projekt_001
 70
     0
280
     0
  0
ATTRIB
  5
231
102
{ACAD_XDICTIONARY
360
5D1
102
}
330
202
100
AcDbEntity
  8
Titel (ISO)
100
AcDbText
 10
77.90954957256627
 20
36.7372782678799
 30
0.0
 40
1.800000071525573
  1
06.06.18
  7
Textstil57
100
AcDbAttribute
280
     0
  2
Kontroll_Datum_001
 70
     0
280
     0
  0
ATTRIB
  5
232
102
{ACAD_XDICTIONARY
360
5D4
102
}
330
202
100
AcDbEntity
  8
Titel (ISO)
100
AcDbText
 10
95.89679382400797
 20
36.72561387444264
 30
0.0
 40
1.800000071525573
  1
Scheit
  7
Textstil57
100
AcDbAttribute
280
     0
  2
Kontroll__Name_001
 70
     0
280
     0
  0
SEQEND
  5
203
330
202
100
AcDbEntity
  8
0
  0
LINE
  5
233
330
70
100
AcDbEntity
  8
Sichtbar (ISO)
  6
Continuous
370
    18
100
AcDbLine
 10
100.6865780195949
 20
150.9975631590068
 30
0.0
 11
100.6865780195949
 21
118.0975631590068
 31
0.0
  0
LINE
  5
234
330
70
100
AcDbEntity
  8
Sichtbar (ISO)
  6
Continuous
370
    18
100
AcDbLine
 10
100.6865780195949
 20
150.9975631590068
 30
0.0
 11
100.5817502136779
 21
150.9975631590068
 31
0.0
  0
LINE
  5
235
330
70
100
AcDbEntity
  8
Sichtbar (ISO)
  6
Continuous
370
    18
100
AcDbLine
 10
100.6865780195949
 20
118.0975631590068
 30
0.0
 11
100.5817502136779
 21
118.0975631590068
 31
0.0
  0
LINE
  5
236
330
70
100
AcDbEntity
  8
Sichtbar (ISO)
  6
Continuous
370
    18
100
AcDbLine
 10
109.2786413521581
 20
118.0975631590068
 30
0.0
 11
109.278641352158
 21
150.9975631590068
 31
0.0
  0
LINE
  5
237
330
70
100
AcDbEntity
  8
Sichtbar (ISO)
  6
Continuous
370
    18
100
AcDbLine
 10
109.383469158075
 20
118.0975631590068
 30
0.0
 11
109.2786413521581
 21
118.0975631590068
 31
0.0
  0
LINE
  5
238
330
70
100
AcDbEntity
  8
Sichtbar (ISO)
  6
Continuous
370
    18
100
AcDbLine
 10
109.383469158075
 20
150.9975631590068
 30
0.0
 11
109.278641352158
 21
150.9975631590068
 31
0.0
  0
LINE
  5
239
330
70
100
AcDbEntity
  8
Sichtbar (ISO)
  6
Continuous
370
    18
100
AcDbLine
 10
105.8528043565236
 20
150.9975631590068
 30
0.0
 11
105.8528043565236
 21
118.0975631590068
 31
0.0
  0
LINE
  5
23A
330
70
100
AcDbEntity
  8
Sichtbar (ISO)
  6
Continuous
370
    18
100
AcDbLine
 10
105.8528043565236
 20
150.9975631590068
 30
0.0
 11
105.7479765506067
 21
150.9975631590068
 31
0.0
  0
LINE
  5
23B
330
70
100
AcDbEntity
  8
Sichtbar (ISO)
  6
Continuous
370
    18
100
AcDbLine
 10
105.8528043565236
 20
118.0975631590068
 30
0.0
 11
105.7479765506067
 21
118.0975631590068
 31
0.0
  0
LINE
  5
23C
330
70
100
AcDbEntity
  8
Sichtbar (ISO)
  6
Continuous
370
    18
100
AcDbLine
 10
98.0369087683897
 20
150.9975631590068
 30
0.0
 11
98.0369087683897
 21
118.0975631590068
 31
0.0
  0
LINE
  5
23D
330
70
100
AcDbEntity
  8
Sichtbar (ISO)
  6
Continuous
370
    18
100
AcDbLine
 10
98.0369087683897
 20
150.9975631590068
 30
0.0
 11
97.99348766946508
 21
150.9975631590068
 31
0.0
  0
LINE
  5
23E
330
70
100
AcDbEntity
  8
Sichtbar (ISO)
  6
Continuous
370
    18
100
AcDbLine
 10
98.0369087683897
 20
118.0975631590068
 30
0.0
 11
97.99348766946508
 21
118.0975631590068
 31
0.0
  0
LINE
  5
23F
330
70
100
AcDbEntity
  8
Sichtbar (ISO)
  6
Continuous
370
    18
100
AcDbLine
 10
111.9283106033633
 20
118.0975631590068
 30
0.0
 11
111.9283106033633
 21
150.9975631590068
 31
0.0
  0
LINE
  5
240
330
70
100
AcDbEntity
  8
Sichtbar (ISO)
  6
Continuous
370
    18
100
AcDbLine
 10
111.9717317022879
 20
118.0975631590068
 30
0.0
 11
111.9283106033633
 21
118.0975631590068
 31
0.0
  0
LINE
  5
241
330
70
100
AcDbEntity
  8
Sichtbar (ISO)
  6
Continuous
370
    18
100
AcDbLine
 10
111.9717317022879
 20
150.9975631590068
 30
0.0
 11
111.9283106033633
 21
150.9975631590068
 31
0.0
  0
LINE
  5
242
330
70
100
AcDbEntity
  8
Sichtbar (ISO)
  6
Continuous
370
    18
100
AcDbLine
 10
110.5092824572921
 20
150.9975631590068
 30
0.0
 11
110.5092824572921
 21
118.0975631590068
 31
0.0
  0
LINE
  5
243
330
70
100
AcDbEntity
  8
Sichtbar (ISO)
  6
Continuous
370
    18
100
AcDbLine
 10
110.5092824572921
 20
150.9975631590068
 30
0.0
 11
110.4658613583674
 21
150.9975631590068
 31
0.0
  0
LINE
  5
244
330
70
100
AcDbEntity
  8
Sichtbar (ISO)
  6
Continuous
370
    18
100
AcDbLine
 10
110.5092824572921
 20
118.0975631590068
 30
0.0
 11
110.4658613583674
 21
118.0975631590068
 31
0.0
  0
LINE
  5
245
330
70
100
AcDbEntity
  8
Sichtbar (ISO)
  6
Continuous
370
    18
100
AcDbLine
 10
97.84124673448765
 20
150.9975631590068
 30
0.0
 11
97.99348766946508
 21
150.9975631590068
 31
0.0
  0
LINE
  5
246
330
70
100
AcDbEntity
  8
Sichtbar (ISO)
  6
Continuous
370
    18
100
AcDbLine
 10
97.84124673448765
 20
118.0975631590068
 30
0.0
 11
97.99348766946508
 21
118.0975631590068
 31
0.0
  0
LINE
  5
247
330
70
100
AcDbEntity
  8
Sichtbar (ISO)
  6
Continuous
370
    18
100
AcDbLine
 10
99.49935801338558
 20
150.9975631590068
 30
0.0
 11
100.581750213678
 21
150.9975631590068
 31
0.0
  0
LINE
  5
248
330
70
100
AcDbEntity
  8
Sichtbar (ISO)
  6
Continuous
370
    18
100
AcDbLine
 10
99.49935801338558
 20
118.0975631590068
 30
0.0
 11
100.581750213678
 21
118.0975631590068
 31
0.0
  0
LINE
  5
249
330
70
100
AcDbEntity
  8
Sichtbar (ISO)
  6
Continuous
370
    18
100
AcDbLine
 10
104.2172428211463
 20
150.9975631590068
 30
0.0
 11
105.7479765506067
 21
150.9975631590068
 31
0.0
  0
LINE
  5
24A
330
70
100
AcDbEntity
  8
Sichtbar (ISO)
  6
Continuous
370
    18
100
AcDbLine
 10
104.2172428211463
 20
118.0975631590068
 30
0.0
 11
105.7479765506067
 21
118.0975631590068
 31
0.0
  0
LINE
  5
24B
330
70
100
AcDbEntity
  8
Sichtbar (ISO)
  6
Continuous
370
    18
100
AcDbLine
 10
104.1124150152293
 20
118.0975631590068
 30
0.0
 11
104.1124150152293
 21
150.9975631590068
 31
0.0
  0
LINE
  5
24C
330
70
100
AcDbEntity
  8
Sichtbar (ISO)
  6
Continuous
370
    18
100
AcDbLine
 10
104.2172428211463
 20
118.0975631590068
 30
0.0
 11
104.1124150152293
 21
118.0975631590068
 31
0.0
  0
LINE
  5
24D
330
70
100
AcDbEntity
  8
Sichtbar (ISO)
  6
Continuous
370
    18
100
AcDbLine
 10
104.2172428211463
 20
150.9975631590068
 30
0.0
 11
104.1124150152293
 21
150.9975631590068
 31
0.0
  0
LINE
  5
24E
330
70
100
AcDbEntity
  8
Sichtbar (ISO)
  6
Continuous
370
    18
100
AcDbLine
 10
109.383469158075
 20
150.9975631590068
 30
0.0
 11
110.4658613583674
 21
150.9975631590068
 31
0.0
  0
LINE
  5
24F
330
70
100
AcDbEntity
  8
Sichtbar (ISO)
  6
Continuous
370
    18
100
AcDbLine
 10
109.383469158075
 20
118.0975631590068
 30
0.0
 11
110.4658613583674
 21
118.0975631590068
 31
0.0
  0
LINE
  5
250
330
70
100
AcDbEntity
  8
Sichtbar (ISO)
  6
Continuous
370
    18
100
AcDbLine
 10
99.45593691446095
 20
118.0975631590068
 30
0.0
 11
99.45593691446095
 21
150.9975631590068
 31
0.0
  0
LINE
  5
251
330
70
100
AcDbEntity
  8
Sichtbar (ISO)
  6
Continuous
370
    18
100
AcDbLine
 10
99.49935801338558
 20
118.0975631590068
 30
0.0
 11
99.45593691446095
 21
118.0975631590068
 31
0.0
  0
LINE
  5
252
330
70
100
AcDbEntity
  8
Sichtbar (ISO)
  6
Continuous
370
    18
100
AcDbLine
 10
99.49935801338558
 20
150.9975631590068
 30
0.0
 11
99.45593691446095
 21
150.9975631590068
 31
0.0
  0
LINE
  5
253
330
70
100
AcDbEntity
  8
Sichtbar (ISO)
  6
Continuous
370
    18
100
AcDbLine
 10
111.9717317022879
 20
150.9975631590068
 30
0.0
 11
112.1239726372654
 21
150.9975631590068
 31
0.0
  0
LINE
  5
254
330
70
100
AcDbEntity
  8
Sichtbar (ISO)
  6
Continuous
370
    18
100
AcDbLine
 10
111.9717317022879
 20
118.0975631590068
 30
0.0
 11
112.1239726372654
 21
118.0975631590068
 31
0.0
  0
LINE
  5
255
330
70
100
AcDbEntity
  8
Sichtbar (ISO)
  6
Continuous
370
    18
100
AcDbLine
 10
112.1239726372654
 20
118.0975631590068
 30
0.0
 11
112.1239726372654
 21
150.9975631590068
 31
0.0
  0
LINE
  5
256
330
70
100
AcDbEntity
  8
Sichtbar (ISO)
  6
Continuous
370
    18
100
AcDbLine
 10
97.84124673448765
 20
118.0975631590068
 30
0.0
 11
97.84124673448765
 21
150.9975631590068
 31
0.0
  0
LINE
  5
257
330
70
100
AcDbEntity
  8
Sichtbar (ISO)
  6
Continuous
370
    18
100
AcDbLine
 10
99.23260968587653
 20
174.3556991086651
 30
0.0
 11
99.23260968587653
 21
150.9975631590068
 31
0.0
  0
LINE
  5
258
330
70
100
AcDbEntity
  8
Sichtbar (ISO)
  6
Continuous
370
    18
100
AcDbLine
 10
110.7326096858765
 20
174.3556991086651
 30
0.0
 11
110.7326096858765
 21
150.9975631590068
 31
0.0
  0
LINE
  5
259
330
70
100
AcDbEntity
  8
Sichtbar (ISO)
  6
Continuous
370
    18
100
AcDbLine
 10
100.9826096858765
 20
94.59756315900676
 30
0.0
 11
108.9826096858765
 21
94.59756315900676
 31
0.0
  0
LINE
  5
25A
330
70
100
AcDbEntity
  8
Sichtbar (ISO)
  6
Continuous
370
    18
100
AcDbLine
 10
98.53260968587651
 20
116.3975631590068
 30
0.0
 11
111.4326096858765
 21
116.3975631590068
 31
0.0
  0
LINE
  5
25B
330
70
100
AcDbEntity
  8
Sichtbar (ISO)
  6
Continuous
370
    18
100
AcDbLine
 10
98.53260968587651
 20
117.3975631590068
 30
0.0
 11
111.4326096858765
 21
117.3975631590068
 31
0.0
  0
LINE
  5
25C
330
70
100
AcDbEntity
  8
Sichtbar (ISO)
  6
Continuous
370
    18
100
AcDbLine
 10
98.53260968587655
 20
243.9054700471082
 30
0.0
 11
111.4326096858765
 21
243.9054700471082
 31
0.0
  0
LINE
  5
25D
330
70
100
AcDbEntity
  8
Sichtbar (ISO)
  6
Continuous
370
    18
100
AcDbLine
 10
98.53260968587655
 20
244.9054700471083
 30
0.0
 11
111.4326096858765
 21
244.9054700471083
 31
0.0
  0
LINE
  5
25E
330
70
100
AcDbEntity
  8
Sichtbar (ISO)
  6
Continuous
370
    18
100
AcDbLine
 10
100.9826096858765
 20
266.7054700471083
 30
0.0
 11
108.9826096858764
 21
266.7054700471083
 31
0.0
  0
LINE
  5
25F
330
70
100
AcDbEntity
  8
Sichtbar (ISO)
  6
Continuous
370
    18
100
AcDbLine
 10
100.686578019595
 20
210.3054700471083
 30
0.0
 11
104.1124150152293
 21
210.3054700471083
 31
0.0
  0
LINE
  5
260
330
70
100
AcDbEntity
  8
Sichtbar (ISO)
  6
Continuous
370
    18
100
AcDbLine
 10
100.6865780195951
 20
243.2054700471082
 30
0.0
 11
104.1124150152291
 21
243.2054700471082
 31
0.0
  0
LINE
  5
261
330
70
100
AcDbEntity
  8
Sichtbar (ISO)
  6
Continuous
370
    18
100
AcDbLine
 10
105.8528043565238
 20
243.2054700471082
 30
0.0
 11
109.2786413521578
 21
243.2054700471082
 31
0.0
  0
LINE
  5
262
330
70
100
AcDbEntity
  8
Sichtbar (ISO)
  6
Continuous
370
    18
100
AcDbLine
 10
105.8528043565237
 20
210.3054700471083
 30
0.0
 11
109.278641352158
 21
210.3054700471083
 31
0.0
  0
LINE
  5
263
330
70
100
AcDbEntity
  8
Sichtbar (ISO)
  6
Continuous
370
    18
100
AcDbLine
 10
98.0369087683897
 20
210.3054700471083
 30
0.0
 11
99.45593691446092
 21
210.3054700471083
 31
0.0
  0
LINE
  5
264
330
70
100
AcDbEntity
  8
Sichtbar (ISO)
  6
Continuous
370
    18
100
AcDbLine
 10
98.03690876838977
 20
243.2054700471082
 30
0.0
 11
99.45593691446086
 21
243.2054700471082
 31
0.0
  0
LINE
  5
265
330
70
100
AcDbEntity
  8
Sichtbar (ISO)
  6
Continuous
370
    18
100
AcDbLine
 10
110.5092824572921
 20
243.2054700471082
 30
0.0
 11
111.9283106033632
 21
243.2054700471082
 31
0.0
  0
LINE
  5
266
330
70
100
AcDbEntity
  8
Sichtbar (ISO)
  6
Continuous
370
    18
100
AcDbLine
 10
110.5092824572921
 20
210.3054700471083
 30
0.0
 11
111.9283106033633
 21
210.3054700471083
 31
0.0
  0
LINE
  5
267
330
70
100
AcDbEntity
  8
Sichtbar (ISO)
  6
Continuous
370
    18
100
AcDbLine
 10
100.6865780195949
 20
118.0975631590067
 30
0.0
 11
104.1124150152293
 21
118.0975631590067
 31
0.0
  0
LINE
  5
268
330
70
100
AcDbEntity
  8
Sichtbar (ISO)
  6
Continuous
370
    18
100
AcDbLine
 10
100.6865780195949
 20
150.9975631590068
 30
0.0
 11
104.1124150152293
 21
150.9975631590068
 31
0.0
  0
LINE
  5
269
330
70
100
AcDbEntity
  8
Sichtbar (ISO)
  6
Continuous
370
    18
100
AcDbLine
 10
105.8528043565237
 20
150.9975631590068
 30
0.0
 11
109.278641352158
 21
150.9975631590068
 31
0.0
  0
LINE
  5
26A
330
70
100
AcDbEntity
  8
Sichtbar (ISO)
  6
Continuous
370
    18
100
AcDbLine
 10
105.8528043565236
 20
118.0975631590067
 30
0.0
 11
109.2786413521581
 21
118.0975631590067
 31
0.0
  0
LINE
  5
26B
330
70
100
AcDbEntity
  8
Sichtbar (ISO)
  6
Continuous
370
    18
100
AcDbLine
 10
98.0369087683897
 20
118.0975631590067
 30
0.0
 11
99.45593691446099
 21
118.0975631590067
 31
0.0
  0
LINE
  5
26C
330
70
100
AcDbEntity
  8
Sichtbar (ISO)
  6
Continuous
370
    18
100
AcDbLine
 10
98.0369087683897
 20
150.9975631590068
 30
0.0
 11
99.45593691446095
 21
150.9975631590068
 31
0.0
  0
LINE
  5
26D
330
70
100
AcDbEntity
  8
Sichtbar (ISO)
  6
Continuous
370
    18
100
AcDbLine
 10
108.9826096858764
 20
266.7054700471083
 30
0.0
 11
108.9826096858764
 21
244.9054700471083
 31
0.0
  0
LINE
  5
26E
330
70
100
AcDbEntity
  8
Sichtbar (ISO)
  6
Continuous
370
    18
100
AcDbLine
 10
100.9826096858765
 20
266.7054700471083
 30
0.0
 11
100.9826096858765
 21
244.9054700471083
 31
0.0
  0
LINE
  5
26F
330
70
100
AcDbEntity
  8
Sichtbar (ISO)
  6
Continuous
370
    18
100
AcDbLine
 10
111.4326096858765
 20
244.9054700471083
 30
0.0
 11
111.4326096858765
 21
243.9054700471082
 31
0.0
  0
LINE
  5
270
330
70
100
AcDbEntity
  8
Sichtbar (ISO)
  6
Continuous
370
    18
100
AcDbLine
 10
98.53260968587655
 20
244.9054700471083
 30
0.0
 11
98.53260968587655
 21
243.9054700471082
 31
0.0
  0
LINE
  5
271
330
70
100
AcDbEntity
  8
Sichtbar (ISO)
  6
Continuous
370
    18
100
AcDbLine
 10
108.9826096858764
 20
243.9054700471082
 30
0.0
 11
108.9826096858764
 21
243.2054700471082
 31
0.0
  0
LINE
  5
272
330
70
100
AcDbEntity
  8
Sichtbar (ISO)
  6
Continuous
370
    18
100
AcDbLine
 10
100.9826096858766
 20
243.9054700471082
 30
0.0
 11
100.9826096858766
 21
243.2054700471082
 31
0.0
  0
LINE
  5
273
330
70
100
AcDbEntity
  8
Sichtbar (ISO)
  6
Continuous
370
    18
100
AcDbLine
 10
110.7326096858765
 20
210.3054700471083
 30
0.0
 11
110.7326096858765
 21
178.3556988702465
 31
0.0
  0
LINE
  5
274
330
70
100
AcDbEntity
  8
Sichtbar (ISO)
  6
Continuous
370
    18
100
AcDbLine
 10
99.23260968587653
 20
210.3054700471083
 30
0.0
 11
99.23260968587653
 21
178.3556988702465
 31
0.0
  0
LINE
  5
275
330
70
100
AcDbEntity
  8
Sichtbar (ISO)
  6
Continuous
370
    18
100
AcDbLine
 10
108.9826096858765
 20
118.0975631590067
 30
0.0
 11
108.9826096858765
 21
117.3975631590068
 31
0.0
  0
LINE
  5
276
330
70
100
AcDbEntity
  8
Sichtbar (ISO)
  6
Continuous
370
    18
100
AcDbLine
 10
100.9826096858765
 20
118.0975631590068
 30
0.0
 11
100.9826096858765
 21
117.3975631590068
 31
0.0
  0
LINE
  5
277
330
70
100
AcDbEntity
  8
Sichtbar (ISO)
  6
Continuous
370
    18
100
AcDbLine
 10
111.4326096858765
 20
117.3975631590068
 30
0.0
 11
111.4326096858765
 21
116.3975631590068
 31
0.0
  0
LINE
  5
278
330
70
100
AcDbEntity
  8
Sichtbar (ISO)
  6
Continuous
370
    18
100
AcDbLine
 10
98.53260968587651
 20
117.3975631590068
 30
0.0
 11
98.53260968587651
 21
116.3975631590068
 31
0.0
  0
LINE
  5
279
330
70
100
AcDbEntity
  8
Sichtbar (ISO)
  6
Continuous
370
    18
100
AcDbLine
 10
108.9826096858765
 20
116.3975631590068
 30
0.0
 11
108.9826096858765
 21
94.59756315900676
 31
0.0
  0
LINE
  5
27A
330
70
100
AcDbEntity
  8
Sichtbar (ISO)
  6
Continuous
370
    18
100
AcDbLine
 10
100.9826096858765
 20
116.3975631590068
 30
0.0
 11
100.9826096858765
 21
94.59756315900676
 31
0.0
  0
LINE
  5
27B
330
70
100
AcDbEntity
  8
Sichtbar (ISO)
  6
Continuous
370
    18
100
AcDbLine
 10
110.5092824572921
 20
118.0975631590067
 30
0.0
 11
111.9283106033633
 21
118.0975631590067
 31
0.0
  0
LINE
  5
27C
330
70
100
AcDbEntity
  8
Sichtbar (ISO)
  6
Continuous
370
    18
100
AcDbLine
 10
110.5092824572921
 20
150.9975631590068
 30
0.0
 11
111.9283106033633
 21
150.9975631590068
 31
0.0
  0
LINE
  5
27D
330
70
100
AcDbEntity
  8
Sichtbar (ISO)
  6
Continuous
370
    18
100
AcDbLine
 10
100.6865780195951
 20
243.2054700471082
 30
0.0
 11
100.6865780195951
 21
210.3054700471083
 31
0.0
  0
LINE
  5
27E
330
70
100
AcDbEntity
  8
Sichtbar (ISO)
  6
Continuous
370
    18
100
AcDbLine
 10
100.6865780195951
 20
243.2054700471082
 30
0.0
 11
100.5817502136779
 21
243.2054700471082
 31
0.0
  0
LINE
  5
27F
330
70
100
AcDbEntity
  8
Sichtbar (ISO)
  6
Continuous
370
    18
100
AcDbLine
 10
100.6865780195951
 20
210.3054700471083
 30
0.0
 11
100.5817502136779
 21
210.3054700471083
 31
0.0
  0
LINE
  5
280
330
70
100
AcDbEntity
  8
Sichtbar (ISO)
  6
Continuous
370
    18
100
AcDbLine
 10
109.2786413521579
 20
210.3054700471083
 30
0.0
 11
109.2786413521578
 21
243.2054700471082
 31
0.0
  0
LINE
  5
281
330
70
100
AcDbEntity
  8
Sichtbar (ISO)
  6
Continuous
370
    18
100
AcDbLine
 10
109.383469158075
 20
210.3054700471083
 30
0.0
 11
109.2786413521579
 21
210.3054700471083
 31
0.0
  0
LINE
  5
282
330
70
100
AcDbEntity
  8
Sichtbar (ISO)
  6
Continuous
370
    18
100
AcDbLine
 10
109.383469158075
 20
243.2054700471082
 30
0.0
 11
109.2786413521578
 21
243.2054700471082
 31
0.0
  0
LINE
  5
283
330
70
100
AcDbEntity
  8
Sichtbar (ISO)
  6
Continuous
370
    18
100
AcDbLine
 10
105.8528043565239
 20
243.2054700471082
 30
0.0
 11
105.8528043565238
 21
210.3054700471083
 31
0.0
  0
LINE
  5
284
330
70
100
AcDbEntity
  8
Sichtbar (ISO)
  6
Continuous
370
    18
100
AcDbLine
 10
105.8528043565239
 20
243.2054700471082
 30
0.0
 11
105.7479765506067
 21
243.2054700471082
 31
0.0
  0
LINE
  5
285
330
70
100
AcDbEntity
  8
Sichtbar (ISO)
  6
Continuous
370
    18
100
AcDbLine
 10
105.8528043565238
 20
210.3054700471083
 30
0.0
 11
105.7479765506067
 21
210.3054700471083
 31
0.0
  0
LINE
  5
286
330
70
100
AcDbEntity
  8
Sichtbar (ISO)
  6
Continuous
370
    18
100
AcDbLine
 10
98.03690876838977
 20
243.2054700471082
 30
0.0
 11
98.03690876838974
 21
210.3054700471083
 31
0.0
  0
LINE
  5
287
330
70
100
AcDbEntity
  8
Sichtbar (ISO)
  6
Continuous
370
    18
100
AcDbLine
 10
98.03690876838977
 20
243.2054700471082
 30
0.0
 11
97.99348766946508
 21
243.2054700471082
 31
0.0
  0
LINE
  5
288
330
70
100
AcDbEntity
  8
Sichtbar (ISO)
  6
Continuous
370
    18
100
AcDbLine
 10
98.03690876838974
 20
210.3054700471083
 30
0.0
 11
97.99348766946508
 21
210.3054700471083
 31
0.0
  0
LINE
  5
289
330
70
100
AcDbEntity
  8
Sichtbar (ISO)
  6
Continuous
370
    18
100
AcDbLine
 10
111.9283106033633
 20
210.3054700471083
 30
0.0
 11
111.9283106033632
 21
243.2054700471082
 31
0.0
  0
LINE
  5
28A
330
70
100
AcDbEntity
  8
Sichtbar (ISO)
  6
Continuous
370
    18
100
AcDbLine
 10
111.9717317022879
 20
210.3054700471083
 30
0.0
 11
111.9283106033633
 21
210.3054700471083
 31
0.0
  0
LINE
  5
28B
330
70
100
AcDbEntity
  8
Sichtbar (ISO)
  6
Continuous
370
    18
100
AcDbLine
 10
111.9717317022879
 20
243.2054700471082
 30
0.0
 11
111.9283106033632
 21
243.2054700471082
 31
0.0
  0
LINE
  5
28C
330
70
100
AcDbEntity
  8
Sichtbar (ISO)
  6
Continuous
370
    18
100
AcDbLine
 10
110.5092824572921
 20
243.2054700471082
 30
0.0
 11
110.5092824572921
 21
210.3054700471083
 31
0.0
  0
LINE
  5
28D
330
70
100
AcDbEntity
  8
Sichtbar (ISO)
  6
Continuous
370
    18
100
AcDbLine
 10
110.5092824572921
 20
243.2054700471082
 30
0.0
 11
110.4658613583674
 21
243.2054700471082
 31
0.0
  0
LINE
  5
28E
330
70
100
AcDbEntity
  8
Sichtbar (ISO)
  6
Continuous
370
    18
100
AcDbLine
 10
110.5092824572921
 20
210.3054700471083
 30
0.0
 11
110.4658613583674
 21
210.3054700471083
 31
0.0
  0
LINE
  5
28F
330
70
100
AcDbEntity
  8
Sichtbar (ISO)
  6
Continuous
370
    18
100
AcDbLine
 10
97.84124673448765
 20
210.3054700471083
 30
0.0
 11
97.99348766946508
 21
210.3054700471083
 31
0.0
  0
LINE
  5
290
330
70
100
AcDbEntity
  8
Sichtbar (ISO)
  6
Continuous
370
    18
100
AcDbLine
 10
97.84124673448765
 20
243.2054700471082
 30
0.0
 11
97.99348766946508
 21
243.2054700471082
 31
0.0
  0
LINE
  5
291
330
70
100
AcDbEntity
  8
Sichtbar (ISO)
  6
Continuous
370
    18
100
AcDbLine
 10
99.49935801338558
 20
210.3054700471083
 30
0.0
 11
100.581750213678
 21
210.3054700471083
 31
0.0
  0
LINE
  5
292
330
70
100
AcDbEntity
  8
Sichtbar (ISO)
  6
Continuous
370
    18
100
AcDbLine
 10
99.49935801338558
 20
243.2054700471082
 30
0.0
 11
100.581750213678
 21
243.2054700471082
 31
0.0
  0
LINE
  5
293
330
70
100
AcDbEntity
  8
Sichtbar (ISO)
  6
Continuous
370
    18
100
AcDbLine
 10
104.2172428211463
 20
210.3054700471083
 30
0.0
 11
105.7479765506067
 21
210.3054700471083
 31
0.0
  0
LINE
  5
294
330
70
100
AcDbEntity
  8
Sichtbar (ISO)
  6
Continuous
370
    18
100
AcDbLine
 10
104.2172428211463
 20
243.2054700471082
 30
0.0
 11
105.7479765506067
 21
243.2054700471082
 31
0.0
  0
LINE
  5
295
330
70
100
AcDbEntity
  8
Sichtbar (ISO)
  6
Continuous
370
    18
100
AcDbLine
 10
104.1124150152292
 20
210.3054700471083
 30
0.0
 11
104.1124150152291
 21
243.2054700471082
 31
0.0
  0
LINE
  5
296
330
70
100
AcDbEntity
  8
Sichtbar (ISO)
  6
Continuous
370
    18
100
AcDbLine
 10
104.2172428211463
 20
210.3054700471083
 30
0.0
 11
104.1124150152292
 21
210.3054700471083
 31
0.0
  0
LINE
  5
297
330
70
100
AcDbEntity
  8
Sichtbar (ISO)
  6
Continuous
370
    18
100
AcDbLine
 10
104.2172428211463
 20
243.2054700471082
 30
0.0
 11
104.1124150152291
 21
243.2054700471082
 31
0.0
  0
LINE
  5
298
330
70
100
AcDbEntity
  8
Sichtbar (ISO)
  6
Continuous
370
    18
100
AcDbLine
 10
109.383469158075
 20
210.3054700471083
 30
0.0
 11
110.4658613583674
 21
210.3054700471083
 31
0.0
  0
LINE
  5
299
330
70
100
AcDbEntity
  8
Sichtbar (ISO)
  6
Continuous
370
    18
100
AcDbLine
 10
109.383469158075
 20
243.2054700471082
 30
0.0
 11
110.4658613583674
 21
243.2054700471082
 31
0.0
  0
LINE
  5
29A
330
70
100
AcDbEntity
  8
Sichtbar (ISO)
  6
Continuous
370
    18
100
AcDbLine
 10
99.45593691446092
 20
210.3054700471083
 30
0.0
 11
99.45593691446086
 21
243.2054700471082
 31
0.0
  0
LINE
  5
29B
330
70
100
AcDbEntity
  8
Sichtbar (ISO)
  6
Continuous
370
    18
100
AcDbLine
 10
99.49935801338558
 20
210.3054700471083
 30
0.0
 11
99.45593691446092
 21
210.3054700471083
 31
0.0
  0
LINE
  5
29C
330
70
100
AcDbEntity
  8
Sichtbar (ISO)
  6
Continuous
370
    18
100
AcDbLine
 10
99.49935801338558
 20
243.2054700471082
 30
0.0
 11
99.45593691446086
 21
243.2054700471082
 31
0.0
  0
LINE
  5
29D
330
70
100
AcDbEntity
  8
Sichtbar (ISO)
  6
Continuous
370
    18
100
AcDbLine
 10
111.9717317022879
 20
210.3054700471083
 30
0.0
 11
112.1239726372654
 21
210.3054700471083
 31
0.0
  0
LINE
  5
29E
330
70
100
AcDbEntity
  8
Sichtbar (ISO)
  6
Continuous
370
    18
100
AcDbLine
 10
111.9717317022879
 20
243.2054700471082
 30
0.0
 11
112.1239726372654
 21
243.2054700471082
 31
0.0
  0
LINE
  5
29F
330
70
100
AcDbEntity
  8
Sichtbar (ISO)
  6
Continuous
370
    18
100
AcDbLine
 10
112.1239726372654
 20
210.3054700471083
 30
0.0
 11
112.1239726372654
 21
243.2054700471082
 31
0.0
  0
LINE
  5
2A0
330
70
100
AcDbEntity
  8
Sichtbar (ISO)
  6
Continuous
370
    18
100
AcDbLine
 10
97.84124673448765
 20
210.3054700471083
 30
0.0
 11
97.84124673448765
 21
243.2054700471082
 31
0.0
  0
POLYLINE
  5
2A1
330
70
100
AcDbEntity
  8
Bruchlinie (ISO)
100
AcDb2dPolyline
 66
     1
 10
0.0
 20
0.0
 30
0.0
 70
   128
  0
VERTEX
  5
2A2
330
2A1
100
AcDbEntity
  8
Bruchlinie (ISO)
100
AcDbVertex
100
AcDb2dVertex
 10
99.2326098050858
 20
174.3556991086651
 30
0.0
  0
VERTEX
  5
2A3
330
2A1
100
AcDbEntity
  8
Bruchlinie (ISO)
100
AcDbVertex
100
AcDb2dVertex
 10
99.817563828447
 20
175.2229288087536
 30
0.0
  0
VERTEX
  5
2A5
330
2A1
100
AcDbEntity
  8
Bruchlinie (ISO)
100
AcDbVertex
100
AcDb2dVertex
 10
100.9874712791229
 20
173.4884694085766
 30
0.0
  0
VERTEX
  5
2A6
330
2A1
100
AcDbEntity
  8
Bruchlinie (ISO)
100
AcDbVertex
100
AcDb2dVertex
 10
102.1573790278221
 20
175.2229288087536
 30
0.0
  0
VERTEX
  5
2A7
330
2A1
100
AcDbEntity
  8
Bruchlinie (ISO)
100
AcDbVertex
100
AcDb2dVertex
 10
103.3272866275097
 20
173.4884694085766
 30
0.0
  0
VERTEX
  5
2A8
330
2A1
100
AcDbEntity
  8
Bruchlinie (ISO)
100
AcDbVertex
100
AcDb2dVertex
 10
104.4971943017031
 20
175.2229288087536
 30
0.0
  0
VERTEX
  5
2A9
330
2A1
100
AcDbEntity
  8
Bruchlinie (ISO)
100
AcDbVertex
100
AcDb2dVertex
 10
105.6671019758965
 20
173.4884694085766
 30
0.0
  0
VERTEX
  5
2AA
330
2A1
100
AcDbEntity
  8
Bruchlinie (ISO)
100
AcDbVertex
100
AcDb2dVertex
 10
106.8370097245957
 20
175.2229288087536
 30
0.0
  0
VERTEX
  5
2AB
330
2A1
100
AcDbEntity
  8
Bruchlinie (ISO)
100
AcDbVertex
100
AcDb2dVertex
 10
108.0069174732948
 20
173.4884694085766
 30
0.0
  0
VERTEX
  5
2AC
330
2A1
100
AcDbEntity
  8
Bruchlinie (ISO)
100
AcDbVertex
100
AcDb2dVertex
 10
109.1768249239708
 20
175.2229288087536
 30
0.0
  0
VERTEX
  5
2AD
330
2A1
100
AcDbEntity
  8
Bruchlinie (ISO)
100
AcDbVertex
100
AcDb2dVertex
 10
110.34673267267
 20
173.4884694085766
 30
0.0
  0
VERTEX
  5
2AE
330
2A1
100
AcDbEntity
  8
Bruchlinie (ISO)
100
AcDbVertex
100
AcDb2dVertex
 10
110.7326095666672
 20
174.3556991086651
 30
0.0
  0
SEQEND
  5
2A4
330
2A1
100
AcDbEntity
  8
Bruchlinie (ISO)
  0
POLYLINE
  5
2AF
330
70
100
AcDbEntity
  8
Bruchlinie (ISO)
100
AcDb2dPolyline
 66
     1
 10
0.0
 20
0.0
 30
0.0
 70
   128
  0
VERTEX
  5
2B0
330
2AF
100
AcDbEntity
  8
Bruchlinie (ISO)
100
AcDbVertex
100
AcDb2dVertex
 10
99.2326098050858
 20
178.3556988702465
 30
0.0
  0
VERTEX
  5
2B1
330
2AF
100
AcDbEntity
  8
Bruchlinie (ISO)
100
AcDbVertex
100
AcDb2dVertex
 10
99.817563828447
 20
179.2229287193466
 30
0.0
  0
VERTEX
  5
2B3
330
2AF
100
AcDbEntity
  8
Bruchlinie (ISO)
100
AcDbVertex
100
AcDb2dVertex
 10
100.9874712791229
 20
177.488469170158
 30
0.0
  0
VERTEX
  5
2B4
330
2AF
100
AcDbEntity
  8
Bruchlinie (ISO)
100
AcDbVertex
100
AcDb2dVertex
 10
102.1573790278221
 20
179.2229287193466
 30
0.0
  0
VERTEX
  5
2B5
330
2AF
100
AcDbEntity
  8
Bruchlinie (ISO)
100
AcDbVertex
100
AcDb2dVertex
 10
103.3272866275097
 20
177.488469170158
 30
0.0
  0
VERTEX
  5
2B6
330
2AF
100
AcDbEntity
  8
Bruchlinie (ISO)
100
AcDbVertex
100
AcDb2dVertex
 10
104.4971943017031
 20
179.2229287193466
 30
0.0
  0
VERTEX
  5
2B7
330
2AF
100
AcDbEntity
  8
Bruchlinie (ISO)
100
AcDbVertex
100
AcDb2dVertex
 10
105.6671019758965
 20
177.488469170158
 30
0.0
  0
VERTEX
  5
2B8
330
2AF
100
AcDbEntity
  8
Bruchlinie (ISO)
100
AcDbVertex
100
AcDb2dVertex
 10
106.8370097245957
 20
179.2229287193466
 30
0.0
  0
VERTEX
  5
2B9
330
2AF
100
AcDbEntity
  8
Bruchlinie (ISO)
100
AcDbVertex
100
AcDb2dVertex
 10
108.0069174732948
 20
177.488469170158
 30
0.0
  0
VERTEX
  5
2BA
330
2AF
100
AcDbEntity
  8
Bruchlinie (ISO)
100
AcDbVertex
100
AcDb2dVertex
 10
109.1768249239708
 20
179.2229287193466
 30
0.0
  0
VERTEX
  5
2BB
330
2AF
100
AcDbEntity
  8
Bruchlinie (ISO)
100
AcDbVertex
100
AcDb2dVertex
 10
110.34673267267
 20
177.488469170158
 30
0.0
  0
VERTEX
  5
2BC
330
2AF
100
AcDbEntity
  8
Bruchlinie (ISO)
100
AcDbVertex
100
AcDb2dVertex
 10
110.7326095666672
 20
178.3556988702465
 30
0.0
  0
SEQEND
  5
2B2
330
2AF
100
AcDbEntity
  8
Bruchlinie (ISO)
  0
DIMENSION
  5
2BD
330
70
100
AcDbEntity
  8
Bemaßung (ISO)
100
AcDbDimension
280
     0
  2
*D5
 10
87.92672067299909
 20
266.7054700471084
 30
0.0
 11
87.92672067299916
 21
169.4629343937002
 31
0.0
 70
   160
  1
 L
 42
300.0000000000002
 73
     0
 74
     0
 75
     0
  3
Standard (DIN)
100
AcDbAlignedDimension
 13
100.9826096858765
 23
94.59756315900676
 33
0.0
 14
100.9826096858765
 24
266.7054700471083
 34
0.0
 50
90.0
100
AcDbRotatedDimension
1001
ACAD
1000
DSTYLE
1002
{
1070
   172
1070
     0
1070
   289
1070
     1
1070
   271
1070
     2
1070
   144
1040
1.743092490195987
1070
   147
1040
0.4
1070
    72
1070
     0
1070
    71
1070
     0
1070
   272
1070
     2
1070
    48
1040
0.0
1070
    47
1040
0.0
1002
}
  0
DIMENSION
  5
3A6
330
70
100
AcDbEntity
  8
Bemaßung (ISO)
100
AcDbDimension
280
     0
  2
*D6
 10
100.9826096858765
 20
87.06517083249654
 30
0.0
 11
104.9826096858765
 21
87.06517083249654
 31
0.0
 70
   160
  1
{\fAIGDT|b0|i0;\H2.5000;\ln}\fArial|b0|i0;\H2.5000;<>
 42
8.0
 73
     0
 74
     0
 75
     0
  3
Standard (DIN)
100
AcDbAlignedDimension
 13
108.9826096858765
 23
94.59756315900676
 33
0.0
 14
100.9826096858765
 24
94.59756315900676
 34
0.0
 50
180.0
100
AcDbRotatedDimension
1001
ACAD
1000
DSTYLE
1002
{
1070
   172
1070
     0
1070
   289
1070
     1
1070
   271
1070
     2
1070
   147
1040
0.4
1070
    72
1070
     0
1070
    71
1070
     0
1070
   272
1070
     2
1070
    48
1040
0.0
1070
    47
1040
0.0
1002
}
  0
INSERT
  5
4AA
330
70
100
AcDbEntity
  8
0
100
AcDbBlockReference
  2
Tabelle1
 10
0.0
 20
0.0
 30
0.0
  0
MTEXT
  5
4AB
330
70
100
AcDbEntity
  8
Symbol (ISO)
100
AcDbMText
 10
168.6799001793529
 20
63.11030838509084
 30
0.0
 40
2.5
 41
23.87576103210449
 46
0.0
 71
     1
 72
     1
  1
{\fArial|b1|i0;\H2.5000;1.4301* / PTFE}
  7
Notiztext (DIN)
 73
     1
 44
1.0
  0
MTEXT
  5
4AC
330
70
100
AcDbEntity
  8
Symbol (ISO)
100
AcDbMText
 10
194.3447149333217
 20
63.03666253414182
 30
0.0
 40
3.000000119209289
 41
0.0
 46
0.0
 71
     1
 72
     1
  1
{\fArial|b1|i0;\H3.0000;B}
  7
Notiztext (DIN)
 73
     1
 44
1.0
  0
MTEXT
  5
4AD
330
70
100
AcDbEntity
  8
Symbol (ISO)
100
AcDbMText
 10
127.8937299164803
 20
20.75390226451325
 30
0.0
 40
3.000000119209289
 41
0.0
 46
0.0
 71
     1
 72
     1
  1
{\fArial|b1|i0;\H3.0000;B}
  7
Notiztext (DIN)
 73
     1
 44
1.0
  0
MTEXT
  5
4AE
330
70
100
AcDbEntity
  8
Symbol (ISO)
100
AcDbMText
 10
191.9422138232706
 20
51.92448685958421
 30
0.0
 40
3.000000119209289
 41
0.0
 46
0.0
 71
     1
 72
     1
  1
{\fArial|b1|i0;\H3.0000;B}
  7
Notiztext (DIN)
 73
     1
 44
1.0
  0
MTEXT
  5
4AF
330
70
100
AcDbEntity
  8
Symbol (ISO)
100
AcDbMText
 10
109.8893646140073
 20
55.86373861785543
 30
0.0
 40
2.199999988079071
 41
89.15534019470214
 46
0.0
 71
     1
 72
     1
  1
{\fArial|b1|i0;\H2.2000;*oder gleichwertiges Material nach Absprache mit perma-tec/\P\fArial|b1|i1;\H2.2000; or requivalent material in consultation with perma-tec}
  7
Notiztext (DIN)
 73
     2
 44
0.9442214369773864
  0
MTEXT
  5
4B1
330
70
100
AcDbEntity
  8
Symbol (ISO)
100
AcDbMText
 10
157.606675634344
 20
25.84860670452016
 30
0.0
 40
1.800000071525573
 41
50.82667827606201
 46
0.0
 71
     2
 72
     1
  1
{\fArial|b1|i0;\H1.8000;Schlauch bis +260 °C aØ 12 mm x iØ 8 mm\P(PTFE / Edelstahl)\PTube up to +260 °C oØ 12 mm x iØ 8 mm\P(PTFE / stainless steel)}
  7
Notiztext (DIN)
 73
     2
 44
0.9442214965820312
  0
CIRCLE
  5
4B2
330
70
100
AcDbEntity
  8
Skizziergeometrie (ISO)
100
AcDbCircle
 10
195.7710378351844
 20
61.51818122748287
 30
0.0
 40
1.999999999999996
  0
CIRCLE
  5
4B3
330
70
100
AcDbEntity
  8
Skizziergeometrie (ISO)
100
AcDbCircle
 10
193.3673422809423
 20
50.46549755253535
 30
0.0
 40
1.999999999999998
  0
CIRCLE
  5
4B4
330
70
100
AcDbEntity
  8
Skizziergeometrie (ISO)
100
AcDbCircle
 10
129.4821314012579
 20
19.22159633481625
 30
0.0
 40
2.000000000000003
  0
MTEXT
  5
4B5
330
70
100
AcDbEntity
  8
Symbol (ISO)
 62
     1
420
 16711680
100
AcDbMText
 10
24.20584504260976
 20
80.21321010458017
 30
0.0
 40
2.5
 41
43.6623477935791
 46
0.0
 71
     1
 72
     1
  1
{\fArial|b0|i0;113864                    500 mm}
  7
Notiztext (DIN)
 73
     1
 44
1.0
  0
MTEXT
  5
4B6
330
70
100
AcDbEntity
  8
Symbol (ISO)
 62
     1
420
 16711680
100
AcDbMText
 10
74.4216157001167
 20
80.54712610245585
 30
0.0
 40
2.5
 41
0.0
 46
0.0
 71
     1
 72
     1
  1
{\fArial|b1|i0;\H2.5000;C}
  7
Notiztext (DIN)
 73
     1
 44
1.0
  0
CIRCLE
  5
4B7
330
70
100
AcDbEntity
  8
Skizziergeometrie (ISO)
100
AcDbCircle
 10
75.76259330824331
 20
79.29679244056143
 30
0.0
 40
1.75
  0
ENDSEC
  0
SECTION
  2
OBJECTS
  0
DICTIONARY
  5
C
330
0
100
AcDbDictionary
281
     1
  3
ACAD_CIP_PREVIOUS_PRODUCT_INFO
350
4B8
  3
ACAD_COLOR
350
63
  3
ACAD_DETAILVIEWSTYLE
350
6A
  3
ACAD_GROUP
350
D
  3
ACAD_LAYOUT
350
62
  3
ACAD_MATERIAL
350
10
  3
ACAD_MLEADERSTYLE
350
66
  3
ACAD_MLINESTYLE
350
5F
  3
ACAD_PLOTSETTINGS
350
61
  3
ACAD_PLOTSTYLENAME
350
E
  3
ACAD_SCALELIST
350
42
  3
ACAD_SECTIONVIEWSTYLE
350
68
  3
ACAD_TABLESTYLE
350
64
  3
ACAD_VISUALSTYLE
350
29
  3
ACDB_RECOMPOSE_DATA
350
5D7
  3
AcDbVariableDictionary
350
4B9
  0
DICTIONARY
  5
4C1
330
1CD
100
AcDbDictionary
280
     1
281
     1
  3
ACAD_MTEXT_2008_RT
360
4C2
  0
DICTIONARY
  5
4C3
330
1CE
100
AcDbDictionary
280
     1
281
     1
  3
ACAD_MLATT
360
4C5
  3
ACAD_XREC_ROUNDTRIP
360
4C4
  0
DICTIONARY
  5
4C6
330
1D1
100
AcDbDictionary
280
     1
281
     1
  3
ACAD_MLATT
360
4C8
  3
ACAD_XREC_ROUNDTRIP
360
4C7
  0
DICTIONARY
  5
4C9
330
1D3
100
AcDbDictionary
280
     1
281
     1
  3
ACAD_MLATT
360
4CB
  3
ACAD_XREC_ROUNDTRIP
360
4CA
  0
DICTIONARY
  5
4CC
330
1D4
100
AcDbDictionary
280
     1
281
     1
  3
ACAD_MLATT
360
4CE
  3
ACAD_XREC_ROUNDTRIP
360
4CD
  0
DICTIONARY
  5
4CF
330
1D5
100
AcDbDictionary
280
     1
281
     1
  3
ACAD_MLATT
360
4D1
  3
ACAD_XREC_ROUNDTRIP
360
4D0
  0
DICTIONARY
  5
4D2
330
1D6
100
AcDbDictionary
280
     1
281
     1
  3
ACAD_MLATT
360
4D4
  3
ACAD_XREC_ROUNDTRIP
360
4D3
  0
DICTIONARY
  5
4D5
330
1D7
100
AcDbDictionary
280
     1
281
     1
  3
ACAD_MLATT
360
4D7
  3
ACAD_XREC_ROUNDTRIP
360
4D6
  0
DICTIONARY
  5
4D8
330
1D8
100
AcDbDictionary
280
     1
281
     1
  3
ACAD_MLATT
360
4DA
  3
ACAD_XREC_ROUNDTRIP
360
4D9
  0
DICTIONARY
  5
4DB
330
1D9
100
AcDbDictionary
280
     1
281
     1
  3
ACAD_MLATT
360
4DD
  3
ACAD_XREC_ROUNDTRIP
360
4DC
  0
DICTIONARY
  5
4DE
330
1DA
100
AcDbDictionary
280
     1
281
     1
  3
ACAD_MLATT
360
4E0
  3
ACAD_XREC_ROUNDTRIP
360
4DF
  0
DICTIONARY
  5
4E1
330
1DB
100
AcDbDictionary
280
     1
281
     1
  3
ACAD_MLATT
360
4E3
  3
ACAD_XREC_ROUNDTRIP
360
4E2
  0
DICTIONARY
  5
4E4
330
1DC
100
AcDbDictionary
280
     1
281
     1
  3
ACAD_MLATT
360
4E6
  3
ACAD_XREC_ROUNDTRIP
360
4E5
  0
DICTIONARY
  5
4E7
330
1DD
100
AcDbDictionary
280
     1
281
     1
  3
ACAD_MLATT
360
4E9
  3
ACAD_XREC_ROUNDTRIP
360
4E8
  0
DICTIONARY
  5
4EA
330
1DE
100
AcDbDictionary
280
     1
281
     1
  3
ACAD_MLATT
360
4EC
  3
ACAD_XREC_ROUNDTRIP
360
4EB
  0
DICTIONARY
  5
4ED
330
1DF
100
AcDbDictionary
280
     1
281
     1
  3
ACAD_MLATT
360
4EF
  3
ACAD_XREC_ROUNDTRIP
360
4EE
  0
DICTIONARY
  5
4F0
330
1E0
100
AcDbDictionary
280
     1
281
     1
  3
ACAD_MLATT
360
4F2
  3
ACAD_XREC_ROUNDTRIP
360
4F1
  0
DICTIONARY
  5
4F3
330
1E1
100
AcDbDictionary
280
     1
281
     1
  3
ACAD_MLATT
360
4F5
  3
ACAD_XREC_ROUNDTRIP
360
4F4
  0
DICTIONARY
  5
4F6
330
1E2
100
AcDbDictionary
280
     1
281
     1
  3
ACAD_MLATT
360
4F8
  3
ACAD_XREC_ROUNDTRIP
360
4F7
  0
DICTIONARY
  5
4F9
330
1E3
100
AcDbDictionary
280
     1
281
     1
  3
ACAD_MLATT
360
4FB
  3
ACAD_XREC_ROUNDTRIP
360
4FA
  0
DICTIONARY
  5
4FC
330
1E4
100
AcDbDictionary
280
     1
281
     1
  3
ACAD_MLATT
360
4FE
  3
ACAD_XREC_ROUNDTRIP
360
4FD
  0
DICTIONARY
  5
4FF
330
1E5
100
AcDbDictionary
280
     1
281
     1
  3
ACAD_MLATT
360
501
  3
ACAD_XREC_ROUNDTRIP
360
500
  0
DICTIONARY
  5
502
330
1E6
100
AcDbDictionary
280
     1
281
     1
  3
ACAD_MLATT
360
504
  3
ACAD_XREC_ROUNDTRIP
360
503
  0
DICTIONARY
  5
505
330
1E7
100
AcDbDictionary
280
     1
281
     1
  3
ACAD_MLATT
360
507
  3
ACAD_XREC_ROUNDTRIP
360
506
  0
DICTIONARY
  5
508
330
1E8
100
AcDbDictionary
280
     1
281
     1
  3
ACAD_MLATT
360
50A
  3
ACAD_XREC_ROUNDTRIP
360
509
  0
DICTIONARY
  5
50B
330
1E9
100
AcDbDictionary
280
     1
281
     1
  3
ACAD_MLATT
360
50D
  3
ACAD_XREC_ROUNDTRIP
360
50C
  0
DICTIONARY
  5
50E
330
1EA
100
AcDbDictionary
280
     1
281
     1
  3
ACAD_MLATT
360
510
  3
ACAD_XREC_ROUNDTRIP
360
50F
  0
DICTIONARY
  5
511
330
1EB
100
AcDbDictionary
280
     1
281
     1
  3
ACAD_MLATT
360
513
  3
ACAD_XREC_ROUNDTRIP
360
512
  0
DICTIONARY
  5
514
330
1EC
100
AcDbDictionary
280
     1
281
     1
  3
ACAD_MLATT
360
516
  3
ACAD_XREC_ROUNDTRIP
360
515
  0
DICTIONARY
  5
517
330
1ED
100
AcDbDictionary
280
     1
281
     1
  3
ACAD_MLATT
360
519
  3
ACAD_XREC_ROUNDTRIP
360
518
  0
DICTIONARY
  5
51A
330
1EE
100
AcDbDictionary
280
     1
281
     1
  3
ACAD_MLATT
360
51C
  3
ACAD_XREC_ROUNDTRIP
360
51B
  0
DICTIONARY
  5
51D
330
1EF
100
AcDbDictionary
280
     1
281
     1
  3
ACAD_MLATT
360
51F
  3
ACAD_XREC_ROUNDTRIP
360
51E
  0
DICTIONARY
  5
520
330
1F0
100
AcDbDictionary
280
     1
281
     1
  3
ACAD_MLATT
360
522
  3
ACAD_XREC_ROUNDTRIP
360
521
  0
DICTIONARY
  5
523
330
1F1
100
AcDbDictionary
280
     1
281
     1
  3
ACAD_MLATT
360
525
  3
ACAD_XREC_ROUNDTRIP
360
524
  0
DICTIONARY
  5
526
330
1F2
100
AcDbDictionary
280
     1
281
     1
  3
ACAD_MLATT
360
528
  3
ACAD_XREC_ROUNDTRIP
360
527
  0
DICTIONARY
  5
529
330
1F4
100
AcDbDictionary
280
     1
281
     1
  3
ACAD_MLATT
360
52B
  3
ACAD_XREC_ROUNDTRIP
360
52A
  0
DICTIONARY
  5
52C
330
1F5
100
AcDbDictionary
280
     1
281
     1
  3
ACAD_MLATT
360
52E
  3
ACAD_XREC_ROUNDTRIP
360
52D
  0
DICTIONARY
  5
52F
330
1F7
100
AcDbDictionary
280
     1
281
     1
  3
ACAD_MLATT
360
531
  3
ACAD_XREC_ROUNDTRIP
360
530
  0
DICTIONARY
  5
532
330
1F8
100
AcDbDictionary
280
     1
281
     1
  3
ACAD_MLATT
360
534
  3
ACAD_XREC_ROUNDTRIP
360
533
  0
DICTIONARY
  5
535
330
1F9
100
AcDbDictionary
280
     1
281
     1
  3
ACAD_MLATT
360
537
  3
ACAD_XREC_ROUNDTRIP
360
536
  0
DICTIONARY
  5
538
330
1FA
100
AcDbDictionary
280
     1
281
     1
  3
ACAD_MLATT
360
53A
  3
ACAD_XREC_ROUNDTRIP
360
539
  0
DICTIONARY
  5
53B
330
1FC
100
AcDbDictionary
280
     1
281
     1
  3
ACAD_MLATT
360
53D
  3
ACAD_XREC_ROUNDTRIP
360
53C
  0
DICTIONARY
  5
53E
330
1FD
100
AcDbDictionary
280
     1
281
     1
  3
ACAD_MLATT
360
540
  3
ACAD_XREC_ROUNDTRIP
360
53F
  0
DICTIONARY
  5
541
330
1FE
100
AcDbDictionary
280
     1
281
     1
  3
ACAD_MLATT
360
543
  3
ACAD_XREC_ROUNDTRIP
360
542
  0
DICTIONARY
  5
544
330
1FF
100
AcDbDictionary
280
     1
281
     1
  3
ACAD_MLATT
360
546
  3
ACAD_XREC_ROUNDTRIP
360
545
  0
DICTIONARY
  5
547
330
200
100
AcDbDictionary
280
     1
281
     1
  3
ACAD_MLATT
360
549
  3
ACAD_XREC_ROUNDTRIP
360
548
  0
DICTIONARY
  5
54A
330
201
100
AcDbDictionary
280
     1
281
     1
  3
ACAD_MLATT
360
54C
  3
ACAD_XREC_ROUNDTRIP
360
54B
  0
DICTIONARY
  5
54D
330
204
100
AcDbDictionary
280
     1
281
     1
  3
ACAD_MLATT
360
54F
  3
ACAD_XREC_ROUNDTRIP
360
54E
  0
DICTIONARY
  5
550
330
205
100
AcDbDictionary
280
     1
281
     1
  3
ACAD_MLATT
360
552
  3
ACAD_XREC_ROUNDTRIP
360
551
  0
DICTIONARY
  5
553
330
207
100
AcDbDictionary
280
     1
281
     1
  3
ACAD_MLATT
360
555
  3
ACAD_XREC_ROUNDTRIP
360
554
  0
DICTIONARY
  5
556
330
208
100
AcDbDictionary
280
     1
281
     1
  3
ACAD_MLATT
360
558
  3
ACAD_XREC_ROUNDTRIP
360
557
  0
DICTIONARY
  5
559
330
209
100
AcDbDictionary
280
     1
281
     1
  3
ACAD_MLATT
360
55B
  3
ACAD_XREC_ROUNDTRIP
360
55A
  0
DICTIONARY
  5
55C
330
20A
100
AcDbDictionary
280
     1
281
     1
  3
ACAD_MLATT
360
55E
  3
ACAD_XREC_ROUNDTRIP
360
55D
  0
DICTIONARY
  5
55F
330
20B
100
AcDbDictionary
280
     1
281
     1
  3
ACAD_MLATT
360
561
  3
ACAD_XREC_ROUNDTRIP
360
560
  0
DICTIONARY
  5
562
330
20C
100
AcDbDictionary
280
     1
281
     1
  3
ACAD_MLATT
360
564
  3
ACAD_XREC_ROUNDTRIP
360
563
  0
DICTIONARY
  5
565
330
20D
100
AcDbDictionary
280
     1
281
     1
  3
ACAD_MLATT
360
567
  3
ACAD_XREC_ROUNDTRIP
360
566
  0
DICTIONARY
  5
568
330
20E
100
AcDbDictionary
280
     1
281
     1
  3
ACAD_MLATT
360
56A
  3
ACAD_XREC_ROUNDTRIP
360
569
  0
DICTIONARY
  5
56B
330
20F
100
AcDbDictionary
280
     1
281
     1
  3
ACAD_MLATT
360
56D
  3
ACAD_XREC_ROUNDTRIP
360
56C
  0
DICTIONARY
  5
56E
330
210
100
AcDbDictionary
280
     1
281
     1
  3
ACAD_MLATT
360
570
  3
ACAD_XREC_ROUNDTRIP
360
56F
  0
DICTIONARY
  5
571
330
211
100
AcDbDictionary
280
     1
281
     1
  3
ACAD_MLATT
360
573
  3
ACAD_XREC_ROUNDTRIP
360
572
  0
DICTIONARY
  5
574
330
212
100
AcDbDictionary
280
     1
281
     1
  3
ACAD_MLATT
360
576
  3
ACAD_XREC_ROUNDTRIP
360
575
  0
DICTIONARY
  5
577
330
213
100
AcDbDictionary
280
     1
281
     1
  3
ACAD_MLATT
360
579
  3
ACAD_XREC_ROUNDTRIP
360
578
  0
DICTIONARY
  5
57A
330
214
100
AcDbDictionary
280
     1
281
     1
  3
ACAD_MLATT
360
57C
  3
ACAD_XREC_ROUNDTRIP
360
57B
  0
DICTIONARY
  5
57D
330
215
100
AcDbDictionary
280
     1
281
     1
  3
ACAD_MLATT
360
57F
  3
ACAD_XREC_ROUNDTRIP
360
57E
  0
DICTIONARY
  5
580
330
216
100
AcDbDictionary
280
     1
281
     1
  3
ACAD_MLATT
360
582
  3
ACAD_XREC_ROUNDTRIP
360
581
  0
DICTIONARY
  5
583
330
217
100
AcDbDictionary
280
     1
281
     1
  3
ACAD_MLATT
360
585
  3
ACAD_XREC_ROUNDTRIP
360
584
  0
DICTIONARY
  5
586
330
218
100
AcDbDictionary
280
     1
281
     1
  3
ACAD_MLATT
360
588
  3
ACAD_XREC_ROUNDTRIP
360
587
  0
DICTIONARY
  5
589
330
219
100
AcDbDictionary
280
     1
281
     1
  3
ACAD_MLATT
360
58B
  3
ACAD_XREC_ROUNDTRIP
360
58A
  0
DICTIONARY
  5
58C
330
21A
100
AcDbDictionary
280
     1
281
     1
  3
ACAD_MLATT
360
58E
  3
ACAD_XREC_ROUNDTRIP
360
58D
  0
DICTIONARY
  5
58F
330
21B
100
AcDbDictionary
280
     1
281
     1
  3
ACAD_MLATT
360
591
  3
ACAD_XREC_ROUNDTRIP
360
590
  0
DICTIONARY
  5
592
330
21C
100
AcDbDictionary
280
     1
281
     1
  3
ACAD_MLATT
360
594
  3
ACAD_XREC_ROUNDTRIP
360
593
  0
DICTIONARY
  5
595
330
21D
100
AcDbDictionary
280
     1
281
     1
  3
ACAD_MLATT
360
597
  3
ACAD_XREC_ROUNDTRIP
360
596
  0
DICTIONARY
  5
598
330
21E
100
AcDbDictionary
280
     1
281
     1
  3
ACAD_MLATT
360
59A
  3
ACAD_XREC_ROUNDTRIP
360
599
  0
DICTIONARY
  5
59B
330
21F
100
AcDbDictionary
280
     1
281
     1
  3
ACAD_MLATT
360
59D
  3
ACAD_XREC_ROUNDTRIP
360
59C
  0
DICTIONARY
  5
59E
330
220
100
AcDbDictionary
280
     1
281
     1
  3
ACAD_MLATT
360
5A0
  3
ACAD_XREC_ROUNDTRIP
360
59F
  0
DICTIONARY
  5
5A1
330
221
100
AcDbDictionary
280
     1
281
     1
  3
ACAD_MLATT
360
5A3
  3
ACAD_XREC_ROUNDTRIP
360
5A2
  0
DICTIONARY
  5
5A4
330
222
100
AcDbDictionary
280
     1
281
     1
  3
ACAD_MLATT
360
5A6
  3
ACAD_XREC_ROUNDTRIP
360
5A5
  0
DICTIONARY
  5
5A7
330
223
100
AcDbDictionary
280
     1
281
     1
  3
ACAD_MLATT
360
5A9
  3
ACAD_XREC_ROUNDTRIP
360
5A8
  0
DICTIONARY
  5
5AA
330
224
100
AcDbDictionary
280
     1
281
     1
  3
ACAD_MLATT
360
5AC
  3
ACAD_XREC_ROUNDTRIP
360
5AB
  0
DICTIONARY
  5
5AD
330
225
100
AcDbDictionary
280
     1
281
     1
  3
ACAD_MLATT
360
5AF
  3
ACAD_XREC_ROUNDTRIP
360
5AE
  0
DICTIONARY
  5
5B0
330
226
100
AcDbDictionary
280
     1
281
     1
  3
ACAD_MLATT
360
5B2
  3
ACAD_XREC_ROUNDTRIP
360
5B1
  0
DICTIONARY
  5
5B3
330
227
100
AcDbDictionary
280
     1
281
     1
  3
ACAD_MLATT
360
5B5
  3
ACAD_XREC_ROUNDTRIP
360
5B4
  0
DICTIONARY
  5
5B6
330
228
100
AcDbDictionary
280
     1
281
     1
  3
ACAD_MLATT
360
5B8
  3
ACAD_XREC_ROUNDTRIP
360
5B7
  0
DICTIONARY
  5
5B9
330
229
100
AcDbDictionary
280
     1
281
     1
  3
ACAD_MLATT
360
5BB
  3
ACAD_XREC_ROUNDTRIP
360
5BA
  0
DICTIONARY
  5
5BC
330
22A
100
AcDbDictionary
280
     1
281
     1
  3
ACAD_MLATT
360
5BE
  3
ACAD_XREC_ROUNDTRIP
360
5BD
  0
DICTIONARY
  5
5BF
330
22B
100
AcDbDictionary
280
     1
281
     1
  3
ACAD_MLATT
360
5C1
  3
ACAD_XREC_ROUNDTRIP
360
5C0
  0
DICTIONARY
  5
5C2
330
22C
100
AcDbDictionary
280
     1
281
     1
  3
ACAD_MLATT
360
5C4
  3
ACAD_XREC_ROUNDTRIP
360
5C3
  0
DICTIONARY
  5
5C5
330
22D
100
AcDbDictionary
280
     1
281
     1
  3
ACAD_MLATT
360
5C7
  3
ACAD_XREC_ROUNDTRIP
360
5C6
  0
DICTIONARY
  5
5C8
330
22E
100
AcDbDictionary
280
     1
281
     1
  3
ACAD_MLATT
360
5CA
  3
ACAD_XREC_ROUNDTRIP
360
5C9
  0
DICTIONARY
  5
5CB
330
22F
100
AcDbDictionary
280
     1
281
     1
  3
ACAD_MLATT
360
5CD
  3
ACAD_XREC_ROUNDTRIP
360
5CC
  0
DICTIONARY
  5
5CE
330
230
100
AcDbDictionary
280
     1
281
     1
  3
ACAD_MLATT
360
5D0
  3
ACAD_XREC_ROUNDTRIP
360
5CF
  0
DICTIONARY
  5
5D1
330
231
100
AcDbDictionary
280
     1
281
     1
  3
ACAD_MLATT
360
5D3
  3
ACAD_XREC_ROUNDTRIP
360
5D2
  0
DICTIONARY
  5
5D4
330
232
100
AcDbDictionary
280
     1
281
     1
  3
ACAD_MLATT
360
5D6
  3
ACAD_XREC_ROUNDTRIP
360
5D5
  0
XRECORD
  5
4B8
102
{ACAD_REACTORS
330
C
102
}
330
C
100
AcDbXrecord
280
     1
300
INVPROSA
300
2018
300

  0
DICTIONARY
  5
63
102
{ACAD_REACTORS
330
C
102
}
330
C
100
AcDbDictionary
281
     1
  0
DICTIONARY
  5
6A
102
{ACAD_REACTORS
330
C
102
}
330
C
100
AcDbDictionary
281
     1
  3
Imperial24
350
6B
  0
DICTIONARY
  5
D
102
{ACAD_REACTORS
330
C
102
}
330
C
100
AcDbDictionary
281
     1
  0
DICTIONARY
  5
62
102
{ACAD_REACTORS
330
C
102
}
330
C
100
AcDbDictionary
281
     1
  3
Layout1
350
6F
  3
Layout2
350
77
  3
Model
350
73
  0
DICTIONARY
  5
10
102
{ACAD_REACTORS
330
C
102
}
330
C
100
AcDbDictionary
281
     1
  3
ByBlock
350
19
  3
ByLayer
350
11
  3
Global
350
21
  0
DICTIONARY
  5
66
102
{ACAD_REACTORS
330
C
102
}
330
C
100
AcDbDictionary
281
     1
  3
Standard
350
67
  0
DICTIONARY
  5
5F
102
{ACAD_REACTORS
330
C
102
}
330
C
100
AcDbDictionary
281
     1
  3
Standard
350
60
  0
DICTIONARY
  5
61
102
{ACAD_REACTORS
330
C
102
}
330
C
100
AcDbDictionary
281
     1
  0
ACDBDICTIONARYWDFLT
  5
E
102
{ACAD_REACTORS
330
C
102
}
330
C
100
AcDbDictionary
281
     1
  3
Normal
350
F
100
AcDbDictionaryWithDefault
340
F
  0
DICTIONARY
  5
42
102
{ACAD_REACTORS
330
C
102
}
330
C
100
AcDbDictionary
281
     1
  3
A0
350
43
  3
A1
350
44
  3
A2
350
45
  3
A3
350
46
  3
A4
350
47
  3
A5
350
48
  3
A6
350
49
  3
A7
350
4A
  3
A8
350
4B
  3
A9
350
4C
  3
B0
350
4D
  3
B1
350
4E
  3
B2
350
4F
  3
B3
350
50
  3
B4
350
51
  3
B5
350
52
  3
B6
350
53
  0
DICTIONARY
  5
68
102
{ACAD_REACTORS
330
C
102
}
330
C
100
AcDbDictionary
281
     1
  3
Imperial24
350
69
  0
DICTIONARY
  5
64
102
{ACAD_REACTORS
330
C
102
}
330
C
100
AcDbDictionary
281
     1
  3
Standard
350
65
  0
DICTIONARY
  5
29
102
{ACAD_REACTORS
330
C
102
}
330
C
100
AcDbDictionary
281
     1
  3
2dWireframe
350
2F
  3
Basic
350
2E
  3
Brighten
350
35
  3
ColorChange
350
39
  3
Conceptual
350
32
  3
Dim
350
34
  3
EdgeColorOff
350
41
  3
Facepattern
350
38
  3
Flat
350
2A
  3
FlatWithEdges
350
2B
  3
Gouraud
350
2C
  3
GouraudWithEdges
350
2D
  3
Hidden
350
31
  3
JitterOff
350
3F
  3
Linepattern
350
37
  3
OverhangOff
350
40
  3
Realistic
350
33
  3
Shaded
350
3E
  3
Shaded with edges
350
3D
  3
Shades of Gray
350
3A
  3
Sketchy
350
3B
  3
Thicken
350
36
  3
Wireframe
350
30
  3
X-Ray
350
3C
  0
XRECORD
  5
5D7
102
{ACAD_REACTORS
330
C
102
}
330
C
100
AcDbXrecord
280
     1
 90
        1
330
65
330
1CD
330
1CE
330
1D1
330
1D3
330
1D4
330
1D5
330
1D6
330
1D7
330
1D8
330
1D9
330
1DA
330
1DB
330
1DC
330
1DD
330
1DE
330
1DF
330
1E0
330
1E1
330
1E2
330
1E3
330
1E4
330
1E5
330
1E6
330
1E7
330
1E8
330
1E9
330
1EA
330
1EB
330
1EC
330
1ED
330
1EE
330
1EF
330
1F0
330
1F1
330
1F2
330
1F4
330
1F5
330
1F7
330
1F8
330
1F9
330
1FA
330
1FC
330
1FD
330
1FE
330
1FF
330
200
330
201
330
204
330
205
330
207
330
208
330
209
330
20A
330
20B
330
20C
330
20D
330
20E
330
20F
330
210
330
211
330
212
330
213
330
214
330
215
330
216
330
217
330
218
330
219
330
21A
330
21B
330
21C
330
21D
330
21E
330
21F
330
220
330
221
330
222
330
223
330
224
330
225
330
226
330
227
330
228
330
229
330
22A
330
22B
330
22C
330
22D
330
22E
330
22F
330
230
330
231
330
232
  0
DICTIONARY
  5
4B9
102
{ACAD_REACTORS
330
C
102
}
330
C
100
AcDbDictionary
281
     1
  3
CANNOSCALE
350
4BE
  3
CMLEADERSTYLE
350
4BB
  3
CTABLESTYLE
350
4BA
  3
CVIEWDETAILSTYLE
350
4BC
  3
CVIEWSECTIONSTYLE
350
4BD
  0
XRECORD
  5
4C2
102
{ACAD_REACTORS
330
4C1
102
}
330
4C1
100
AcDbXrecord
280
     1
 40
1961806.0
  1
\pxsm0.94;\fArial|b1|i0;\H2.0000;perma-tec\fArial|b1|i0;\H1.0000; \fArial|b0|i0;\H1.4986;GmbH & Co. KG\P\fArial|b0|i0;\H1.4500;Hammelburger Str.21                      Tel. : +49 9704 609-0\P97717 EUERDORF / GERMANY    Fax : +49 9704 609-50
  0
XRECORD
  5
4C5
102
{ACAD_REACTORS
330
4C3
102
}
330
4C3
100
AcDbXrecord
280
     1
 70
     4
 70
     0
 70
     0
 40
1.0
  2
Blattgröße
  1
Embedded Object
 10
319.4666671943597
 20
121.1607299432635
 30
0.0
 40
2.5
 41
19.87483501434326
 46
0.0
 71
     5
 72
     5
  1
A4
  7
Notiztext (DIN)
 73
     1
 44
1.0
  0
XRECORD
  5
4C4
102
{ACAD_REACTORS
330
4C3
102
}
330
4C3
100
AcDbXrecord
280
     1
102
ACAD_MATT_HEIGHT
140
2.5
  0
XRECORD
  5
4C8
102
{ACAD_REACTORS
330
4C6
102
}
330
4C6
100
AcDbXrecord
280
     1
 70
     4
 70
     0
 70
     0
 40
1.0
  2
Blattnummer
  1
Embedded Object
 10
320.2520684510879
 20
127.5905253810919
 30
0.0
 40
5.0
 41
44.98144626617431
 46
0.0
 71
     5
 72
     5
  1
1
  7
Textstil29
 73
     1
 44
1.0
  0
XRECORD
  5
4C7
102
{ACAD_REACTORS
330
4C6
102
}
330
4C6
100
AcDbXrecord
280
     1
102
ACAD_MATT_HEIGHT
140
5.0
  0
XRECORD
  5
4CB
102
{ACAD_REACTORS
330
4C9
102
}
330
4C9
100
AcDbXrecord
280
     1
 70
     4
 70
     0
 70
     0
 40
1.0
  2
Status1
  1
Embedded Object
 10
141.2627883584022
 20
120.4632056155221
 30
0.0
 40
1.800000071525573
 41
6.714345249176076
 46
0.0
 71
     5
 72
     5
  1
A
  7
Textstil57
 73
     1
 44
1.0
  0
XRECORD
  5
4CA
102
{ACAD_REACTORS
330
4C9
102
}
330
4C9
100
AcDbXrecord
280
     1
102
ACAD_MATT_HEIGHT
140
1.800000071525573
  0
XRECORD
  5
4CE
102
{ACAD_REACTORS
330
4CC
102
}
330
4CC
100
AcDbXrecord
280
     1
 70
     4
 70
     0
 70
     0
 40
1.0
  2
Änderungen1
  1
Embedded Object
 10
158.6264137958634
 20
120.4632056155222
 30
0.0
 40
1.800000071525573
 41
25.93241522021302
 46
0.0
 71
     5
 72
     5
  1
Art.Nr. neu hinzu
  7
Textstil57
 73
     1
 44
1.0
  0
XRECORD
  5
4CD
102
{ACAD_REACTORS
330
4CC
102
}
330
4CC
100
AcDbXrecord
280
     1
102
ACAD_MATT_HEIGHT
140
1.800000071525573
  0
XRECORD
  5
4D1
102
{ACAD_REACTORS
330
4CF
102
}
330
4CF
100
AcDbXrecord
280
     1
 70
     4
 70
     0
 70
     0
 40
1.0
  2
Datum1
  1
Embedded Object
 10
177.3127883584022
 20
120.4632056155221
 30
0.0
 40
1.800000071525573
 41
11.34531851480858
 46
0.0
 71
     5
 72
     5
  1
21.11.13
  7
Textstil57
 73
     1
 44
1.0
  0
XRECORD
  5
4D0
102
{ACAD_REACTORS
330
4CF
102
}
330
4CF
100
AcDbXrecord
280
     1
102
ACAD_MATT_HEIGHT
140
1.800000071525573
  0
XRECORD
  5
4D4
102
{ACAD_REACTORS
330
4D2
102
}
330
4D2
100
AcDbXrecord
280
     1
 70
     4
 70
     0
 70
     0
 40
1.0
  2
Name1
  1
Embedded Object
 10
187.3627883584022
 20
120.4632056155221
 30
0.0
 40
1.800000071525573
 41
7.347608624633679
 46
0.0
 71
     5
 72
     5
  1
Bader
  7
Textstil57
 73
     1
 44
1.0
  0
XRECORD
  5
4D3
102
{ACAD_REACTORS
330
4D2
102
}
330
4D2
100
AcDbXrecord
280
     1
102
ACAD_MATT_HEIGHT
140
1.800000071525573
  0
XRECORD
  5
4D7
102
{ACAD_REACTORS
330
4D5
102
}
330
4D5
100
AcDbXrecord
280
     1
 70
     4
 70
     0
 70
     0
 40
1.0
  2
Status2
  1
Embedded Object
 10
141.2627883584022
 20
124.7132056155221
 30
0.0
 40
1.800000071525573
 41
6.608567028526799
 46
0.0
 71
     5
 72
     5
  1
B
  7
Textstil57
 73
     1
 44
1.0
  0
XRECORD
  5
4D6
102
{ACAD_REACTORS
330
4D5
102
}
330
4D5
100
AcDbXrecord
280
     1
102
ACAD_MATT_HEIGHT
140
1.800000071525573
  0
XRECORD
  5
4DA
102
{ACAD_REACTORS
330
4D8
102
}
330
4D8
100
AcDbXrecord
280
     1
 70
     4
 70
     0
 70
     0
 40
1.0
  2
Änderungen2
  1
Embedded Object
 10
158.6264137958634
 20
124.7132056155221
 30
0.0
 40
1.800000071525573
 41
25.91460926580964
 46
0.0
 71
     5
 72
     5
  1
Text geändert
  7
Textstil57
 73
     1
 44
1.0
  0
XRECORD
  5
4D9
102
{ACAD_REACTORS
330
4D8
102
}
330
4D8
100
AcDbXrecord
280
     1
102
ACAD_MATT_HEIGHT
140
1.800000071525573
  0
XRECORD
  5
4DD
102
{ACAD_REACTORS
330
4DB
102
}
330
4DB
100
AcDbXrecord
280
     1
 70
     4
 70
     0
 70
     0
 40
1.0
  2
Datum2
  1
Embedded Object
 10
177.3127883584022
 20
124.7132056155221
 30
0.0
 40
1.800000071525573
 41
11.34301548981597
 46
0.0
 71
     5
 72
     5
  1
21.04.15
  7
Textstil57
 73
     1
 44
1.0
  0
XRECORD
  5
4DC
102
{ACAD_REACTORS
330
4DB
102
}
330
4DB
100
AcDbXrecord
280
     1
102
ACAD_MATT_HEIGHT
140
1.800000071525573
  0
XRECORD
  5
4E0
102
{ACAD_REACTORS
330
4DE
102
}
330
4DE
100
AcDbXrecord
280
     1
 70
     4
 70
     0
 70
     0
 40
1.0
  2
Name2
  1
Embedded Object
 10
187.3627883584022
 20
124.7132056155221
 30
0.0
 40
1.800000071525573
 41
5.45441064451225
 46
0.0
 71
     5
 72
     5
  1
Bader
  7
Textstil57
 73
     1
 44
1.0
  0
XRECORD
  5
4DF
102
{ACAD_REACTORS
330
4DE
102
}
330
4DE
100
AcDbXrecord
280
     1
102
ACAD_MATT_HEIGHT
140
1.800000071525573
  0
XRECORD
  5
4E3
102
{ACAD_REACTORS
330
4E1
102
}
330
4E1
100
AcDbXrecord
280
     1
 70
     4
 70
     0
 70
     0
 40
1.0
  2
Status3
  1
Embedded Object
 10
141.2627883584022
 20
128.9632056155222
 30
0.0
 40
1.800000071525573
 41
6.632595015006508
 46
0.0
 71
     5
 72
     5
  1
C
  7
Textstil57
 73
     1
 44
1.0
  0
XRECORD
  5
4E2
102
{ACAD_REACTORS
330
4E1
102
}
330
4E1
100
AcDbXrecord
280
     1
102
ACAD_MATT_HEIGHT
140
1.800000071525573
  0
XRECORD
  5
4E6
102
{ACAD_REACTORS
330
4E4
102
}
330
4E4
100
AcDbXrecord
280
     1
 70
     4
 70
     0
 70
     0
 40
1.0
  2
Änderungen3
  1
Embedded Object
 10
158.6264137958634
 20
128.9632056155222
 30
0.0
 40
1.800000071525573
 41
26.06039472470172
 46
0.0
 71
     5
 72
     5
  1
Art. Nr. 113864 erg.
  7
Textstil57
 73
     1
 44
1.0
  0
XRECORD
  5
4E5
102
{ACAD_REACTORS
330
4E4
102
}
330
4E4
100
AcDbXrecord
280
     1
102
ACAD_MATT_HEIGHT
140
1.800000071525573
  0
XRECORD
  5
4E9
102
{ACAD_REACTORS
330
4E7
102
}
330
4E7
100
AcDbXrecord
280
     1
 70
     4
 70
     0
 70
     0
 40
1.0
  2
Datum3
  1
Embedded Object
 10
177.3127883584022
 20
128.9632056155222
 30
0.0
 40
1.800000071525573
 41
11.23388242101747
 46
0.0
 71
     5
 72
     5
  1
06.06.18
  7
Textstil57
 73
     1
 44
1.0
  0
XRECORD
  5
4E8
102
{ACAD_REACTORS
330
4E7
102
}
330
4E7
100
AcDbXrecord
280
     1
102
ACAD_MATT_HEIGHT
140
1.800000071525573
  0
XRECORD
  5
4EC
102
{ACAD_REACTORS
330
4EA
102
}
330
4EA
100
AcDbXrecord
280
     1
 70
     4
 70
     0
 70
     0
 40
1.0
  2
Name3
  1
Embedded Object
 10
187.3627883584022
 20
128.9632056155222
 30
0.0
 40
1.800000071525573
 41
5.391782390358201
 46
0.0
 71
     5
 72
     5
  1
Bader
  7
Textstil57
 73
     1
 44
1.0
  0
XRECORD
  5
4EB
102
{ACAD_REACTORS
330
4EA
102
}
330
4EA
100
AcDbXrecord
280
     1
102
ACAD_MATT_HEIGHT
140
1.800000071525573
  0
XRECORD
  5
4EF
102
{ACAD_REACTORS
330
4ED
102
}
330
4ED
100
AcDbXrecord
280
     1
 70
     4
 70
     0
 70
     0
 40
1.0
  2
Status4
  1
Embedded Object
 10
141.2627883584022
 20
133.2132056155222
 30
0.0
 40
1.800000071525573
 41
6.688366328908266
 46
0.0
 71
     5
 72
     5
  1

  7
Textstil57
 73
     1
 44
1.0
  0
XRECORD
  5
4EE
102
{ACAD_REACTORS
330
4ED
102
}
330
4ED
100
AcDbXrecord
280
     1
102
ACAD_MATT_HEIGHT
140
1.800000071525573
  0
XRECORD
  5
4F2
102
{ACAD_REACTORS
330
4F0
102
}
330
4F0
100
AcDbXrecord
280
     1
 70
     4
 70
     0
 70
     0
 40
1.0
  2
Änderungen4
  1
Embedded Object
 10
158.6264137958634
 20
133.2132056155222
 30
0.0
 40
1.800000071525573
 41
25.83384786890043
 46
0.0
 71
     5
 72
     5
  1

  7
Textstil57
 73
     1
 44
1.0
  0
XRECORD
  5
4F1
102
{ACAD_REACTORS
330
4F0
102
}
330
4F0
100
AcDbXrecord
280
     1
102
ACAD_MATT_HEIGHT
140
1.800000071525573
  0
XRECORD
  5
4F5
102
{ACAD_REACTORS
330
4F3
102
}
330
4F3
100
AcDbXrecord
280
     1
 70
     4
 70
     0
 70
     0
 40
1.0
  2
Datum4
  1
Embedded Object
 10
177.3127883584022
 20
133.2132056155222
 30
0.0
 40
1.800000071525573
 41
11.19067108080422
 46
0.0
 71
     5
 72
     5
  1

  7
Textstil57
 73
     1
 44
1.0
  0
XRECORD
  5
4F4
102
{ACAD_REACTORS
330
4F3
102
}
330
4F3
100
AcDbXrecord
280
     1
102
ACAD_MATT_HEIGHT
140
1.800000071525573
  0
XRECORD
  5
4F8
102
{ACAD_REACTORS
330
4F6
102
}
330
4F6
100
AcDbXrecord
280
     1
 70
     4
 70
     0
 70
     0
 40
1.0
  2
Name4
  1
Embedded Object
 10
187.3627883584022
 20
133.2132056155222
 30
0.0
 40
1.800000071525573
 41
5.278027239458253
 46
0.0
 71
     5
 72
     5
  1

  7
Textstil57
 73
     1
 44
1.0
  0
XRECORD
  5
4F7
102
{ACAD_REACTORS
330
4F6
102
}
330
4F6
100
AcDbXrecord
280
     1
102
ACAD_MATT_HEIGHT
140
1.800000071525573
  0
XRECORD
  5
4FB
102
{ACAD_REACTORS
330
4F9
102
}
330
4F9
100
AcDbXrecord
280
     1
 70
     4
 70
     0
 70
     0
 40
1.0
  2
Status5
  1
Embedded Object
 10
141.2627883584022
 20
137.4632056155222
 30
0.0
 40
1.800000071525573
 41
6.699926087567504
 46
0.0
 71
     5
 72
     5
  1

  7
Textstil57
 73
     1
 44
1.0
  0
XRECORD
  5
4FA
102
{ACAD_REACTORS
330
4F9
102
}
330
4F9
100
AcDbXrecord
280
     1
102
ACAD_MATT_HEIGHT
140
1.800000071525573
  0
XRECORD
  5
4FE
102
{ACAD_REACTORS
330
4FC
102
}
330
4FC
100
AcDbXrecord
280
     1
 70
     4
 70
     0
 70
     0
 40
1.0
  2
Änderungen5
  1
Embedded Object
 10
158.6264137958634
 20
137.4632056155222
 30
0.0
 40
1.800000071525573
 41
25.86608902356204
 46
0.0
 71
     5
 72
     5
  1

  7
Textstil57
 73
     1
 44
1.0
  0
XRECORD
  5
4FD
102
{ACAD_REACTORS
330
4FC
102
}
330
4FC
100
AcDbXrecord
280
     1
102
ACAD_MATT_HEIGHT
140
1.800000071525573
  0
XRECORD
  5
501
102
{ACAD_REACTORS
330
4FF
102
}
330
4FF
100
AcDbXrecord
280
     1
 70
     4
 70
     0
 70
     0
 40
1.0
  2
Datum5
  1
Embedded Object
 10
177.3127883584022
 20
137.4632056155222
 30
0.0
 40
1.800000071525573
 41
11.09095292449815
 46
0.0
 71
     5
 72
     5
  1

  7
Textstil57
 73
     1
 44
1.0
  0
XRECORD
  5
500
102
{ACAD_REACTORS
330
4FF
102
}
330
4FF
100
AcDbXrecord
280
     1
102
ACAD_MATT_HEIGHT
140
1.800000071525573
  0
XRECORD
  5
504
102
{ACAD_REACTORS
330
502
102
}
330
502
100
AcDbXrecord
280
     1
 70
     4
 70
     0
 70
     0
 40
1.0
  2
Name5
  1
Embedded Object
 10
187.3627883584022
 20
137.4632056155222
 30
0.0
 40
1.800000071525573
 41
5.405852104200903
 46
0.0
 71
     5
 72
     5
  1

  7
Textstil57
 73
     1
 44
1.0
  0
XRECORD
  5
503
102
{ACAD_REACTORS
330
502
102
}
330
502
100
AcDbXrecord
280
     1
102
ACAD_MATT_HEIGHT
140
1.800000071525573
  0
XRECORD
  5
507
102
{ACAD_REACTORS
330
505
102
}
330
505
100
AcDbXrecord
280
     1
 70
     4
 70
     0
 70
     0
 40
1.0
  2
Status6
  1
Embedded Object
 10
141.2627883584022
 20
141.7132056155222
 30
0.0
 40
1.800000071525573
 41
6.626058417315796
 46
0.0
 71
     5
 72
     5
  1

  7
Textstil57
 73
     1
 44
1.0
  0
XRECORD
  5
506
102
{ACAD_REACTORS
330
505
102
}
330
505
100
AcDbXrecord
280
     1
102
ACAD_MATT_HEIGHT
140
1.800000071525573
  0
XRECORD
  5
50A
102
{ACAD_REACTORS
330
508
102
}
330
508
100
AcDbXrecord
280
     1
 70
     4
 70
     0
 70
     0
 40
1.0
  2
Änderungen6
  1
Embedded Object
 10
158.6264137958634
 20
141.7132056155222
 30
0.0
 40
1.800000071525573
 41
25.88545129259238
 46
0.0
 71
     5
 72
     5
  1

  7
Textstil57
 73
     1
 44
1.0
  0
XRECORD
  5
509
102
{ACAD_REACTORS
330
508
102
}
330
508
100
AcDbXrecord
280
     1
102
ACAD_MATT_HEIGHT
140
1.800000071525573
  0
XRECORD
  5
50D
102
{ACAD_REACTORS
330
50B
102
}
330
50B
100
AcDbXrecord
280
     1
 70
     4
 70
     0
 70
     0
 40
1.0
  2
Datum6
  1
Embedded Object
 10
177.3127883584022
 20
141.7132056155222
 30
0.0
 40
1.800000071525573
 41
11.11940549376804
 46
0.0
 71
     5
 72
     5
  1

  7
Textstil57
 73
     1
 44
1.0
  0
XRECORD
  5
50C
102
{ACAD_REACTORS
330
50B
102
}
330
50B
100
AcDbXrecord
280
     1
102
ACAD_MATT_HEIGHT
140
1.800000071525573
  0
XRECORD
  5
510
102
{ACAD_REACTORS
330
50E
102
}
330
50E
100
AcDbXrecord
280
     1
 70
     4
 70
     0
 70
     0
 40
1.0
  2
Name6
  1
Embedded Object
 10
187.3627883584022
 20
141.7132056155222
 30
0.0
 40
1.800000071525573
 41
5.428906415697838
 46
0.0
 71
     5
 72
     5
  1

  7
Textstil57
 73
     1
 44
1.0
  0
XRECORD
  5
50F
102
{ACAD_REACTORS
330
50E
102
}
330
50E
100
AcDbXrecord
280
     1
102
ACAD_MATT_HEIGHT
140
1.800000071525573
  0
XRECORD
  5
513
102
{ACAD_REACTORS
330
511
102
}
330
511
100
AcDbXrecord
280
     1
 70
     4
 70
     0
 70
     0
 40
1.0
  2
Status7
  1
Embedded Object
 10
141.2627883584022
 20
145.9632056155222
 30
0.0
 40
1.800000071525573
 41
6.754285458610205
 46
0.0
 71
     5
 72
     5
  1

  7
Textstil57
 73
     1
 44
1.0
  0
XRECORD
  5
512
102
{ACAD_REACTORS
330
511
102
}
330
511
100
AcDbXrecord
280
     1
102
ACAD_MATT_HEIGHT
140
1.800000071525573
  0
XRECORD
  5
516
102
{ACAD_REACTORS
330
514
102
}
330
514
100
AcDbXrecord
280
     1
 70
     4
 70
     0
 70
     0
 40
1.0
  2
Änderungen7
  1
Embedded Object
 10
158.6264137958634
 20
145.9632056155222
 30
0.0
 40
1.800000071525573
 41
25.83655907845781
 46
0.0
 71
     5
 72
     5
  1

  7
Textstil57
 73
     1
 44
1.0
  0
XRECORD
  5
515
102
{ACAD_REACTORS
330
514
102
}
330
514
100
AcDbXrecord
280
     1
102
ACAD_MATT_HEIGHT
140
1.800000071525573
  0
XRECORD
  5
519
102
{ACAD_REACTORS
330
517
102
}
330
517
100
AcDbXrecord
280
     1
 70
     4
 70
     0
 70
     0
 40
1.0
  2
Datum7
  1
Embedded Object
 10
177.3127883584022
 20
145.9632056155222
 30
0.0
 40
1.800000071525573
 41
11.21532305394055
 46
0.0
 71
     5
 72
     5
  1

  7
Textstil57
 73
     1
 44
1.0
  0
XRECORD
  5
518
102
{ACAD_REACTORS
330
517
102
}
330
517
100
AcDbXrecord
280
     1
102
ACAD_MATT_HEIGHT
140
1.800000071525573
  0
XRECORD
  5
51C
102
{ACAD_REACTORS
330
51A
102
}
330
51A
100
AcDbXrecord
280
     1
 70
     4
 70
     0
 70
     0
 40
1.0
  2
Name7
  1
Embedded Object
 10
187.3627883584022
 20
145.9632056155222
 30
0.0
 40
1.800000071525573
 41
5.420890775717097
 46
0.0
 71
     5
 72
     5
  1

  7
Textstil57
 73
     1
 44
1.0
  0
XRECORD
  5
51B
102
{ACAD_REACTORS
330
51A
102
}
330
51A
100
AcDbXrecord
280
     1
102
ACAD_MATT_HEIGHT
140
1.800000071525573
  0
XRECORD
  5
51F
102
{ACAD_REACTORS
330
51D
102
}
330
51D
100
AcDbXrecord
280
     1
 70
     4
 70
     0
 70
     0
 40
1.0
  2
Status8
  1
Embedded Object
 10
141.2627883584022
 20
150.2132056155222
 30
0.0
 40
1.800000071525573
 41
7.072581688594183
 46
0.0
 71
     5
 72
     5
  1

  7
Textstil57
 73
     1
 44
1.0
  0
XRECORD
  5
51E
102
{ACAD_REACTORS
330
51D
102
}
330
51D
100
AcDbXrecord
280
     1
102
ACAD_MATT_HEIGHT
140
1.800000071525573
  0
XRECORD
  5
522
102
{ACAD_REACTORS
330
520
102
}
330
520
100
AcDbXrecord
280
     1
 70
     4
 70
     0
 70
     0
 40
1.0
  2
Änderungen8
  1
Embedded Object
 10
158.6264137958634
 20
150.2132056155222
 30
0.0
 40
1.800000071525573
 41
25.96818377206723
 46
0.0
 71
     5
 72
     5
  1

  7
Textstil57
 73
     1
 44
1.0
  0
XRECORD
  5
521
102
{ACAD_REACTORS
330
520
102
}
330
520
100
AcDbXrecord
280
     1
102
ACAD_MATT_HEIGHT
140
1.800000071525573
  0
XRECORD
  5
525
102
{ACAD_REACTORS
330
523
102
}
330
523
100
AcDbXrecord
280
     1
 70
     4
 70
     0
 70
     0
 40
1.0
  2
Datum8
  1
Embedded Object
 10
177.3127883584022
 20
150.2132056155222
 30
0.0
 40
1.800000071525573
 41
11.38711363965775
 46
0.0
 71
     5
 72
     5
  1

  7
Textstil57
 73
     1
 44
1.0
  0
XRECORD
  5
524
102
{ACAD_REACTORS
330
523
102
}
330
523
100
AcDbXrecord
280
     1
102
ACAD_MATT_HEIGHT
140
1.800000071525573
  0
XRECORD
  5
528
102
{ACAD_REACTORS
330
526
102
}
330
526
100
AcDbXrecord
280
     1
 70
     4
 70
     0
 70
     0
 40
1.0
  2
Name8
  1
Embedded Object
 10
187.3627883584022
 20
150.2132056155222
 30
0.0
 40
1.800000071525573
 41
5.452682396208246
 46
0.0
 71
     5
 72
     5
  1

  7
Textstil57
 73
     1
 44
1.0
  0
XRECORD
  5
527
102
{ACAD_REACTORS
330
526
102
}
330
526
100
AcDbXrecord
280
     1
102
ACAD_MATT_HEIGHT
140
1.800000071525573
  0
XRECORD
  5
52B
102
{ACAD_REACTORS
330
529
102
}
330
529
100
AcDbXrecord
280
     1
 70
     4
 70
     0
 70
     0
 40
1.0
  2
Artikelnummer_neu
  1
Embedded Object
 10
164.8127883584022
 20
160.5882056485259
 30
0.0
 40
3.499999940395355
 41
50.99999999999997
 46
0.0
 71
     5
 72
     5
  1
siehe Tabelle
  7
Textstil59
 73
     1
 44
1.0
  0
XRECORD
  5
52A
102
{ACAD_REACTORS
330
529
102
}
330
529
100
AcDbXrecord
280
     1
102
ACAD_MATT_HEIGHT
140
3.499999940395355
  0
XRECORD
  5
52E
102
{ACAD_REACTORS
330
52C
102
}
330
52C
100
AcDbXrecord
280
     1
 70
     4
 70
     0
 70
     0
 40
1.0
  2
Artikelnummer_alt
  1
Embedded Object
 10
164.8127883584022
 20
156.3382056155221
 30
0.0
 40
2.5
 41
43.99999999999998
 46
0.0
 71
     2
 72
     5
  1

  7
Textstil54
 73
     1
 44
1.0
  0
XRECORD
  5
52D
102
{ACAD_REACTORS
330
52C
102
}
330
52C
100
AcDbXrecord
280
     1
102
ACAD_MATT_HEIGHT
140
2.5
  0
XRECORD
  5
531
102
{ACAD_REACTORS
330
52F
102
}
330
52F
100
AcDbXrecord
280
     1
 70
     4
 70
     0
 70
     0
 40
1.0
  2
Material
  1
Embedded Object
 10
310.8360288650731
 20
165.9632056155222
 30
0.0
 40
3.000000119209289
 41
34.74493902527111
 46
0.0
 71
     5
 72
     5
  1

  7
Textstil56
 73
     1
 44
1.0
  0
XRECORD
  5
530
102
{ACAD_REACTORS
330
52F
102
}
330
52F
100
AcDbXrecord
280
     1
102
ACAD_MATT_HEIGHT
140
3.000000119209289
  0
XRECORD
  5
534
102
{ACAD_REACTORS
330
532
102
}
330
532
100
AcDbXrecord
280
     1
 70
     4
 70
     0
 70
     0
 40
1.0
  2
Maßstab
  1
Embedded Object
 10
266.2975583892088
 20
165.9632056155222
 30
0.0
 40
3.000000119209289
 41
27.29612920574588
 46
0.0
 71
     5
 72
     5
  1
1:1
  7
Textstil56
 73
     1
 44
1.0
  0
XRECORD
  5
533
102
{ACAD_REACTORS
330
532
102
}
330
532
100
AcDbXrecord
280
     1
102
ACAD_MATT_HEIGHT
140
3.000000119209289
  0
XRECORD
  5
537
102
{ACAD_REACTORS
330
535
102
}
330
535
100
AcDbXrecord
280
     1
 70
     4
 70
     0
 70
     0
 40
1.0
  2
Gezeichnet_Datum
  1
Embedded Object
 10
210.3127883584022
 20
145.9632056155222
 30
0.0
 40
1.800000071525573
 41
10.4471256074499
 46
0.0
 71
     5
 72
     5
  1
06.06.18
  7
Textstil57
 73
     1
 44
1.0
  0
XRECORD
  5
536
102
{ACAD_REACTORS
330
535
102
}
330
535
100
AcDbXrecord
280
     1
102
ACAD_MATT_HEIGHT
140
1.800000071525573
  0
XRECORD
  5
53A
102
{ACAD_REACTORS
330
538
102
}
330
538
100
AcDbXrecord
280
     1
 70
     4
 70
     0
 70
     0
 40
1.0
  2
Gezeichnet_Name
  1
Embedded Object
 10
227.2127883584022
 20
145.9632056155222
 30
0.0
 40
1.800000071525573
 41
18.09852783198174
 46
0.0
 71
     5
 72
     5
  1
Bader
  7
Textstil57
 73
     1
 44
1.0
  0
XRECORD
  5
539
102
{ACAD_REACTORS
330
538
102
}
330
538
100
AcDbXrecord
280
     1
102
ACAD_MATT_HEIGHT
140
1.800000071525573
  0
XRECORD
  5
53D
102
{ACAD_REACTORS
330
53B
102
}
330
53B
100
AcDbXrecord
280
     1
 70
     4
 70
     0
 70
     0
 40
1.0
  2
Benennung
  1
Embedded Object
 10
274.0127883584021
 20
122.7378396410893
 30
0.0
 40
4.000000059604644
 41
0.0
 46
0.0
 71
     5
 72
     5
  1

  7
Textstil53
 73
     1
 44
1.0
  0
XRECORD
  5
53C
102
{ACAD_REACTORS
330
53B
102
}
330
53B
100
AcDbXrecord
280
     1
102
ACAD_MATT_HEIGHT
140
4.000000059604644
  0
XRECORD
  5
540
102
{ACAD_REACTORS
330
53E
102
}
330
53E
100
AcDbXrecord
280
     1
 70
     4
 70
     0
 70
     0
 40
1.0
  2
Zeichnungsnummer
  1
Embedded Object
 10
267.5016718628334
 20
116.2132056155221
 30
0.0
 40
2.5
 41
59.0703335759867
 46
0.0
 71
     4
 72
     5
  1
AN VAS 01 C
  7
Textstil54
 73
     1
 44
1.0
  0
XRECORD
  5
53F
102
{ACAD_REACTORS
330
53E
102
}
330
53E
100
AcDbXrecord
280
     1
102
ACAD_MATT_HEIGHT
140
2.5
  0
XRECORD
  5
543
102
{ACAD_REACTORS
330
541
102
}
330
541
100
AcDbXrecord
280
     1
 70
     4
 70
     0
 70
     0
 40
1.0
  2
Ers._für
  1
Embedded Object
 10
220.1587946285556
 20
116.2132056155221
 30
0.0
 40
2.5
 41
31.93674790530494
 46
0.0
 71
     5
 72
     5
  1
AN VAS 01 B
  7
Textstil54
 73
     1
 44
1.0
  0
XRECORD
  5
542
102
{ACAD_REACTORS
330
541
102
}
330
541
100
AcDbXrecord
280
     1
102
ACAD_MATT_HEIGHT
140
2.5
  0
XRECORD
  5
546
102
{ACAD_REACTORS
330
544
102
}
330
544
100
AcDbXrecord
280
     1
 70
     4
 70
     0
 70
     0
 40
1.0
  2
Projekt
  1
Embedded Object
 10
214.2127883584022
 20
122.7378396410892
 30
0.0
 40
4.000000059604644
 41
42.19412822251534
 46
0.0
 71
     5
 72
     5
  1
Anschlussteile
  7
Textstil53
 73
     1
 44
1.0
  0
XRECORD
  5
545
102
{ACAD_REACTORS
330
544
102
}
330
544
100
AcDbXrecord
280
     1
102
ACAD_MATT_HEIGHT
140
4.000000059604644
  0
XRECORD
  5
549
102
{ACAD_REACTORS
330
547
102
}
330
547
100
AcDbXrecord
280
     1
 70
     4
 70
     0
 70
     0
 40
1.0
  2
Kontroll_Datum
  1
Embedded Object
 10
210.3127883584023
 20
141.7132056155222
 30
0.0
 40
1.800000071525573
 41
9.601114343192733
 46
0.0
 71
     5
 72
     5
  1
06.06.18
  7
Textstil57
 73
     1
 44
1.0
  0
XRECORD
  5
548
102
{ACAD_REACTORS
330
547
102
}
330
547
100
AcDbXrecord
280
     1
102
ACAD_MATT_HEIGHT
140
1.800000071525573
  0
XRECORD
  5
54C
102
{ACAD_REACTORS
330
54A
102
}
330
54A
100
AcDbXrecord
280
     1
 70
     4
 70
     0
 70
     0
 40
1.0
  2
Kontroll__Name
  1
Embedded Object
 10
227.2127883584022
 20
141.7132056155222
 30
0.0
 40
1.800000071525573
 41
17.61893067328372
 46
0.0
 71
     5
 72
     5
  1
Scheit
  7
Textstil57
 73
     1
 44
1.0
  0
XRECORD
  5
54B
102
{ACAD_REACTORS
330
54A
102
}
330
54A
100
AcDbXrecord
280
     1
102
ACAD_MATT_HEIGHT
140
1.800000071525573
  0
XRECORD
  5
54F
102
{ACAD_REACTORS
330
54D
102
}
330
54D
100
AcDbXrecord
280
     1
 70
     2
 70
     0
 70
     0
 40
1.0
  2
Blattgröße
  1
Embedded Object
 10
191.9538788359574
 20
17.07252432774142
 30
0.0
 40
2.5
 41
19.87483501434326
 46
0.0
 71
     5
 72
     5
  1
A4
  7
Notiztext (DIN)
 73
     1
 44
1.0
  0
XRECORD
  5
54E
102
{ACAD_REACTORS
330
54D
102
}
330
54D
100
AcDbXrecord
280
     1
102
ACAD_MATT_HEIGHT
140
2.5
  0
XRECORD
  5
552
102
{ACAD_REACTORS
330
550
102
}
330
550
100
AcDbXrecord
280
     1
 70
     2
 70
     0
 70
     0
 40
1.0
  2
Blattnummer
  1
Embedded Object
 10
192.7392800926856
 20
23.50231976556982
 30
0.0
 40
5.0
 41
44.98144626617431
 46
0.0
 71
     5
 72
     5
  1
1
  7
Textstil29
 73
     1
 44
1.0
  0
XRECORD
  5
551
102
{ACAD_REACTORS
330
550
102
}
330
550
100
AcDbXrecord
280
     1
102
ACAD_MATT_HEIGHT
140
5.0
  0
XRECORD
  5
555
102
{ACAD_REACTORS
330
553
102
}
330
553
100
AcDbXrecord
280
     1
 70
     2
 70
     0
 70
     0
 40
1.0
  2
Status1
  1
Embedded Object
 10
13.74999999999993
 20
16.37500000000001
 30
0.0
 40
1.800000071525573
 41
6.714345249176076
 46
0.0
 71
     5
 72
     5
  1
A
  7
Textstil57
 73
     1
 44
1.0
  0
XRECORD
  5
554
102
{ACAD_REACTORS
330
553
102
}
330
553
100
AcDbXrecord
280
     1
102
ACAD_MATT_HEIGHT
140
1.800000071525573
  0
XRECORD
  5
558
102
{ACAD_REACTORS
330
556
102
}
330
556
100
AcDbXrecord
280
     1
 70
     2
 70
     0
 70
     0
 40
1.0
  2
Änderungen1
  1
Embedded Object
 10
31.11362543746111
 20
16.37500000000003
 30
0.0
 40
1.800000071525573
 41
25.93241522021302
 46
0.0
 71
     5
 72
     5
  1
Art.Nr. neu hinzu
  7
Textstil57
 73
     1
 44
1.0
  0
XRECORD
  5
557
102
{ACAD_REACTORS
330
556
102
}
330
556
100
AcDbXrecord
280
     1
102
ACAD_MATT_HEIGHT
140
1.800000071525573
  0
XRECORD
  5
55B
102
{ACAD_REACTORS
330
559
102
}
330
559
100
AcDbXrecord
280
     1
 70
     2
 70
     0
 70
     0
 40
1.0
  2
Datum1
  1
Embedded Object
 10
49.79999999999989
 20
16.37500000000001
 30
0.0
 40
1.800000071525573
 41
11.34531851480858
 46
0.0
 71
     5
 72
     5
  1
21.11.13
  7
Textstil57
 73
     1
 44
1.0
  0
XRECORD
  5
55A
102
{ACAD_REACTORS
330
559
102
}
330
559
100
AcDbXrecord
280
     1
102
ACAD_MATT_HEIGHT
140
1.800000071525573
  0
XRECORD
  5
55E
102
{ACAD_REACTORS
330
55C
102
}
330
55C
100
AcDbXrecord
280
     1
 70
     2
 70
     0
 70
     0
 40
1.0
  2
Name1
  1
Embedded Object
 10
59.84999999999992
 20
16.37500000000001
 30
0.0
 40
1.800000071525573
 41
7.347608624633679
 46
0.0
 71
     5
 72
     5
  1
Bader
  7
Textstil57
 73
     1
 44
1.0
  0
XRECORD
  5
55D
102
{ACAD_REACTORS
330
55C
102
}
330
55C
100
AcDbXrecord
280
     1
102
ACAD_MATT_HEIGHT
140
1.800000071525573
  0
XRECORD
  5
561
102
{ACAD_REACTORS
330
55F
102
}
330
55F
100
AcDbXrecord
280
     1
 70
     2
 70
     0
 70
     0
 40
1.0
  2
Status2
  1
Embedded Object
 10
13.74999999999993
 20
20.62500000000002
 30
0.0
 40
1.800000071525573
 41
6.608567028526799
 46
0.0
 71
     5
 72
     5
  1
B
  7
Textstil57
 73
     1
 44
1.0
  0
XRECORD
  5
560
102
{ACAD_REACTORS
330
55F
102
}
330
55F
100
AcDbXrecord
280
     1
102
ACAD_MATT_HEIGHT
140
1.800000071525573
  0
XRECORD
  5
564
102
{ACAD_REACTORS
330
562
102
}
330
562
100
AcDbXrecord
280
     1
 70
     2
 70
     0
 70
     0
 40
1.0
  2
Änderungen2
  1
Embedded Object
 10
31.11362543746111
 20
20.62500000000002
 30
0.0
 40
1.800000071525573
 41
25.91460926580964
 46
0.0
 71
     5
 72
     5
  1
Text geändert
  7
Textstil57
 73
     1
 44
1.0
  0
XRECORD
  5
563
102
{ACAD_REACTORS
330
562
102
}
330
562
100
AcDbXrecord
280
     1
102
ACAD_MATT_HEIGHT
140
1.800000071525573
  0
XRECORD
  5
567
102
{ACAD_REACTORS
330
565
102
}
330
565
100
AcDbXrecord
280
     1
 70
     2
 70
     0
 70
     0
 40
1.0
  2
Datum2
  1
Embedded Object
 10
49.79999999999989
 20
20.62500000000002
 30
0.0
 40
1.800000071525573
 41
11.34301548981597
 46
0.0
 71
     5
 72
     5
  1
21.04.15
  7
Textstil57
 73
     1
 44
1.0
  0
XRECORD
  5
566
102
{ACAD_REACTORS
330
565
102
}
330
565
100
AcDbXrecord
280
     1
102
ACAD_MATT_HEIGHT
140
1.800000071525573
  0
XRECORD
  5
56A
102
{ACAD_REACTORS
330
568
102
}
330
568
100
AcDbXrecord
280
     1
 70
     2
 70
     0
 70
     0
 40
1.0
  2
Name2
  1
Embedded Object
 10
59.84999999999992
 20
20.62500000000002
 30
0.0
 40
1.800000071525573
 41
5.45441064451225
 46
0.0
 71
     5
 72
     5
  1
Bader
  7
Textstil57
 73
     1
 44
1.0
  0
XRECORD
  5
569
102
{ACAD_REACTORS
330
568
102
}
330
568
100
AcDbXrecord
280
     1
102
ACAD_MATT_HEIGHT
140
1.800000071525573
  0
XRECORD
  5
56D
102
{ACAD_REACTORS
330
56B
102
}
330
56B
100
AcDbXrecord
280
     1
 70
     2
 70
     0
 70
     0
 40
1.0
  2
Status3
  1
Embedded Object
 10
13.74999999999993
 20
24.87500000000002
 30
0.0
 40
1.800000071525573
 41
6.632595015006508
 46
0.0
 71
     5
 72
     5
  1
C
  7
Textstil57
 73
     1
 44
1.0
  0
XRECORD
  5
56C
102
{ACAD_REACTORS
330
56B
102
}
330
56B
100
AcDbXrecord
280
     1
102
ACAD_MATT_HEIGHT
140
1.800000071525573
  0
XRECORD
  5
570
102
{ACAD_REACTORS
330
56E
102
}
330
56E
100
AcDbXrecord
280
     1
 70
     2
 70
     0
 70
     0
 40
1.0
  2
Änderungen3
  1
Embedded Object
 10
31.11362543746111
 20
24.87500000000002
 30
0.0
 40
1.800000071525573
 41
26.06039472470172
 46
0.0
 71
     5
 72
     5
  1
Art. Nr. 113864 erg.
  7
Textstil57
 73
     1
 44
1.0
  0
XRECORD
  5
56F
102
{ACAD_REACTORS
330
56E
102
}
330
56E
100
AcDbXrecord
280
     1
102
ACAD_MATT_HEIGHT
140
1.800000071525573
  0
XRECORD
  5
573
102
{ACAD_REACTORS
330
571
102
}
330
571
100
AcDbXrecord
280
     1
 70
     2
 70
     0
 70
     0
 40
1.0
  2
Datum3
  1
Embedded Object
 10
49.79999999999989
 20
24.87500000000002
 30
0.0
 40
1.800000071525573
 41
11.23388242101747
 46
0.0
 71
     5
 72
     5
  1
06.06.18
  7
Textstil57
 73
     1
 44
1.0
  0
XRECORD
  5
572
102
{ACAD_REACTORS
330
571
102
}
330
571
100
AcDbXrecord
280
     1
102
ACAD_MATT_HEIGHT
140
1.800000071525573
  0
XRECORD
  5
576
102
{ACAD_REACTORS
330
574
102
}
330
574
100
AcDbXrecord
280
     1
 70
     2
 70
     0
 70
     0
 40
1.0
  2
Name3
  1
Embedded Object
 10
59.84999999999992
 20
24.87500000000002
 30
0.0
 40
1.800000071525573
 41
5.391782390358201
 46
0.0
 71
     5
 72
     5
  1
Bader
  7
Textstil57
 73
     1
 44
1.0
  0
XRECORD
  5
575
102
{ACAD_REACTORS
330
574
102
}
330
574
100
AcDbXrecord
280
     1
102
ACAD_MATT_HEIGHT
140
1.800000071525573
  0
XRECORD
  5
579
102
{ACAD_REACTORS
330
577
102
}
330
577
100
AcDbXrecord
280
     1
 70
     2
 70
     0
 70
     0
 40
1.0
  2
Status4
  1
Embedded Object
 10
13.74999999999993
 20
29.12500000000003
 30
0.0
 40
1.800000071525573
 41
6.688366328908266
 46
0.0
 71
     5
 72
     5
  1

  7
Textstil57
 73
     1
 44
1.0
  0
XRECORD
  5
578
102
{ACAD_REACTORS
330
577
102
}
330
577
100
AcDbXrecord
280
     1
102
ACAD_MATT_HEIGHT
140
1.800000071525573
  0
XRECORD
  5
57C
102
{ACAD_REACTORS
330
57A
102
}
330
57A
100
AcDbXrecord
280
     1
 70
     2
 70
     0
 70
     0
 40
1.0
  2
Änderungen4
  1
Embedded Object
 10
31.11362543746111
 20
29.12500000000003
 30
0.0
 40
1.800000071525573
 41
25.83384786890043
 46
0.0
 71
     5
 72
     5
  1

  7
Textstil57
 73
     1
 44
1.0
  0
XRECORD
  5
57B
102
{ACAD_REACTORS
330
57A
102
}
330
57A
100
AcDbXrecord
280
     1
102
ACAD_MATT_HEIGHT
140
1.800000071525573
  0
XRECORD
  5
57F
102
{ACAD_REACTORS
330
57D
102
}
330
57D
100
AcDbXrecord
280
     1
 70
     2
 70
     0
 70
     0
 40
1.0
  2
Datum4
  1
Embedded Object
 10
49.79999999999989
 20
29.12500000000003
 30
0.0
 40
1.800000071525573
 41
11.19067108080422
 46
0.0
 71
     5
 72
     5
  1

  7
Textstil57
 73
     1
 44
1.0
  0
XRECORD
  5
57E
102
{ACAD_REACTORS
330
57D
102
}
330
57D
100
AcDbXrecord
280
     1
102
ACAD_MATT_HEIGHT
140
1.800000071525573
  0
XRECORD
  5
582
102
{ACAD_REACTORS
330
580
102
}
330
580
100
AcDbXrecord
280
     1
 70
     2
 70
     0
 70
     0
 40
1.0
  2
Name4
  1
Embedded Object
 10
59.84999999999992
 20
29.12500000000003
 30
0.0
 40
1.800000071525573
 41
5.278027239458253
 46
0.0
 71
     5
 72
     5
  1

  7
Textstil57
 73
     1
 44
1.0
  0
XRECORD
  5
581
102
{ACAD_REACTORS
330
580
102
}
330
580
100
AcDbXrecord
280
     1
102
ACAD_MATT_HEIGHT
140
1.800000071525573
  0
XRECORD
  5
585
102
{ACAD_REACTORS
330
583
102
}
330
583
100
AcDbXrecord
280
     1
 70
     2
 70
     0
 70
     0
 40
1.0
  2
Status5
  1
Embedded Object
 10
13.74999999999993
 20
33.37500000000004
 30
0.0
 40
1.800000071525573
 41
6.699926087567504
 46
0.0
 71
     5
 72
     5
  1

  7
Textstil57
 73
     1
 44
1.0
  0
XRECORD
  5
584
102
{ACAD_REACTORS
330
583
102
}
330
583
100
AcDbXrecord
280
     1
102
ACAD_MATT_HEIGHT
140
1.800000071525573
  0
XRECORD
  5
588
102
{ACAD_REACTORS
330
586
102
}
330
586
100
AcDbXrecord
280
     1
 70
     2
 70
     0
 70
     0
 40
1.0
  2
Änderungen5
  1
Embedded Object
 10
31.11362543746111
 20
33.37500000000004
 30
0.0
 40
1.800000071525573
 41
25.86608902356204
 46
0.0
 71
     5
 72
     5
  1

  7
Textstil57
 73
     1
 44
1.0
  0
XRECORD
  5
587
102
{ACAD_REACTORS
330
586
102
}
330
586
100
AcDbXrecord
280
     1
102
ACAD_MATT_HEIGHT
140
1.800000071525573
  0
XRECORD
  5
58B
102
{ACAD_REACTORS
330
589
102
}
330
589
100
AcDbXrecord
280
     1
 70
     2
 70
     0
 70
     0
 40
1.0
  2
Datum5
  1
Embedded Object
 10
49.79999999999989
 20
33.37500000000004
 30
0.0
 40
1.800000071525573
 41
11.09095292449815
 46
0.0
 71
     5
 72
     5
  1

  7
Textstil57
 73
     1
 44
1.0
  0
XRECORD
  5
58A
102
{ACAD_REACTORS
330
589
102
}
330
589
100
AcDbXrecord
280
     1
102
ACAD_MATT_HEIGHT
140
1.800000071525573
  0
XRECORD
  5
58E
102
{ACAD_REACTORS
330
58C
102
}
330
58C
100
AcDbXrecord
280
     1
 70
     2
 70
     0
 70
     0
 40
1.0
  2
Name5
  1
Embedded Object
 10
59.84999999999992
 20
33.37500000000004
 30
0.0
 40
1.800000071525573
 41
5.405852104200903
 46
0.0
 71
     5
 72
     5
  1

  7
Textstil57
 73
     1
 44
1.0
  0
XRECORD
  5
58D
102
{ACAD_REACTORS
330
58C
102
}
330
58C
100
AcDbXrecord
280
     1
102
ACAD_MATT_HEIGHT
140
1.800000071525573
  0
XRECORD
  5
591
102
{ACAD_REACTORS
330
58F
102
}
330
58F
100
AcDbXrecord
280
     1
 70
     2
 70
     0
 70
     0
 40
1.0
  2
Status6
  1
Embedded Object
 10
13.74999999999993
 20
37.62500000000005
 30
0.0
 40
1.800000071525573
 41
6.626058417315796
 46
0.0
 71
     5
 72
     5
  1

  7
Textstil57
 73
     1
 44
1.0
  0
XRECORD
  5
590
102
{ACAD_REACTORS
330
58F
102
}
330
58F
100
AcDbXrecord
280
     1
102
ACAD_MATT_HEIGHT
140
1.800000071525573
  0
XRECORD
  5
594
102
{ACAD_REACTORS
330
592
102
}
330
592
100
AcDbXrecord
280
     1
 70
     2
 70
     0
 70
     0
 40
1.0
  2
Änderungen6
  1
Embedded Object
 10
31.11362543746111
 20
37.62500000000005
 30
0.0
 40
1.800000071525573
 41
25.88545129259238
 46
0.0
 71
     5
 72
     5
  1

  7
Textstil57
 73
     1
 44
1.0
  0
XRECORD
  5
593
102
{ACAD_REACTORS
330
592
102
}
330
592
100
AcDbXrecord
280
     1
102
ACAD_MATT_HEIGHT
140
1.800000071525573
  0
XRECORD
  5
597
102
{ACAD_REACTORS
330
595
102
}
330
595
100
AcDbXrecord
280
     1
 70
     2
 70
     0
 70
     0
 40
1.0
  2
Datum6
  1
Embedded Object
 10
49.79999999999989
 20
37.62500000000005
 30
0.0
 40
1.800000071525573
 41
11.11940549376804
 46
0.0
 71
     5
 72
     5
  1

  7
Textstil57
 73
     1
 44
1.0
  0
XRECORD
  5
596
102
{ACAD_REACTORS
330
595
102
}
330
595
100
AcDbXrecord
280
     1
102
ACAD_MATT_HEIGHT
140
1.800000071525573
  0
XRECORD
  5
59A
102
{ACAD_REACTORS
330
598
102
}
330
598
100
AcDbXrecord
280
     1
 70
     2
 70
     0
 70
     0
 40
1.0
  2
Name6
  1
Embedded Object
 10
59.84999999999992
 20
37.62500000000005
 30
0.0
 40
1.800000071525573
 41
5.428906415697838
 46
0.0
 71
     5
 72
     5
  1

  7
Textstil57
 73
     1
 44
1.0
  0
XRECORD
  5
599
102
{ACAD_REACTORS
330
598
102
}
330
598
100
AcDbXrecord
280
     1
102
ACAD_MATT_HEIGHT
140
1.800000071525573
  0
XRECORD
  5
59D
102
{ACAD_REACTORS
330
59B
102
}
330
59B
100
AcDbXrecord
280
     1
 70
     2
 70
     0
 70
     0
 40
1.0
  2
Status7
  1
Embedded Object
 10
13.74999999999993
 20
41.87500000000006
 30
0.0
 40
1.800000071525573
 41
6.754285458610205
 46
0.0
 71
     5
 72
     5
  1

  7
Textstil57
 73
     1
 44
1.0
  0
XRECORD
  5
59C
102
{ACAD_REACTORS
330
59B
102
}
330
59B
100
AcDbXrecord
280
     1
102
ACAD_MATT_HEIGHT
140
1.800000071525573
  0
XRECORD
  5
5A0
102
{ACAD_REACTORS
330
59E
102
}
330
59E
100
AcDbXrecord
280
     1
 70
     2
 70
     0
 70
     0
 40
1.0
  2
Änderungen7
  1
Embedded Object
 10
31.11362543746111
 20
41.87500000000006
 30
0.0
 40
1.800000071525573
 41
25.83655907845781
 46
0.0
 71
     5
 72
     5
  1

  7
Textstil57
 73
     1
 44
1.0
  0
XRECORD
  5
59F
102
{ACAD_REACTORS
330
59E
102
}
330
59E
100
AcDbXrecord
280
     1
102
ACAD_MATT_HEIGHT
140
1.800000071525573
  0
XRECORD
  5
5A3
102
{ACAD_REACTORS
330
5A1
102
}
330
5A1
100
AcDbXrecord
280
     1
 70
     2
 70
     0
 70
     0
 40
1.0
  2
Datum7
  1
Embedded Object
 10
49.79999999999989
 20
41.87500000000006
 30
0.0
 40
1.800000071525573
 41
11.21532305394055
 46
0.0
 71
     5
 72
     5
  1

  7
Textstil57
 73
     1
 44
1.0
  0
XRECORD
  5
5A2
102
{ACAD_REACTORS
330
5A1
102
}
330
5A1
100
AcDbXrecord
280
     1
102
ACAD_MATT_HEIGHT
140
1.800000071525573
  0
XRECORD
  5
5A6
102
{ACAD_REACTORS
330
5A4
102
}
330
5A4
100
AcDbXrecord
280
     1
 70
     2
 70
     0
 70
     0
 40
1.0
  2
Name7
  1
Embedded Object
 10
59.84999999999992
 20
41.87500000000006
 30
0.0
 40
1.800000071525573
 41
5.420890775717097
 46
0.0
 71
     5
 72
     5
  1

  7
Textstil57
 73
     1
 44
1.0
  0
XRECORD
  5
5A5
102
{ACAD_REACTORS
330
5A4
102
}
330
5A4
100
AcDbXrecord
280
     1
102
ACAD_MATT_HEIGHT
140
1.800000071525573
  0
XRECORD
  5
5A9
102
{ACAD_REACTORS
330
5A7
102
}
330
5A7
100
AcDbXrecord
280
     1
 70
     2
 70
     0
 70
     0
 40
1.0
  2
Status8
  1
Embedded Object
 10
13.74999999999993
 20
46.12500000000007
 30
0.0
 40
1.800000071525573
 41
7.072581688594183
 46
0.0
 71
     5
 72
     5
  1

  7
Textstil57
 73
     1
 44
1.0
  0
XRECORD
  5
5A8
102
{ACAD_REACTORS
330
5A7
102
}
330
5A7
100
AcDbXrecord
280
     1
102
ACAD_MATT_HEIGHT
140
1.800000071525573
  0
XRECORD
  5
5AC
102
{ACAD_REACTORS
330
5AA
102
}
330
5AA
100
AcDbXrecord
280
     1
 70
     2
 70
     0
 70
     0
 40
1.0
  2
Änderungen8
  1
Embedded Object
 10
31.11362543746111
 20
46.12500000000007
 30
0.0
 40
1.800000071525573
 41
25.96818377206723
 46
0.0
 71
     5
 72
     5
  1

  7
Textstil57
 73
     1
 44
1.0
  0
XRECORD
  5
5AB
102
{ACAD_REACTORS
330
5AA
102
}
330
5AA
100
AcDbXrecord
280
     1
102
ACAD_MATT_HEIGHT
140
1.800000071525573
  0
XRECORD
  5
5AF
102
{ACAD_REACTORS
330
5AD
102
}
330
5AD
100
AcDbXrecord
280
     1
 70
     2
 70
     0
 70
     0
 40
1.0
  2
Datum8
  1
Embedded Object
 10
49.79999999999989
 20
46.12500000000007
 30
0.0
 40
1.800000071525573
 41
11.38711363965775
 46
0.0
 71
     5
 72
     5
  1

  7
Textstil57
 73
     1
 44
1.0
  0
XRECORD
  5
5AE
102
{ACAD_REACTORS
330
5AD
102
}
330
5AD
100
AcDbXrecord
280
     1
102
ACAD_MATT_HEIGHT
140
1.800000071525573
  0
XRECORD
  5
5B2
102
{ACAD_REACTORS
330
5B0
102
}
330
5B0
100
AcDbXrecord
280
     1
 70
     2
 70
     0
 70
     0
 40
1.0
  2
Name8
  1
Embedded Object
 10
59.84999999999992
 20
46.12500000000007
 30
0.0
 40
1.800000071525573
 41
5.452682396208246
 46
0.0
 71
     5
 72
     5
  1

  7
Textstil57
 73
     1
 44
1.0
  0
XRECORD
  5
5B1
102
{ACAD_REACTORS
330
5B0
102
}
330
5B0
100
AcDbXrecord
280
     1
102
ACAD_MATT_HEIGHT
140
1.800000071525573
  0
XRECORD
  5
5B5
102
{ACAD_REACTORS
330
5B3
102
}
330
5B3
100
AcDbXrecord
280
     1
 70
     2
 70
     0
 70
     0
 40
1.0
  2
Artikelnummer_neu
  1
Embedded Object
 10
37.2999999999999
 20
56.5000000330038
 30
0.0
 40
3.499999940395355
 41
50.99999999999997
 46
0.0
 71
     5
 72
     5
  1
siehe Tabelle
  7
Textstil59
 73
     1
 44
1.0
  0
XRECORD
  5
5B4
102
{ACAD_REACTORS
330
5B3
102
}
330
5B3
100
AcDbXrecord
280
     1
102
ACAD_MATT_HEIGHT
140
3.499999940395355
  0
XRECORD
  5
5B8
102
{ACAD_REACTORS
330
5B6
102
}
330
5B6
100
AcDbXrecord
280
     1
 70
     2
 70
     0
 70
     0
 40
1.0
  2
Artikelnummer_alt
  1
Embedded Object
 10
37.2999999999999
 20
52.25000000000001
 30
0.0
 40
2.5
 41
43.99999999999998
 46
0.0
 71
     2
 72
     5
  1

  7
Textstil54
 73
     1
 44
1.0
  0
XRECORD
  5
5B7
102
{ACAD_REACTORS
330
5B6
102
}
330
5B6
100
AcDbXrecord
280
     1
102
ACAD_MATT_HEIGHT
140
2.5
  0
XRECORD
  5
5BB
102
{ACAD_REACTORS
330
5B9
102
}
330
5B9
100
AcDbXrecord
280
     1
 70
     2
 70
     0
 70
     0
 40
1.0
  2
Material
  1
Embedded Object
 10
183.3232405066708
 20
61.87500000000003
 30
0.0
 40
3.000000119209289
 41
34.74493902527111
 46
0.0
 71
     5
 72
     5
  1

  7
Textstil56
 73
     1
 44
1.0
  0
XRECORD
  5
5BA
102
{ACAD_REACTORS
330
5B9
102
}
330
5B9
100
AcDbXrecord
280
     1
102
ACAD_MATT_HEIGHT
140
3.000000119209289
  0
XRECORD
  5
5BE
102
{ACAD_REACTORS
330
5BC
102
}
330
5BC
100
AcDbXrecord
280
     1
 70
     2
 70
     0
 70
     0
 40
1.0
  2
Maßstab
  1
Embedded Object
 10
138.7847700308064
 20
61.87500000000003
 30
0.0
 40
3.000000119209289
 41
27.29612920574588
 46
0.0
 71
     5
 72
     5
  1
1:1
  7
Textstil56
 73
     1
 44
1.0
  0
XRECORD
  5
5BD
102
{ACAD_REACTORS
330
5BC
102
}
330
5BC
100
AcDbXrecord
280
     1
102
ACAD_MATT_HEIGHT
140
3.000000119209289
  0
XRECORD
  5
5C1
102
{ACAD_REACTORS
330
5BF
102
}
330
5BF
100
AcDbXrecord
280
     1
 70
     2
 70
     0
 70
     0
 40
1.0
  2
Gezeichnet_Datum
  1
Embedded Object
 10
82.79999999999986
 20
41.87500000000006
 30
0.0
 40
1.800000071525573
 41
10.4471256074499
 46
0.0
 71
     5
 72
     5
  1
06.06.18
  7
Textstil57
 73
     1
 44
1.0
  0
XRECORD
  5
5C0
102
{ACAD_REACTORS
330
5BF
102
}
330
5BF
100
AcDbXrecord
280
     1
102
ACAD_MATT_HEIGHT
140
1.800000071525573
  0
XRECORD
  5
5C4
102
{ACAD_REACTORS
330
5C2
102
}
330
5C2
100
AcDbXrecord
280
     1
 70
     2
 70
     0
 70
     0
 40
1.0
  2
Gezeichnet_Name
  1
Embedded Object
 10
99.69999999999988
 20
41.87500000000006
 30
0.0
 40
1.800000071525573
 41
18.09852783198174
 46
0.0
 71
     5
 72
     5
  1
Bader
  7
Textstil57
 73
     1
 44
1.0
  0
XRECORD
  5
5C3
102
{ACAD_REACTORS
330
5C2
102
}
330
5C2
100
AcDbXrecord
280
     1
102
ACAD_MATT_HEIGHT
140
1.800000071525573
  0
XRECORD
  5
5C7
102
{ACAD_REACTORS
330
5C5
102
}
330
5C5
100
AcDbXrecord
280
     1
 70
     2
 70
     0
 70
     0
 40
1.0
  2
Benennung
  1
Embedded Object
 10
146.4999999999998
 20
18.64963402556712
 30
0.0
 40
4.000000059604644
 41
0.0
 46
0.0
 71
     5
 72
     5
  1

  7
Textstil53
 73
     1
 44
1.0
  0
XRECORD
  5
5C6
102
{ACAD_REACTORS
330
5C5
102
}
330
5C5
100
AcDbXrecord
280
     1
102
ACAD_MATT_HEIGHT
140
4.000000059604644
  0
XRECORD
  5
5CA
102
{ACAD_REACTORS
330
5C8
102
}
330
5C8
100
AcDbXrecord
280
     1
 70
     2
 70
     0
 70
     0
 40
1.0
  2
Zeichnungsnummer
  1
Embedded Object
 10
139.988883504431
 20
12.12500000000002
 30
0.0
 40
2.5
 41
59.0703335759867
 46
0.0
 71
     4
 72
     5
  1
AN VAS 01 C
  7
Textstil54
 73
     1
 44
1.0
  0
XRECORD
  5
5C9
102
{ACAD_REACTORS
330
5C8
102
}
330
5C8
100
AcDbXrecord
280
     1
102
ACAD_MATT_HEIGHT
140
2.5
  0
XRECORD
  5
5CD
102
{ACAD_REACTORS
330
5CB
102
}
330
5CB
100
AcDbXrecord
280
     1
 70
     2
 70
     0
 70
     0
 40
1.0
  2
Ers._für
  1
Embedded Object
 10
92.6460062701533
 20
12.125
 30
0.0
 40
2.5
 41
31.93674790530494
 46
0.0
 71
     5
 72
     5
  1
AN VAS 01 B
  7
Textstil54
 73
     1
 44
1.0
  0
XRECORD
  5
5CC
102
{ACAD_REACTORS
330
5CB
102
}
330
5CB
100
AcDbXrecord
280
     1
102
ACAD_MATT_HEIGHT
140
2.5
  0
XRECORD
  5
5D0
102
{ACAD_REACTORS
330
5CE
102
}
330
5CE
100
AcDbXrecord
280
     1
 70
     2
 70
     0
 70
     0
 40
1.0
  2
Projekt
  1
Embedded Object
 10
86.69999999999987
 20
18.64963402556711
 30
0.0
 40
4.000000059604644
 41
42.19412822251534
 46
0.0
 71
     5
 72
     5
  1
Anschlussteile
  7
Textstil53
 73
     1
 44
1.0
  0
XRECORD
  5
5CF
102
{ACAD_REACTORS
330
5CE
102
}
330
5CE
100
AcDbXrecord
280
     1
102
ACAD_MATT_HEIGHT
140
4.000000059604644
  0
XRECORD
  5
5D3
102
{ACAD_REACTORS
330
5D1
102
}
330
5D1
100
AcDbXrecord
280
     1
 70
     2
 70
     0
 70
     0
 40
1.0
  2
Kontroll_Datum
  1
Embedded Object
 10
82.79999999999994
 20
37.62500000000005
 30
0.0
 40
1.800000071525573
 41
9.601114343192733
 46
0.0
 71
     5
 72
     5
  1
06.06.18
  7
Textstil57
 73
     1
 44
1.0
  0
XRECORD
  5
5D2
102
{ACAD_REACTORS
330
5D1
102
}
330
5D1
100
AcDbXrecord
280
     1
102
ACAD_MATT_HEIGHT
140
1.800000071525573
  0
XRECORD
  5
5D6
102
{ACAD_REACTORS
330
5D4
102
}
330
5D4
100
AcDbXrecord
280
     1
 70
     2
 70
     0
 70
     0
 40
1.0
  2
Kontroll__Name
  1
Embedded Object
 10
99.69999999999988
 20
37.62500000000005
 30
0.0
 40
1.800000071525573
 41
17.61893067328372
 46
0.0
 71
     5
 72
     5
  1
Scheit
  7
Textstil57
 73
     1
 44
1.0
  0
XRECORD
  5
5D5
102
{ACAD_REACTORS
330
5D4
102
}
330
5D4
100
AcDbXrecord
280
     1
102
ACAD_MATT_HEIGHT
140
1.800000071525573
  0
ACDBDETAILVIEWSTYLE
  5
6B
102
{ACAD_XDICTIONARY
360
5DA
102
}
102
{ACAD_REACTORS
330
6A
102
}
330
6A
100
AcDbModelDocViewStyle
 70
     0
  3
Imperial24
290
     0
100
AcDbDetailViewStyle
 70
     0
 71
     0
 90
        3
 71
     1
340
55
 62
   256
 40
0.24
340
0
 62
   256
 40
0.24
300

 40
0.36
280
     3
 71
     2
340
5D
 90
       25
 62
   256
 71
     3
340
55
 62
   256
 40
0.24
 90
        1
 40
0.75
 90
        1
300
%<\AcVar ViewType \f "%tc1">% %<\AcVar ViewDetailId>%\PVARIA %<\AcVar ViewScale \f "%sn">%
 71
     4
340
5D
 90
       25
 62
   256
340
5D
 90
       25
 62
   256
280
     0
  0
LAYOUT
  5
6F
102
{ACAD_REACTORS
330
62
102
}
330
62
100
AcDbPlotSettings
  1

  2

  4

  6

 40
0.0
 41
0.0
 42
0.0
 43
0.0
 44
0.0
 45
0.0
 46
0.0
 47
0.0
 48
0.0
 49
0.0
140
0.0
141
0.0
142
1.0
143
1.0
 70
   688
 72
     0
 73
     0
 74
     5
  7

 75
    16
147
1.0
 76
     0
 77
     2
 78
   300
148
0.0
149
0.0
100
AcDbLayout
  1
Layout1
 70
     1
 71
     1
 10
0.0
 20
0.0
 11
12.0
 21
9.0
 12
0.0
 22
0.0
 32
0.0
 14
0.0
 24
0.0
 34
0.0
 15
0.0
 25
0.0
 35
0.0
146
0.0
 13
0.0
 23
0.0
 33
0.0
 16
1.0
 26
0.0
 36
0.0
 17
0.0
 27
1.0
 37
0.0
 76
     0
330
6C
  0
LAYOUT
  5
77
102
{ACAD_REACTORS
330
62
102
}
330
62
100
AcDbPlotSettings
  1

  2

  4

  6

 40
0.0
 41
0.0
 42
0.0
 43
0.0
 44
0.0
 45
0.0
 46
0.0
 47
0.0
 48
0.0
 49
0.0
140
0.0
141
0.0
142
1.0
143
1.0
 70
   688
 72
     0
 73
     0
 74
     5
  7

 75
    16
147
1.0
 76
     0
 77
     2
 78
   300
148
0.0
149
0.0
100
AcDbLayout
  1
Layout2
 70
     1
 71
     2
 10
0.0
 20
0.0
 11
12.0
 21
9.0
 12
0.0
 22
0.0
 32
0.0
 14
0.0
 24
0.0
 34
0.0
 15
0.0
 25
0.0
 35
0.0
146
0.0
 13
0.0
 23
0.0
 33
0.0
 16
1.0
 26
0.0
 36
0.0
 17
0.0
 27
1.0
 37
0.0
 76
     0
330
74
  0
LAYOUT
  5
73
102
{ACAD_REACTORS
330
62
102
}
330
62
100
AcDbPlotSettings
  1

  2

  4

  6

 40
0.0
 41
0.0
 42
0.0
 43
0.0
 44
0.0
 45
0.0
 46
0.0
 47
0.0
 48
0.0
 49
0.0
140
0.0
141
0.0
142
1.0
143
1.0
 70
  1712
 72
     0
 73
     0
 74
     0
  7

 75
     0
147
1.0
 76
     0
 77
     2
 78
   300
148
0.0
149
0.0
100
AcDbLayout
  1
Model
 70
     1
 71
     0
 10
0.0
 20
0.0
 11
12.0
 21
9.0
 12
0.0
 22
0.0
 32
0.0
 14
0.0
 24
0.0
 34
0.0
 15
0.0
 25
0.0
 35
0.0
146
0.0
 13
0.0
 23
0.0
 33
0.0
 16
1.0
 26
0.0
 36
0.0
 17
0.0
 27
1.0
 37
0.0
 76
     0
330
70
  0
MATERIAL
  5
19
102
{ACAD_XDICTIONARY
360
1A
102
}
102
{ACAD_REACTORS
330
10
102
}
330
10
100
AcDbMaterial
  1
ByBlock
 72
     0
 43
0.0208333333333333
 43
0.0
 43
0.0
 43
0.0
 43
0.0
 43
0.0208333333333333
 43
0.0
 43
0.0
 43
0.0
 43
0.0
 43
1.0
 43
0.0
 43
0.0
 43
0.0
 43
0.0
 43
1.0
 77
     0
 47
0.0208333333333333
 47
0.0
 47
0.0
 47
0.0
 47
0.0
 47
0.0208333333333333
 47
0.0
 47
0.0
 47
0.0
 47
0.0
 47
1.0
 47
0.0
 47
0.0
 47
0.0
 47
0.0
 47
1.0
171
     0
 49
0.0208333333333333
 49
0.0
 49
0.0
 49
0.0
 49
0.0
 49
0.0208333333333333
 49
0.0
 49
0.0
 49
0.0
 49
0.0
 49
1.0
 49
0.0
 49
0.0
 49
0.0
 49
0.0
 49
1.0
175
     0
142
0.0208333333333333
142
0.0
142
0.0
142
0.0
142
0.0
142
0.0208333333333333
142
0.0
142
0.0
142
0.0
142
0.0
142
1.0
142
0.0
142
0.0
142
0.0
142
0.0
142
1.0
179
     0
144
0.0208333333333333
144
0.0
144
0.0
144
0.0
144
0.0
144
0.0208333333333333
144
0.0
144
0.0
144
0.0
144
0.0
144
1.0
144
0.0
144
0.0
144
0.0
144
0.0
144
1.0
147
0.0208333333333333
147
0.0
147
0.0
147
0.0
147
0.0
147
0.0208333333333333
147
0.0
147
0.0
147
0.0
147
0.0
147
1.0
147
0.0
147
0.0
147
0.0
147
0.0
147
1.0
  0
MATERIAL
  5
11
102
{ACAD_XDICTIONARY
360
12
102
}
102
{ACAD_REACTORS
330
10
102
}
330
10
100
AcDbMaterial
  1
ByLayer
 72
     0
 43
0.0208333333333333
 43
0.0
 43
0.0
 43
0.0
 43
0.0
 43
0.0208333333333333
 43
0.0
 43
0.0
 43
0.0
 43
0.0
 43
1.0
 43
0.0
 43
0.0
 43
0.0
 43
0.0
 43
1.0
 77
     0
 47
0.0208333333333333
 47
0.0
 47
0.0
 47
0.0
 47
0.0
 47
0.0208333333333333
 47
0.0
 47
0.0
 47
0.0
 47
0.0
 47
1.0
 47
0.0
 47
0.0
 47
0.0
 47
0.0
 47
1.0
171
     0
 49
0.0208333333333333
 49
0.0
 49
0.0
 49
0.0
 49
0.0
 49
0.0208333333333333
 49
0.0
 49
0.0
 49
0.0
 49
0.0
 49
1.0
 49
0.0
 49
0.0
 49
0.0
 49
0.0
 49
1.0
175
     0
142
0.0208333333333333
142
0.0
142
0.0
142
0.0
142
0.0
142
0.0208333333333333
142
0.0
142
0.0
142
0.0
142
0.0
142
1.0
142
0.0
142
0.0
142
0.0
142
0.0
142
1.0
179
     0
144
0.0208333333333333
144
0.0
144
0.0
144
0.0
144
0.0
144
0.0208333333333333
144
0.0
144
0.0
144
0.0
144
0.0
144
1.0
144
0.0
144
0.0
144
0.0
144
0.0
144
1.0
147
0.0208333333333333
147
0.0
147
0.0
147
0.0
147
0.0
147
0.0208333333333333
147
0.0
147
0.0
147
0.0
147
0.0
147
1.0
147
0.0
147
0.0
147
0.0
147
0.0
147
1.0
  0
MATERIAL
  5
21
102
{ACAD_XDICTIONARY
360
22
102
}
102
{ACAD_REACTORS
330
10
102
}
330
10
100
AcDbMaterial
  1
Global
 72
     0
 43
0.0208333333333333
 43
0.0
 43
0.0
 43
0.0
 43
0.0
 43
0.0208333333333333
 43
0.0
 43
0.0
 43
0.0
 43
0.0
 43
1.0
 43
0.0
 43
0.0
 43
0.0
 43
0.0
 43
1.0
 77
     0
 47
0.0208333333333333
 47
0.0
 47
0.0
 47
0.0
 47
0.0
 47
0.0208333333333333
 47
0.0
 47
0.0
 47
0.0
 47
0.0
 47
1.0
 47
0.0
 47
0.0
 47
0.0
 47
0.0
 47
1.0
171
     0
 49
0.0208333333333333
 49
0.0
 49
0.0
 49
0.0
 49
0.0
 49
0.0208333333333333
 49
0.0
 49
0.0
 49
0.0
 49
0.0
 49
1.0
 49
0.0
 49
0.0
 49
0.0
 49
0.0
 49
1.0
175
     0
142
0.0208333333333333
142
0.0
142
0.0
142
0.0
142
0.0
142
0.0208333333333333
142
0.0
142
0.0
142
0.0
142
0.0
142
1.0
142
0.0
142
0.0
142
0.0
142
0.0
142
1.0
179
     0
144
0.0208333333333333
144
0.0
144
0.0
144
0.0
144
0.0
144
0.0208333333333333
144
0.0
144
0.0
144
0.0
144
0.0
144
1.0
144
0.0
144
0.0
144
0.0
144
0.0
144
1.0
147
0.0208333333333333
147
0.0
147
0.0
147
0.0
147
0.0
147
0.0208333333333333
147
0.0
147
0.0
147
0.0
147
0.0
147
1.0
147
0.0
147
0.0
147
0.0
147
0.0
147
1.0
  0
MLEADERSTYLE
  5
67
102
{ACAD_REACTORS
330
66
102
}
330
66
100
AcDbMLeaderStyle
179
     2
170
     2
171
     1
172
     0
 90
        2
 40
0.0
 41
0.0
173
     1
 91
-1056964608
340
5B
 92
       -2
290
     1
 42
0.09
291
     1
 43
0.36
  3
Standard
 44
0.18
300

342
55
174
     1
178
     6
175
     1
176
     0
 93
-1056964608
 45
0.18
292
     0
297
     0
 46
0.18
 94
-1056964608
 47
1.0
 49
1.0
140
1.0
293
     1
141
0.0
294
     1
177
     0
142
1.0
295
     0
296
     0
143
0.125
271
     0
272
     9
273
     9
298
     1
  0
MLINESTYLE
  5
60
102
{ACAD_REACTORS
330
5F
102
}
330
5F
100
AcDbMlineStyle
  2
STANDARD
 70
     0
  3

 62
   256
 51
90.0
 52
90.0
 71
     2
 49
0.5
 62
   256
  6
BYLAYER
 49
-0.5
 62
   256
  6
BYLAYER
  0
ACDBPLACEHOLDER
  5
F
102
{ACAD_REACTORS
330
E
102
}
330
E
  0
SCALE
  5
43
102
{ACAD_REACTORS
330
42
102
}
330
42
100
AcDbScale
 70
     0
300
1:1
140
1.0
141
1.0
290
     1
  0
SCALE
  5
44
102
{ACAD_REACTORS
330
42
102
}
330
42
100
AcDbScale
 70
     0
300
1/128" = 1'-0"
140
0.0078125
141
12.0
290
     0
  0
SCALE
  5
45
102
{ACAD_REACTORS
330
42
102
}
330
42
100
AcDbScale
 70
     0
300
1/64" = 1'-0"
140
0.015625
141
12.0
290
     0
  0
SCALE
  5
46
102
{ACAD_REACTORS
330
42
102
}
330
42
100
AcDbScale
 70
     0
300
1/32" = 1'-0"
140
0.03125
141
12.0
290
     0
  0
SCALE
  5
47
102
{ACAD_REACTORS
330
42
102
}
330
42
100
AcDbScale
 70
     0
300
1/16" = 1'-0"
140
0.0625
141
12.0
290
     0
  0
SCALE
  5
48
102
{ACAD_REACTORS
330
42
102
}
330
42
100
AcDbScale
 70
     0
300
3/32" = 1'-0"
140
0.09375
141
12.0
290
     0
  0
SCALE
  5
49
102
{ACAD_REACTORS
330
42
102
}
330
42
100
AcDbScale
 70
     0
300
1/8" = 1'-0"
140
0.125
141
12.0
290
     0
  0
SCALE
  5
4A
102
{ACAD_REACTORS
330
42
102
}
330
42
100
AcDbScale
 70
     0
300
3/16" = 1'-0"
140
0.1875
141
12.0
290
     0
  0
SCALE
  5
4B
102
{ACAD_REACTORS
330
42
102
}
330
42
100
AcDbScale
 70
     0
300
1/4" = 1'-0"
140
0.25
141
12.0
290
     0
  0
SCALE
  5
4C
102
{ACAD_REACTORS
330
42
102
}
330
42
100
AcDbScale
 70
     0
300
3/8" = 1'-0"
140
0.375
141
12.0
290
     0
  0
SCALE
  5
4D
102
{ACAD_REACTORS
330
42
102
}
330
42
100
AcDbScale
 70
     0
300
1/2" = 1'-0"
140
0.5
141
12.0
290
     0
  0
SCALE
  5
4E
102
{ACAD_REACTORS
330
42
102
}
330
42
100
AcDbScale
 70
     0
300
3/4" = 1'-0"
140
0.75
141
12.0
290
     0
  0
SCALE
  5
4F
102
{ACAD_REACTORS
330
42
102
}
330
42
100
AcDbScale
 70
     0
300
1" = 1'-0"
140
1.0
141
12.0
290
     0
  0
SCALE
  5
50
102
{ACAD_REACTORS
330
42
102
}
330
42
100
AcDbScale
 70
     0
300
1-1/2" = 1'-0"
140
1.5
141
12.0
290
     0
  0
SCALE
  5
51
102
{ACAD_REACTORS
330
42
102
}
330
42
100
AcDbScale
 70
     0
300
3" = 1'-0"
140
3.0
141
12.0
290
     0
  0
SCALE
  5
52
102
{ACAD_REACTORS
330
42
102
}
330
42
100
AcDbScale
 70
     0
300
6" = 1'-0"
140
6.0
141
12.0
290
     0
  0
SCALE
  5
53
102
{ACAD_REACTORS
330
42
102
}
330
42
100
AcDbScale
 70
     0
300
1'-0" = 1'-0"
140
12.0
141
12.0
290
     0
  0
ACDBSECTIONVIEWSTYLE
  5
69
102
{ACAD_XDICTIONARY
360
5D8
102
}
102
{ACAD_REACTORS
330
68
102
}
330
68
100
AcDbModelDocViewStyle
 70
     0
  3
Imperial24
290
     0
100
AcDbSectionViewStyle
 70
     0
 71
     0
 90
       78
 71
     1
340
55
 62
   256
 40
0.24
340
0
340
0
 62
   256
 40
0.24
300
I, O, Q, S, X, Z
 40
0.48
 90
        3
 40
0.18
 90
        1
 71
     2
340
5D
 90
       25
 62
   256
340
5D
 90
       50
 62
   256
 40
0.24
 40
0.0
 40
0.24
 71
     3
340
55
 62
   256
 40
0.24
 90
        1
 40
0.75
 90
        1
300
%<\AcVar ViewType \f "%tc1">% %<\AcVar ViewSectionStartId>%-%<\AcVar ViewSectionEndId>%\PVARIA %<\AcVar ViewScale \f "%sn">%
 71
     4
 62
   256
 62
   257
300
ANSI31
 40
1.0
 90
        0
290
     0
290
     0
 90
        6
 40
0.0
 40
1.570796326794896
 40
0.2617993877991494
 40
1.308996938995747
 40
-0.2617993877991494
 40
1.832595714594046
  0
TABLESTYLE
  5
65
102
{ACAD_XDICTIONARY
360
4BF
102
}
102
{ACAD_REACTORS
330
64
102
}
330
64
100
AcDbTableStyle
280
     0
  3
Standard
 70
     0
 71
     0
 40
0.06
 41
0.06
280
     0
281
     0
  7
Standard
140
0.18
170
     2
 62
     0
 63
     7
283
     0
 90
      512
 91
        0
  1

274
    -2
284
     1
 64
     0
275
    -2
285
     1
 65
     0
276
    -2
286
     1
 66
     0
277
    -2
287
     1
 67
     0
278
    -2
288
     1
 68
     0
279
    -2
289
     1
 69
     0
  7
Standard
140
0.25
170
     5
 62
     0
 63
     7
283
     0
 90
      512
 91
        0
  1

274
    -2
284
     1
 64
     0
275
    -2
285
     1
 65
     0
276
    -2
286
     1
 66
     0
277
    -2
287
     1
 67
     0
278
    -2
288
     1
 68
     0
279
    -2
289
     1
 69
     0
  7
Standard
140
0.18
170
     5
 62
     0
 63
     7
283
     0
 90
      512
 91
        0
  1

274
    -2
284
     1
 64
     0
275
    -2
285
     1
 65
     0
276
    -2
286
     1
 66
     0
277
    -2
287
     1
 67
     0
278
    -2
288
     1
 68
     0
279
    -2
289
     1
 69
     0
  0
VISUALSTYLE
  5
2F
102
{ACAD_REACTORS
330
29
102
}
330
29
100
AcDbVisualStyle
  2
2dWireframe
 70
     4
177
     3
291
     0
 70
    58
 90
        0
176
     1
 90
        2
176
     1
 90
        0
176
     1
 90
        0
176
     1
 40
0.6
176
     1
 40
30.0
176
     1
 62
     7
420
 16777215
176
     1
 90
        1
176
     1
 90
        4
176
     1
 62
     7
176
     1
 62
   257
176
     1
 90
        1
176
     1
 90
        1
176
     1
 40
1.0
176
     1
 90
        0
176
     1
 62
   257
176
     1
 40
1.0
176
     1
 90
        1
176
     1
 90
        6
176
     1
 90
        2
176
     1
 62
     7
176
     1
 90
        5
176
     1
 90
        0
176
     1
 90
        0
176
     1
290
     0
176
     1
 90
        1
176
     1
 40
0.0
176
     1
 90
        0
176
     1
290
     1
176
     1
290
     1
176
     1
290
     0
176
     1
290
     0
176
     1
290
     0
176
     1
290
     0
176
     1
290
     0
176
     1
290
     0
176
     1
290
     0
176
     1
 90
       50
176
     1
 40
0.0
176
     1
 40
1.0
176
     1
 90
        0
176
     1
 62
    18
420
        0
176
     1
 90
       50
176
     1
 90
        3
176
     1
 62
     5
420
      255
176
     1
290
     0
176
     1
 90
       50
176
     1
 90
       50
176
     1
 90
       50
176
     1
290
     0
176
     1
 90
       50
176
     1
 62
   256
176
     0
 40
1.0
176
     0
 90
        2
176
     1
  1
strokes_ogs.tif
176
     1
290
     0
176
     1
 40
1.0
176
     1
 40
1.0
176
     1
1001
ACAD
1000
AcDbSavedByObjectVersion
1070
     0
  0
VISUALSTYLE
  5
2E
102
{ACAD_REACTORS
330
29
102
}
330
29
100
AcDbVisualStyle
  2
Basic
 70
     7
177
     3
291
     1
 70
    58
 90
        1
176
     1
 90
        0
176
     1
 90
        1
176
     1
 90
        0
176
     1
 40
0.6
176
     1
 40
30.0
176
     1
 62
     7
420
 16777215
176
     1
 90
        0
176
     1
 90
        4
176
     1
 62
     7
176
     1
 62
   257
176
     1
 90
        1
176
     1
 90
        1
176
     1
 40
1.0
176
     1
 90
        8
176
     1
 62
     7
176
     1
 40
1.0
176
     1
 90
        1
176
     1
 90
        6
176
     1
 90
        2
176
     1
 62
     7
176
     1
 90
        5
176
     1
 90
        0
176
     1
 90
        0
176
     1
290
     0
176
     1
 90
        1
176
     1
 40
0.0
176
     1
 90
        0
176
     1
290
     0
176
     1
290
     1
176
     1
290
     1
176
     1
290
     0
176
     1
290
     0
176
     1
290
     0
176
     1
290
     0
176
     1
290
     0
176
     1
290
     0
176
     1
 90
       50
176
     1
 40
0.0
176
     1
 40
1.0
176
     1
 90
        0
176
     1
 62
    18
420
        0
176
     1
 90
       50
176
     1
 90
        3
176
     1
 62
     5
420
      255
176
     1
290
     0
176
     1
 90
       50
176
     1
 90
       50
176
     1
 90
       50
176
     1
290
     0
176
     1
 90
       50
176
     1
 62
   256
176
     0
 40
1.0
176
     0
 90
        2
176
     1
  1
strokes_ogs.tif
176
     1
290
     0
176
     1
 40
1.0
176
     1
 40
1.0
176
     1
1001
ACAD
1000
AcDbSavedByObjectVersion
1070
     0
  0
VISUALSTYLE
  5
35
102
{ACAD_REACTORS
330
29
102
}
330
29
100
AcDbVisualStyle
  2
Brighten
 70
    12
177
     3
291
     1
 70
    58
 90
        2
176
     1
 90
        2
176
     1
 90
        0
176
     1
 90
        0
176
     1
 40
0.6
176
     1
 40
30.0
176
     1
 62
     7
420
 16777215
176
     1
 90
        1
176
     1
 90
        4
176
     1
 62
     7
176
     1
 62
   257
176
     1
 90
        1
176
     1
 90
        1
176
     1
 40
1.0
176
     1
 90
        8
176
     1
 62
     7
176
     1
 40
1.0
176
     1
 90
        1
176
     1
 90
        6
176
     1
 90
        2
176
     1
 62
     7
176
     1
 90
        5
176
     1
 90
        0
176
     1
 90
        0
176
     1
290
     0
176
     1
 90
        1
176
     1
 40
50.0
176
     1
 90
        0
176
     1
290
     0
176
     1
290
     1
176
     1
290
     1
176
     1
290
     0
176
     1
290
     0
176
     1
290
     0
176
     1
290
     0
176
     1
290
     0
176
     1
290
     0
176
     1
 90
       50
176
     1
 40
0.0
176
     1
 40
1.0
176
     1
 90
        0
176
     1
 62
    18
420
        0
176
     1
 90
       50
176
     1
 90
        3
176
     1
 62
     5
420
      255
176
     1
290
     0
176
     1
 90
       50
176
     1
 90
       50
176
     1
 90
       50
176
     1
290
     0
176
     1
 90
       50
176
     1
 62
   256
176
     0
 40
1.0
176
     0
 90
        2
176
     1
  1
strokes_ogs.tif
176
     1
290
     0
176
     1
 40
1.0
176
     1
 40
1.0
176
     1
1001
ACAD
1000
AcDbSavedByObjectVersion
1070
     0
  0
VISUALSTYLE
  5
39
102
{ACAD_REACTORS
330
29
102
}
330
29
100
AcDbVisualStyle
  2
ColorChange
 70
    16
177
     3
291
     1
 70
    58
 90
        2
176
     1
 90
        2
176
     1
 90
        3
176
     1
 90
        0
176
     1
 40
0.6
176
     1
 40
30.0
176
     1
 62
     8
420
  8421504
176
     1
 90
        1
176
     1
 90
        4
176
     1
 62
     7
176
     1
 62
   257
176
     1
 90
        1
176
     1
 90
        1
176
     1
 40
1.0
176
     1
 90
        8
176
     1
 62
     8
420
  8421504
176
     1
 40
1.0
176
     1
 90
        1
176
     1
 90
        6
176
     1
 90
        2
176
     1
 62
     7
176
     1
 90
        5
176
     1
 90
        0
176
     1
 90
        0
176
     1
290
     0
176
     1
 90
        1
176
     1
 40
0.0
176
     1
 90
        0
176
     1
290
     0
176
     1
290
     1
176
     1
290
     1
176
     1
290
     0
176
     1
290
     0
176
     1
290
     0
176
     1
290
     0
176
     1
290
     0
176
     1
290
     0
176
     1
 90
       50
176
     1
 40
0.0
176
     1
 40
1.0
176
     1
 90
        0
176
     1
 62
    18
420
        0
176
     1
 90
       50
176
     1
 90
        3
176
     1
 62
     5
420
      255
176
     1
290
     0
176
     1
 90
       50
176
     1
 90
       50
176
     1
 90
       50
176
     1
290
     0
176
     1
 90
       50
176
     1
 62
   256
176
     0
 40
1.0
176
     0
 90
        2
176
     1
  1
strokes_ogs.tif
176
     1
290
     0
176
     1
 40
1.0
176
     1
 40
1.0
176
     1
1001
ACAD
1000
AcDbSavedByObjectVersion
1070
     0
  0
VISUALSTYLE
  5
32
102
{ACAD_REACTORS
330
29
102
}
330
29
100
AcDbVisualStyle
  2
Conceptual
 70
     9
177
     3
291
     0
 70
    58
 90
        3
176
     1
 90
        2
176
     1
 90
        0
176
     1
 90
        0
176
     1
 40
0.6
176
     1
 40
30.0
176
     1
 62
     7
420
 16777215
176
     1
 90
        2
176
     1
 90
        2
176
     1
 62
     7
176
     1
 62
   257
176
     1
 90
        1
176
     1
 90
        1
176
     1
 40
179.0
176
     1
 90
        8
176
     1
 62
     7
176
     1
 40
1.0
176
     1
 90
        1
176
     1
 90
        6
176
     1
 90
        2
176
     1
 62
     7
176
     1
 90
        3
176
     1
 90
        0
176
     1
 90
        0
176
     1
290
     0
176
     1
 90
        1
176
     1
 40
0.0
176
     1
 90
        0
176
     1
290
     0
176
     1
290
     1
176
     1
290
     1
176
     1
290
     0
176
     1
290
     0
176
     1
290
     0
176
     1
290
     0
176
     1
290
     0
176
     1
290
     0
176
     1
 90
       50
176
     1
 40
0.0
176
     1
 40
1.0
176
     1
 90
        0
176
     1
 62
    18
420
        0
176
     1
 90
       50
176
     1
 90
        3
176
     1
 62
     5
420
      255
176
     1
290
     0
176
     1
 90
       50
176
     1
 90
       50
176
     1
 90
       50
176
     1
290
     0
176
     1
 90
       50
176
     1
 62
   256
176
     0
 40
1.0
176
     0
 90
        2
176
     1
  1
strokes_ogs.tif
176
     1
290
     0
176
     1
 40
1.0
176
     1
 40
1.0
176
     1
1001
ACAD
1000
AcDbSavedByObjectVersion
1070
     0
  0
VISUALSTYLE
  5
34
102
{ACAD_REACTORS
330
29
102
}
330
29
100
AcDbVisualStyle
  2
Dim
 70
    11
177
     3
291
     1
 70
    58
 90
        2
176
     1
 90
        2
176
     1
 90
        0
176
     1
 90
        0
176
     1
 40
0.6
176
     1
 40
30.0
176
     1
 62
     7
420
 16777215
176
     1
 90
        1
176
     1
 90
        4
176
     1
 62
     7
176
     1
 62
   257
176
     1
 90
        1
176
     1
 90
        1
176
     1
 40
1.0
176
     1
 90
        8
176
     1
 62
     7
176
     1
 40
1.0
176
     1
 90
        1
176
     1
 90
        6
176
     1
 90
        2
176
     1
 62
     7
176
     1
 90
        5
176
     1
 90
        0
176
     1
 90
        0
176
     1
290
     0
176
     1
 90
        1
176
     1
 40
-50.0
176
     1
 90
        0
176
     1
290
     0
176
     1
290
     1
176
     1
290
     1
176
     1
290
     0
176
     1
290
     0
176
     1
290
     0
176
     1
290
     0
176
     1
290
     0
176
     1
290
     0
176
     1
 90
       50
176
     1
 40
0.0
176
     1
 40
1.0
176
     1
 90
        0
176
     1
 62
    18
420
        0
176
     1
 90
       50
176
     1
 90
        3
176
     1
 62
     5
420
      255
176
     1
290
     0
176
     1
 90
       50
176
     1
 90
       50
176
     1
 90
       50
176
     1
290
     0
176
     1
 90
       50
176
     1
 62
   256
176
     0
 40
1.0
176
     0
 90
        2
176
     1
  1
strokes_ogs.tif
176
     1
290
     0
176
     1
 40
1.0
176
     1
 40
1.0
176
     1
1001
ACAD
1000
AcDbSavedByObjectVersion
1070
     0
  0
VISUALSTYLE
  5
41
102
{ACAD_REACTORS
330
29
102
}
330
29
100
AcDbVisualStyle
  2
EdgeColorOff
 70
    22
177
     3
291
     1
 70
    58
 90
        2
176
     0
 90
        2
176
     0
 90
        0
176
     0
 90
        0
176
     0
 40
0.6
176
     0
 40
30.0
176
     0
 62
     7
420
 16777215
176
     0
 90
        1
176
     0
 90
        4
176
     0
 62
     7
176
     0
 62
   257
176
     0
 90
        1
176
     0
 90
        1
176
     0
 40
1.0
176
     0
 90
        8
176
     2
 62
     7
176
     0
 40
1.0
176
     0
 90
        1
176
     0
 90
        6
176
     0
 90
        2
176
     0
 62
     7
176
     0
 90
        5
176
     0
 90
        0
176
     0
 90
        0
176
     0
290
     0
176
     0
 90
        1
176
     0
 40
0.0
176
     0
 90
        0
176
     0
290
     0
176
     0
290
     1
176
     0
290
     1
176
     0
290
     0
176
     0
290
     0
176
     0
290
     0
176
     0
290
     0
176
     0
290
     0
176
     0
290
     0
176
     0
 90
       50
176
     0
 40
0.0
176
     0
 40
1.0
176
     0
 90
        0
176
     0
 62
    18
420
        0
176
     0
 90
       50
176
     0
 90
        3
176
     0
 62
     5
420
      255
176
     0
290
     0
176
     0
 90
       50
176
     0
 90
       50
176
     0
 90
       50
176
     0
290
     0
176
     0
 90
       50
176
     0
 62
   256
176
     0
 40
1.0
176
     0
 90
        2
176
     0
  1
strokes_ogs.tif
176
     0
290
     0
176
     0
 40
1.0
176
     0
 40
1.0
176
     0
1001
ACAD
1000
AcDbSavedByObjectVersion
1070
     0
  0
VISUALSTYLE
  5
38
102
{ACAD_REACTORS
330
29
102
}
330
29
100
AcDbVisualStyle
  2
Facepattern
 70
    15
177
     3
291
     1
 70
    58
 90
        2
176
     1
 90
        2
176
     1
 90
        0
176
     1
 90
        0
176
     1
 40
0.6
176
     1
 40
30.0
176
     1
 62
     7
420
 16777215
176
     1
 90
        1
176
     1
 90
        4
176
     1
 62
     7
176
     1
 62
   257
176
     1
 90
        1
176
     1
 90
        1
176
     1
 40
1.0
176
     1
 90
        8
176
     1
 62
     7
176
     1
 40
1.0
176
     1
 90
        1
176
     1
 90
        6
176
     1
 90
        2
176
     1
 62
     7
176
     1
 90
        5
176
     1
 90
        0
176
     1
 90
        0
176
     1
290
     0
176
     1
 90
        1
176
     1
 40
0.0
176
     1
 90
        0
176
     1
290
     0
176
     1
290
     1
176
     1
290
     1
176
     1
290
     0
176
     1
290
     0
176
     1
290
     0
176
     1
290
     0
176
     1
290
     0
176
     1
290
     0
176
     1
 90
       50
176
     1
 40
0.0
176
     1
 40
1.0
176
     1
 90
        0
176
     1
 62
    18
420
        0
176
     1
 90
       50
176
     1
 90
        3
176
     1
 62
     5
420
      255
176
     1
290
     0
176
     1
 90
       50
176
     1
 90
       50
176
     1
 90
       50
176
     1
290
     0
176
     1
 90
       50
176
     1
 62
   256
176
     0
 40
1.0
176
     0
 90
        2
176
     1
  1
strokes_ogs.tif
176
     1
290
     0
176
     1
 40
1.0
176
     1
 40
1.0
176
     1
1001
ACAD
1000
AcDbSavedByObjectVersion
1070
     0
  0
VISUALSTYLE
  5
2A
102
{ACAD_REACTORS
330
29
102
}
330
29
100
AcDbVisualStyle
  2
Flat
 70
     0
177
     3
291
     1
 70
    58
 90
        2
176
     1
 90
        1
176
     1
 90
        1
176
     1
 90
        2
176
     1
 40
0.6
176
     1
 40
30.0
176
     1
 62
     7
420
 16777215
176
     1
 90
        0
176
     1
 90
        0
176
     1
 62
     7
176
     1
 62
   257
176
     1
 90
        1
176
     1
 90
        1
176
     1
 40
1.0
176
     1
 90
        8
176
     1
 62
     7
176
     1
 40
1.0
176
     1
 90
        1
176
     1
 90
        6
176
     1
 90
        2
176
     1
 62
     7
176
     1
 90
        5
176
     1
 90
        0
176
     1
 90
        0
176
     1
290
     0
176
     1
 90
       13
176
     1
 40
0.0
176
     1
 90
        0
176
     1
290
     0
176
     1
290
     1
176
     1
290
     1
176
     1
290
     0
176
     1
290
     0
176
     1
290
     0
176
     1
290
     0
176
     1
290
     0
176
     1
290
     0
176
     1
 90
       50
176
     1
 40
0.0
176
     1
 40
1.0
176
     1
 90
        0
176
     1
 62
    18
420
        0
176
     1
 90
       50
176
     1
 90
        3
176
     1
 62
     5
420
      255
176
     1
290
     0
176
     1
 90
       50
176
     1
 90
       50
176
     1
 90
       50
176
     1
290
     0
176
     1
 90
       50
176
     1
 62
   256
176
     0
 40
1.0
176
     0
 90
        2
176
     1
  1
strokes_ogs.tif
176
     1
290
     0
176
     1
 40
1.0
176
     1
 40
1.0
176
     1
1001
ACAD
1000
AcDbSavedByObjectVersion
1070
     0
  0
VISUALSTYLE
  5
2B
102
{ACAD_REACTORS
330
29
102
}
330
29
100
AcDbVisualStyle
  2
FlatWithEdges
 70
     1
177
     3
291
     1
 70
    58
 90
        2
176
     1
 90
        1
176
     1
 90
        1
176
     1
 90
        2
176
     1
 40
0.6
176
     1
 40
30.0
176
     1
 62
     7
420
 16777215
176
     1
 90
        1
176
     1
 90
        0
176
     1
 62
     7
176
     1
 62
   257
176
     1
 90
        1
176
     1
 90
        1
176
     1
 40
1.0
176
     1
 90
        0
176
     1
 62
   257
176
     1
 40
1.0
176
     1
 90
        1
176
     1
 90
        6
176
     1
 90
        2
176
     1
 62
     7
176
     1
 90
        5
176
     1
 90
        0
176
     1
 90
        0
176
     1
290
     0
176
     1
 90
       13
176
     1
 40
0.0
176
     1
 90
        0
176
     1
290
     0
176
     1
290
     1
176
     1
290
     1
176
     1
290
     0
176
     1
290
     0
176
     1
290
     0
176
     1
290
     0
176
     1
290
     0
176
     1
290
     0
176
     1
 90
       50
176
     1
 40
0.0
176
     1
 40
1.0
176
     1
 90
        0
176
     1
 62
    18
420
        0
176
     1
 90
       50
176
     1
 90
        3
176
     1
 62
     5
420
      255
176
     1
290
     0
176
     1
 90
       50
176
     1
 90
       50
176
     1
 90
       50
176
     1
290
     0
176
     1
 90
       50
176
     1
 62
   256
176
     0
 40
1.0
176
     0
 90
        2
176
     1
  1
strokes_ogs.tif
176
     1
290
     0
176
     1
 40
1.0
176
     1
 40
1.0
176
     1
1001
ACAD
1000
AcDbSavedByObjectVersion
1070
     0
  0
VISUALSTYLE
  5
2C
102
{ACAD_REACTORS
330
29
102
}
330
29
100
AcDbVisualStyle
  2
Gouraud
 70
     2
177
     3
291
     1
 70
    58
 90
        2
176
     1
 90
        2
176
     1
 90
        1
176
     1
 90
        2
176
     1
 40
0.6
176
     1
 40
30.0
176
     1
 62
     7
420
 16777215
176
     1
 90
        0
176
     1
 90
        0
176
     1
 62
     7
176
     1
 62
   257
176
     1
 90
        1
176
     1
 90
        1
176
     1
 40
1.0
176
     1
 90
        0
176
     1
 62
     7
176
     1
 40
1.0
176
     1
 90
        1
176
     1
 90
        6
176
     1
 90
        2
176
     1
 62
     7
176
     1
 90
        5
176
     1
 90
        0
176
     1
 90
        0
176
     1
290
     0
176
     1
 90
       13
176
     1
 40
0.0
176
     1
 90
        0
176
     1
290
     0
176
     1
290
     1
176
     1
290
     1
176
     1
290
     0
176
     1
290
     0
176
     1
290
     0
176
     1
290
     0
176
     1
290
     0
176
     1
290
     0
176
     1
 90
       50
176
     1
 40
0.0
176
     1
 40
1.0
176
     1
 90
        0
176
     1
 62
    18
420
        0
176
     1
 90
       50
176
     1
 90
        3
176
     1
 62
     5
420
      255
176
     1
290
     0
176
     1
 90
       50
176
     1
 90
       50
176
     1
 90
       50
176
     1
290
     0
176
     1
 90
       50
176
     1
 62
   256
176
     0
 40
1.0
176
     0
 90
        2
176
     1
  1
strokes_ogs.tif
176
     1
290
     0
176
     1
 40
1.0
176
     1
 40
1.0
176
     1
1001
ACAD
1000
AcDbSavedByObjectVersion
1070
     0
  0
VISUALSTYLE
  5
2D
102
{ACAD_REACTORS
330
29
102
}
330
29
100
AcDbVisualStyle
  2
GouraudWithEdges
 70
     3
177
     3
291
     1
 70
    58
 90
        2
176
     1
 90
        2
176
     1
 90
        1
176
     1
 90
        2
176
     1
 40
0.6
176
     1
 40
30.0
176
     1
 62
     7
420
 16777215
176
     1
 90
        1
176
     1
 90
        0
176
     1
 62
     7
176
     1
 62
   257
176
     1
 90
        1
176
     1
 90
        1
176
     1
 40
1.0
176
     1
 90
        0
176
     1
 62
   257
176
     1
 40
1.0
176
     1
 90
        1
176
     1
 90
        6
176
     1
 90
        2
176
     1
 62
     7
176
     1
 90
        5
176
     1
 90
        0
176
     1
 90
        0
176
     1
290
     0
176
     1
 90
       13
176
     1
 40
0.0
176
     1
 90
        0
176
     1
290
     0
176
     1
290
     1
176
     1
290
     1
176
     1
290
     0
176
     1
290
     0
176
     1
290
     0
176
     1
290
     0
176
     1
290
     0
176
     1
290
     0
176
     1
 90
       50
176
     1
 40
0.0
176
     1
 40
1.0
176
     1
 90
        0
176
     1
 62
    18
420
        0
176
     1
 90
       50
176
     1
 90
        3
176
     1
 62
     5
420
      255
176
     1
290
     0
176
     1
 90
       50
176
     1
 90
       50
176
     1
 90
       50
176
     1
290
     0
176
     1
 90
       50
176
     1
 62
   256
176
     0
 40
1.0
176
     0
 90
        2
176
     1
  1
strokes_ogs.tif
176
     1
290
     0
176
     1
 40
1.0
176
     1
 40
1.0
176
     1
1001
ACAD
1000
AcDbSavedByObjectVersion
1070
     0
  0
VISUALSTYLE
  5
31
102
{ACAD_REACTORS
330
29
102
}
330
29
100
AcDbVisualStyle
  2
Hidden
 70
     6
177
     3
291
     0
 70
    58
 90
        1
176
     1
 90
        2
176
     1
 90
        2
176
     1
 90
        0
176
     1
 40
0.6
176
     1
 40
30.0
176
     1
 62
     7
420
 16777215
176
     1
 90
        2
176
     1
 90
        2
176
     1
 62
     7
176
     1
 62
   257
176
     1
 90
        2
176
     1
 90
        1
176
     1
 40
40.0
176
     1
 90
        0
176
     1
 62
   257
176
     1
 40
1.0
176
     1
 90
        1
176
     1
 90
        6
176
     1
 90
        2
176
     1
 62
     7
176
     1
 90
        3
176
     1
 90
        0
176
     1
 90
        0
176
     1
290
     0
176
     1
 90
        1
176
     1
 40
0.0
176
     1
 90
        0
176
     1
290
     0
176
     1
290
     1
176
     1
290
     1
176
     1
290
     0
176
     1
290
     0
176
     1
290
     0
176
     1
290
     0
176
     1
290
     0
176
     1
290
     0
176
     1
 90
       50
176
     1
 40
0.0
176
     1
 40
1.0
176
     1
 90
        0
176
     1
 62
    18
420
        0
176
     1
 90
       50
176
     1
 90
        3
176
     1
 62
     5
420
      255
176
     1
290
     0
176
     1
 90
       50
176
     1
 90
       50
176
     1
 90
       50
176
     1
290
     0
176
     1
 90
       50
176
     1
 62
   256
176
     0
 40
1.0
176
     0
 90
        2
176
     1
  1
strokes_ogs.tif
176
     1
290
     0
176
     1
 40
1.0
176
     1
 40
1.0
176
     1
1001
ACAD
1000
AcDbSavedByObjectVersion
1070
     0
  0
VISUALSTYLE
  5
3F
102
{ACAD_REACTORS
330
29
102
}
330
29
100
AcDbVisualStyle
  2
JitterOff
 70
    20
177
     3
291
     1
 70
    58
 90
        2
176
     0
 90
        2
176
     0
 90
        0
176
     0
 90
        0
176
     0
 40
0.6
176
     0
 40
30.0
176
     0
 62
     7
420
 16777215
176
     0
 90
        1
176
     0
 90
        4
176
     0
 62
     7
176
     0
 62
   257
176
     0
 90
        1
176
     0
 90
        1
176
     0
 40
1.0
176
     0
 90
       10
176
     2
 62
     7
176
     0
 40
1.0
176
     0
 90
        1
176
     0
 90
        6
176
     0
 90
        2
176
     0
 62
     7
176
     0
 90
        5
176
     0
 90
        0
176
     0
 90
        0
176
     0
290
     0
176
     0
 90
        1
176
     0
 40
0.0
176
     0
 90
        0
176
     0
290
     0
176
     0
290
     1
176
     0
290
     1
176
     0
290
     0
176
     0
290
     0
176
     0
290
     0
176
     0
290
     0
176
     0
290
     0
176
     0
290
     0
176
     0
 90
       50
176
     0
 40
0.0
176
     0
 40
1.0
176
     0
 90
        0
176
     0
 62
    18
420
        0
176
     0
 90
       50
176
     0
 90
        3
176
     0
 62
     5
420
      255
176
     0
290
     0
176
     0
 90
       50
176
     0
 90
       50
176
     0
 90
       50
176
     0
290
     0
176
     0
 90
       50
176
     0
 62
   256
176
     0
 40
1.0
176
     0
 90
        2
176
     0
  1
strokes_ogs.tif
176
     0
290
     0
176
     0
 40
1.0
176
     0
 40
1.0
176
     0
1001
ACAD
1000
AcDbSavedByObjectVersion
1070
     0
  0
VISUALSTYLE
  5
37
102
{ACAD_REACTORS
330
29
102
}
330
29
100
AcDbVisualStyle
  2
Linepattern
 70
    14
177
     3
291
     1
 70
    58
 90
        2
176
     1
 90
        2
176
     1
 90
        0
176
     1
 90
        0
176
     1
 40
0.6
176
     1
 40
30.0
176
     1
 62
     7
420
 16777215
176
     1
 90
        1
176
     1
 90
        4
176
     1
 62
     7
176
     1
 62
   257
176
     1
 90
        7
176
     1
 90
        7
176
     1
 40
1.0
176
     1
 90
        8
176
     1
 62
     7
176
     1
 40
1.0
176
     1
 90
        1
176
     1
 90
        6
176
     1
 90
        2
176
     1
 62
     7
176
     1
 90
        5
176
     1
 90
        0
176
     1
 90
        0
176
     1
290
     0
176
     1
 90
        1
176
     1
 40
0.0
176
     1
 90
        0
176
     1
290
     0
176
     1
290
     1
176
     1
290
     1
176
     1
290
     0
176
     1
290
     0
176
     1
290
     0
176
     1
290
     0
176
     1
290
     0
176
     1
290
     0
176
     1
 90
       50
176
     1
 40
0.0
176
     1
 40
1.0
176
     1
 90
        0
176
     1
 62
    18
420
        0
176
     1
 90
       50
176
     1
 90
        3
176
     1
 62
     5
420
      255
176
     1
290
     0
176
     1
 90
       50
176
     1
 90
       50
176
     1
 90
       50
176
     1
290
     0
176
     1
 90
       50
176
     1
 62
   256
176
     0
 40
1.0
176
     0
 90
        2
176
     1
  1
strokes_ogs.tif
176
     1
290
     0
176
     1
 40
1.0
176
     1
 40
1.0
176
     1
1001
ACAD
1000
AcDbSavedByObjectVersion
1070
     0
  0
VISUALSTYLE
  5
40
102
{ACAD_REACTORS
330
29
102
}
330
29
100
AcDbVisualStyle
  2
OverhangOff
 70
    21
177
     3
291
     1
 70
    58
 90
        2
176
     0
 90
        2
176
     0
 90
        0
176
     0
 90
        0
176
     0
 40
0.6
176
     0
 40
30.0
176
     0
 62
     7
420
 16777215
176
     0
 90
        1
176
     0
 90
        4
176
     0
 62
     7
176
     0
 62
   257
176
     0
 90
        1
176
     0
 90
        1
176
     0
 40
1.0
176
     0
 90
        9
176
     2
 62
     7
176
     0
 40
1.0
176
     0
 90
        1
176
     0
 90
        6
176
     0
 90
        2
176
     0
 62
     7
176
     0
 90
        5
176
     0
 90
        0
176
     0
 90
        0
176
     0
290
     0
176
     0
 90
        1
176
     0
 40
0.0
176
     0
 90
        0
176
     0
290
     0
176
     0
290
     1
176
     0
290
     1
176
     0
290
     0
176
     0
290
     0
176
     0
290
     0
176
     0
290
     0
176
     0
290
     0
176
     0
290
     0
176
     0
 90
       50
176
     0
 40
0.0
176
     0
 40
1.0
176
     0
 90
        0
176
     0
 62
    18
420
        0
176
     0
 90
       50
176
     0
 90
        3
176
     0
 62
     5
420
      255
176
     0
290
     0
176
     0
 90
       50
176
     0
 90
       50
176
     0
 90
       50
176
     0
290
     0
176
     0
 90
       50
176
     0
 62
   256
176
     0
 40
1.0
176
     0
 90
        2
176
     0
  1
strokes_ogs.tif
176
     0
290
     0
176
     0
 40
1.0
176
     0
 40
1.0
176
     0
1001
ACAD
1000
AcDbSavedByObjectVersion
1070
     0
  0
VISUALSTYLE
  5
33
102
{ACAD_REACTORS
330
29
102
}
330
29
100
AcDbVisualStyle
  2
Realistic
 70
     8
177
     3
291
     0
 70
    58
 90
        2
176
     1
 90
        3
176
     1
 90
        0
176
     1
 90
        2
176
     1
 40
0.6
176
     1
 40
30.0
176
     1
 62
     7
420
 16777215
176
     1
 90
        0
176
     1
 90
        0
176
     1
 62
     7
176
     1
 62
   257
176
     1
 90
        1
176
     1
 90
        1
176
     1
 40
1.0
176
     1
 90
        8
176
     1
 62
   257
176
     1
 40
1.0
176
     1
 90
        1
176
     1
 90
        6
176
     1
 90
        2
176
     1
 62
     7
176
     1
 90
        3
176
     1
 90
        0
176
     1
 90
        0
176
     1
290
     0
176
     1
 90
       13
176
     1
 40
0.0
176
     1
 90
        0
176
     1
290
     0
176
     1
290
     1
176
     1
290
     1
176
     1
290
     0
176
     1
290
     0
176
     1
290
     0
176
     1
290
     0
176
     1
290
     0
176
     1
290
     0
176
     1
 90
       50
176
     1
 40
0.0
176
     1
 40
1.0
176
     1
 90
        0
176
     1
 62
    18
420
        0
176
     1
 90
       50
176
     1
 90
        3
176
     1
 62
     5
420
      255
176
     1
290
     0
176
     1
 90
       50
176
     1
 90
       50
176
     1
 90
       50
176
     1
290
     0
176
     1
 90
       50
176
     1
 62
   256
176
     0
 40
1.0
176
     0
 90
        2
176
     1
  1
strokes_ogs.tif
176
     1
290
     0
176
     1
 40
1.0
176
     1
 40
1.0
176
     1
1001
ACAD
1000
AcDbSavedByObjectVersion
1070
     0
  0
VISUALSTYLE
  5
3E
102
{ACAD_REACTORS
330
29
102
}
330
29
100
AcDbVisualStyle
  2
Shaded
 70
    27
177
     3
291
     0
 70
    58
 90
        2
176
     1
 90
        2
176
     1
 90
        1
176
     1
 90
        2
176
     1
 40
0.6
176
     1
 40
30.0
176
     1
 62
     7
420
 16777215
176
     1
 90
        0
176
     1
 90
        4
176
     1
 62
     7
176
     1
 62
   257
176
     1
 90
        1
176
     1
 90
        1
176
     1
 40
1.0
176
     1
 90
        8
176
     1
 62
   257
176
     1
 40
1.0
176
     1
 90
        1
176
     1
 90
        6
176
     1
 90
        2
176
     1
 62
     8
420
  7895160
176
     1
 90
        3
176
     1
 90
        0
176
     1
 90
        0
176
     1
290
     0
176
     1
 90
        5
176
     1
 40
0.0
176
     1
 90
        0
176
     1
290
     0
176
     1
290
     1
176
     1
290
     1
176
     1
290
     0
176
     1
290
     0
176
     1
290
     0
176
     1
290
     0
176
     1
290
     0
176
     1
290
     0
176
     1
 90
       50
176
     1
 40
0.0
176
     1
 40
1.0
176
     1
 90
        0
176
     1
 62
    18
420
        0
176
     1
 90
       50
176
     1
 90
        3
176
     1
 62
     5
420
      255
176
     1
290
     0
176
     1
 90
       50
176
     1
 90
       50
176
     1
 90
       50
176
     1
290
     0
176
     1
 90
       50
176
     1
 62
   256
176
     0
 40
1.0
176
     0
 90
        2
176
     1
  1
strokes_ogs.tif
176
     1
290
     0
176
     1
 40
1.0
176
     1
 40
1.0
176
     1
1001
ACAD
1000
AcDbSavedByObjectVersion
1070
     0
  0
VISUALSTYLE
  5
3D
102
{ACAD_REACTORS
330
29
102
}
330
29
100
AcDbVisualStyle
  2
Shaded with edges
 70
    26
177
     3
291
     0
 70
    58
 90
        2
176
     1
 90
        2
176
     1
 90
        1
176
     1
 90
        2
176
     1
 40
0.6
176
     1
 40
30.0
176
     1
 62
     7
420
 16777215
176
     1
 90
        1
176
     1
 90
        2
176
     1
 62
     7
176
     1
 62
   257
176
     1
 90
        2
176
     1
 90
        1
176
     1
 40
1.0
176
     1
 90
        8
176
     1
 62
   257
176
     1
 40
1.0
176
     1
 90
        1
176
     1
 90
        6
176
     1
 90
        2
176
     1
 62
     7
176
     1
 90
        3
176
     1
 90
        0
176
     1
 90
        0
176
     1
290
     0
176
     1
 90
        5
176
     1
 40
0.0
176
     1
 90
        0
176
     1
290
     0
176
     1
290
     1
176
     1
290
     1
176
     1
290
     0
176
     1
290
     0
176
     1
290
     0
176
     1
290
     0
176
     1
290
     0
176
     1
290
     0
176
     1
 90
       50
176
     1
 40
0.0
176
     1
 40
1.0
176
     1
 90
        0
176
     1
 62
    18
420
        0
176
     1
 90
       50
176
     1
 90
        3
176
     1
 62
     5
420
      255
176
     1
290
     0
176
     1
 90
       50
176
     1
 90
       50
176
     1
 90
       50
176
     1
290
     0
176
     1
 90
       50
176
     1
 62
   256
176
     0
 40
1.0
176
     0
 90
        2
176
     1
  1
strokes_ogs.tif
176
     1
290
     0
176
     1
 40
1.0
176
     1
 40
1.0
176
     1
1001
ACAD
1000
AcDbSavedByObjectVersion
1070
     0
  0
VISUALSTYLE
  5
3A
102
{ACAD_REACTORS
330
29
102
}
330
29
100
AcDbVisualStyle
  2
Shades of Gray
 70
    23
177
     3
291
     0
 70
    58
 90
        2
176
     1
 90
        2
176
     1
 90
        3
176
     1
 90
        0
176
     1
 40
0.6
176
     1
 40
30.0
176
     1
 62
     7
420
 16777215
176
     1
 90
        2
176
     1
 90
        2
176
     1
 62
     7
176
     1
 62
     7
176
     1
 90
        1
176
     1
 90
        1
176
     1
 40
40.0
176
     1
 90
        8
176
     1
 62
     7
176
     1
 40
1.0
176
     1
 90
        1
176
     1
 90
        6
176
     1
 90
        2
176
     1
 62
     7
176
     1
 90
        3
176
     1
 90
        0
176
     1
 90
        0
176
     1
290
     0
176
     1
 90
        1
176
     1
 40
0.0
176
     1
 90
        0
176
     1
290
     0
176
     1
290
     1
176
     1
290
     1
176
     1
290
     0
176
     1
290
     0
176
     1
290
     0
176
     1
290
     0
176
     1
290
     0
176
     1
290
     0
176
     1
 90
       50
176
     1
 40
0.0
176
     1
 40
1.0
176
     1
 90
        0
176
     1
 62
    18
420
        0
176
     1
 90
       50
176
     1
 90
        3
176
     1
 62
     5
420
      255
176
     1
290
     0
176
     1
 90
       50
176
     1
 90
       50
176
     1
 90
       50
176
     1
290
     0
176
     1
 90
       50
176
     1
 62
   256
176
     0
 40
1.0
176
     0
 90
        2
176
     1
  1
strokes_ogs.tif
176
     1
290
     0
176
     1
 40
1.0
176
     1
 40
1.0
176
     1
1001
ACAD
1000
AcDbSavedByObjectVersion
1070
     0
  0
VISUALSTYLE
  5
3B
102
{ACAD_REACTORS
330
29
102
}
330
29
100
AcDbVisualStyle
  2
Sketchy
 70
    24
177
     3
291
     0
 70
    58
 90
        1
176
     1
 90
        2
176
     1
 90
        2
176
     1
 90
        0
176
     1
 40
0.6
176
     1
 40
30.0
176
     1
 62
     7
420
 16777215
176
     1
 90
        2
176
     1
 90
        2
176
     1
 62
     7
176
     1
 62
     7
176
     1
 90
        1
176
     1
 90
        1
176
     1
 40
40.0
176
     1
 90
       11
176
     1
 62
     7
176
     1
 40
1.0
176
     1
 90
        1
176
     1
 90
        6
176
     1
 90
        2
176
     1
 62
     7
176
     1
 90
        6
176
     1
 90
        0
176
     1
 90
        0
176
     1
290
     0
176
     1
 90
        1
176
     1
 40
0.0
176
     1
 90
        0
176
     1
290
     0
176
     1
290
     1
176
     1
290
     1
176
     1
290
     0
176
     1
290
     0
176
     1
290
     0
176
     1
290
     0
176
     1
290
     0
176
     1
290
     0
176
     1
 90
       50
176
     1
 40
0.0
176
     1
 40
1.0
176
     1
 90
        0
176
     1
 62
    18
420
        0
176
     1
 90
       50
176
     1
 90
        3
176
     1
 62
     5
420
      255
176
     1
290
     0
176
     1
 90
       50
176
     1
 90
       50
176
     1
 90
       50
176
     1
290
     0
176
     1
 90
       50
176
     1
 62
   256
176
     0
 40
1.0
176
     0
 90
        2
176
     1
  1
strokes_ogs.tif
176
     1
290
     0
176
     1
 40
1.0
176
     1
 40
1.0
176
     1
1001
ACAD
1000
AcDbSavedByObjectVersion
1070
     0
  0
VISUALSTYLE
  5
36
102
{ACAD_REACTORS
330
29
102
}
330
29
100
AcDbVisualStyle
  2
Thicken
 70
    13
177
     3
291
     1
 70
    58
 90
        2
176
     1
 90
        2
176
     1
 90
        0
176
     1
 90
        0
176
     1
 40
0.6
176
     1
 40
30.0
176
     1
 62
     7
420
 16777215
176
     1
 90
        1
176
     1
 90
        4
176
     1
 62
     7
176
     1
 62
   257
176
     1
 90
        1
176
     1
 90
        1
176
     1
 40
1.0
176
     1
 90
       12
176
     1
 62
     7
176
     1
 40
1.0
176
     1
 90
        1
176
     1
 90
        6
176
     1
 90
        2
176
     1
 62
     7
176
     1
 90
        5
176
     1
 90
        0
176
     1
 90
        0
176
     1
290
     0
176
     1
 90
        1
176
     1
 40
0.0
176
     1
 90
        0
176
     1
290
     0
176
     1
290
     1
176
     1
290
     1
176
     1
290
     0
176
     1
290
     0
176
     1
290
     0
176
     1
290
     0
176
     1
290
     0
176
     1
290
     0
176
     1
 90
       50
176
     1
 40
0.0
176
     1
 40
1.0
176
     1
 90
        0
176
     1
 62
    18
420
        0
176
     1
 90
       50
176
     1
 90
        3
176
     1
 62
     5
420
      255
176
     1
290
     0
176
     1
 90
       50
176
     1
 90
       50
176
     1
 90
       50
176
     1
290
     0
176
     1
 90
       50
176
     1
 62
   256
176
     0
 40
1.0
176
     0
 90
        2
176
     1
  1
strokes_ogs.tif
176
     1
290
     0
176
     1
 40
1.0
176
     1
 40
1.0
176
     1
1001
ACAD
1000
AcDbSavedByObjectVersion
1070
     0
  0
VISUALSTYLE
  5
30
102
{ACAD_REACTORS
330
29
102
}
330
29
100
AcDbVisualStyle
  2
Wireframe
 70
     5
177
     3
291
     0
 70
    58
 90
        0
176
     1
 90
        2
176
     1
 90
        0
176
     1
 90
        0
176
     1
 40
0.6
176
     1
 40
30.0
176
     1
 62
     7
420
 16777215
176
     1
 90
        1
176
     1
 90
        4
176
     1
 62
     7
176
     1
 62
   257
176
     1
 90
        1
176
     1
 90
        1
176
     1
 40
1.0
176
     1
 90
        0
176
     1
 62
   257
176
     1
 40
1.0
176
     1
 90
        1
176
     1
 90
        6
176
     1
 90
        2
176
     1
 62
     7
176
     1
 90
        3
176
     1
 90
        0
176
     1
 90
        0
176
     1
290
     0
176
     1
 90
        1
176
     1
 40
0.0
176
     1
 90
        0
176
     1
290
     0
176
     1
290
     1
176
     1
290
     1
176
     1
290
     0
176
     1
290
     0
176
     1
290
     0
176
     1
290
     0
176
     1
290
     0
176
     1
290
     0
176
     1
 90
       50
176
     1
 40
0.0
176
     1
 40
1.0
176
     1
 90
        0
176
     1
 62
    18
420
        0
176
     1
 90
       50
176
     1
 90
        3
176
     1
 62
     5
420
      255
176
     1
290
     0
176
     1
 90
       50
176
     1
 90
       50
176
     1
 90
       50
176
     1
290
     0
176
     1
 90
       50
176
     1
 62
   256
176
     0
 40
1.0
176
     0
 90
        2
176
     1
  1
strokes_ogs.tif
176
     1
290
     0
176
     1
 40
1.0
176
     1
 40
1.0
176
     1
1001
ACAD
1000
AcDbSavedByObjectVersion
1070
     0
  0
VISUALSTYLE
  5
3C
102
{ACAD_REACTORS
330
29
102
}
330
29
100
AcDbVisualStyle
  2
X-Ray
 70
    25
177
     3
291
     0
 70
    58
 90
        2
176
     1
 90
        2
176
     1
 90
        1
176
     1
 90
        1
176
     1
 40
0.5
176
     1
 40
30.0
176
     1
 62
     7
420
 16777215
176
     1
 90
        1
176
     1
 90
        0
176
     1
 62
     7
176
     1
 62
   257
176
     1
 90
        1
176
     1
 90
        1
176
     1
 40
1.0
176
     1
 90
        8
176
     1
 62
     7
176
     1
 40
1.0
176
     1
 90
        1
176
     1
 90
        6
176
     1
 90
        2
176
     1
 62
     7
176
     1
 90
        3
176
     1
 90
        0
176
     1
 90
        0
176
     1
290
     0
176
     1
 90
       13
176
     1
 40
0.0
176
     1
 90
        0
176
     1
290
     0
176
     1
290
     1
176
     1
290
     1
176
     1
290
     0
176
     1
290
     0
176
     1
290
     0
176
     1
290
     0
176
     1
290
     0
176
     1
290
     0
176
     1
 90
       50
176
     1
 40
0.0
176
     1
 40
1.0
176
     1
 90
        0
176
     1
 62
    18
420
        0
176
     1
 90
       50
176
     1
 90
        3
176
     1
 62
     5
420
      255
176
     1
290
     0
176
     1
 90
       50
176
     1
 90
       50
176
     1
 90
       50
176
     1
290
     0
176
     1
 90
       50
176
     1
 62
   256
176
     0
 40
1.0
176
     0
 90
        2
176
     1
  1
strokes_ogs.tif
176
     1
290
     0
176
     1
 40
1.0
176
     1
 40
1.0
176
     1
1001
ACAD
1000
AcDbSavedByObjectVersion
1070
     0
  0
DICTIONARYVAR
  5
4BE
102
{ACAD_REACTORS
330
4B9
102
}
330
4B9
100
DictionaryVariables
280
     0
  1
1:1
  0
DICTIONARYVAR
  5
4BB
102
{ACAD_REACTORS
330
4B9
102
}
330
4B9
100
DictionaryVariables
280
     0
  1
STANDARD
  0
DICTIONARYVAR
  5
4BA
102
{ACAD_REACTORS
330
4B9
102
}
330
4B9
100
DictionaryVariables
280
     0
  1
STANDARD
  0
DICTIONARYVAR
  5
4BC
102
{ACAD_REACTORS
330
4B9
102
}
330
4B9
100
DictionaryVariables
280
     0
  1
Imperial24
  0
DICTIONARYVAR
  5
4BD
102
{ACAD_REACTORS
330
4B9
102
}
330
4B9
100
DictionaryVariables
280
     0
  1
Imperial24
  0
DICTIONARY
  5
5DA
330
6B
100
AcDbDictionary
280
     1
281
     1
  3
ACAD_XREC_ROUNDTRIP
360
5DB
  0
DICTIONARY
  5
1A
330
19
100
AcDbDictionary
280
     1
281
     1
  3
BUMPTILE
360
1C
  3
DIFFUSETILE
360
1B
  3
OPACITYTILE
360
1F
  3
REFLECTIONTILE
360
1E
  3
REFRACTIONTILE
360
20
  3
SPECULARTILE
360
1D
  0
DICTIONARY
  5
12
330
11
100
AcDbDictionary
280
     1
281
     1
  3
BUMPTILE
360
14
  3
DIFFUSETILE
360
13
  3
OPACITYTILE
360
17
  3
REFLECTIONTILE
360
16
  3
REFRACTIONTILE
360
18
  3
SPECULARTILE
360
15
  0
DICTIONARY
  5
22
330
21
100
AcDbDictionary
280
     1
281
     1
  3
BUMPTILE
360
24
  3
DIFFUSETILE
360
23
  3
OPACITYTILE
360
27
  3
REFLECTIONTILE
360
26
  3
REFRACTIONTILE
360
28
  3
SPECULARTILE
360
25
  0
DICTIONARY
  5
5D8
330
69
100
AcDbDictionary
280
     1
281
     1
  3
ACAD_XREC_ROUNDTRIP
360
5D9
  0
DICTIONARY
  5
4BF
330
65
100
AcDbDictionary
280
     1
281
     1
  3
ACAD_ROUNDTRIP_2008_TABLESTYLE_CELLSTYLEMAP
360
4C0
  0
XRECORD
  5
5DB
102
{ACAD_REACTORS
330
5DA
102
}
330
5DA
100
AcDbXrecord
280
     1
102
DISPLAYNAME
  1
Imperial24
102
FLAGS
 90
        0
  0
XRECORD
  5
1C
102
{ACAD_REACTORS
330
1A
102
}
330
1A
100
AcDbXrecord
280
     1
270
     1
271
     1
  0
XRECORD
  5
1B
102
{ACAD_REACTORS
330
1A
102
}
330
1A
100
AcDbXrecord
280
     1
270
     1
271
     1
  0
XRECORD
  5
1F
102
{ACAD_REACTORS
330
1A
102
}
330
1A
100
AcDbXrecord
280
     1
270
     1
271
     1
  0
XRECORD
  5
1E
102
{ACAD_REACTORS
330
1A
102
}
330
1A
100
AcDbXrecord
280
     1
270
     1
271
     1
  0
XRECORD
  5
20
102
{ACAD_REACTORS
330
1A
102
}
330
1A
100
AcDbXrecord
280
     1
270
     1
271
     1
  0
XRECORD
  5
1D
102
{ACAD_REACTORS
330
1A
102
}
330
1A
100
AcDbXrecord
280
     1
270
     1
271
     1
  0
XRECORD
  5
14
102
{ACAD_REACTORS
330
12
102
}
330
12
100
AcDbXrecord
280
     1
270
     1
271
     1
  0
XRECORD
  5
13
102
{ACAD_REACTORS
330
12
102
}
330
12
100
AcDbXrecord
280
     1
270
     1
271
     1
  0
XRECORD
  5
17
102
{ACAD_REACTORS
330
12
102
}
330
12
100
AcDbXrecord
280
     1
270
     1
271
     1
  0
XRECORD
  5
16
102
{ACAD_REACTORS
330
12
102
}
330
12
100
AcDbXrecord
280
     1
270
     1
271
     1
  0
XRECORD
  5
18
102
{ACAD_REACTORS
330
12
102
}
330
12
100
AcDbXrecord
280
     1
270
     1
271
     1
  0
XRECORD
  5
15
102
{ACAD_REACTORS
330
12
102
}
330
12
100
AcDbXrecord
280
     1
270
     1
271
     1
  0
XRECORD
  5
24
102
{ACAD_REACTORS
330
22
102
}
330
22
100
AcDbXrecord
280
     1
270
     1
271
     1
  0
XRECORD
  5
23
102
{ACAD_REACTORS
330
22
102
}
330
22
100
AcDbXrecord
280
     1
270
     1
271
     1
  0
XRECORD
  5
27
102
{ACAD_REACTORS
330
22
102
}
330
22
100
AcDbXrecord
280
     1
270
     1
271
     1
  0
XRECORD
  5
26
102
{ACAD_REACTORS
330
22
102
}
330
22
100
AcDbXrecord
280
     1
270
     1
271
     1
  0
XRECORD
  5
28
102
{ACAD_REACTORS
330
22
102
}
330
22
100
AcDbXrecord
280
     1
270
     1
271
     1
  0
XRECORD
  5
25
102
{ACAD_REACTORS
330
22
102
}
330
22
100
AcDbXrecord
280
     1
270
     1
271
     1
  0
XRECORD
  5
5D9
102
{ACAD_REACTORS
330
5D8
102
}
330
5D8
100
AcDbXrecord
280
     1
102
DISPLAYNAME
  1
Imperial24
102
FLAGS
 90
        0
  0
CELLSTYLEMAP
  5
4C0
102
{ACAD_REACTORS
330
4BF
102
}
330
4BF
100
AcDbCellStyleMap
 90
        3
300
CELLSTYLE
  1
TABLEFORMAT_BEGIN
 90
        5
170
     1
 91
        0
 92
    32768
 62
   257
 93
        1
300
CONTENTFORMAT
  1
CONTENTFORMAT_BEGIN
 90
        0
 91
        0
 92
      512
 93
        0
300

 40
0.0
140
1.0
 94
        5
 62
     0
340
55
144
0.25
309
CONTENTFORMAT_END
171
     0
 94
        0
309
TABLEFORMAT_END
  1
CELLSTYLE_BEGIN
 90
        1
 91
        1
300
_TITLE
309
CELLSTYLE_END
300
CELLSTYLE
  1
TABLEFORMAT_BEGIN
 90
        5
170
     1
 91
        0
 92
        0
 62
   257
 93
        1
300
CONTENTFORMAT
  1
CONTENTFORMAT_BEGIN
 90
        0
 91
        0
 92
      512
 93
        0
300

 40
0.0
140
1.0
 94
        5
 62
     0
340
55
144
0.18
309
CONTENTFORMAT_END
171
     0
 94
        0
309
TABLEFORMAT_END
  1
CELLSTYLE_BEGIN
 90
        2
 91
        1
300
_HEADER
309
CELLSTYLE_END
300
CELLSTYLE
  1
TABLEFORMAT_BEGIN
 90
        5
170
     1
 91
        0
 92
        0
 62
   257
 93
        1
300
CONTENTFORMAT
  1
CONTENTFORMAT_BEGIN
 90
        0
 91
        0
 92
      512
 93
        0
300

 40
0.0
140
1.0
 94
        2
 62
     0
340
55
144
0.18
309
CONTENTFORMAT_END
171
     0
 94
        0
309
TABLEFORMAT_END
  1
CELLSTYLE_BEGIN
 90
        3
 91
        2
300
_DATA
309
CELLSTYLE_END
  0
ENDSEC
  0
EOF
