  0
SECTION
  2
HEADER
  9
$ACADVER
  1
AC1027
  9
$ACADMAINTVER
 70
   125
  9
$DWGCODEPAGE
  3
ANSI_1252
  9
$AUTHOR
  1
Peter Kaiser
  9
$CUSTOMPROPERTYTAG
  1
Manager
  9
$CUSTOMPROPERTY
  1

  9
$CUSTOMPROPERTYTAG
  1
Firma
  9
$CUSTOMPROPERTY
  1

  9
$CUSTOMPROPERTYTAG
  1
Kategorie
  9
$CUSTOMPROPERTY
  1

  9
$CUSTOMPROPERTYTAG
  1
Bauteilnummer
  9
$CUSTOMPROPERTY
  1
Stützkonsole_STAR_Gen_2_0_G_1_4a x G_1_4i
  9
$CUSTOMPROPERTYTAG
  1
Beschreibung
  9
$CUSTOMPROPERTY
  1

  9
$CUSTOMPROPERTYTAG
  1
Projekt
  9
$CUSTOMPROPERTY
  1

  9
$CUSTOMPROPERTYTAG
  1
Konstrukteur
  9
$CUSTOMPROPERTY
  1
Peter Kaiser
  9
$CUSTOMPROPERTYTAG
  1
Ingenieur
  9
$CUSTOMPROPERTY
  1

  9
$CUSTOMPROPERTYTAG
  1
Bevollmächtigter
  9
$CUSTOMPROPERTY
  1

  9
$CUSTOMPROPERTYTAG
  1
Kostenstelle
  9
$CUSTOMPROPERTY
  1

  9
$CUSTOMPROPERTYTAG
  1
Kosten
  9
$CUSTOMPROPERTY
  1

  9
$CUSTOMPROPERTYTAG
  1
Zulieferer
  9
$CUSTOMPROPERTY
  1

  9
$CUSTOMPROPERTYTAG
  1
Benutzerstatus
  9
$CUSTOMPROPERTY
  1

  9
$CUSTOMPROPERTYTAG
  1
Konstruktionsstatus
  9
$CUSTOMPROPERTY
  1
InBearbeitung
  9
$CUSTOMPROPERTYTAG
  1
Kontrolliert von
  9
$CUSTOMPROPERTY
  1

  9
$CUSTOMPROPERTYTAG
  1
Konstruktion genehmigt von
  9
$CUSTOMPROPERTY
  1

  9
$CUSTOMPROPERTYTAG
  1
Fertigung genehmigt von
  9
$CUSTOMPROPERTY
  1

  9
$CUSTOMPROPERTYTAG
  1
Erstellungsdatum
  9
$CUSTOMPROPERTY
  1
03/23/2015
  9
$CUSTOMPROPERTYTAG
  1
Bestandsnummer
  9
$CUSTOMPROPERTY
  1

  9
$REQUIREDVERSIONS
160
                 0
  9
$INSBASE
 10
0.0
 20
0.0
 30
0.0
  9
$EXTMIN
 10
0.0
 20
0.0
 30
0.0
  9
$EXTMAX
 10
210.0
 20
297.0
 30
0.0
  9
$LIMMIN
 10
0.0
 20
0.0
  9
$LIMMAX
 10
210.0
 20
297.0
  9
$ORTHOMODE
 70
     0
  9
$REGENMODE
 70
     1
  9
$FILLMODE
 70
     1
  9
$QTEXTMODE
 70
     0
  9
$MIRRTEXT
 70
     0
  9
$LTSCALE
 40
1.0
  9
$ATTMODE
 70
     1
  9
$TEXTSIZE
 40
0.2
  9
$TRACEWID
 40
0.05
  9
$TEXTSTYLE
  7
Standard
  9
$CLAYER
  8
0
  9
$CELTYPE
  6
ByLayer
  9
$CECOLOR
 62
   256
  9
$CELTSCALE
 40
1.0
  9
$DISPSILH
 70
     0
  9
$DIMSCALE
 40
1.0
  9
$DIMASZ
 40
0.18
  9
$DIMEXO
 40
0.0625
  9
$DIMDLI
 40
0.38
  9
$DIMRND
 40
0.0
  9
$DIMDLE
 40
0.0
  9
$DIMEXE
 40
0.18
  9
$DIMTP
 40
0.0
  9
$DIMTM
 40
0.0
  9
$DIMTXT
 40
0.18
  9
$DIMCEN
 40
0.09
  9
$DIMTSZ
 40
0.0
  9
$DIMTOL
 70
     0
  9
$DIMLIM
 70
     0
  9
$DIMTIH
 70
     1
  9
$DIMTOH
 70
     1
  9
$DIMSE1
 70
     0
  9
$DIMSE2
 70
     0
  9
$DIMTAD
 70
     0
  9
$DIMZIN
 70
     0
  9
$DIMBLK
  1

  9
$DIMASO
 70
     1
  9
$DIMSHO
 70
     1
  9
$DIMPOST
  1

  9
$DIMAPOST
  1

  9
$DIMALT
 70
     0
  9
$DIMALTD
 70
     2
  9
$DIMALTF
 40
25.4
  9
$DIMLFAC
 40
1.0
  9
$DIMTOFL
 70
     0
  9
$DIMTVP
 40
0.0
  9
$DIMTIX
 70
     0
  9
$DIMSOXD
 70
     0
  9
$DIMSAH
 70
     0
  9
$DIMBLK1
  1

  9
$DIMBLK2
  1

  9
$DIMSTYLE
  2
Standard
  9
$DIMCLRD
 70
     0
  9
$DIMCLRE
 70
     0
  9
$DIMCLRT
 70
     0
  9
$DIMTFAC
 40
1.0
  9
$DIMGAP
 40
0.09
  9
$DIMJUST
 70
     0
  9
$DIMSD1
 70
     0
  9
$DIMSD2
 70
     0
  9
$DIMTOLJ
 70
     1
  9
$DIMTZIN
 70
     0
  9
$DIMALTZ
 70
     0
  9
$DIMALTTZ
 70
     0
  9
$DIMUPT
 70
     0
  9
$DIMDEC
 70
     4
  9
$DIMTDEC
 70
     4
  9
$DIMALTU
 70
     2
  9
$DIMALTTD
 70
     2
  9
$DIMTXSTY
  7
Standard
  9
$DIMAUNIT
 70
     0
  9
$DIMADEC
 70
     0
  9
$DIMALTRND
 40
0.0
  9
$DIMAZIN
 70
     0
  9
$DIMDSEP
 70
    46
  9
$DIMATFIT
 70
     3
  9
$DIMFRAC
 70
     0
  9
$DIMLDRBLK
  1

  9
$DIMLUNIT
 70
     2
  9
$DIMLWD
 70
    -2
  9
$DIMLWE
 70
    -2
  9
$DIMTMOVE
 70
     0
  9
$DIMFXL
 40
1.0
  9
$DIMFXLON
 70
     0
  9
$DIMJOGANG
 40
0.7853981633974483
  9
$DIMTFILL
 70
     0
  9
$DIMTFILLCLR
 70
     0
  9
$DIMARCSYM
 70
     0
  9
$DIMLTYPE
  6

  9
$DIMLTEX1
  6

  9
$DIMLTEX2
  6

  9
$DIMTXTDIRECTION
 70
     0
  9
$LUNITS
 70
     2
  9
$LUPREC
 70
     4
  9
$SKETCHINC
 40
0.1
  9
$FILLETRAD
 40
0.0
  9
$AUNITS
 70
     0
  9
$AUPREC
 70
     0
  9
$MENU
  1
.
  9
$ELEVATION
 40
0.0
  9
$PELEVATION
 40
0.0
  9
$THICKNESS
 40
0.0
  9
$LIMCHECK
 70
     0
  9
$CHAMFERA
 40
0.0
  9
$CHAMFERB
 40
0.0
  9
$CHAMFERC
 40
0.0
  9
$CHAMFERD
 40
0.0
  9
$SKPOLY
 70
     0
  9
$TDCREATE
 40
2458243.470266204
  9
$TDUCREATE
 40
2458243.386932871
  9
$TDUPDATE
 40
2458243.470266204
  9
$TDUUPDATE
 40
2458243.386932871
  9
$TDINDWG
 40
0.0000231481
  9
$TDUSRTIMER
 40
0.0000231481
  9
$USRTIMER
 70
     1
  9
$ANGBASE
 50
0.0
  9
$ANGDIR
 70
     0
  9
$PDMODE
 70
     0
  9
$PDSIZE
 40
0.0
  9
$PLINEWID
 40
0.0
  9
$SPLFRAME
 70
     0
  9
$SPLINETYPE
 70
     6
  9
$SPLINESEGS
 70
     8
  9
$HANDSEED
  5
755
  9
$SURFTAB1
 70
     6
  9
$SURFTAB2
 70
     6
  9
$SURFTYPE
 70
     6
  9
$SURFU
 70
     6
  9
$SURFV
 70
     6
  9
$UCSBASE
  2

  9
$UCSNAME
  2

  9
$UCSORG
 10
0.0
 20
0.0
 30
0.0
  9
$UCSXDIR
 10
1.0
 20
0.0
 30
0.0
  9
$UCSYDIR
 10
0.0
 20
1.0
 30
0.0
  9
$UCSORTHOREF
  2

  9
$UCSORTHOVIEW
 70
     0
  9
$UCSORGTOP
 10
0.0
 20
0.0
 30
0.0
  9
$UCSORGBOTTOM
 10
0.0
 20
0.0
 30
0.0
  9
$UCSORGLEFT
 10
0.0
 20
0.0
 30
0.0
  9
$UCSORGRIGHT
 10
0.0
 20
0.0
 30
0.0
  9
$UCSORGFRONT
 10
0.0
 20
0.0
 30
0.0
  9
$UCSORGBACK
 10
0.0
 20
0.0
 30
0.0
  9
$PUCSBASE
  2

  9
$PUCSNAME
  2

  9
$PUCSORG
 10
0.0
 20
0.0
 30
0.0
  9
$PUCSXDIR
 10
1.0
 20
0.0
 30
0.0
  9
$PUCSYDIR
 10
0.0
 20
1.0
 30
0.0
  9
$PUCSORTHOREF
  2

  9
$PUCSORTHOVIEW
 70
     0
  9
$PUCSORGTOP
 10
0.0
 20
0.0
 30
0.0
  9
$PUCSORGBOTTOM
 10
0.0
 20
0.0
 30
0.0
  9
$PUCSORGLEFT
 10
0.0
 20
0.0
 30
0.0
  9
$PUCSORGRIGHT
 10
0.0
 20
0.0
 30
0.0
  9
$PUCSORGFRONT
 10
0.0
 20
0.0
 30
0.0
  9
$PUCSORGBACK
 10
0.0
 20
0.0
 30
0.0
  9
$USERI1
 70
     0
  9
$USERI2
 70
     0
  9
$USERI3
 70
     0
  9
$USERI4
 70
     0
  9
$USERI5
 70
     0
  9
$USERR1
 40
0.0
  9
$USERR2
 40
0.0
  9
$USERR3
 40
0.0
  9
$USERR4
 40
0.0
  9
$USERR5
 40
0.0
  9
$WORLDVIEW
 70
     1
  9
$SHADEDGE
 70
     3
  9
$SHADEDIF
 70
    70
  9
$TILEMODE
 70
     1
  9
$MAXACTVP
 70
    64
  9
$PINSBASE
 10
0.0
 20
0.0
 30
0.0
  9
$PLIMCHECK
 70
     0
  9
$PEXTMIN
 10
0.0
 20
0.0
 30
0.0
  9
$PEXTMAX
 10
210.0
 20
297.0
 30
0.0
  9
$PLIMMIN
 10
0.0
 20
0.0
  9
$PLIMMAX
 10
210.0
 20
297.0
  9
$UNITMODE
 70
     0
  9
$VISRETAIN
 70
     1
  9
$PLINEGEN
 70
     0
  9
$PSLTSCALE
 70
     1
  9
$TREEDEPTH
 70
  3020
  9
$CMLSTYLE
  2
Standard
  9
$CMLJUST
 70
     0
  9
$CMLSCALE
 40
1.0
  9
$PROXYGRAPHICS
 70
     1
  9
$MEASUREMENT
 70
     1
  9
$CELWEIGHT
370
    -1
  9
$ENDCAPS
280
     0
  9
$JOINSTYLE
280
     0
  9
$LWDISPLAY
290
     0
  9
$INSUNITS
 70
     4
  9
$HYPERLINKBASE
  1

  9
$STYLESHEET
  1

  9
$XEDIT
290
     1
  9
$CEPSNTYPE
380
     0
  9
$PSTYLEMODE
290
     1
  9
$FINGERPRINTGUID
  2
{3718D50E-F6A5-F643-906F-DF91B0B30092}
  9
$VERSIONGUID
  2
{028EE23F-83E0-6B48-B2C8-7F92B5DECE68}
  9
$EXTNAMES
290
     1
  9
$PSVPSCALE
 40
0.0
  9
$OLESTARTUP
290
     0
  9
$SORTENTS
280
   127
  9
$INDEXCTL
280
     0
  9
$HIDETEXT
280
     1
  9
$XCLIPFRAME
280
     2
  9
$HALOGAP
280
     0
  9
$OBSCOLOR
 70
   257
  9
$OBSLTYPE
280
     0
  9
$INTERSECTIONDISPLAY
280
     0
  9
$INTERSECTIONCOLOR
 70
   257
  9
$DIMASSOC
280
     1
  9
$PROJECTNAME
  1

  9
$CAMERADISPLAY
290
     0
  9
$LENSLENGTH
 40
50.0
  9
$CAMERAHEIGHT
 40
0.0
  9
$STEPSPERSEC
 40
2.0
  9
$STEPSIZE
 40
6.0
  9
$3DDWFPREC
 40
2.0
  9
$PSOLWIDTH
 40
0.25
  9
$PSOLHEIGHT
 40
4.0
  9
$LOFTANG1
 40
1.570796326794896
  9
$LOFTANG2
 40
1.570796326794896
  9
$LOFTMAG1
 40
0.0
  9
$LOFTMAG2
 40
0.0
  9
$LOFTPARAM
 70
     7
  9
$LOFTNORMALS
280
     1
  9
$LATITUDE
 40
37.795
  9
$LONGITUDE
 40
-122.394
  9
$NORTHDIRECTION
 40
0.0
  9
$TIMEZONE
 70
 -8000
  9
$LIGHTGLYPHDISPLAY
280
     1
  9
$TILEMODELIGHTSYNCH
280
     1
  9
$CMATERIAL
347
11
  9
$SOLIDHIST
280
     0
  9
$SHOWHIST
280
     1
  9
$DWFFRAME
280
     2
  9
$DGNFRAME
280
     0
  9
$REALWORLDSCALE
290
     1
  9
$INTERFERECOLOR
 62
     1
  9
$INTERFEREOBJVS
345
33
  9
$INTERFEREVPVS
346
30
  9
$CSHADOW
280
     0
  9
$SHADOWPLANELOCATION
 40
0.0
  0
ENDSEC
  0
SECTION
  2
CLASSES
  0
CLASS
  1
ACDBDICTIONARYWDFLT
  2
AcDbDictionaryWithDefault
  3
ObjectDBX Classes
 90
        0
 91
        1
280
     0
281
     0
  0
CLASS
  1
MATERIAL
  2
AcDbMaterial
  3
ObjectDBX Classes
 90
     1153
 91
        3
280
     0
281
     0
  0
CLASS
  1
VISUALSTYLE
  2
AcDbVisualStyle
  3
ObjectDBX Classes
 90
     4095
 91
       24
280
     0
281
     0
  0
CLASS
  1
SCALE
  2
AcDbScale
  3
ObjectDBX Classes
 90
     1153
 91
       17
280
     0
281
     0
  0
CLASS
  1
TABLESTYLE
  2
AcDbTableStyle
  3
ObjectDBX Classes
 90
     4095
 91
        1
280
     0
281
     0
  0
CLASS
  1
MLEADERSTYLE
  2
AcDbMLeaderStyle
  3
ACDB_MLEADERSTYLE_CLASS
 90
     4095
 91
        1
280
     0
281
     0
  0
CLASS
  1
ACDBSECTIONVIEWSTYLE
  2
AcDbSectionViewStyle
  3
ObjectDBX Classes
 90
     1025
 91
        1
280
     0
281
     0
  0
CLASS
  1
ACDBDETAILVIEWSTYLE
  2
AcDbDetailViewStyle
  3
ObjectDBX Classes
 90
     1025
 91
        1
280
     0
281
     0
  0
CLASS
  1
DICTIONARYVAR
  2
AcDbDictionaryVar
  3
ObjectDBX Classes
 90
        0
 91
        5
280
     0
281
     0
  0
CLASS
  1
CELLSTYLEMAP
  2
AcDbCellStyleMap
  3
ObjectDBX Classes
 90
     1152
 91
        1
280
     0
281
     0
  0
ENDSEC
  0
SECTION
  2
TABLES
  0
TABLE
  2
VPORT
  5
8
330
0
100
AcDbSymbolTable
 70
     1
1001
ACAD
1000
DbSaveVer
1071
       52
  0
VPORT
  5
57
330
8
100
AcDbSymbolTableRecord
100
AcDbViewportTableRecord
  2
*Active
 70
     0
 10
0.0
 20
0.0
 11
1.0
 21
1.0
 12
105.0
 22
148.5
 13
0.0
 23
0.0
 14
1.0
 24
1.0
 15
0.0
 25
0.0
 16
0.0
 26
0.0
 36
1.0
 17
0.0
 27
0.0
 37
0.0
 40
297.0
 41
0.7070707070707071
 42
50.0
 43
0.0
 44
0.0
 50
0.0
 51
0.0
 71
     0
 72
   100
 73
     1
 74
     1
 75
     0
 76
     0
 77
     0
 78
     0
281
     0
 65
     1
110
0.0
120
0.0
130
0.0
111
1.0
121
0.0
131
0.0
112
0.0
122
1.0
132
0.0
 79
     0
146
0.0
 60
     3
 61
     5
292
     1
282
     1
141
0.0
142
0.0
 63
   250
421
  3355443
  0
ENDTAB
  0
TABLE
  2
LTYPE
  5
5
330
0
100
AcDbSymbolTable
 70
    59
  0
LTYPE
  5
5B
330
5
100
AcDbSymbolTableRecord
100
AcDbLinetypeTableRecord
  2
ByBlock
 70
     0
  3

 72
    65
 73
     0
 40
0.0
  0
LTYPE
  5
5C
330
5
100
AcDbSymbolTableRecord
100
AcDbLinetypeTableRecord
  2
ByLayer
 70
     0
  3

 72
    65
 73
     0
 40
0.0
  0
LTYPE
  5
5D
330
5
100
AcDbSymbolTableRecord
100
AcDbLinetypeTableRecord
  2
Continuous
 70
     0
  3
Solid line
 72
    65
 73
     0
 40
0.0
  0
LTYPE
  5
78
330
5
100
AcDbSymbolTableRecord
100
AcDbLinetypeTableRecord
  2
Section_View_Lines
 70
     0
  3
Section View Lines
 72
    65
 73
     4
 40
0.8406
 49
0.6614
 74
     0
 49
-0.0827
 74
     0
 49
0.0138
 74
     0
 49
-0.0827
 74
     0
  0
LTYPE
  5
79
330
5
100
AcDbSymbolTableRecord
100
AcDbLinetypeTableRecord
  2
CHAIN
 70
     0
  3
Chain ____ _ ____ _ ____ _ ____ _ ____ _ ____
 72
    65
 73
     4
 40
0.3543
 49
0.2362
 74
     0
 49
-0.0295
 74
     0
 49
0.0591
 74
     0
 49
-0.0295
 74
     0
  0
LTYPE
  5
7A
330
5
100
AcDbSymbolTableRecord
100
AcDbLinetypeTableRecord
  2
DASH_DOT
 70
     0
  3
Dash dot _._._._._._._._._._._._._._._.
 72
    65
 73
     4
 40
0.37
 49
0.24
 74
     0
 49
-0.06
 74
     0
 49
0.01
 74
     0
 49
-0.06
 74
     0
  0
LTYPE
  5
7B
330
5
100
AcDbSymbolTableRecord
100
AcDbLinetypeTableRecord
  2
DASH_DOUBLE_DOT
 70
     0
  3
Dash Double Dot __ __ . __ __ . __ __ . __ _
 72
    65
 73
     6
 40
0.4398
 49
0.24
 74
     0
 49
-0.06
 74
     0
 49
0.0098
 74
     0
 49
-0.06
 74
     0
 49
0.01
 74
     0
 49
-0.06
 74
     0
  0
LTYPE
  5
7C
330
5
100
AcDbSymbolTableRecord
100
AcDbLinetypeTableRecord
  2
DASH_TRIPLE_DOT
 70
     0
  3
Dash Triple-Dot _ . . . _ . . . _ . . . _
 72
    65
 73
     8
 40
0.51
 49
0.24
 74
     0
 49
-0.06
 74
     0
 49
0.01
 74
     0
 49
-0.06
 74
     0
 49
0.01
 74
     0
 49
-0.06
 74
     0
 49
0.01
 74
     0
 49
-0.06
 74
     0
  0
LTYPE
  5
7D
330
5
100
AcDbSymbolTableRecord
100
AcDbLinetypeTableRecord
  2
DASHED
 70
     0
  3
Dashed __ __ __ __ __ __ __ __ __ __ __ __ __ _
 72
    65
 73
     2
 40
0.2067
 49
0.1654
 74
     0
 49
-0.0413
 74
     0
  0
LTYPE
  5
7E
330
5
100
AcDbSymbolTableRecord
100
AcDbLinetypeTableRecord
  2
DASHED_SPACE
 70
     0
  3
Dashed Space _._._._._._._._._._._._._._._.
 72
    65
 73
     2
 40
0.2067
 49
0.1654
 74
     0
 49
-0.0413
 74
     0
  0
LTYPE
  5
7F
330
5
100
AcDbSymbolTableRecord
100
AcDbLinetypeTableRecord
  2
DOTTED
 70
     0
  3
Dotted . . . . . . . . . . . . . . . . . . . . 
 72
    65
 73
     2
 40
0.0482
 49
0.0069
 74
     0
 49
-0.0413
 74
     0
  0
LTYPE
  5
80
330
5
100
AcDbSymbolTableRecord
100
AcDbLinetypeTableRecord
  2
DOUBLE_DASH_CHAIN
 70
     0
  3
Double Dash Chain ___ _ _ ___ _ _ ___ _ _ ___ _
 72
    65
 73
     6
 40
1.240299999999999
 49
0.6614
 74
     0
 49
-0.0827
 74
     0
 49
0.1654
 74
     0
 49
-0.0827
 74
     0
 49
0.1654
 74
     0
 49
-0.0827
 74
     0
  0
LTYPE
  5
81
330
5
100
AcDbSymbolTableRecord
100
AcDbLinetypeTableRecord
  2
DOUBLE_DASH_DOT
 70
     0
  3
Double Dash Dot __ __ . __ __ . __ __ . __ _
 72
    65
 73
     6
 40
0.67
 49
0.24
 74
     0
 49
-0.06
 74
     0
 49
0.24
 74
     0
 49
-0.06
 74
     0
 49
0.01
 74
     0
 49
-0.06
 74
     0
  0
LTYPE
  5
82
330
5
100
AcDbSymbolTableRecord
100
AcDbLinetypeTableRecord
  2
DOUBLE_DASH_DOUBLE_DOT
 70
     0
  3
Double-dash double-dot _ _ . . _ _ . . _
 72
    65
 73
     8
 40
0.7400000000000001
 49
0.24
 74
     0
 49
-0.06
 74
     0
 49
0.24
 74
     0
 49
-0.06
 74
     0
 49
0.01
 74
     0
 49
-0.06
 74
     0
 49
0.01
 74
     0
 49
-0.06
 74
     0
  0
LTYPE
  5
83
330
5
100
AcDbSymbolTableRecord
100
AcDbLinetypeTableRecord
  2
DOUBLE_DASH_TRIPLE_DOT
 70
     0
  3
Double Dash Triple Dot __ __ . . . __ __ . . .
 72
    65
 73
    10
 40
0.8100000000000001
 49
0.24
 74
     0
 49
-0.06
 74
     0
 49
0.24
 74
     0
 49
-0.06
 74
     0
 49
0.01
 74
     0
 49
-0.06
 74
     0
 49
0.01
 74
     0
 49
-0.06
 74
     0
 49
0.01
 74
     0
 49
-0.06
 74
     0
  0
LTYPE
  5
84
330
5
100
AcDbSymbolTableRecord
100
AcDbLinetypeTableRecord
  2
LONG_DASH_DOTTED
 70
     0
  3
Long-Dash Dot ____ . ____ . ____ . ____ . _
 72
    65
 73
     4
 40
0.3001
 49
0.2362
 74
     0
 49
-0.0295
 74
     0
 49
0.0049
 74
     0
 49
-0.0295
 74
     0
  0
LTYPE
  5
85
330
5
100
AcDbSymbolTableRecord
100
AcDbLinetypeTableRecord
  2
LONG_DASH_DOUBLE_DOT
 70
     0
  3
Long Dash Double Dot ____ . . ____ . . ____ . .
 72
    65
 73
     6
 40
0.3345
 49
0.2362
 74
     0
 49
-0.0295
 74
     0
 49
0.0049
 74
     0
 49
-0.0295
 74
     0
 49
0.0049
 74
     0
 49
-0.0295
 74
     0
  0
LTYPE
  5
86
330
5
100
AcDbSymbolTableRecord
100
AcDbLinetypeTableRecord
  2
LONG_DASH_TRIPLE_DOT
 70
     0
  3
Long Dash Triple Dot ____ ... ____ ... ____
 72
    65
 73
     8
 40
0.75
 49
0.48
 74
     0
 49
-0.06
 74
     0
 49
0.01
 74
     0
 49
-0.06
 74
     0
 49
0.01
 74
     0
 49
-0.06
 74
     0
 49
0.01
 74
     0
 49
-0.06
 74
     0
  0
LTYPE
  5
87
330
5
100
AcDbSymbolTableRecord
100
AcDbLinetypeTableRecord
  2
BORDER
 70
     0
  3
Border __ __ . __ __ . __ __ . __ __ . __ __ .
 72
    65
 73
     6
 40
44.45
 49
12.7
 74
     0
 49
-6.349999999999999
 74
     0
 49
12.7
 74
     0
 49
-6.349999999999999
 74
     0
 49
0.0
 74
     0
 49
-6.349999999999999
 74
     0
  0
LTYPE
  5
88
330
5
100
AcDbSymbolTableRecord
100
AcDbLinetypeTableRecord
  2
BORDER2
 70
     0
  3
Border (.5x) __.__.__.__.__.__.__.__.__.__.__.
 72
    65
 73
     6
 40
22.225
 49
6.349999999999999
 74
     0
 49
-3.174999999999999
 74
     0
 49
6.349999999999999
 74
     0
 49
-3.174999999999999
 74
     0
 49
0.0
 74
     0
 49
-3.174999999999999
 74
     0
  0
LTYPE
  5
89
330
5
100
AcDbSymbolTableRecord
100
AcDbLinetypeTableRecord
  2
BORDERX2
 70
     0
  3
Border (2x) ____  ____  .  ____  ____  .  ___
 72
    65
 73
     6
 40
88.9
 49
25.4
 74
     0
 49
-12.7
 74
     0
 49
25.4
 74
     0
 49
-12.7
 74
     0
 49
0.0
 74
     0
 49
-12.7
 74
     0
  0
LTYPE
  5
8A
330
5
100
AcDbSymbolTableRecord
100
AcDbLinetypeTableRecord
  2
CENTER
 70
     0
  3
Center ____ _ ____ _ ____ _ ____ _ ____ _ ____
 72
    65
 73
     4
 40
50.8
 49
31.75
 74
     0
 49
-6.349999999999999
 74
     0
 49
6.349999999999999
 74
     0
 49
-6.349999999999999
 74
     0
  0
LTYPE
  5
8B
330
5
100
AcDbSymbolTableRecord
100
AcDbLinetypeTableRecord
  2
CENTER2
 70
     0
  3
Center (.5x) ___ _ ___ _ ___ _ ___ _ ___ _ ___
 72
    65
 73
     4
 40
28.575
 49
19.05
 74
     0
 49
-3.174999999999999
 74
     0
 49
3.174999999999999
 74
     0
 49
-3.174999999999999
 74
     0
  0
LTYPE
  5
8C
330
5
100
AcDbSymbolTableRecord
100
AcDbLinetypeTableRecord
  2
CENTERX2
 70
     0
  3
Center (2x) ________  __  ________  __  _____
 72
    65
 73
     4
 40
101.6
 49
63.5
 74
     0
 49
-12.7
 74
     0
 49
12.7
 74
     0
 49
-12.7
 74
     0
  0
LTYPE
  5
8D
330
5
100
AcDbSymbolTableRecord
100
AcDbLinetypeTableRecord
  2
DASHDOT2
 70
     0
  3
Dash dot (.5x) _._._._._._._._._._._._._._._.
 72
    65
 73
     4
 40
12.7
 49
6.349999999999999
 74
     0
 49
-3.174999999999999
 74
     0
 49
0.0
 74
     0
 49
-3.174999999999999
 74
     0
  0
LTYPE
  5
8E
330
5
100
AcDbSymbolTableRecord
100
AcDbLinetypeTableRecord
  2
DASHDOTX2
 70
     0
  3
Dash dot (2x) ____  .  ____  .  ____  .  ___
 72
    65
 73
     4
 40
50.8
 49
25.4
 74
     0
 49
-12.7
 74
     0
 49
0.0
 74
     0
 49
-12.7
 74
     0
  0
LTYPE
  5
8F
330
5
100
AcDbSymbolTableRecord
100
AcDbLinetypeTableRecord
  2
DASHED2
 70
     0
  3
Dashed (.5x) _ _ _ _ _ _ _ _ _ _ _ _ _ _ _ _ _
 72
    65
 73
     2
 40
9.524999999999998
 49
6.349999999999999
 74
     0
 49
-3.174999999999999
 74
     0
  0
LTYPE
  5
90
330
5
100
AcDbSymbolTableRecord
100
AcDbLinetypeTableRecord
  2
DASHEDX2
 70
     0
  3
Dashed (2x) ____  ____  ____  ____  ____  ___
 72
    65
 73
     2
 40
38.1
 49
25.4
 74
     0
 49
-12.7
 74
     0
  0
LTYPE
  5
91
330
5
100
AcDbSymbolTableRecord
100
AcDbLinetypeTableRecord
  2
DIVIDE
 70
     0
  3
Divide ____ . . ____ . . ____ . . ____ . . ____
 72
    65
 73
     6
 40
31.75
 49
12.7
 74
     0
 49
-6.349999999999999
 74
     0
 49
0.0
 74
     0
 49
-6.349999999999999
 74
     0
 49
0.0
 74
     0
 49
-6.349999999999999
 74
     0
  0
LTYPE
  5
92
330
5
100
AcDbSymbolTableRecord
100
AcDbLinetypeTableRecord
  2
DIVIDE2
 70
     0
  3
Divide (.5x) __..__..__..__..__..__..__..__.._
 72
    65
 73
     6
 40
15.875
 49
6.349999999999999
 74
     0
 49
-3.174999999999999
 74
     0
 49
0.0
 74
     0
 49
-3.174999999999999
 74
     0
 49
0.0
 74
     0
 49
-3.174999999999999
 74
     0
  0
LTYPE
  5
93
330
5
100
AcDbSymbolTableRecord
100
AcDbLinetypeTableRecord
  2
DIVIDEX2
 70
     0
  3
Divide (2x) ________  .  .  ________  .  .  _
 72
    65
 73
     6
 40
63.49999999999999
 49
25.4
 74
     0
 49
-12.7
 74
     0
 49
0.0
 74
     0
 49
-12.7
 74
     0
 49
0.0
 74
     0
 49
-12.7
 74
     0
  0
LTYPE
  5
94
330
5
100
AcDbSymbolTableRecord
100
AcDbLinetypeTableRecord
  2
DOT
 70
     0
  3
Dot . . . . . . . . . . . . . . . . . . . . . .
 72
    65
 73
     2
 40
6.349999999999999
 49
0.0
 74
     0
 49
-6.349999999999999
 74
     0
  0
LTYPE
  5
95
330
5
100
AcDbSymbolTableRecord
100
AcDbLinetypeTableRecord
  2
DOT2
 70
     0
  3
Dot (.5x) .....................................
 72
    65
 73
     2
 40
3.174999999999999
 49
0.0
 74
     0
 49
-3.174999999999999
 74
     0
  0
LTYPE
  5
96
330
5
100
AcDbSymbolTableRecord
100
AcDbLinetypeTableRecord
  2
DOTX2
 70
     0
  3
Dot (2x) .  .  .  .  .  .  .  .  .  .  .  .  . 
 72
    65
 73
     2
 40
12.7
 49
0.0
 74
     0
 49
-12.7
 74
     0
  0
LTYPE
  5
97
330
5
100
AcDbSymbolTableRecord
100
AcDbLinetypeTableRecord
  2
HIDDEN
 70
     0
  3
Hidden __ __ __ __ __ __ __ __ __ __ __ __ __ _
 72
    65
 73
     2
 40
9.524999999999998
 49
6.349999999999999
 74
     0
 49
-3.174999999999999
 74
     0
  0
LTYPE
  5
98
330
5
100
AcDbSymbolTableRecord
100
AcDbLinetypeTableRecord
  2
HIDDEN2
 70
     0
  3
Hidden (.5x) _ _ _ _ _ _ _ _ _ _ _ _ _ _ _ _ _
 72
    65
 73
     2
 40
4.762499999999999
 49
3.174999999999999
 74
     0
 49
-1.587499999999999
 74
     0
  0
LTYPE
  5
99
330
5
100
AcDbSymbolTableRecord
100
AcDbLinetypeTableRecord
  2
HIDDENX2
 70
     0
  3
Hidden (2x) ____ ____ ____ ____ ____ ____ ____
 72
    65
 73
     2
 40
19.05
 49
12.7
 74
     0
 49
-6.349999999999999
 74
     0
  0
LTYPE
  5
9A
330
5
100
AcDbSymbolTableRecord
100
AcDbLinetypeTableRecord
  2
PHANTOM
 70
     0
  3
Phantom ______  __  __  ______  __  __  ______
 72
    65
 73
     6
 40
63.5
 49
31.75
 74
     0
 49
-6.349999999999999
 74
     0
 49
6.349999999999999
 74
     0
 49
-6.349999999999999
 74
     0
 49
6.349999999999999
 74
     0
 49
-6.349999999999999
 74
     0
  0
LTYPE
  5
9B
330
5
100
AcDbSymbolTableRecord
100
AcDbLinetypeTableRecord
  2
PHANTOM2
 70
     0
  3
Phantom (.5x) ___ _ _ ___ _ _ ___ _ _ ___ _ _
 72
    65
 73
     6
 40
31.75
 49
15.875
 74
     0
 49
-3.174999999999999
 74
     0
 49
3.174999999999999
 74
     0
 49
-3.174999999999999
 74
     0
 49
3.174999999999999
 74
     0
 49
-3.174999999999999
 74
     0
  0
LTYPE
  5
9C
330
5
100
AcDbSymbolTableRecord
100
AcDbLinetypeTableRecord
  2
PHANTOMX2
 70
     0
  3
Phantom (2x) ____________    ____    ____   _
 72
    65
 73
     6
 40
127.0
 49
63.5
 74
     0
 49
-12.7
 74
     0
 49
12.7
 74
     0
 49
-12.7
 74
     0
 49
12.7
 74
     0
 49
-12.7
 74
     0
  0
LTYPE
  5
9D
330
5
100
AcDbSymbolTableRecord
100
AcDbLinetypeTableRecord
  2
ACAD_ISO02W100
 70
     0
  3
ISO dash __ __ __ __ __ __ __ __ __ __ __ __ __
 72
    65
 73
     2
 40
15.0
 49
12.0
 74
     0
 49
-3.0
 74
     0
  0
LTYPE
  5
9E
330
5
100
AcDbSymbolTableRecord
100
AcDbLinetypeTableRecord
  2
ACAD_ISO03W100
 70
     0
  3
ISO dash space __    __    __    __    __    __
 72
    65
 73
     2
 40
30.0
 49
12.0
 74
     0
 49
-18.0
 74
     0
  0
LTYPE
  5
9F
330
5
100
AcDbSymbolTableRecord
100
AcDbLinetypeTableRecord
  2
ACAD_ISO04W100
 70
     0
  3
ISO long-dash dot ____ . ____ . ____ . ____ . _
 72
    65
 73
     4
 40
30.0
 49
24.0
 74
     0
 49
-3.0
 74
     0
 49
0.0
 74
     0
 49
-3.0
 74
     0
  0
LTYPE
  5
A0
330
5
100
AcDbSymbolTableRecord
100
AcDbLinetypeTableRecord
  2
ACAD_ISO05W100
 70
     0
  3
ISO long-dash double-dot ____ .. ____ .. ____ .
 72
    65
 73
     6
 40
33.0
 49
24.0
 74
     0
 49
-3.0
 74
     0
 49
0.0
 74
     0
 49
-3.0
 74
     0
 49
0.0
 74
     0
 49
-3.0
 74
     0
  0
LTYPE
  5
A1
330
5
100
AcDbSymbolTableRecord
100
AcDbLinetypeTableRecord
  2
ACAD_ISO06W100
 70
     0
  3
ISO long-dash triple-dot ____ ... ____ ... ____
 72
    65
 73
     8
 40
36.0
 49
24.0
 74
     0
 49
-3.0
 74
     0
 49
0.0
 74
     0
 49
-3.0
 74
     0
 49
0.0
 74
     0
 49
-3.0
 74
     0
 49
0.0
 74
     0
 49
-3.0
 74
     0
  0
LTYPE
  5
A2
330
5
100
AcDbSymbolTableRecord
100
AcDbLinetypeTableRecord
  2
ACAD_ISO07W100
 70
     0
  3
ISO dot . . . . . . . . . . . . . . . . . . . .
 72
    65
 73
     2
 40
3.0
 49
0.0
 74
     0
 49
-3.0
 74
     0
  0
LTYPE
  5
A3
330
5
100
AcDbSymbolTableRecord
100
AcDbLinetypeTableRecord
  2
ACAD_ISO08W100
 70
     0
  3
ISO long-dash short-dash ____ __ ____ __ ____ _
 72
    65
 73
     4
 40
36.0
 49
24.0
 74
     0
 49
-3.0
 74
     0
 49
6.0
 74
     0
 49
-3.0
 74
     0
  0
LTYPE
  5
A4
330
5
100
AcDbSymbolTableRecord
100
AcDbLinetypeTableRecord
  2
ACAD_ISO09W100
 70
     0
  3
ISO long-dash double-short-dash ____ __ __ ____
 72
    65
 73
     6
 40
45.0
 49
24.0
 74
     0
 49
-3.0
 74
     0
 49
6.0
 74
     0
 49
-3.0
 74
     0
 49
6.0
 74
     0
 49
-3.0
 74
     0
  0
LTYPE
  5
A5
330
5
100
AcDbSymbolTableRecord
100
AcDbLinetypeTableRecord
  2
ACAD_ISO10W100
 70
     0
  3
ISO dash dot __ . __ . __ . __ . __ . __ . __ .
 72
    65
 73
     4
 40
18.0
 49
12.0
 74
     0
 49
-3.0
 74
     0
 49
0.0
 74
     0
 49
-3.0
 74
     0
  0
LTYPE
  5
A6
330
5
100
AcDbSymbolTableRecord
100
AcDbLinetypeTableRecord
  2
ACAD_ISO11W100
 70
     0
  3
ISO double-dash dot __ __ . __ __ . __ __ . __ 
 72
    65
 73
     6
 40
33.0
 49
12.0
 74
     0
 49
-3.0
 74
     0
 49
12.0
 74
     0
 49
-3.0
 74
     0
 49
0.0
 74
     0
 49
-3.0
 74
     0
  0
LTYPE
  5
A7
330
5
100
AcDbSymbolTableRecord
100
AcDbLinetypeTableRecord
  2
ACAD_ISO12W100
 70
     0
  3
ISO dash double-dot __ . . __ . . __ . . __ . .
 72
    65
 73
     6
 40
21.0
 49
12.0
 74
     0
 49
-3.0
 74
     0
 49
0.0
 74
     0
 49
-3.0
 74
     0
 49
0.0
 74
     0
 49
-3.0
 74
     0
  0
LTYPE
  5
A8
330
5
100
AcDbSymbolTableRecord
100
AcDbLinetypeTableRecord
  2
ACAD_ISO13W100
 70
     0
  3
ISO double-dash double-dot __ __ . . __ __ . . 
 72
    65
 73
     8
 40
36.0
 49
12.0
 74
     0
 49
-3.0
 74
     0
 49
12.0
 74
     0
 49
-3.0
 74
     0
 49
0.0
 74
     0
 49
-3.0
 74
     0
 49
0.0
 74
     0
 49
-3.0
 74
     0
  0
LTYPE
  5
A9
330
5
100
AcDbSymbolTableRecord
100
AcDbLinetypeTableRecord
  2
ACAD_ISO14W100
 70
     0
  3
ISO dash triple-dot __ . . . __ . . . __ . . . 
 72
    65
 73
     8
 40
24.0
 49
12.0
 74
     0
 49
-3.0
 74
     0
 49
0.0
 74
     0
 49
-3.0
 74
     0
 49
0.0
 74
     0
 49
-3.0
 74
     0
 49
0.0
 74
     0
 49
-3.0
 74
     0
  0
LTYPE
  5
AA
330
5
100
AcDbSymbolTableRecord
100
AcDbLinetypeTableRecord
  2
ACAD_ISO15W100
 70
     0
  3
ISO double-dash triple-dot __ __ . . . __ __ . 
 72
    65
 73
    10
 40
39.0
 49
12.0
 74
     0
 49
-3.0
 74
     0
 49
12.0
 74
     0
 49
-3.0
 74
     0
 49
0.0
 74
     0
 49
-3.0
 74
     0
 49
0.0
 74
     0
 49
-3.0
 74
     0
 49
0.0
 74
     0
 49
-3.0
 74
     0
  0
LTYPE
  5
AD
330
5
100
AcDbSymbolTableRecord
100
AcDbLinetypeTableRecord
  2
FENCELINE1
 70
     0
  3
Fenceline circle ----0-----0----0-----0----0---
 72
    65
 73
     4
 40
36.83
 49
6.349999999999999
 74
     0
 49
-2.54
 74
     4
 75
   133
340
AC
 46
2.54
 50
0.0
 44
-2.54
 45
0.0
 49
-2.54
 74
     0
 49
25.4
 74
     0
  0
LTYPE
  5
AE
330
5
100
AcDbSymbolTableRecord
100
AcDbLinetypeTableRecord
  2
FENCELINE2
 70
     0
  3
Fenceline square ----[]-----[]----[]-----[]----
 72
    65
 73
     4
 40
36.83
 49
6.349999999999999
 74
     0
 49
-2.54
 74
     4
 75
   132
340
AC
 46
2.54
 50
0.0
 44
-2.54
 45
0.0
 49
-2.54
 74
     0
 49
25.4
 74
     0
  0
LTYPE
  5
AF
330
5
100
AcDbSymbolTableRecord
100
AcDbLinetypeTableRecord
  2
TRACKS
 70
     0
  3
Tracks -|-|-|-|-|-|-|-|-|-|-|-|-|-|-|-|-|-|-|-|
 72
    65
 73
     2
 40
7.62
 49
3.81
 74
     4
 75
   130
340
AC
 46
6.349999999999999
 50
0.0
 44
0.0
 45
0.0
 49
3.81
 74
     0
  0
LTYPE
  5
B0
330
5
100
AcDbSymbolTableRecord
100
AcDbLinetypeTableRecord
  2
BATTING
 70
     0
  3
Batting SSSSSSSSSSSSSSSSSSSSSSSSSSSSSSSSSSSSSSS
 72
    65
 73
     4
 40
10.16254
 49
0.00254
 74
     0
 49
-2.54
 74
     4
 75
   134
340
AC
 46
2.54
 50
0.0
 44
-2.54
 45
0.0
 49
-5.08
 74
     4
 75
   134
340
AC
 46
2.54
 50
180.0
 44
2.54
 45
0.0
 49
-2.54
 74
     0
  0
LTYPE
  5
B1
330
5
100
AcDbSymbolTableRecord
100
AcDbLinetypeTableRecord
  2
HOT_WATER_SUPPLY
 70
     0
  3
Hot water supply ---- HW ---- HW ---- HW ----
 72
    65
 73
     3
 40
22.86
 49
12.7
 74
     0
 49
-5.08
 74
     2
 75
     0
340
55
 46
2.54
 50
0.0
 44
-2.54
 45
-1.27
  9
HW
 49
-5.08
 74
     0
  0
LTYPE
  5
B2
330
5
100
AcDbSymbolTableRecord
100
AcDbLinetypeTableRecord
  2
GAS_LINE
 70
     0
  3
Gas line ----GAS----GAS----GAS----GAS----GAS---
 72
    65
 73
     3
 40
24.13
 49
12.7
 74
     0
 49
-5.08
 74
     2
 75
     0
340
55
 46
2.54
 50
0.0
 44
-2.54
 45
-1.27
  9
GAS
 49
-6.349999999999999
 74
     0
  0
LTYPE
  5
B3
330
5
100
AcDbSymbolTableRecord
100
AcDbLinetypeTableRecord
  2
ZIGZAG
 70
     0
  3
Zig zag /\/\/\/\/\/\/\/\/\/\/\/\/\/\/\/\/\/\/\/
 72
    65
 73
     4
 40
20.32254
 49
0.00254
 74
     0
 49
-5.08
 74
     4
 75
   131
340
AC
 46
5.08
 50
0.0
 44
-5.08
 45
0.0
 49
-10.16
 74
     4
 75
   131
340
AC
 46
5.08
 50
180.0
 44
5.08
 45
0.0
 49
-5.08
 74
     0
  0
ENDTAB
  0
TABLE
  2
LAYER
  5
2
330
0
100
AcDbSymbolTable
 70
    27
  0
LAYER
  5
54
330
2
100
AcDbSymbolTableRecord
100
AcDbLayerTableRecord
  2
0
 70
     0
 62
     7
  6
Continuous
370
    -3
390
F
347
21
348
0
  0
LAYER
  5
B8
330
2
100
AcDbSymbolTableRecord
100
AcDbLayerTableRecord
  2
Bemaßung (ISO)
 70
     0
 62
     7
  6
Continuous
370
    25
390
F
347
21
348
0
  0
LAYER
  5
BD
330
2
100
AcDbSymbolTableRecord
100
AcDbLayerTableRecord
  2
Mittellinie (ISO)
 70
     0
 62
     7
  6
Continuous
370
    25
390
F
347
21
348
0
  0
LAYER
  5
BE
330
2
100
AcDbSymbolTableRecord
100
AcDbLayerTableRecord
  2
Mittelpunktmarkierung (ISO)
 70
     0
 62
     7
  6
Continuous
370
    25
390
F
347
21
348
0
  0
LAYER
  5
C0
330
2
100
AcDbSymbolTableRecord
100
AcDbLayerTableRecord
  2
Rahmen (ISO)
 70
     0
 62
     7
  6
Continuous
370
    70
390
F
347
21
348
0
  0
LAYER
  5
C4
330
2
100
AcDbSymbolTableRecord
100
AcDbLayerTableRecord
  2
Schraffur (ISO)
 70
     0
 62
     7
  6
Continuous
370
    18
390
F
347
21
348
0
  0
LAYER
  5
C5
330
2
100
AcDbSymbolTableRecord
100
AcDbLayerTableRecord
  2
Sichtbar (ISO)
 70
     0
 62
     7
  6
Continuous
370
    50
390
F
347
21
348
0
  0
LAYER
  5
C6
330
2
100
AcDbSymbolTableRecord
100
AcDbLayerTableRecord
  2
Sichtbar schmal (ISO)
 70
     0
 62
     7
  6
Continuous
370
    35
390
F
347
21
348
0
  0
LAYER
  5
C7
330
2
100
AcDbSymbolTableRecord
100
AcDbLayerTableRecord
  2
Skizziergeometrie (ISO)
 70
     0
 62
     7
  6
Continuous
370
    25
390
F
347
21
348
0
  0
LAYER
  5
C8
330
2
100
AcDbSymbolTableRecord
100
AcDbLayerTableRecord
  2
Symbol (ISO)
 70
     0
 62
     7
  6
Continuous
370
    25
390
F
347
21
348
0
  0
LAYER
  5
C9
330
2
100
AcDbSymbolTableRecord
100
AcDbLayerTableRecord
  2
Titel (ISO)
 70
     0
 62
     7
  6
Continuous
370
    50
390
F
347
21
348
0
  0
LAYER
  5
26F
330
2
100
AcDbSymbolTableRecord
100
AcDbLayerTableRecord
  2
Defpoints
 70
     0
 62
     7
  6
Continuous
290
     0
370
    -3
390
F
347
21
348
0
  0
ENDTAB
  0
TABLE
  2
STYLE
  5
3
330
0
100
AcDbSymbolTable
 70
     6
  0
STYLE
  5
55
330
3
100
AcDbSymbolTableRecord
100
AcDbTextStyleTableRecord
  2
Standard
 70
     0
 40
0.0
 41
1.0
 50
0.0
 71
     0
 42
0.2
  3
arial.ttf
  4

1001
ACAD
1000
Arial
1071
      256
  0
STYLE
  5
5A
330
3
100
AcDbSymbolTableRecord
100
AcDbTextStyleTableRecord
  2
Annotative
 70
     0
 40
0.0
 41
1.0
 50
0.0
 71
     0
 42
0.2
  3
txt
  4

1001
AcadAnnotative
1000
AnnotativeData
1002
{
1070
     1
1070
     1
1002
}
  0
STYLE
  5
AC
330
3
100
AcDbSymbolTableRecord
100
AcDbTextStyleTableRecord
  2

 70
     1
 40
0.0
 41
1.0
 50
0.0
 71
     0
 42
0.2
  3
ltypeshp.shx
  4

  0
STYLE
  5
CD
330
3
100
AcDbSymbolTableRecord
100
AcDbTextStyleTableRecord
  2
Bezeichnungstext (DIN)
 70
     0
 40
0.0
 41
1.0
 50
0.0
 71
     0
 42
0.2
  3
arial.ttf
  4

1001
ACAD
1000
Arial
1071
      256
  0
STYLE
  5
CE
330
3
100
AcDbSymbolTableRecord
100
AcDbTextStyleTableRecord
  2
Notiztext (DIN)
 70
     0
 40
0.0
 41
1.0
 50
0.0
 71
     0
 42
0.2
  3
arial.ttf
  4

1001
ACAD
1000
Arial
1071
      256
  0
STYLE
  5
18F
330
3
100
AcDbSymbolTableRecord
100
AcDbTextStyleTableRecord
  2
Textstil54
 70
     0
 40
0.0
 41
1.0
 50
0.0
 71
     0
 42
0.2
  3

  4

1001
ACAD
1000
Arial
1071
 33554688
  0
ENDTAB
  0
TABLE
  2
VIEW
  5
6
330
0
100
AcDbSymbolTable
 70
     0
  0
ENDTAB
  0
TABLE
  2
UCS
  5
7
330
0
100
AcDbSymbolTable
 70
     0
  0
ENDTAB
  0
TABLE
  2
APPID
  5
9
330
0
100
AcDbSymbolTable
 70
     3
  0
APPID
  5
56
330
9
100
AcDbSymbolTableRecord
100
AcDbRegAppTableRecord
  2
ACAD
 70
     0
  0
APPID
  5
5E
330
9
100
AcDbSymbolTableRecord
100
AcDbRegAppTableRecord
  2
AcadAnnotative
 70
     0
  0
APPID
  5
193
330
9
100
AcDbSymbolTableRecord
100
AcDbRegAppTableRecord
  2
AcadAnnoPO
 70
     0
  0
ENDTAB
  0
TABLE
  2
DIMSTYLE
  5
A
330
0
100
AcDbSymbolTable
 70
    11
100
AcDbDimStyleTable
 71
     2
340
D3
340
58
  0
DIMSTYLE
105
58
330
A
100
AcDbSymbolTableRecord
100
AcDbDimStyleTableRecord
  2
Standard
 70
     0
340
55
  0
DIMSTYLE
105
59
330
A
100
AcDbSymbolTableRecord
100
AcDbDimStyleTableRecord
  2
Annotative
 70
     0
340
55
1001
AcadAnnotative
1000
AnnotativeData
1002
{
1070
     1
1070
     1
1002
}
  0
DIMSTYLE
105
CF
330
A
100
AcDbSymbolTableRecord
100
AcDbDimStyleTableRecord
  2
Standard - Methode 2a (DIN)
 70
     0
 41
2.5
 42
0.8
 43
5.999999999999999
 44
3.174999999999999
 45
0.00000001
 46
10.0
 77
     1
 78
     8
 79
     2
140
2.5
143
0.03937
146
1.399999976158142
147
0.8
170
     1
171
     3
172
     1
176
   256
177
   256
178
   256
179
     2
271
     2
272
     2
274
     3
278
    44
284
     8
286
     8
340
CE
371
    -1
372
    -1
  0
DIMSTYLE
105
D0
330
A
100
AcDbSymbolTableRecord
100
AcDbDimStyleTableRecord
  2
Standard - Methode 2a (DIN)$7
 70
     0
 41
2.5
 42
0.8
 43
5.999999999999999
 44
3.174999999999999
 45
0.00000001
 46
10.0
 77
     1
 78
     8
 79
     2
140
2.5
143
0.03937
146
1.399999976158142
147
0.8
170
     1
171
     3
172
     1
176
   256
177
   256
178
   256
179
     2
271
     2
272
     2
274
     3
278
    44
284
     8
286
     8
340
CE
371
    -1
372
    -1
  0
DIMSTYLE
105
D1
330
A
100
AcDbSymbolTableRecord
100
AcDbDimStyleTableRecord
  2
Standard - Methode 2b (DIN)
 70
     0
 41
2.5
 42
0.0
 43
5.999999999999999
 44
3.174999999999999
 45
0.00000001
 46
10.0
 77
     1
 78
     8
 79
     2
140
2.5
143
0.03937
146
1.399999976158142
147
0.8
171
     3
172
     1
176
   256
177
   256
178
   256
271
     2
272
     2
274
     3
278
    44
284
     8
286
     8
340
CE
371
    -1
372
    -1
  0
DIMSTYLE
105
D2
330
A
100
AcDbSymbolTableRecord
100
AcDbDimStyleTableRecord
  2
Standard - Methode 2b (DIN)$7
 70
     0
 41
2.5
 42
0.0
 43
5.999999999999999
 44
3.174999999999999
 45
0.00000001
 46
10.0
 77
     1
 78
     8
 79
     2
140
2.5
143
0.03937
146
1.399999976158142
147
0.8
171
     3
172
     1
176
   256
177
   256
178
   256
271
     2
272
     2
274
     3
278
    44
284
     8
286
     8
340
CE
371
    -1
372
    -1
  0
DIMSTYLE
105
D3
102
{ACAD_REACTORS
330
26E
330
35C
330
44A
330
537
330
624
102
}
330
A
100
AcDbSymbolTableRecord
100
AcDbDimStyleTableRecord
  2
Standard (DIN)
 70
     0
 41
2.5
 42
0.0
 43
6.999999999999999
 44
2.0
 45
0.00000001
 46
10.0
 73
     0
 74
     0
 77
     1
 78
     8
 79
     2
140
2.5
143
0.03937
146
0.6000000238418579
147
0.4
171
     3
172
     1
176
   256
177
   256
178
   256
271
     2
272
     2
274
     3
284
     8
285
     8
340
CE
371
    -1
372
    -1
  0
DIMSTYLE
105
D4
330
A
100
AcDbSymbolTableRecord
100
AcDbDimStyleTableRecord
  2
Standard (DIN)$7
 70
     0
 41
2.5
 42
0.0
 43
6.999999999999999
 44
2.0
 45
0.00000001
 46
10.0
 73
     0
 74
     0
 77
     1
 78
     8
 79
     2
140
2.5
143
0.03937
146
0.6000000238418579
147
0.4
171
     3
172
     1
176
   256
177
   256
178
   256
271
     2
272
     2
274
     3
284
     8
285
     8
340
CE
371
    -1
372
    -1
  0
DIMSTYLE
105
D5
330
A
100
AcDbSymbolTableRecord
100
AcDbDimStyleTableRecord
  2
Alternativ (ISO)
 70
     0
 41
2.5
340
55
  0
DIMSTYLE
105
E0
330
A
100
AcDbSymbolTableRecord
100
AcDbDimStyleTableRecord
  2
Bezug (ISO)
 70
     0
 41
2.5
340
55
  0
DIMSTYLE
105
EF
330
A
100
AcDbSymbolTableRecord
100
AcDbDimStyleTableRecord
  2
Groß (ISO)
 70
     0
 41
5.0
340
55
  0
ENDTAB
  0
TABLE
  2
BLOCK_RECORD
  5
1
330
0
100
AcDbSymbolTable
 70
    11
  0
BLOCK_RECORD
  5
70
330
1
100
AcDbSymbolTableRecord
100
AcDbBlockTableRecord
  2
*Model_Space
340
73
 70
     0
280
     1
281
     0
  0
BLOCK_RECORD
  5
6C
330
1
100
AcDbSymbolTableRecord
100
AcDbBlockTableRecord
  2
*Paper_Space
340
6F
 70
     0
280
     1
281
     0
  0
BLOCK_RECORD
  5
74
330
1
100
AcDbSymbolTableRecord
100
AcDbBlockTableRecord
  2
*Paper_Space0
340
77
 70
     0
280
     1
281
     0
  0
BLOCK_RECORD
  5
D6
330
1
100
AcDbSymbolTableRecord
100
AcDbBlockTableRecord
  2
DatumFilled45
340
0
 70
     0
280
     1
281
     0
  0
BLOCK_RECORD
  5
E1
330
1
100
AcDbSymbolTableRecord
100
AcDbBlockTableRecord
  2
Filled-1
340
0
 70
     0
280
     1
281
     0
  0
BLOCK_RECORD
  5
F0
330
1
100
AcDbSymbolTableRecord
100
AcDbBlockTableRecord
  2
Ränder Standardrahmen
340
0
102
{BLKREFS
331
116
102
}
 70
     0
280
     1
281
     0
  0
BLOCK_RECORD
  5
117
330
1
100
AcDbSymbolTableRecord
100
AcDbBlockTableRecord
  2
Schriftfelder perma CI-Pool
340
0
102
{BLKREFS
331
19B
102
}
 70
     0
280
     1
281
     0
  0
BLOCK_RECORD
  5
1A6
330
1
100
AcDbSymbolTableRecord
100
AcDbBlockTableRecord
  2
Tabelle1
340
0
102
{BLKREFS
331
1C3
102
}
 70
     0
280
     1
281
     0
  0
BLOCK_RECORD
  5
270
330
1
100
AcDbSymbolTableRecord
100
AcDbBlockTableRecord
  2
*D6
340
0
 70
     0
280
     1
281
     0
  0
BLOCK_RECORD
  5
35D
330
1
100
AcDbSymbolTableRecord
100
AcDbBlockTableRecord
  2
*D7
340
0
 70
     0
280
     1
281
     0
  0
BLOCK_RECORD
  5
44B
330
1
100
AcDbSymbolTableRecord
100
AcDbBlockTableRecord
  2
*D8
340
0
 70
     0
280
     1
281
     0
  0
BLOCK_RECORD
  5
538
330
1
100
AcDbSymbolTableRecord
100
AcDbBlockTableRecord
  2
*D9
340
0
 70
     0
280
     1
281
     0
  0
BLOCK_RECORD
  5
625
330
1
100
AcDbSymbolTableRecord
100
AcDbBlockTableRecord
  2
*D10
340
0
 70
     0
280
     1
281
     0
  0
ENDTAB
  0
ENDSEC
  0
SECTION
  2
BLOCKS
  0
BLOCK
  5
71
330
70
100
AcDbEntity
  8
0
100
AcDbBlockBegin
  2
*Model_Space
 70
     0
 10
0.0
 20
0.0
 30
0.0
  3
*Model_Space
  1

  0
ENDBLK
  5
72
330
70
100
AcDbEntity
  8
0
100
AcDbBlockEnd
  0
BLOCK
  5
6D
330
6C
100
AcDbEntity
 67
     1
  8
0
100
AcDbBlockBegin
  2
*Paper_Space
 70
     0
 10
0.0
 20
0.0
 30
0.0
  3
*Paper_Space
  1

  0
ENDBLK
  5
6E
330
6C
100
AcDbEntity
 67
     1
  8
0
100
AcDbBlockEnd
  0
BLOCK
  5
75
330
74
100
AcDbEntity
 67
     1
  8
0
100
AcDbBlockBegin
  2
*Paper_Space0
 70
     0
 10
0.0
 20
0.0
 30
0.0
  3
*Paper_Space0
  1

  0
ENDBLK
  5
76
330
74
100
AcDbEntity
 67
     1
  8
0
100
AcDbBlockEnd
  0
BLOCK
  5
D7
330
D6
100
AcDbEntity
  8
0
100
AcDbBlockBegin
  2
DatumFilled45
 70
     0
 10
0.0
 20
0.0
 30
0.0
  3
DatumFilled45
  1

  0
POLYLINE
  5
D9
330
D6
100
AcDbEntity
  8
0
 62
     0
100
AcDb2dPolyline
 66
     1
 10
0.0
 20
0.0
 30
0.0
 70
   128
  0
VERTEX
  5
DA
330
D9
100
AcDbEntity
  8
0
 62
     0
100
AcDbVertex
100
AcDb2dVertex
 10
0.0
 20
1.0
 30
0.0
  0
VERTEX
  5
DB
330
D9
100
AcDbEntity
  8
0
 62
     0
100
AcDbVertex
100
AcDb2dVertex
 10
0.0
 20
-1.0
 30
0.0
  0
VERTEX
  5
DD
330
D9
100
AcDbEntity
  8
0
 62
     0
100
AcDbVertex
100
AcDb2dVertex
 10
-1.0
 20
0.0
 30
0.0
  0
VERTEX
  5
DE
330
D9
100
AcDbEntity
  8
0
 62
     0
100
AcDbVertex
100
AcDb2dVertex
 10
0.0
 20
1.0
 30
0.0
  0
SEQEND
  5
DC
330
D9
100
AcDbEntity
  8
0
 62
     0
  0
SOLID
  5
DF
330
D6
100
AcDbEntity
  8
0
 62
     0
100
AcDbTrace
 10
0.0
 20
1.0
 30
0.0
 11
0.0
 21
-1.0
 31
0.0
 12
-1.0
 22
0.0
 32
0.0
 13
0.0
 23
1.0
 33
0.0
  0
ENDBLK
  5
D8
330
D6
100
AcDbEntity
  8
0
100
AcDbBlockEnd
  0
BLOCK
  5
E2
330
E1
100
AcDbEntity
  8
0
100
AcDbBlockBegin
  2
Filled-1
 70
     0
 10
0.0
 20
0.0
 30
0.0
  3
Filled-1
  1

  0
LINE
  5
E4
330
E1
100
AcDbEntity
  8
0
 62
     0
100
AcDbLine
 10
-1.0
 20
0.0
 30
0.0
 11
0.0
 21
0.0
 31
0.0
  0
POLYLINE
  5
E5
330
E1
100
AcDbEntity
  8
0
 62
     0
100
AcDb2dPolyline
 66
     1
 10
0.0
 20
0.0
 30
0.0
 70
   128
  0
VERTEX
  5
E6
330
E5
100
AcDbEntity
  8
0
 62
     0
100
AcDbVertex
100
AcDb2dVertex
 10
-1.0
 20
-0.1
 30
0.0
  0
VERTEX
  5
E7
330
E5
100
AcDbEntity
  8
0
 62
     0
100
AcDbVertex
100
AcDb2dVertex
 10
0.0
 20
0.0
 30
0.0
  0
VERTEX
  5
E9
330
E5
100
AcDbEntity
  8
0
 62
     0
100
AcDbVertex
100
AcDb2dVertex
 10
-1.0
 20
0.1
 30
0.0
  0
VERTEX
  5
EA
330
E5
100
AcDbEntity
  8
0
 62
     0
100
AcDbVertex
100
AcDb2dVertex
 10
-1.0
 20
-0.1
 30
0.0
  0
SEQEND
  5
E8
330
E5
100
AcDbEntity
  8
0
 62
     0
  0
SOLID
  5
EB
330
E1
100
AcDbEntity
  8
0
 62
     0
100
AcDbTrace
 10
-1.0
 20
-0.1
 30
0.0
 11
0.0
 21
0.0
 31
0.0
 12
-1.0
 22
0.1
 32
0.0
 13
-1.0
 23
-0.1
 33
0.0
  0
LINE
  5
EC
330
E1
100
AcDbEntity
  8
0
 62
     0
100
AcDbLine
 10
-1.0
 20
-0.1
 30
0.0
 11
0.0
 21
0.0
 31
0.0
  0
LINE
  5
ED
330
E1
100
AcDbEntity
  8
0
 62
     0
100
AcDbLine
 10
0.0
 20
0.0
 30
0.0
 11
-1.0
 21
0.1
 31
0.0
  0
LINE
  5
EE
330
E1
100
AcDbEntity
  8
0
 62
     0
100
AcDbLine
 10
-1.0
 20
0.1
 30
0.0
 11
-1.0
 21
-0.1
 31
0.0
  0
ENDBLK
  5
E3
330
E1
100
AcDbEntity
  8
0
100
AcDbBlockEnd
  0
BLOCK
  5
F1
330
F0
100
AcDbEntity
  8
0
100
AcDbBlockBegin
  2
Ränder Standardrahmen
 70
     0
 10
0.0
 20
0.0
 30
0.0
  3
Ränder Standardrahmen
  1

  0
POLYLINE
  5
F3
330
F0
100
AcDbEntity
  8
Rahmen (ISO)
100
AcDb2dPolyline
 66
     1
 10
0.0
 20
0.0
 30
0.0
 70
   128
  0
VERTEX
  5
F4
330
F3
100
AcDbEntity
  8
Rahmen (ISO)
100
AcDbVertex
100
AcDb2dVertex
 10
10.0
 20
10.0
 30
0.0
  0
VERTEX
  5
F5
330
F3
100
AcDbEntity
  8
Rahmen (ISO)
100
AcDbVertex
100
AcDb2dVertex
 10
10.0
 20
287.0000076293946
 30
0.0
  0
VERTEX
  5
F7
330
F3
100
AcDbEntity
  8
Rahmen (ISO)
100
AcDbVertex
100
AcDb2dVertex
 10
200.0
 20
287.0000076293946
 30
0.0
  0
VERTEX
  5
F8
330
F3
100
AcDbEntity
  8
Rahmen (ISO)
100
AcDbVertex
100
AcDb2dVertex
 10
200.0
 20
10.0
 30
0.0
  0
VERTEX
  5
F9
330
F3
100
AcDbEntity
  8
Rahmen (ISO)
100
AcDbVertex
100
AcDb2dVertex
 10
10.0
 20
10.0
 30
0.0
  0
SEQEND
  5
F6
330
F3
100
AcDbEntity
  8
Rahmen (ISO)
  0
POLYLINE
  5
FA
330
F0
100
AcDbEntity
  8
Rahmen (ISO)
100
AcDb2dPolyline
 66
     1
 10
0.0
 20
0.0
 30
0.0
 70
   128
  0
VERTEX
  5
FB
330
FA
100
AcDbEntity
  8
Rahmen (ISO)
100
AcDbVertex
100
AcDb2dVertex
 10
105.0
 20
0.0
 30
0.0
  0
VERTEX
  5
FC
330
FA
100
AcDbEntity
  8
Rahmen (ISO)
100
AcDbVertex
100
AcDb2dVertex
 10
105.0
 20
10.0
 30
0.0
  0
VERTEX
  5
FE
330
FA
100
AcDbEntity
  8
Rahmen (ISO)
100
AcDbVertex
100
AcDb2dVertex
 10
102.1132469177246
 20
5.0
 30
0.0
  0
VERTEX
  5
FF
330
FA
100
AcDbEntity
  8
Rahmen (ISO)
100
AcDbVertex
100
AcDb2dVertex
 10
107.8867530822754
 20
5.0
 30
0.0
  0
VERTEX
  5
100
330
FA
100
AcDbEntity
  8
Rahmen (ISO)
100
AcDbVertex
100
AcDb2dVertex
 10
105.0
 20
10.0
 30
0.0
  0
SEQEND
  5
FD
330
FA
100
AcDbEntity
  8
Rahmen (ISO)
  0
POLYLINE
  5
101
330
F0
100
AcDbEntity
  8
Rahmen (ISO)
100
AcDb2dPolyline
 66
     1
 10
0.0
 20
0.0
 30
0.0
 70
   128
  0
VERTEX
  5
102
330
101
100
AcDbEntity
  8
Rahmen (ISO)
100
AcDbVertex
100
AcDb2dVertex
 10
105.0
 20
297.0000076293946
 30
0.0
  0
VERTEX
  5
103
330
101
100
AcDbEntity
  8
Rahmen (ISO)
100
AcDbVertex
100
AcDb2dVertex
 10
105.0
 20
287.0000076293946
 30
0.0
  0
VERTEX
  5
105
330
101
100
AcDbEntity
  8
Rahmen (ISO)
100
AcDbVertex
100
AcDb2dVertex
 10
102.1132469177246
 20
292.0000076293945
 30
0.0
  0
VERTEX
  5
106
330
101
100
AcDbEntity
  8
Rahmen (ISO)
100
AcDbVertex
100
AcDb2dVertex
 10
107.8867530822754
 20
292.0000076293945
 30
0.0
  0
VERTEX
  5
107
330
101
100
AcDbEntity
  8
Rahmen (ISO)
100
AcDbVertex
100
AcDb2dVertex
 10
105.0
 20
287.0000076293946
 30
0.0
  0
SEQEND
  5
104
330
101
100
AcDbEntity
  8
Rahmen (ISO)
  0
POLYLINE
  5
108
330
F0
100
AcDbEntity
  8
Rahmen (ISO)
100
AcDb2dPolyline
 66
     1
 10
0.0
 20
0.0
 30
0.0
 70
   128
  0
VERTEX
  5
109
330
108
100
AcDbEntity
  8
Rahmen (ISO)
100
AcDbVertex
100
AcDb2dVertex
 10
0.0
 20
148.5000038146973
 30
0.0
  0
VERTEX
  5
10A
330
108
100
AcDbEntity
  8
Rahmen (ISO)
100
AcDbVertex
100
AcDb2dVertex
 10
10.0
 20
148.5000038146973
 30
0.0
  0
VERTEX
  5
10C
330
108
100
AcDbEntity
  8
Rahmen (ISO)
100
AcDbVertex
100
AcDb2dVertex
 10
5.0
 20
151.3867473602295
 30
0.0
  0
VERTEX
  5
10D
330
108
100
AcDbEntity
  8
Rahmen (ISO)
100
AcDbVertex
100
AcDb2dVertex
 10
5.0
 20
145.6132507324219
 30
0.0
  0
VERTEX
  5
10E
330
108
100
AcDbEntity
  8
Rahmen (ISO)
100
AcDbVertex
100
AcDb2dVertex
 10
10.0
 20
148.5000038146973
 30
0.0
  0
SEQEND
  5
10B
330
108
100
AcDbEntity
  8
Rahmen (ISO)
  0
POLYLINE
  5
10F
330
F0
100
AcDbEntity
  8
Rahmen (ISO)
100
AcDb2dPolyline
 66
     1
 10
0.0
 20
0.0
 30
0.0
 70
   128
  0
VERTEX
  5
110
330
10F
100
AcDbEntity
  8
Rahmen (ISO)
100
AcDbVertex
100
AcDb2dVertex
 10
210.0
 20
148.5000038146973
 30
0.0
  0
VERTEX
  5
111
330
10F
100
AcDbEntity
  8
Rahmen (ISO)
100
AcDbVertex
100
AcDb2dVertex
 10
200.0
 20
148.5000038146973
 30
0.0
  0
VERTEX
  5
113
330
10F
100
AcDbEntity
  8
Rahmen (ISO)
100
AcDbVertex
100
AcDb2dVertex
 10
205.0
 20
151.3867473602295
 30
0.0
  0
VERTEX
  5
114
330
10F
100
AcDbEntity
  8
Rahmen (ISO)
100
AcDbVertex
100
AcDb2dVertex
 10
205.0
 20
145.6132507324219
 30
0.0
  0
VERTEX
  5
115
330
10F
100
AcDbEntity
  8
Rahmen (ISO)
100
AcDbVertex
100
AcDb2dVertex
 10
200.0
 20
148.5000038146973
 30
0.0
  0
SEQEND
  5
112
330
10F
100
AcDbEntity
  8
Rahmen (ISO)
  0
ENDBLK
  5
F2
330
F0
100
AcDbEntity
  8
0
100
AcDbBlockEnd
  0
BLOCK
  5
118
330
117
100
AcDbEntity
  8
0
100
AcDbBlockBegin
  2
Schriftfelder perma CI-Pool
 70
     2
 10
0.0
 20
0.0
 30
0.0
  3
Schriftfelder perma CI-Pool
  1

  0
HATCH
  5
121
330
117
100
AcDbEntity
  8
Schraffur (ISO)
 62
   242
420
 13640771
100
AcDbHatch
 10
0.0
 20
0.0
 30
0.0
210
0.0
220
0.0
230
1.0
  2
SOLID
 70
     1
 71
     0
 91
        2
 92
        0
 93
        1
 72
     2
 10
292.1655214773733
 20
118.936538419629
 40
1.446945337620578
 50
0.0
 51
360.0
 73
     1
 97
        0
 92
        1
 93
        6
 72
     1
 10
290.4774185834826
 20
121.34811398233
 11
290.4774185834826
 21
120.6587478477342
 72
     2
 10
292.1655214773733
 20
118.936538419629
 40
2.411575562700964
 50
225.5729959991942
 51
489.2964802391872
 73
     0
 72
     1
 10
290.6381902876627
 20
117.0702704507795
 11
290.6381902876627
 21
114.5957024067673
 72
     1
 10
290.6381902876627
 20
114.5957024067673
 11
289.5127883584022
 21
114.5957024067673
 72
     1
 10
289.5127883584022
 20
114.5957024067673
 11
289.5127883584022
 21
121.34811398233
 72
     1
 10
289.5127883584022
 20
121.34811398233
 11
290.4774185834826
 21
121.34811398233
 97
        0
 75
     0
 76
     1
 98
        1
 10
0.0
 20
0.0
450
        0
451
        0
460
0.0
461
0.0
452
        0
462
0.0
453
        0
470

  0
HATCH
  5
129
330
117
100
AcDbEntity
  8
Schraffur (ISO)
 62
   242
420
 13640771
100
AcDbHatch
 10
0.0
 20
0.0
 30
0.0
210
0.0
220
0.0
230
1.0
  2
SOLID
 70
     1
 71
     0
 91
        1
 92
        1
 93
        7
 72
     2
 10
300.8873864291418
 20
120.9461847218798
 40
0.4019292604501608
 50
90.0
 51
180.0
 73
     1
 72
     1
 10
300.4854571686916
 20
120.9461847218798
 11
300.4854571686916
 21
116.524962856928
 72
     1
 10
300.4854571686916
 20
116.524962856928
 11
301.450087393772
 21
116.524962856928
 72
     1
 10
301.450087393772
 20
116.524962856928
 11
301.450087393772
 21
120.3834837572496
 72
     1
 10
301.450087393772
 20
120.3834837572496
 11
303.1381902876627
 21
120.3834837572496
 72
     1
 10
303.1381902876627
 20
120.3834837572496
 11
303.1381902876627
 21
121.34811398233
 72
     1
 10
303.1381902876627
 20
121.34811398233
 11
300.8873864291418
 21
121.34811398233
 97
        0
 75
     0
 76
     1
 98
        1
 10
0.0
 20
0.0
450
        0
451
        0
460
0.0
461
0.0
452
        0
462
0.0
453
        0
470

  0
HATCH
  5
138
330
117
100
AcDbEntity
  8
Schraffur (ISO)
 62
   242
420
 13640771
100
AcDbHatch
 10
0.0
 20
0.0
 30
0.0
210
0.0
220
0.0
230
1.0
  2
SOLID
 70
     1
 71
     0
 91
        1
 92
        1
 93
       14
 72
     2
 10
308.1623060432897
 20
120.9461847218798
 40
0.4019292604501608
 50
0.0
 51
90.0
 73
     1
 72
     1
 10
308.1623060432897
 20
121.34811398233
 11
303.821470030428
 21
121.34811398233
 72
     2
 10
303.821470030428
 20
120.9461847218798
 40
0.4019292604501608
 50
90.0
 51
180.0
 73
     1
 72
     1
 10
303.4195407699778
 20
120.9461847218798
 11
303.4195407699778
 21
116.524962856928
 72
     1
 10
303.4195407699778
 20
116.524962856928
 11
304.3841709950582
 21
116.524962856928
 72
     1
 10
304.3841709950582
 20
116.524962856928
 11
304.3841709950582
 21
120.3834837572496
 72
     1
 10
304.3841709950582
 20
120.3834837572496
 11
305.4291870722286
 21
120.3834837572496
 72
     1
 10
305.4291870722286
 20
120.3834837572496
 11
305.4291870722286
 21
116.524962856928
 72
     1
 10
305.4291870722286
 20
116.524962856928
 11
306.554589001489
 21
116.524962856928
 72
     1
 10
306.554589001489
 20
116.524962856928
 11
306.554589001489
 21
120.3834837572496
 72
     1
 10
306.554589001489
 20
120.3834837572496
 11
307.5996050786595
 21
120.3834837572496
 72
     1
 10
307.5996050786595
 20
120.3834837572496
 11
307.5996050786595
 21
116.524962856928
 72
     1
 10
307.5996050786595
 20
116.524962856928
 11
308.5642353037398
 21
116.524962856928
 72
     1
 10
308.5642353037398
 20
116.524962856928
 11
308.5642353037398
 21
120.9461847218798
 97
        0
 75
     0
 76
     1
 98
        1
 10
0.0
 20
0.0
450
        0
451
        0
460
0.0
461
0.0
452
        0
462
0.0
453
        0
470

  0
HATCH
  5
140
330
117
100
AcDbEntity
  8
Schraffur (ISO)
 62
   242
420
 13640771
100
AcDbHatch
 10
0.0
 20
0.0
 30
0.0
210
0.0
220
0.0
230
1.0
  2
SOLID
 70
     1
 71
     0
 91
        2
 92
        0
 93
        1
 72
     2
 10
311.7796693873412
 20
118.936538419629
 40
1.446945337620578
 50
0.0
 51
360.0
 73
     1
 97
        0
 92
        1
 93
        6
 72
     2
 10
311.7796693873412
 20
118.936538419629
 40
2.411575562700964
 50
42.83342806606797
 51
317.1665719339312
 73
     1
 72
     1
 10
313.5481581333219
 20
117.2969823059335
 11
313.5481581333219
 21
116.524962856928
 72
     1
 10
313.5481581333219
 20
116.524962856928
 11
314.5127883584022
 21
116.524962856928
 72
     1
 10
314.5127883584022
 20
116.524962856928
 11
314.5127883584022
 21
121.34811398233
 72
     1
 10
314.5127883584022
 20
121.34811398233
 11
313.5481581333219
 21
121.34811398233
 72
     1
 10
313.5481581333219
 20
121.34811398233
 11
313.5481581333219
 21
120.5760945333244
 97
        0
 75
     0
 76
     1
 98
        1
 10
0.0
 20
0.0
450
        0
451
        0
460
0.0
461
0.0
452
        0
462
0.0
453
        0
470

  0
HATCH
  5
145
330
117
100
AcDbEntity
  8
Schraffur (ISO)
 62
   242
420
 13640771
100
AcDbHatch
 10
0.0
 20
0.0
 30
0.0
210
0.0
220
0.0
230
1.0
  2
SOLID
 70
     1
 71
     0
 91
        1
 92
        1
 93
        4
 72
     1
 10
291.361662956473
 20
114.5957024067673
 11
314.5127883584022
 21
114.5957024067673
 72
     1
 10
314.5127883584022
 20
114.5957024067673
 11
314.5127883584022
 21
115.5603326318476
 72
     1
 10
314.5127883584022
 20
115.5603326318476
 11
291.361662956473
 21
115.5603326318476
 72
     1
 10
291.361662956473
 20
115.5603326318476
 11
291.361662956473
 21
114.5957024067673
 97
        0
 75
     0
 76
     1
 98
        1
 10
0.0
 20
0.0
450
        0
451
        0
460
0.0
461
0.0
452
        0
462
0.0
453
        0
470

  0
HATCH
  5
14C
330
117
100
AcDbEntity
  8
Schraffur (ISO)
 62
   242
420
 13640771
100
AcDbHatch
 10
0.0
 20
0.0
 30
0.0
210
0.0
220
0.0
230
1.0
  2
SOLID
 70
     1
 71
     0
 91
        2
 92
        0
 93
        2
 72
     2
 10
297.4655214773733
 20
118.936538419629
 40
1.446945337620578
 50
19.471220634491
 51
160.528779365509
 73
     1
 72
     1
 10
296.1013283303897
 20
119.4188535321692
 11
298.8297146243571
 21
119.4188535321692
 97
        0
 92
        1
 93
        4
 72
     2
 10
297.4655214773733
 20
118.936538419629
 40
2.411575562700964
 50
348.4630409671848
 51
697.8233318603407
 73
     1
 72
     1
 10
299.6986992222124
 20
118.0262561257379
 11
298.5902600938928
 21
118.0262561257379
 72
     2
 10
297.4655214773733
 20
118.936538419629
 40
1.446945337620578
 50
38.98421089227273
 51
160.5287793655103
 73
     0
 72
     1
 10
296.1013283303897
 20
118.4542233070888
 11
299.8283733192863
 21
118.4542233070888
 97
        0
 75
     0
 76
     1
 98
        1
 10
0.0
 20
0.0
450
        0
451
        0
460
0.0
461
0.0
452
        0
462
0.0
453
        0
470

  0
LINE
  5
14D
330
117
100
AcDbEntity
  8
Titel (ISO)
100
AcDbLine
 10
137.5127883584022
 20
105.8481139823299
 30
0.0
 11
327.5127883584023
 21
105.84811398233
 31
0.0
  0
LINE
  5
14E
330
117
100
AcDbEntity
  8
Titel (ISO)
100
AcDbLine
 10
327.5127883584023
 20
105.84811398233
 30
0.0
 11
327.5127883584023
 21
123.34811398233
 31
0.0
  0
LINE
  5
14F
330
117
100
AcDbEntity
  8
Titel (ISO)
100
AcDbLine
 10
327.5127883584023
 20
123.34811398233
 30
0.0
 11
137.5127883584022
 21
123.3481139823298
 31
0.0
  0
LINE
  5
150
330
117
100
AcDbEntity
  8
Titel (ISO)
100
AcDbLine
 10
137.5127883584022
 20
123.3481139823298
 30
0.0
 11
137.5127883584022
 21
105.8481139823299
 31
0.0
  0
LINE
  5
151
330
117
100
AcDbEntity
  8
Skizziergeometrie (ISO)
 62
   242
420
 13640771
370
     9
100
AcDbLine
 10
290.4774185834826
 20
121.34811398233
 30
0.0
 11
289.5127883584022
 21
121.34811398233
 31
0.0
  0
LINE
  5
152
330
117
100
AcDbEntity
  8
Skizziergeometrie (ISO)
 62
   242
420
 13640771
370
     9
100
AcDbLine
 10
290.4774185834826
 20
120.6587478477342
 30
0.0
 11
290.4774185834826
 21
121.34811398233
 31
0.0
  0
LINE
  5
153
330
117
100
AcDbEntity
  8
Skizziergeometrie (ISO)
 62
   242
420
 13640771
370
     9
100
AcDbLine
 10
289.5127883584022
 20
121.34811398233
 30
0.0
 11
289.5127883584022
 21
114.5957024067673
 31
0.0
  0
CIRCLE
  5
154
330
117
100
AcDbEntity
  8
Skizziergeometrie (ISO)
 62
   242
420
 13640771
370
     9
100
AcDbCircle
 10
292.1655214773733
 20
118.936538419629
 30
0.0
 40
1.446945337620578
  0
LINE
  5
155
330
117
100
AcDbEntity
  8
Skizziergeometrie (ISO)
 62
   242
420
 13640771
370
     9
100
AcDbLine
 10
289.5127883584022
 20
114.5957024067673
 30
0.0
 11
290.6381902876627
 21
114.5957024067673
 31
0.0
  0
LINE
  5
156
330
117
100
AcDbEntity
  8
Skizziergeometrie (ISO)
 62
   242
420
 13640771
370
     9
100
AcDbLine
 10
290.6381902876627
 20
114.5957024067673
 30
0.0
 11
290.6381902876627
 21
117.0702704507795
 31
0.0
  0
ARC
  5
157
330
117
100
AcDbEntity
  8
Skizziergeometrie (ISO)
 62
   242
420
 13640771
370
     9
100
AcDbCircle
 10
292.1655214773733
 20
118.936538419629
 30
0.0
 40
2.411575562700964
100
AcDbArc
 50
230.7035197608128
 51
134.4270040008057
  0
LINE
  5
158
330
117
100
AcDbEntity
  8
Skizziergeometrie (ISO)
 62
   242
420
 13640771
370
     9
100
AcDbLine
 10
291.361662956473
 20
115.5603326318476
 30
0.0
 11
291.361662956473
 21
114.5957024067673
 31
0.0
  0
ARC
  5
159
330
117
100
AcDbEntity
  8
Skizziergeometrie (ISO)
 62
   242
420
 13640771
370
     9
100
AcDbCircle
 10
300.8873864291418
 20
120.9461847218798
 30
0.0
 40
0.4019292604501608
100
AcDbArc
 50
90.0
 51
180.0
  0
LINE
  5
15A
330
117
100
AcDbEntity
  8
Skizziergeometrie (ISO)
 62
   242
420
 13640771
370
     9
100
AcDbLine
 10
301.450087393772
 20
120.3834837572496
 30
0.0
 11
301.450087393772
 21
116.524962856928
 31
0.0
  0
LINE
  5
15B
330
117
100
AcDbEntity
  8
Skizziergeometrie (ISO)
 62
   242
420
 13640771
370
     9
100
AcDbLine
 10
300.4854571686916
 20
116.524962856928
 30
0.0
 11
300.4854571686916
 21
120.9461847218798
 31
0.0
  0
LINE
  5
15C
330
117
100
AcDbEntity
  8
Skizziergeometrie (ISO)
 62
   242
420
 13640771
370
     9
100
AcDbLine
 10
301.450087393772
 20
116.524962856928
 30
0.0
 11
300.4854571686916
 21
116.524962856928
 31
0.0
  0
LINE
  5
15D
330
117
100
AcDbEntity
  8
Skizziergeometrie (ISO)
 62
   242
420
 13640771
370
     9
100
AcDbLine
 10
313.5481581333219
 20
120.5760945333244
 30
0.0
 11
313.5481581333219
 21
121.34811398233
 31
0.0
  0
LINE
  5
15E
330
117
100
AcDbEntity
  8
Skizziergeometrie (ISO)
 62
   242
420
 13640771
370
     9
100
AcDbLine
 10
314.5127883584022
 20
121.34811398233
 30
0.0
 11
314.5127883584022
 21
116.524962856928
 31
0.0
  0
LINE
  5
15F
330
117
100
AcDbEntity
  8
Skizziergeometrie (ISO)
 62
   242
420
 13640771
370
     9
100
AcDbLine
 10
314.5127883584022
 20
116.524962856928
 30
0.0
 11
313.5481581333219
 21
116.524962856928
 31
0.0
  0
CIRCLE
  5
160
330
117
100
AcDbEntity
  8
Skizziergeometrie (ISO)
 62
   242
420
 13640771
370
     9
100
AcDbCircle
 10
311.7796693873412
 20
118.936538419629
 30
0.0
 40
1.446945337620578
  0
ARC
  5
161
330
117
100
AcDbEntity
  8
Skizziergeometrie (ISO)
 62
   242
420
 13640771
370
     9
100
AcDbCircle
 10
308.1623060432897
 20
120.9461847218798
 30
0.0
 40
0.4019292604501608
100
AcDbArc
 50
0.0
 51
90.0
  0
LINE
  5
162
330
117
100
AcDbEntity
  8
Skizziergeometrie (ISO)
 62
   242
420
 13640771
370
     9
100
AcDbLine
 10
308.5642353037398
 20
120.9461847218798
 30
0.0
 11
308.5642353037398
 21
116.524962856928
 31
0.0
  0
LINE
  5
163
330
117
100
AcDbEntity
  8
Skizziergeometrie (ISO)
 62
   242
420
 13640771
370
     9
100
AcDbLine
 10
307.5996050786595
 20
120.3834837572496
 30
0.0
 11
307.5996050786595
 21
116.524962856928
 31
0.0
  0
LINE
  5
164
330
117
100
AcDbEntity
  8
Skizziergeometrie (ISO)
 62
   242
420
 13640771
370
     9
100
AcDbLine
 10
306.554589001489
 20
120.3834837572496
 30
0.0
 11
307.5996050786595
 21
120.3834837572496
 31
0.0
  0
LINE
  5
165
330
117
100
AcDbEntity
  8
Skizziergeometrie (ISO)
 62
   242
420
 13640771
370
     9
100
AcDbLine
 10
306.554589001489
 20
120.3834837572496
 30
0.0
 11
306.554589001489
 21
116.524962856928
 31
0.0
  0
LINE
  5
166
330
117
100
AcDbEntity
  8
Skizziergeometrie (ISO)
 62
   242
420
 13640771
370
     9
100
AcDbLine
 10
313.5481581333219
 20
116.524962856928
 30
0.0
 11
313.5481581333219
 21
117.2969823059335
 31
0.0
  0
LINE
  5
167
330
117
100
AcDbEntity
  8
Skizziergeometrie (ISO)
 62
   242
420
 13640771
370
     9
100
AcDbLine
 10
303.4195407699778
 20
120.9461847218798
 30
0.0
 11
303.4195407699778
 21
116.524962856928
 31
0.0
  0
LINE
  5
168
330
117
100
AcDbEntity
  8
Skizziergeometrie (ISO)
 62
   242
420
 13640771
370
     9
100
AcDbLine
 10
303.4195407699778
 20
116.524962856928
 30
0.0
 11
304.3841709950582
 21
116.524962856928
 31
0.0
  0
LINE
  5
169
330
117
100
AcDbEntity
  8
Skizziergeometrie (ISO)
 62
   242
420
 13640771
370
     9
100
AcDbLine
 10
304.3841709950582
 20
116.524962856928
 30
0.0
 11
304.3841709950582
 21
120.3834837572496
 31
0.0
  0
LINE
  5
16A
330
117
100
AcDbEntity
  8
Skizziergeometrie (ISO)
 62
   242
420
 13640771
370
     9
100
AcDbLine
 10
305.4291870722286
 20
116.524962856928
 30
0.0
 11
305.4291870722286
 21
120.3834837572496
 31
0.0
  0
LINE
  5
16B
330
117
100
AcDbEntity
  8
Skizziergeometrie (ISO)
 62
   242
420
 13640771
370
     9
100
AcDbLine
 10
303.821470030428
 20
121.34811398233
 30
0.0
 11
308.1623060432897
 21
121.34811398233
 31
0.0
  0
LINE
  5
16C
330
117
100
AcDbEntity
  8
Skizziergeometrie (ISO)
 62
   242
420
 13640771
370
     9
100
AcDbLine
 10
305.4291870722286
 20
116.524962856928
 30
0.0
 11
306.554589001489
 21
116.524962856928
 31
0.0
  0
ARC
  5
16D
330
117
100
AcDbEntity
  8
Skizziergeometrie (ISO)
 62
   242
420
 13640771
370
     9
100
AcDbCircle
 10
303.821470030428
 20
120.9461847218798
 30
0.0
 40
0.4019292604501608
100
AcDbArc
 50
90.0
 51
180.0
  0
LINE
  5
16E
330
117
100
AcDbEntity
  8
Skizziergeometrie (ISO)
 62
   242
420
 13640771
370
     9
100
AcDbLine
 10
303.1381902876627
 20
120.3834837572496
 30
0.0
 11
301.450087393772
 21
120.3834837572496
 31
0.0
  0
LINE
  5
16F
330
117
100
AcDbEntity
  8
Skizziergeometrie (ISO)
 62
   242
420
 13640771
370
     9
100
AcDbLine
 10
303.1381902876627
 20
121.34811398233
 30
0.0
 11
303.1381902876627
 21
120.3834837572496
 31
0.0
  0
LINE
  5
170
330
117
100
AcDbEntity
  8
Skizziergeometrie (ISO)
 62
   242
420
 13640771
370
     9
100
AcDbLine
 10
300.8873864291418
 20
121.34811398233
 30
0.0
 11
303.1381902876627
 21
121.34811398233
 31
0.0
  0
ARC
  5
171
330
117
100
AcDbEntity
  8
Skizziergeometrie (ISO)
 62
   242
420
 13640771
370
     9
100
AcDbCircle
 10
311.7796693873412
 20
118.936538419629
 30
0.0
 40
2.411575562700964
100
AcDbArc
 50
42.83342806606797
 51
317.166571933932
  0
LINE
  5
172
330
117
100
AcDbEntity
  8
Skizziergeometrie (ISO)
 62
   242
420
 13640771
370
     9
100
AcDbLine
 10
314.5127883584022
 20
115.5603326318476
 30
0.0
 11
314.5127883584022
 21
114.5957024067673
 31
0.0
  0
LINE
  5
173
330
117
100
AcDbEntity
  8
Skizziergeometrie (ISO)
 62
   242
420
 13640771
370
     9
100
AcDbLine
 10
313.5481581333219
 20
121.34811398233
 30
0.0
 11
314.5127883584022
 21
121.34811398233
 31
0.0
  0
LINE
  5
174
330
117
100
AcDbEntity
  8
Skizziergeometrie (ISO)
 62
   242
420
 13640771
370
     9
100
AcDbLine
 10
307.5996050786595
 20
116.524962856928
 30
0.0
 11
308.5642353037398
 21
116.524962856928
 31
0.0
  0
LINE
  5
175
330
117
100
AcDbEntity
  8
Skizziergeometrie (ISO)
 62
   242
420
 13640771
370
     9
100
AcDbLine
 10
304.3841709950582
 20
120.3834837572496
 30
0.0
 11
305.4291870722286
 21
120.3834837572496
 31
0.0
  0
LINE
  5
176
330
117
100
AcDbEntity
  8
Skizziergeometrie (ISO)
 62
   242
420
 13640771
370
     9
100
AcDbLine
 10
291.361662956473
 20
115.5603326318476
 30
0.0
 11
314.5127883584022
 21
115.5603326318476
 31
0.0
  0
LINE
  5
177
330
117
100
AcDbEntity
  8
Skizziergeometrie (ISO)
 62
   242
420
 13640771
370
     9
100
AcDbLine
 10
291.361662956473
 20
114.5957024067673
 30
0.0
 11
314.5127883584022
 21
114.5957024067673
 31
0.0
  0
LINE
  5
178
330
117
100
AcDbEntity
  8
Skizziergeometrie (ISO)
 62
   242
420
 13640771
370
     9
100
AcDbLine
 10
298.5902600938929
 20
118.0262561257379
 30
0.0
 11
299.6986992222124
 21
118.0262561257379
 31
0.0
  0
LINE
  5
179
330
117
100
AcDbEntity
  8
Skizziergeometrie (ISO)
 62
   242
420
 13640771
370
     9
100
AcDbLine
 10
296.1013283303897
 20
119.4188535321692
 30
0.0
 11
298.829714624357
 21
119.4188535321692
 31
0.0
  0
ARC
  5
17A
330
117
100
AcDbEntity
  8
Skizziergeometrie (ISO)
 62
   242
420
 13640771
370
     9
100
AcDbCircle
 10
297.4655214773733
 20
118.936538419629
 30
0.0
 40
1.446945337620578
100
AcDbArc
 50
19.471220634491
 51
160.528779365509
  0
LINE
  5
17B
330
117
100
AcDbEntity
  8
Skizziergeometrie (ISO)
 62
   242
420
 13640771
370
     9
100
AcDbLine
 10
296.1013283303897
 20
118.4542233070888
 30
0.0
 11
299.8283733192863
 21
118.4542233070888
 31
0.0
  0
ARC
  5
17C
330
117
100
AcDbEntity
  8
Skizziergeometrie (ISO)
 62
   242
420
 13640771
370
     9
100
AcDbCircle
 10
297.4655214773733
 20
118.936538419629
 30
0.0
 40
1.446945337620578
100
AcDbArc
 50
199.4712206344896
 51
321.0157891077264
  0
ARC
  5
17D
330
117
100
AcDbEntity
  8
Skizziergeometrie (ISO)
 62
   242
420
 13640771
370
     9
100
AcDbCircle
 10
297.4655214773733
 20
118.936538419629
 30
0.0
 40
2.411575562700964
100
AcDbArc
 50
348.4630409671848
 51
337.8233318603407
  0
LINE
  5
17E
330
117
100
AcDbEntity
  8
Titel (ISO)
100
AcDbLine
 10
137.5127883584022
 20
118.3382056155221
 30
0.0
 11
137.5127883584022
 21
105.8481139823299
 31
0.0
  0
LINE
  5
17F
330
117
100
AcDbEntity
  8
Titel (ISO)
100
AcDbLine
 10
217.1992765159977
 20
123.3481139823299
 30
0.0
 11
235.3992765159975
 21
123.3481139823299
 31
0.0
  0
LINE
  5
180
330
117
100
AcDbEntity
  8
Titel (ISO)
100
AcDbLine
 10
152.5127883584022
 20
123.3481139823298
 30
0.0
 11
152.5127883584022
 21
105.8481139823299
 31
0.0
  0
LINE
  5
181
330
117
100
AcDbEntity
  8
Titel (ISO)
100
AcDbLine
 10
177.5127883584022
 20
123.3481139823298
 30
0.0
 11
177.5127883584022
 21
105.8481139823299
 31
0.0
  0
LINE
  5
182
330
117
100
AcDbEntity
  8
Titel (ISO)
100
AcDbLine
 10
287.5127883584022
 20
123.34811398233
 30
0.0
 11
287.5127883584022
 21
105.84811398233
 31
0.0
  0
LINE
  5
183
330
117
100
AcDbEntity
  8
Titel (ISO)
100
AcDbLine
 10
137.5127883584022
 20
114.5981139823299
 30
0.0
 11
177.5127883584022
 21
114.5981139823299
 31
0.0
  0
LINE
  5
184
330
117
100
AcDbEntity
  8
Titel (ISO)
100
AcDbLine
 10
204.5127883584022
 20
123.3481139823299
 30
0.0
 11
204.5127883584022
 21
105.8481139823299
 31
0.0
  0
LINE
  5
185
330
117
100
AcDbEntity
  8
Titel (ISO)
100
AcDbLine
 10
177.5127883584022
 20
114.5981139823299
 30
0.0
 11
204.5127883584022
 21
114.5981139823299
 31
0.0
  0
MTEXT
  5
186
330
117
100
AcDbEntity
  8
Titel (ISO)
100
AcDbMText
 10
138.5127883584022
 20
122.3481139823299
 30
0.0
 40
2.000000029802322
 41
8.499999999999978
 46
0.0
 71
     1
 72
     1
  1
\fArial|b1|i0;\H2.0000;Scale:
  7
Notiztext (DIN)
 73
     1
 44
1.0
  0
MTEXT
  5
188
330
117
100
AcDbEntity
  8
Titel (ISO)
100
AcDbMText
 10
138.5127883584022
 20
113.5981139823299
 30
0.0
 40
2.000000029802322
 41
6.521341204643249
 46
0.0
 71
     1
 72
     1
  1
\fArial|b1|i0;\H2.0000;Size:
  7
Notiztext (DIN)
 73
     1
 44
1.0
  0
MTEXT
  5
189
330
117
100
AcDbEntity
  8
Titel (ISO)
100
AcDbMText
 10
153.5127883584022
 20
122.3481139823299
 30
0.0
 40
2.000000029802322
 41
7.000000000000081
 46
0.0
 71
     1
 72
     1
  1
\fArial|b1|i0;\H2.0000;Date:
  7
Notiztext (DIN)
 73
     1
 44
1.0
  0
MTEXT
  5
18A
330
117
100
AcDbEntity
  8
Titel (ISO)
100
AcDbMText
 10
153.5127883584022
 20
113.5981139823299
 30
0.0
 40
2.000000029802322
 41
23.13109874725342
 46
0.0
 71
     1
 72
     1
  1
\fArial|b1|i0;\H2.0000;Revision / drawn:
  7
Notiztext (DIN)
 73
     1
 44
1.0
  0
MTEXT
  5
18B
330
117
100
AcDbEntity
  8
Titel (ISO)
100
AcDbMText
 10
205.5127883584022
 20
122.34811398233
 30
0.0
 40
2.000000029802322
 41
16.30000000000002
 46
0.0
 71
     1
 72
     1
  1
\fArial|b1|i0;\H2.0000;Description:
  7
Notiztext (DIN)
 73
     1
 44
1.0
  0
MTEXT
  5
18C
330
117
100
AcDbEntity
  8
Titel (ISO)
100
AcDbMText
 10
178.5127883584022
 20
121.3321078699984
 30
0.0
 40
2.000000029802322
 41
11.48627996444702
 46
0.0
 71
     4
 72
     1
  1
\fArial|b1|i0;\H2.0000;Material:
  7
Notiztext (DIN)
 73
     1
 44
1.0
  0
MTEXT
  5
18D
330
117
100
AcDbEntity
  8
Titel (ISO)
100
AcDbMText
 10
178.5127883584022
 20
112.5821078699984
 30
0.0
 40
2.000000029802322
 41
15.0
 46
0.0
 71
     4
 72
     1
  1
\fArial|b1|i0;\H2.0000;Part No.
  7
Notiztext (DIN)
 73
     1
 44
1.0
  0
MTEXT
  5
18E
102
{ACAD_XDICTIONARY
360
71E
102
}
330
117
100
AcDbEntity
  8
Titel (ISO)
100
AcDbMText
 10
289.5127883584022
 20
112.6664066478115
 30
0.0
 40
2.5
 41
36.99999999999996
 46
0.0
 71
     1
 72
     1
  1
{\fArial|b1|i0|c0|p34;\H0.4x;perma-tec \fArial|b0|i0|c0|p34;\H0.7x;GmbH & Co. KG\P\H1.42857x;Hammelburger Str.21                       Tel. : +49 9704 609-0\P97717 EUERDORF / GERMANY     Fax : +49 9704 609-50}
  7
Notiztext (DIN)
 73
     1
 44
0.7263241410255433
  0
ATTDEF
  5
190
102
{ACAD_XDICTIONARY
360
720
102
}
330
117
100
AcDbEntity
  8
Titel (ISO)
100
AcDbText
 10
142.6347187674795
 20
116.2179980132233
 30
0.0
 40
2.5
  1
1:1
  7
Textstil54
100
AcDbAttributeDefinition
280
     0
  3
Maßstab
  2
Maßstab_001
 70
     0
280
     0
  0
ATTDEF
  5
194
102
{ACAD_XDICTIONARY
360
723
102
}
330
117
100
AcDbEntity
  8
Titel (ISO)
100
AcDbText
 10
155.7781361929622
 20
116.2401671811559
 30
0.0
 40
2.5
  1
04.05.2018
  7
Textstil54
100
AcDbAttributeDefinition
280
     0
  3
Datum
  2
Datum_001
 70
     0
280
     0
  0
ATTDEF
  5
195
102
{ACAD_XDICTIONARY
360
726
102
}
330
117
100
AcDbEntity
  8
Titel (ISO)
100
AcDbText
 10
205.3865946332475
 20
115.3424647655542
 30
0.0
 40
2.5
  1
Support flange STAR Gen 2.0
  7
Textstil54
100
AcDbAttributeDefinition
280
     0
  3
Benennung_Englisch
  2
Benennung_Englisch_001
 70
     0
280
     0
  0
ATTDEF
  5
196
102
{ACAD_XDICTIONARY
360
729
102
}
330
117
100
AcDbEntity
  8
Titel (ISO)
100
AcDbText
 10
142.8205987139913
 20
107.4679980132233
 30
0.0
 40
2.5
  1
A4
  7
Textstil54
100
AcDbAttributeDefinition
280
     0
  3
Blattgröße
  2
Blattgröße_001
 70
     0
280
     0
  0
ATTDEF
  5
197
102
{ACAD_XDICTIONARY
360
72C
102
}
330
117
100
AcDbEntity
  8
Titel (ISO)
100
AcDbText
 10
178.2825700760253
 20
116.5462722306867
 30
0.0
 40
2.5
  1
brass/plastic
  7
Textstil54
100
AcDbAttributeDefinition
280
     0
  3
Material
  2
Material_001
 70
     0
280
     0
  0
ATTDEF
  5
198
102
{ACAD_XDICTIONARY
360
72F
102
}
330
117
100
AcDbEntity
  8
Titel (ISO)
100
AcDbText
 10
178.5127883584022
 20
107.493121529321
 30
0.0
 40
2.5
  1

  7
Textstil54
 11
178.5127883584022
 21
109.993121529321
 31
0.0
100
AcDbAttributeDefinition
280
     0
  3
Artikelnummer
  2
Artikelnummer
 70
     0
 74
     3
280
     0
  0
ATTDEF
  5
199
102
{ACAD_XDICTIONARY
360
732
102
}
330
117
100
AcDbEntity
  8
Titel (ISO)
100
AcDbText
 10
205.3865946332475
 20
108.1971373419889
 30
0.0
 40
2.5
  1
Stützkonsole STAR Gen 2.0
  7
Textstil54
100
AcDbAttributeDefinition
280
     0
  3
Benennung_Deutsch
  2
Benennung_Deutsch_001
 70
     0
280
     0
  0
ATTDEF
  5
19A
102
{ACAD_XDICTIONARY
360
735
102
}
330
117
100
AcDbEntity
  8
Titel (ISO)
100
AcDbText
 10
159.4287160203052
 20
107.4714488453784
 30
0.0
 40
2.5
  1
B / sbr
  7
Textstil54
100
AcDbAttributeDefinition
280
     0
  3
Revision/Gezeichnet
  2
Revision/Gezeichnet_001
 70
     0
280
     0
  0
ENDBLK
  5
119
330
117
100
AcDbEntity
  8
0
100
AcDbBlockEnd
  0
BLOCK
  5
1A7
330
1A6
100
AcDbEntity
  8
0
100
AcDbBlockBegin
  2
Tabelle1
 70
     0
 10
0.0
 20
0.0
 30
0.0
  3
Tabelle1
  1

  0
MTEXT
  5
1A9
330
1A6
100
AcDbEntity
  8
Symbol (ISO)
100
AcDbMText
 10
44.52056780599586
 20
56.19600007450593
 30
0.0
 40
2.5
 41
0.0
 46
0.0
 71
     7
 72
     1
  1
D
  7
Notiztext (DIN)
 73
     1
 44
1.0
  0
MTEXT
  5
1AA
330
1A6
100
AcDbEntity
  8
Symbol (ISO)
100
AcDbMText
 10
55.25533693815474
 20
58.61891778326047
 30
0.0
 40
2.5
 41
0.0
 46
0.0
 71
     7
 72
     1
  1
Artikelnummer/
  7
Notiztext (DIN)
 73
     1
 44
1.0
  0
MTEXT
  5
1AB
330
1A6
100
AcDbEntity
  8
Symbol (ISO)
100
AcDbMText
 10
57.82984368001504
 20
53.6892409450413
 30
0.0
 40
2.5
 41
0.0
 46
0.0
 71
     7
 72
     1
  1
part number
  7
Notiztext (DIN)
 73
     1
 44
1.0
  0
MTEXT
  5
1AC
330
1A6
100
AcDbEntity
  8
Symbol (ISO)
100
AcDbMText
 10
130.8501276611412
 20
57.60043457290542
 30
0.0
 40
2.5
 41
0.0
 46
0.0
 71
     7
 72
     1
  1
Benennung/
  7
Notiztext (DIN)
 73
     1
 44
1.0
  0
MTEXT
  5
1AD
330
1A6
100
AcDbEntity
  8
Symbol (ISO)
100
AcDbMText
 10
129.643911995153
 20
54.01603210857523
 30
0.0
 40
2.5
 41
0.0
 46
0.0
 71
     7
 72
     1
  1
denomination
  7
Notiztext (DIN)
 73
     1
 44
1.0
  0
LINE
  5
1AE
330
1A6
100
AcDbEntity
  8
Symbol (ISO)
100
AcDbLine
 10
36.99999999999999
 20
61.72400000000012
 30
0.0
 11
200.0
 21
61.72400000000012
 31
0.0
  0
MTEXT
  5
1AF
330
1A6
100
AcDbEntity
  8
Symbol (ISO)
100
AcDbMText
 10
41.91074912274822
 20
47.59712658390414
 30
0.0
 40
2.5
 41
0.0
 46
0.0
 71
     7
 72
     1
  1
G1/4
  7
Notiztext (DIN)
 73
     1
 44
1.0
  0
MTEXT
  5
1B0
330
1A6
100
AcDbEntity
  8
Symbol (ISO)
100
AcDbMText
 10
61.57292491567215
 20
47.61427603229892
 30
0.0
 40
2.5
 41
0.0
 46
0.0
 71
     7
 72
     1
  1
109420
  7
Notiztext (DIN)
 73
     1
 44
1.0
  0
MTEXT
  5
1B1
330
1A6
100
AcDbEntity
  8
Symbol (ISO)
100
AcDbMText
 10
89.21220961020972
 20
49.38932781606924
 30
0.0
 40
2.5
 41
0.0
 46
0.0
 71
     7
 72
     1
  1
Stützkonsole STAR Gen 2.0 G1/4a x G1/4i (Messing / Kunststoff)/
  7
Notiztext (DIN)
 73
     1
 44
1.0
  0
MTEXT
  5
1B2
330
1A6
100
AcDbEntity
  8
Symbol (ISO)
100
AcDbMText
 10
93.38808718131568
 20
45.11132781893026
 30
0.0
 40
2.5
 41
0.0
 46
0.0
 71
     7
 72
     1
  1
Support flange STAR Gen 2.0 G1/4o x G1/4i (brass / plastic)
  7
Notiztext (DIN)
 73
     1
 44
1.0
  0
LINE
  5
1B3
330
1A6
100
AcDbEntity
  8
Symbol (ISO)
100
AcDbLine
 10
36.99999999999999
 20
53.16800000000012
 30
0.0
 11
200.0
 21
53.16800000000012
 31
0.0
  0
MTEXT
  5
1B4
330
1A6
100
AcDbEntity
  8
Symbol (ISO)
100
AcDbMText
 10
38.87246770036302
 20
39.04207936415088
 30
0.0
 40
2.5
 41
0.0
 46
0.0
 71
     7
 72
     1
  1
1/4" NPT
  7
Notiztext (DIN)
 73
     1
 44
1.0
  0
MTEXT
  5
1B5
330
1A6
100
AcDbEntity
  8
Symbol (ISO)
100
AcDbMText
 10
61.57292491567215
 20
39.05827603229892
 30
0.0
 40
2.5
 41
0.0
 46
0.0
 71
     7
 72
     1
  1
109419
  7
Notiztext (DIN)
 73
     1
 44
1.0
  0
MTEXT
  5
1B6
330
1A6
100
AcDbEntity
  8
Symbol (ISO)
100
AcDbMText
 10
86.4568776171067
 20
40.83332781606924
 30
0.0
 40
2.5
 41
0.0
 46
0.0
 71
     7
 72
     1
  1
StützkonsoleSTAR Gen 2.0 1/4" NPTa x G1/4i (Messing / Kunststoff)/
  7
Notiztext (DIN)
 73
     1
 44
1.0
  0
MTEXT
  5
1B7
330
1A6
100
AcDbEntity
  8
Symbol (ISO)
100
AcDbMText
 10
90.14780702994849
 20
36.55532781893027
 30
0.0
 40
2.5
 41
0.0
 46
0.0
 71
     7
 72
     1
  1
Support flangeSTAR Gen 2.0  1/4" NPTa x G1/4i (brass / plastic)
  7
Notiztext (DIN)
 73
     1
 44
1.0
  0
LINE
  5
1B8
330
1A6
100
AcDbEntity
  8
Symbol (ISO)
100
AcDbLine
 10
36.99999999999999
 20
44.61200000000012
 30
0.0
 11
200.0
 21
44.61200000000012
 31
0.0
  0
MTEXT
  5
1B9
330
1A6
100
AcDbEntity
  8
Symbol (ISO)
100
AcDbMText
 10
38.87246770036302
 20
30.48607936415089
 30
0.0
 40
2.5
 41
0.0
 46
0.0
 71
     7
 72
     1
  1
1/8" NPT
  7
Notiztext (DIN)
 73
     1
 44
1.0
  0
MTEXT
  5
1BA
330
1A6
100
AcDbEntity
  8
Symbol (ISO)
100
AcDbMText
 10
61.57292491567215
 20
30.50227603229893
 30
0.0
 40
2.5
 41
0.0
 46
0.0
 71
     7
 72
     1
  1
109418
  7
Notiztext (DIN)
 73
     1
 44
1.0
  0
MTEXT
  5
1BB
330
1A6
100
AcDbEntity
  8
Symbol (ISO)
100
AcDbMText
 10
85.97192945884254
 20
32.27732781606925
 30
0.0
 40
2.5
 41
0.0
 46
0.0
 71
     7
 72
     1
  1
Stützkonsole STAR Gen 2.0 1/8" NPTa x G1/4i (Messing / Kunststoff)/
  7
Notiztext (DIN)
 73
     1
 44
1.0
  0
MTEXT
  5
1BC
330
1A6
100
AcDbEntity
  8
Symbol (ISO)
100
AcDbMText
 10
91.11769857810523
 20
27.99932781893027
 30
0.0
 40
2.5
 41
0.0
 46
0.0
 71
     7
 72
     1
  1
Support flange STAR Gen 2.0 1/8" NPTa x G1/4i (brass/plastic)
  7
Notiztext (DIN)
 73
     1
 44
1.0
  0
LINE
  5
1BD
330
1A6
100
AcDbEntity
  8
Symbol (ISO)
100
AcDbLine
 10
36.99999999999999
 20
36.05600000000013
 30
0.0
 11
200.0
 21
36.05600000000013
 31
0.0
  0
LINE
  5
1BE
330
1A6
100
AcDbEntity
  8
Symbol (ISO)
100
AcDbLine
 10
36.99999999999999
 20
27.50000000000012
 30
0.0
 11
200.0
 21
27.50000000000012
 31
0.0
  0
LINE
  5
1BF
330
1A6
100
AcDbEntity
  8
Symbol (ISO)
100
AcDbLine
 10
36.99999999999999
 20
61.72400000000012
 30
0.0
 11
36.99999999999999
 21
27.50000000000012
 31
0.0
  0
LINE
  5
1C0
330
1A6
100
AcDbEntity
  8
Symbol (ISO)
100
AcDbLine
 10
53.99999999999999
 20
61.72400000000012
 30
0.0
 11
53.99999999999999
 21
27.50000000000012
 31
0.0
  0
LINE
  5
1C1
330
1A6
100
AcDbEntity
  8
Symbol (ISO)
100
AcDbLine
 10
80.0
 20
61.72400000000012
 30
0.0
 11
80.0
 21
27.50000000000012
 31
0.0
  0
LINE
  5
1C2
330
1A6
100
AcDbEntity
  8
Symbol (ISO)
100
AcDbLine
 10
200.0
 20
61.72400000000012
 30
0.0
 11
200.0
 21
27.50000000000012
 31
0.0
  0
ENDBLK
  5
1A8
330
1A6
100
AcDbEntity
  8
0
100
AcDbBlockEnd
  0
BLOCK
  5
271
330
270
100
AcDbEntity
  8
0
100
AcDbBlockBegin
  2
*D6
 70
     1
 10
0.0
 20
0.0
 30
0.0
  3
*D6
  1

  0
LINE
  5
353
330
270
100
AcDbEntity
  8
Bemaßung (ISO)
440
 16777216
100
AcDbLine
 10
34.66096720056472
 20
249.4152926492642
 30
0.0
 11
24.03246720056465
 21
249.4152926492642
 31
0.0
  0
LINE
  5
354
330
270
100
AcDbEntity
  8
Bemaßung (ISO)
440
 16777216
100
AcDbLine
 10
57.03246720056473
 20
202.0576266832483
 30
0.0
 11
24.03246720056467
 21
202.0576266832483
 31
0.0
  0
LINE
  5
355
330
270
100
AcDbEntity
  8
Bemaßung (ISO)
440
 16777216
100
AcDbLine
 10
26.03246720056465
 20
246.9152926492642
 30
0.0
 11
26.03246720056466
 21
204.5576266832483
 31
0.0
  0
SOLID
  5
356
330
270
100
AcDbEntity
  8
Bemaßung (ISO)
440
 16777216
100
AcDbTrace
 10
25.61580053389798
 20
246.9152926492642
 30
0.0
 11
26.44913386723132
 21
246.9152926492642
 31
0.0
 12
26.03246720056465
 22
249.4152926492642
 32
0.0
 13
26.03246720056465
 23
249.4152926492642
 33
0.0
  0
SOLID
  5
357
330
270
100
AcDbEntity
  8
Bemaßung (ISO)
440
 16777216
100
AcDbTrace
 10
25.61580053389799
 20
204.5576266832483
 30
0.0
 11
26.44913386723133
 21
204.5576266832483
 31
0.0
 12
26.03246720056466
 22
202.0576266832483
 32
0.0
 13
26.03246720056466
 23
202.0576266832483
 33
0.0
  0
MTEXT
  5
358
330
270
100
AcDbEntity
  8
Bemaßung (ISO)
440
 16777216
100
AcDbMText
 10
23.1324671860128
 20
222.4443382282668
 30
0.0
 40
2.5
 41
0.0
 46
0.0
 71
     1
 72
     1
  1
\A1;47.4
  7
Notiztext (DIN)
 11
0.0000000000000001
 21
1.0
 31
0.0
 73
     1
 44
1.0
  0
POINT
  5
359
330
270
100
AcDbEntity
  8
Defpoints
 62
     0
440
 16777216
100
AcDbPoint
 10
34.66096720056472
 20
249.4152926492642
 30
0.0
  0
POINT
  5
35A
330
270
100
AcDbEntity
  8
Defpoints
 62
     0
440
 16777216
100
AcDbPoint
 10
57.03246720056473
 20
202.0576266832483
 30
0.0
  0
POINT
  5
35B
330
270
100
AcDbEntity
  8
Defpoints
 62
     0
440
 16777216
100
AcDbPoint
 10
26.03246720056466
 20
202.0576266832483
 30
0.0
  0
ENDBLK
  5
272
330
270
100
AcDbEntity
  8
0
100
AcDbBlockEnd
  0
BLOCK
  5
35E
330
35D
100
AcDbEntity
  8
0
100
AcDbBlockBegin
  2
*D7
 70
     1
 10
0.0
 20
0.0
 30
0.0
  3
*D7
  1

  0
LINE
  5
441
330
35D
100
AcDbEntity
  8
Bemaßung (ISO)
440
 16777216
100
AcDbLine
 10
34.3609672005647
 20
249.1152926492641
 30
0.0
 11
34.3609672005647
 21
260.691833344632
 31
0.0
  0
LINE
  5
442
330
35D
100
AcDbEntity
  8
Bemaßung (ISO)
440
 16777216
100
AcDbLine
 10
90.86096720056472
 20
249.1152926492641
 30
0.0
 11
90.86096720056472
 21
260.691833344632
 31
0.0
  0
LINE
  5
443
330
35D
100
AcDbEntity
  8
Bemaßung (ISO)
440
 16777216
100
AcDbLine
 10
36.8609672005647
 20
258.691833344632
 30
0.0
 11
88.36096720056472
 21
258.691833344632
 31
0.0
  0
SOLID
  5
444
330
35D
100
AcDbEntity
  8
Bemaßung (ISO)
440
 16777216
100
AcDbTrace
 10
36.8609672005647
 20
259.1085000112987
 30
0.0
 11
36.8609672005647
 21
258.2751666779653
 31
0.0
 12
34.3609672005647
 22
258.691833344632
 32
0.0
 13
34.3609672005647
 23
258.691833344632
 33
0.0
  0
SOLID
  5
445
330
35D
100
AcDbEntity
  8
Bemaßung (ISO)
440
 16777216
100
AcDbTrace
 10
88.36096720056472
 20
259.1085000112987
 30
0.0
 11
88.36096720056472
 21
258.2751666779653
 31
0.0
 12
90.86096720056472
 22
258.691833344632
 32
0.0
 13
90.86096720056472
 23
258.691833344632
 33
0.0
  0
MTEXT
  5
446
330
35D
100
AcDbEntity
  8
Bemaßung (ISO)
440
 16777216
100
AcDbMText
 10
57.9388432959514
 20
262.8342228681424
 30
0.0
 40
2.5
 41
0.0
 46
0.0
 71
     1
 72
     1
  1
\A1;\fAIGDT|b0|i0;\H2.4873;n\fArial|b0|i0;\H2.5000;56.5
  7
Notiztext (DIN)
 73
     1
 44
1.0
  0
POINT
  5
447
330
35D
100
AcDbEntity
  8
Defpoints
 62
     0
440
 16777216
100
AcDbPoint
 10
34.3609672005647
 20
249.1152926492641
 30
0.0
  0
POINT
  5
448
330
35D
100
AcDbEntity
  8
Defpoints
 62
     0
440
 16777216
100
AcDbPoint
 10
90.86096720056472
 20
249.1152926492641
 30
0.0
  0
POINT
  5
449
330
35D
100
AcDbEntity
  8
Defpoints
 62
     0
440
 16777216
100
AcDbPoint
 10
90.86096720056472
 20
258.691833344632
 30
0.0
  0
ENDBLK
  5
35F
330
35D
100
AcDbEntity
  8
0
100
AcDbBlockEnd
  0
BLOCK
  5
44C
330
44B
100
AcDbEntity
  8
0
100
AcDbBlockBegin
  2
*D8
 70
     1
 10
0.0
 20
0.0
 30
0.0
  3
*D8
  1

  0
LINE
  5
52E
330
44B
100
AcDbEntity
  8
Bemaßung (ISO)
440
 16777216
100
AcDbLine
 10
143.2838070567958
 20
212.0576266832483
 30
0.0
 11
143.2838070567958
 21
191.0576266832482
 31
0.0
  0
LINE
  5
52F
330
44B
100
AcDbEntity
  8
Bemaßung (ISO)
440
 16777216
100
AcDbLine
 10
164.1838070567958
 20
212.0576266832482
 30
0.0
 11
164.1838070567958
 21
191.0576266832482
 31
0.0
  0
LINE
  5
530
330
44B
100
AcDbEntity
  8
Bemaßung (ISO)
440
 16777216
100
AcDbLine
 10
145.7838070567958
 20
193.0576266832482
 30
0.0
 11
161.6838070567958
 21
193.0576266832482
 31
0.0
  0
SOLID
  5
531
330
44B
100
AcDbEntity
  8
Bemaßung (ISO)
440
 16777216
100
AcDbTrace
 10
145.7838070567958
 20
193.4742933499149
 30
0.0
 11
145.7838070567958
 21
192.6409600165816
 31
0.0
 12
143.2838070567958
 22
193.0576266832482
 32
0.0
 13
143.2838070567958
 23
193.0576266832482
 33
0.0
  0
SOLID
  5
532
330
44B
100
AcDbEntity
  8
Bemaßung (ISO)
440
 16777216
100
AcDbTrace
 10
161.6838070567958
 20
193.4742933499149
 30
0.0
 11
161.6838070567958
 21
192.6409600165816
 31
0.0
 12
164.1838070567958
 22
193.0576266832482
 32
0.0
 13
164.1838070567958
 23
193.0576266832482
 33
0.0
  0
MTEXT
  5
533
330
44B
100
AcDbEntity
  8
Bemaßung (ISO)
440
 16777216
100
AcDbMText
 10
148.9169961829193
 20
196.0297595768012
 30
0.0
 40
2.5
 41
0.0
 46
0.0
 71
     1
 72
     1
  1
\A1;\fArial|b0|i0;\H2.4873;SW 21
  7
Notiztext (DIN)
 73
     1
 44
1.0
  0
POINT
  5
534
330
44B
100
AcDbEntity
  8
Defpoints
 62
     0
440
 16777216
100
AcDbPoint
 10
143.2838070567958
 20
212.0576266832483
 30
0.0
  0
POINT
  5
535
330
44B
100
AcDbEntity
  8
Defpoints
 62
     0
440
 16777216
100
AcDbPoint
 10
164.1838070567958
 20
212.0576266832482
 30
0.0
  0
POINT
  5
536
330
44B
100
AcDbEntity
  8
Defpoints
 62
     0
440
 16777216
100
AcDbPoint
 10
164.1838070567958
 20
193.0576266832482
 30
0.0
  0
ENDBLK
  5
44D
330
44B
100
AcDbEntity
  8
0
100
AcDbBlockEnd
  0
BLOCK
  5
539
330
538
100
AcDbEntity
  8
0
100
AcDbBlockBegin
  2
*D9
 70
     1
 10
0.0
 20
0.0
 30
0.0
  3
*D9
  1

  0
LINE
  5
61B
330
538
100
AcDbEntity
  8
Bemaßung (ISO)
440
 16777216
100
AcDbLine
 10
56.03246720056469
 20
203.0576266832483
 30
0.0
 11
56.03246720056469
 21
191.0576266832482
 31
0.0
  0
LINE
  5
61C
330
538
100
AcDbEntity
  8
Bemaßung (ISO)
440
 16777216
100
AcDbLine
 10
69.18946720056469
 20
203.0576266832483
 30
0.0
 11
69.18946720056469
 21
191.0576266832482
 31
0.0
  0
LINE
  5
61D
330
538
100
AcDbEntity
  8
Bemaßung (ISO)
440
 16777216
100
AcDbLine
 10
58.53246720056469
 20
193.0576266832482
 30
0.0
 11
66.68946720056469
 21
193.0576266832482
 31
0.0
  0
SOLID
  5
61E
330
538
100
AcDbEntity
  8
Bemaßung (ISO)
440
 16777216
100
AcDbTrace
 10
58.53246720056469
 20
193.4742933499149
 30
0.0
 11
58.53246720056469
 21
192.6409600165816
 31
0.0
 12
56.03246720056469
 22
193.0576266832482
 32
0.0
 13
56.03246720056469
 23
193.0576266832482
 33
0.0
  0
SOLID
  5
61F
330
538
100
AcDbEntity
  8
Bemaßung (ISO)
440
 16777216
100
AcDbTrace
 10
66.68946720056469
 20
193.4742933499149
 30
0.0
 11
66.68946720056469
 21
192.6409600165816
 31
0.0
 12
69.18946720056469
 22
193.0576266832482
 32
0.0
 13
69.18946720056469
 23
193.0576266832482
 33
0.0
  0
MTEXT
  5
620
330
538
100
AcDbEntity
  8
Bemaßung (ISO)
440
 16777216
100
AcDbMText
 10
60.96359304363601
 20
195.9576266832483
 30
0.0
 40
2.5
 41
0.0
 46
0.0
 71
     1
 72
     1
  1
\A1; \fArial|b0|i0;\H2.4873;D
  7
Notiztext (DIN)
 73
     1
 44
1.0
  0
POINT
  5
621
330
538
100
AcDbEntity
  8
Defpoints
 62
     0
440
 16777216
100
AcDbPoint
 10
56.03246720056469
 20
203.0576266832483
 30
0.0
  0
POINT
  5
622
330
538
100
AcDbEntity
  8
Defpoints
 62
     0
440
 16777216
100
AcDbPoint
 10
69.18946720056469
 20
203.0576266832483
 30
0.0
  0
POINT
  5
623
330
538
100
AcDbEntity
  8
Defpoints
 62
     0
440
 16777216
100
AcDbPoint
 10
69.18946720056469
 20
193.0576266832482
 30
0.0
  0
ENDBLK
  5
53A
330
538
100
AcDbEntity
  8
0
100
AcDbBlockEnd
  0
BLOCK
  5
626
330
625
100
AcDbEntity
  8
0
100
AcDbBlockBegin
  2
*D10
 70
     1
 10
0.0
 20
0.0
 30
0.0
  3
*D10
  1

  0
LINE
  5
708
330
625
100
AcDbEntity
  8
Bemaßung (ISO)
440
 16777216
100
AcDbLine
 10
56.1324093973748
 20
108.8395887812282
 30
0.0
 11
56.1324093973748
 21
146.8210894904447
 31
0.0
  0
LINE
  5
709
330
625
100
AcDbEntity
  8
Bemaßung (ISO)
440
 16777216
100
AcDbLine
 10
69.18946720056466
 20
107.6972442444408
 30
0.0
 11
69.18946720056466
 21
146.8210894904447
 31
0.0
  0
LINE
  5
70A
330
625
100
AcDbEntity
  8
Bemaßung (ISO)
440
 16777216
100
AcDbLine
 10
58.6324093973748
 20
144.8210894904447
 30
0.0
 11
66.68946720056466
 21
144.8210894904447
 31
0.0
  0
SOLID
  5
70B
330
625
100
AcDbEntity
  8
Bemaßung (ISO)
440
 16777216
100
AcDbTrace
 10
58.6324093973748
 20
145.2377561571113
 30
0.0
 11
58.6324093973748
 21
144.404422823778
 31
0.0
 12
56.1324093973748
 22
144.8210894904447
 32
0.0
 13
56.1324093973748
 23
144.8210894904447
 33
0.0
  0
SOLID
  5
70C
330
625
100
AcDbEntity
  8
Bemaßung (ISO)
440
 16777216
100
AcDbTrace
 10
66.68946720056466
 20
145.2377561571113
 30
0.0
 11
66.68946720056466
 21
144.404422823778
 31
0.0
 12
69.18946720056466
 22
144.8210894904447
 32
0.0
 13
69.18946720056466
 23
144.8210894904447
 33
0.0
  0
MTEXT
  5
70D
330
625
100
AcDbEntity
  8
Bemaßung (ISO)
440
 16777216
100
AcDbMText
 10
58.49317930472382
 20
147.7932223839976
 30
0.0
 40
2.5
 41
0.0
 46
0.0
 71
     1
 72
     1
  1
\A1; \fArial|b0|i0;\H2.4873;G1/4
  7
Notiztext (DIN)
 73
     1
 44
1.0
  0
POINT
  5
70E
330
625
100
AcDbEntity
  8
Defpoints
 62
     0
440
 16777216
100
AcDbPoint
 10
56.1324093973748
 20
108.8395887812282
 30
0.0
  0
POINT
  5
70F
330
625
100
AcDbEntity
  8
Defpoints
 62
     0
440
 16777216
100
AcDbPoint
 10
69.18946720056466
 20
107.6972442444408
 30
0.0
  0
POINT
  5
710
330
625
100
AcDbEntity
  8
Defpoints
 62
     0
440
 16777216
100
AcDbPoint
 10
69.18946720056466
 20
144.8210894904447
 30
0.0
  0
ENDBLK
  5
627
330
625
100
AcDbEntity
  8
0
100
AcDbBlockEnd
  0
ENDSEC
  0
SECTION
  2
ENTITIES
  0
INSERT
  5
116
330
70
100
AcDbEntity
  8
0
100
AcDbBlockReference
  2
Ränder Standardrahmen
 10
0.0
 20
0.0
 30
0.0
  0
INSERT
  5
19B
330
70
100
AcDbEntity
  8
0
100
AcDbBlockReference
 66
     1
  2
Schriftfelder perma CI-Pool
 10
-127.5127883584022
 20
-95.84811398232993
 30
0.0
  0
ATTRIB
  5
19E
102
{ACAD_XDICTIONARY
360
738
102
}
330
19B
100
AcDbEntity
  8
Titel (ISO)
100
AcDbText
 10
15.12193040907732
 20
20.36988403089342
 30
0.0
 40
2.5
  1
1:1
  7
Textstil54
100
AcDbAttribute
280
     0
  2
Maßstab_001
 70
     0
280
     0
  0
ATTRIB
  5
19F
102
{ACAD_XDICTIONARY
360
73B
102
}
330
19B
100
AcDbEntity
  8
Titel (ISO)
100
AcDbText
 10
28.26534783455997
 20
20.39205319882601
 30
0.0
 40
2.5
  1
04.05.2018
  7
Textstil54
100
AcDbAttribute
280
     0
  2
Datum_001
 70
     0
280
     0
  0
ATTRIB
  5
1A0
102
{ACAD_XDICTIONARY
360
73E
102
}
330
19B
100
AcDbEntity
  8
Titel (ISO)
100
AcDbText
 10
77.87380627484523
 20
19.49435078322427
 30
0.0
 40
2.5
  1
Support flange STAR Gen 2.0
  7
Textstil54
100
AcDbAttribute
280
     0
  2
Benennung_Englisch_001
 70
     0
280
     0
  0
ATTRIB
  5
1A1
102
{ACAD_XDICTIONARY
360
741
102
}
330
19B
100
AcDbEntity
  8
Titel (ISO)
100
AcDbText
 10
15.30781035558902
 20
11.61988403089339
 30
0.0
 40
2.5
  1
A4
  7
Textstil54
100
AcDbAttribute
280
     0
  2
Blattgröße_001
 70
     0
280
     0
  0
ATTRIB
  5
1A2
102
{ACAD_XDICTIONARY
360
744
102
}
330
19B
100
AcDbEntity
  8
Titel (ISO)
100
AcDbText
 10
50.76978171762313
 20
20.69815824835677
 30
0.0
 40
2.5
  1
brass/plastic
  7
Textstil54
100
AcDbAttribute
280
     0
  2
Material_001
 70
     0
280
     0
  0
ATTRIB
  5
1A3
102
{ACAD_XDICTIONARY
360
747
102
}
330
19B
100
AcDbEntity
  8
Titel (ISO)
100
AcDbText
 10
51.00000000000001
 20
11.64500754699107
 30
0.0
 40
2.5
  1

  7
Textstil54
 11
51.00000000000001
 21
14.14500754699107
 31
0.0
100
AcDbAttribute
280
     0
  2
Artikelnummer
 70
     0
 74
     3
280
     0
  0
ATTRIB
  5
1A4
102
{ACAD_XDICTIONARY
360
74A
102
}
330
19B
100
AcDbEntity
  8
Titel (ISO)
100
AcDbText
 10
77.87380627484523
 20
12.34902335965898
 30
0.0
 40
2.5
  1
Stützkonsole STAR Gen 2.0
  7
Textstil54
100
AcDbAttribute
280
     0
  2
Benennung_Deutsch_001
 70
     0
280
     0
  0
ATTRIB
  5
1A5
102
{ACAD_XDICTIONARY
360
74D
102
}
330
19B
100
AcDbEntity
  8
Titel (ISO)
100
AcDbText
 10
31.91592766190293
 20
11.62333486304849
 30
0.0
 40
2.5
  1
B / sbr
  7
Textstil54
100
AcDbAttribute
280
     0
  2
Revision/Gezeichnet_001
 70
     0
280
     0
  0
SEQEND
  5
19D
330
19B
100
AcDbEntity
  8
0
  0
INSERT
  5
1C3
330
70
100
AcDbEntity
  8
0
100
AcDbBlockReference
  2
Tabelle1
 10
0.0
 20
0.0
 30
0.0
  0
SPLINE
  5
1C4
330
70
100
AcDbEntity
  8
Sichtbar (ISO)
100
AcDbSpline
210
0.0
220
0.0
230
1.0
 70
     8
 71
     3
 72
    20
 73
    16
 74
     0
 42
0.000000001
 43
0.0000000001
 40
0.6478961059478704
 40
0.6478961059478704
 40
0.6478961059478704
 40
0.6478961059478704
 40
0.6748130597304716
 40
0.6748130597304716
 40
0.7017300135130728
 40
0.7017300135130728
 40
0.7490870107154937
 40
0.7490870107154937
 40
0.7964440079179146
 40
0.7964440079179146
 40
0.9212810589123712
 40
0.9212810589123712
 40
1.046118109906827
 40
1.046118109906827
 40
1.189401519658163
 40
1.189401519658163
 40
1.189401519658163
 40
1.189401519658163
 10
56.51047202244271
 20
226.5576266832482
 30
0.0
 10
56.51047202244271
 20
226.6473498625236
 30
0.0
 10
56.49526330402129
 20
226.743078887083
 30
0.0
 10
56.43616320415791
 20
226.9228300604217
 30
0.0
 10
56.3926176104823
 20
227.0069915084884
 30
0.0
 10
56.26333120108303
 20
227.202738955169
 30
0.0
 10
56.1538058121282
 20
227.3142732349052
 30
0.0
 10
55.91509638368851
 20
227.5011303197782
 30
0.0
 10
55.78616489652802
 20
227.5767802476337
 30
0.0
 10
55.35202660621237
 20
227.7914523853054
 30
0.0
 10
55.02580245454388
 20
227.8782573849906
 30
0.0
 10
54.38371181124683
 20
227.9957142782194
 30
0.0
 10
54.06751919743921
 20
228.0236850299464
 30
0.0
 10
53.42263444999281
 20
228.0565935592401
 30
0.0
 10
53.10058811373107
 20
228.0598525451635
 30
0.0
 10
52.80911534104753
 20
228.0576266832482
 30
0.0
  0
SPLINE
  5
1C5
330
70
100
AcDbEntity
  8
Sichtbar (ISO)
100
AcDbSpline
210
0.0
220
0.0
230
1.0
 70
     8
 71
     3
 72
    20
 73
    16
 74
     0
 42
0.000000001
 43
0.0000000001
 40
1.402182904133317
 40
1.402182904133317
 40
1.402182904133317
 40
1.402182904133317
 40
1.545466313884654
 40
1.545466313884654
 40
1.67030336487911
 40
1.67030336487911
 40
1.795140415873567
 40
1.795140415873567
 40
1.842497413075988
 40
1.842497413075988
 40
1.889854410278409
 40
1.889854410278409
 40
1.91677136406101
 40
1.91677136406101
 40
1.943688317843611
 40
1.943688317843611
 40
1.943688317843611
 40
1.943688317843611
 10
51.7148119096338
 20
228.0576266832482
 30
0.0
 10
51.50528045760328
 20
228.0598525451635
 30
0.0
 10
51.3178548513326
 20
228.0565935592401
 30
0.0
 10
51.03136243459814
 20
228.0236850299464
 30
0.0
 10
50.9229881173608
 20
227.9957142782194
 30
0.0
 10
50.75702302169511
 20
227.8782573849906
 30
0.0
 10
50.69943562650387
 20
227.7914523853054
 30
0.0
 10
50.64972811926837
 20
227.5767802476337
 30
0.0
 10
50.63811113425114
 20
227.5011303197782
 30
0.0
 10
50.62201717945267
 20
227.3142732349052
 30
0.0
 10
50.6174188133054
 20
227.202738955169
 30
0.0
 10
50.61352149917582
 20
227.0069915084884
 30
0.0
 10
50.61263177997665
 20
226.9228300604217
 30
0.0
 10
50.6116661502074
 20
226.743078887083
 30
0.0
 10
50.61153143959192
 20
226.6473498625236
 30
0.0
 10
50.61153143959192
 20
226.5576266832482
 30
0.0
  0
SPLINE
  5
1C6
330
70
100
AcDbEntity
  8
Sichtbar (ISO)
100
AcDbSpline
210
0.0
220
0.0
230
1.0
 70
     8
 71
     3
 72
    20
 73
    16
 74
     0
 42
0.000000001
 43
0.0000000001
 40
0.6478961059478701
 40
0.6478961059478701
 40
0.6478961059478701
 40
0.6478961059478701
 40
0.6748130597304712
 40
0.6748130597304712
 40
0.7017300135130724
 40
0.7017300135130724
 40
0.7490870107154933
 40
0.7490870107154933
 40
0.7964440079179143
 40
0.7964440079179143
 40
0.9212810589123707
 40
0.9212810589123707
 40
1.046118109906827
 40
1.046118109906827
 40
1.189401519658167
 40
1.189401519658167
 40
1.189401519658167
 40
1.189401519658167
 10
68.50990778341547
 20
226.5576266832482
 30
0.0
 10
68.50990778341547
 20
226.6473498625236
 30
0.0
 10
68.49456435437858
 20
226.743078887083
 30
0.0
 10
68.43449862474597
 20
226.9228300604217
 30
0.0
 10
68.39006331187118
 20
227.0069915084884
 30
0.0
 10
68.25687958834233
 20
227.202738955169
 30
0.0
 10
68.14275583324022
 20
227.3142732349052
 30
0.0
 10
67.88795245000206
 20
227.5011303197782
 30
0.0
 10
67.74740397782432
 20
227.5767802476337
 30
0.0
 10
67.26355818027319
 20
227.7914523853054
 30
0.0
 10
66.87974663341345
 20
227.8782573849906
 30
0.0
 10
66.07169089445071
 20
227.9957142782194
 30
0.0
 10
65.64712396340576
 20
228.0236850299464
 30
0.0
 10
64.7157467992249
 20
228.0565935592401
 30
0.0
 10
64.20627485669244
 20
228.0598525451635
 30
0.0
 10
63.70527063197838
 20
228.0576266832482
 30
0.0
  0
SPLINE
  5
1C7
330
70
100
AcDbEntity
  8
Sichtbar (ISO)
100
AcDbSpline
210
0.0
220
0.0
230
1.0
 70
     8
 71
     3
 72
    20
 73
    16
 74
     0
 42
0.000000001
 43
0.0000000001
 40
1.402182904133312
 40
1.402182904133312
 40
1.402182904133312
 40
1.402182904133312
 40
1.545466313884652
 40
1.545466313884652
 40
1.670303364879109
 40
1.670303364879109
 40
1.795140415873565
 40
1.795140415873565
 40
1.842497413075986
 40
1.842497413075986
 40
1.889854410278407
 40
1.889854410278407
 40
1.916771364061008
 40
1.916771364061008
 40
1.943688317843609
 40
1.943688317843609
 40
1.943688317843609
 40
1.943688317843609
 10
61.51666376915102
 20
228.0576266832482
 30
0.0
 10
61.01565954443694
 20
228.0598525451635
 30
0.0
 10
60.5061876019045
 20
228.0565935592401
 30
0.0
 10
59.57481043772363
 20
228.0236850299464
 30
0.0
 10
59.15024350667869
 20
227.9957142782194
 30
0.0
 10
58.34218776771594
 20
227.8782573849906
 30
0.0
 10
57.9583762208562
 20
227.7914523853054
 30
0.0
 10
57.47453042330507
 20
227.5767802476337
 30
0.0
 10
57.33398195112734
 20
227.5011303197782
 30
0.0
 10
57.07917856788917
 20
227.3142732349052
 30
0.0
 10
56.96505481278706
 20
227.202738955169
 30
0.0
 10
56.83187108925823
 20
227.0069915084884
 30
0.0
 10
56.78743577638344
 20
226.9228300604217
 30
0.0
 10
56.72737004675081
 20
226.743078887083
 30
0.0
 10
56.71202661771392
 20
226.6473498625236
 30
0.0
 10
56.71202661771392
 20
226.5576266832482
 30
0.0
  0
SPLINE
  5
1C8
330
70
100
AcDbEntity
  8
Sichtbar (ISO)
100
AcDbSpline
210
0.0
220
0.0
230
1.0
 70
     8
 71
     3
 72
    20
 73
    16
 74
     0
 42
0.000000001
 43
0.0000000001
 40
0.6478961059478712
 40
0.6478961059478712
 40
0.6478961059478712
 40
0.6478961059478712
 40
0.6748130597304725
 40
0.6748130597304725
 40
0.7017300135130737
 40
0.7017300135130737
 40
0.7490870107154948
 40
0.7490870107154948
 40
0.7964440079179158
 40
0.7964440079179158
 40
0.9212810589123725
 40
0.9212810589123725
 40
1.046118109906829
 40
1.046118109906829
 40
1.18940151965816
 40
1.18940151965816
 40
1.18940151965816
 40
1.18940151965816
 10
74.61040296153747
 20
226.5576266832482
 30
0.0
 10
74.61040296153747
 20
226.6473498625236
 30
0.0
 10
74.61026825092199
 20
226.743078887083
 30
0.0
 10
74.60930262115275
 20
226.9228300604217
 30
0.0
 10
74.60841290195357
 20
227.0069915084884
 30
0.0
 10
74.60451558782399
 20
227.202738955169
 30
0.0
 10
74.59991722167671
 20
227.3142732349052
 30
0.0
 10
74.58382326687825
 20
227.5011303197782
 30
0.0
 10
74.57220628186101
 20
227.5767802476337
 30
0.0
 10
74.52249877462552
 20
227.7914523853054
 30
0.0
 10
74.46491137943429
 20
227.8782573849906
 30
0.0
 10
74.29894628376858
 20
227.9957142782194
 30
0.0
 10
74.19057196653127
 20
228.0236850299464
 30
0.0
 10
73.9040795497968
 20
228.0565935592401
 30
0.0
 10
73.71665394352612
 20
228.0598525451635
 30
0.0
 10
73.50712249149563
 20
228.0576266832482
 30
0.0
  0
SPLINE
  5
1C9
330
70
100
AcDbEntity
  8
Sichtbar (ISO)
100
AcDbSpline
210
0.0
220
0.0
230
1.0
 70
     8
 71
     3
 72
    20
 73
    16
 74
     0
 42
0.000000001
 43
0.0000000001
 40
1.402182904133324
 40
1.402182904133324
 40
1.402182904133324
 40
1.402182904133324
 40
1.545466313884655
 40
1.545466313884655
 40
1.670303364879111
 40
1.670303364879111
 40
1.795140415873568
 40
1.795140415873568
 40
1.842497413075989
 40
1.842497413075989
 40
1.88985441027841
 40
1.88985441027841
 40
1.916771364061012
 40
1.916771364061012
 40
1.943688317843613
 40
1.943688317843613
 40
1.943688317843613
 40
1.943688317843613
 10
72.41281906008184
 20
228.0576266832482
 30
0.0
 10
72.12134628739831
 20
228.0598525451635
 30
0.0
 10
71.79929995113657
 20
228.0565935592401
 30
0.0
 10
71.15441520369019
 20
228.0236850299464
 30
0.0
 10
70.83822258988258
 20
227.9957142782194
 30
0.0
 10
70.19613194658552
 20
227.8782573849906
 30
0.0
 10
69.86990779491702
 20
227.7914523853054
 30
0.0
 10
69.43576950460138
 20
227.5767802476337
 30
0.0
 10
69.30683801744089
 20
227.5011303197782
 30
0.0
 10
69.06812858900119
 20
227.3142732349052
 30
0.0
 10
68.95860320004636
 20
227.202738955169
 30
0.0
 10
68.8293167906471
 20
227.0069915084884
 30
0.0
 10
68.78577119697148
 20
226.9228300604217
 30
0.0
 10
68.7266710971081
 20
226.743078887083
 30
0.0
 10
68.71146237868669
 20
226.6473498625236
 30
0.0
 10
68.71146237868669
 20
226.5576266832482
 30
0.0
  0
LINE
  5
1CA
330
70
100
AcDbEntity
  8
Sichtbar (ISO)
100
AcDbLine
 10
52.80911534104752
 20
228.0576266832482
 30
0.0
 11
51.71481190963378
 21
228.0576266832482
 31
0.0
  0
LINE
  5
1CB
330
70
100
AcDbEntity
  8
Sichtbar (ISO)
100
AcDbLine
 10
63.70527063197837
 20
228.0576266832482
 30
0.0
 11
61.51666376915102
 21
228.0576266832482
 31
0.0
  0
LINE
  5
1CC
330
70
100
AcDbEntity
  8
Sichtbar (ISO)
100
AcDbLine
 10
73.50712249149563
 20
228.0576266832482
 30
0.0
 11
72.41281906008184
 21
228.0576266832482
 31
0.0
  0
LINE
  5
1CD
330
70
100
AcDbEntity
  8
Sichtbar (ISO)
100
AcDbLine
 10
68.71146237868669
 20
213.5576266832482
 30
0.0
 11
68.71146237868669
 21
226.5576266832482
 31
0.0
  0
SPLINE
  5
1CE
330
70
100
AcDbEntity
  8
Sichtbar (ISO)
100
AcDbSpline
210
0.0
220
0.0
230
1.0
 70
     8
 71
     3
 72
    14
 73
    10
 74
     0
 42
0.000000001
 43
0.0000000001
 40
1.321353217787936
 40
1.321353217787936
 40
1.321353217787936
 40
1.321353217787936
 40
1.648579871294984
 40
1.648579871294984
 40
1.743139402702126
 40
1.743139402702126
 40
1.798892649323615
 40
1.798892649323615
 40
1.838103658069205
 40
1.838103658069205
 40
1.838103658069205
 40
1.838103658069205
 10
71.14919543284976
 20
212.0576266832482
 30
0.0
 10
70.60381767700468
 20
212.0576266832482
 30
0.0
 10
69.94941868862921
 20
212.0407631041692
 30
0.0
 10
69.2722873096373
 20
212.4184916986049
 30
0.0
 10
69.09639129810456
 20
212.5574393584863
 30
0.0
 10
68.8914657227395
 20
212.845650591222
 30
0.0
 10
68.81130290228451
 20
213.0006682708852
 30
0.0
 10
68.7336293780894
 20
213.2764754963869
 30
0.0
 10
68.71146237868669
 20
213.4269233207629
 30
0.0
 10
68.71146237868669
 20
213.5576266832482
 30
0.0
  0
LINE
  5
1CF
330
70
100
AcDbEntity
  8
Sichtbar (ISO)
100
AcDbLine
 10
72.17266990737439
 20
212.0576266832482
 30
0.0
 11
71.14919543284978
 21
212.0576266832482
 31
0.0
  0
SPLINE
  5
1D0
330
70
100
AcDbEntity
  8
Sichtbar (ISO)
100
AcDbSpline
210
0.0
220
0.0
230
1.0
 70
     8
 71
     3
 72
    14
 73
    10
 74
     0
 42
0.000000001
 43
0.0000000001
 40
0.6127012193564019
 40
0.6127012193564019
 40
0.6127012193564019
 40
0.6127012193564019
 40
0.6519122281019923
 40
0.6519122281019923
 40
0.7076654747234807
 40
0.7076654747234807
 40
0.802225006130623
 40
0.802225006130623
 40
1.129451659637671
 40
1.129451659637671
 40
1.129451659637671
 40
1.129451659637671
 10
74.61040296153747
 20
213.5576266832482
 30
0.0
 10
74.61040296153747
 20
213.4269233207629
 30
0.0
 10
74.58823596213476
 20
213.2764754963869
 30
0.0
 10
74.51056243793965
 20
213.0006682708852
 30
0.0
 10
74.43039961748465
 20
212.845650591222
 30
0.0
 10
74.22547404211958
 20
212.5574393584863
 30
0.0
 10
74.04957803058684
 20
212.4184916986049
 30
0.0
 10
73.37244665159494
 20
212.0407631041692
 30
0.0
 10
72.71804766321948
 20
212.0576266832482
 30
0.0
 10
72.1726699073744
 20
212.0576266832482
 30
0.0
  0
LINE
  5
1D1
330
70
100
AcDbEntity
  8
Sichtbar (ISO)
100
AcDbLine
 10
74.61040296153747
 20
226.5576266832482
 30
0.0
 11
74.61040296153747
 21
213.5576266832482
 31
0.0
  0
LINE
  5
1D2
330
70
100
AcDbEntity
  8
Sichtbar (ISO)
100
AcDbLine
 10
50.61153143959192
 20
213.5576266832482
 30
0.0
 11
50.61153143959192
 21
226.5576266832482
 31
0.0
  0
SPLINE
  5
1D3
330
70
100
AcDbEntity
  8
Sichtbar (ISO)
100
AcDbSpline
210
0.0
220
0.0
230
1.0
 70
     8
 71
     3
 72
    14
 73
    10
 74
     0
 42
0.000000001
 43
0.0000000001
 40
1.321353217787934
 40
1.321353217787934
 40
1.321353217787934
 40
1.321353217787934
 40
1.648579871294984
 40
1.648579871294984
 40
1.743139402702127
 40
1.743139402702127
 40
1.798892649323614
 40
1.798892649323614
 40
1.838103658069205
 40
1.838103658069205
 40
1.838103658069205
 40
1.838103658069205
 10
53.04926449375501
 20
212.0576266832482
 30
0.0
 10
52.50388673790993
 20
212.0576266832482
 30
0.0
 10
51.84948774953444
 20
212.0407631041692
 30
0.0
 10
51.17235637054253
 20
212.4184916986049
 30
0.0
 10
50.9964603590098
 20
212.5574393584863
 30
0.0
 10
50.79153478364474
 20
212.845650591222
 30
0.0
 10
50.71137196318975
 20
213.0006682708852
 30
0.0
 10
50.63369843899464
 20
213.2764754963869
 30
0.0
 10
50.61153143959192
 20
213.4269233207629
 30
0.0
 10
50.61153143959192
 20
213.5576266832482
 30
0.0
  0
LINE
  5
1D4
330
70
100
AcDbEntity
  8
Sichtbar (ISO)
100
AcDbLine
 10
54.07273896827963
 20
212.0576266832482
 30
0.0
 11
53.04926449375501
 21
212.0576266832482
 31
0.0
  0
SPLINE
  5
1D5
330
70
100
AcDbEntity
  8
Sichtbar (ISO)
100
AcDbSpline
210
0.0
220
0.0
230
1.0
 70
     8
 71
     3
 72
    14
 73
    10
 74
     0
 42
0.000000001
 43
0.0000000001
 40
0.6127012193564018
 40
0.6127012193564018
 40
0.6127012193564018
 40
0.6127012193564018
 40
0.6519122281019924
 40
0.6519122281019924
 40
0.7076654747234801
 40
0.7076654747234801
 40
0.8022250061306229
 40
0.8022250061306229
 40
1.129451659637673
 40
1.129451659637673
 40
1.129451659637673
 40
1.129451659637673
 10
56.51047202244271
 20
213.5576266832482
 30
0.0
 10
56.51047202244271
 20
213.4269233207629
 30
0.0
 10
56.48830502304
 20
213.2764754963869
 30
0.0
 10
56.41063149884488
 20
213.0006682708852
 30
0.0
 10
56.33046867838991
 20
212.845650591222
 30
0.0
 10
56.12554310302484
 20
212.5574393584863
 30
0.0
 10
55.94964709149209
 20
212.4184916986049
 30
0.0
 10
55.27251571250019
 20
212.0407631041692
 30
0.0
 10
54.6181167241247
 20
212.0576266832482
 30
0.0
 10
54.07273896827963
 20
212.0576266832482
 30
0.0
  0
LINE
  5
1D6
330
70
100
AcDbEntity
  8
Sichtbar (ISO)
100
AcDbLine
 10
56.51047202244271
 20
226.5576266832482
 30
0.0
 11
56.51047202244271
 21
213.5576266832482
 31
0.0
  0
SPLINE
  5
1D7
330
70
100
AcDbEntity
  8
Sichtbar (ISO)
100
AcDbSpline
210
0.0
220
0.0
230
1.0
 70
     8
 71
     3
 72
    14
 73
    10
 74
     0
 42
0.000000001
 43
0.0000000001
 40
0.6127012193563997
 40
0.6127012193563997
 40
0.6127012193563997
 40
0.6127012193563997
 40
0.65191222810199
 40
0.65191222810199
 40
0.7076654747234781
 40
0.7076654747234781
 40
0.8022250061306202
 40
0.8022250061306202
 40
1.129451659637677
 40
1.129451659637677
 40
1.129451659637677
 40
1.129451659637677
 10
68.50990778341547
 20
213.5576266832482
 30
0.0
 10
68.50990778341547
 20
213.4269233207629
 30
0.0
 10
68.46557378461003
 20
213.2764754963869
 30
0.0
 10
68.31022673621983
 20
213.0006682708852
 30
0.0
 10
68.14990109530985
 20
212.845650591222
 30
0.0
 10
67.74004994457971
 20
212.5574393584863
 30
0.0
 10
67.38825792151422
 20
212.4184916986049
 30
0.0
 10
66.03399516353039
 20
212.0407631041692
 30
0.0
 10
64.72519718677938
 20
212.0576266832482
 30
0.0
 10
63.63444167508919
 20
212.0576266832482
 30
0.0
  0
LINE
  5
1D8
330
70
100
AcDbEntity
  8
Sichtbar (ISO)
100
AcDbLine
 10
71.14919543284978
 20
212.0576266832482
 30
0.0
 11
63.63444167508919
 21
212.0576266832482
 31
0.0
  0
LINE
  5
1D9
330
70
100
AcDbEntity
  8
Sichtbar schmal (ISO)
100
AcDbLine
 10
74.61040296153746
 20
213.5576266832482
 30
0.0
 11
74.61096720056485
 21
213.5576266832482
 31
0.0
  0
LINE
  5
1DA
330
70
100
AcDbEntity
  8
Sichtbar (ISO)
100
AcDbLine
 10
73.11096720056484
 20
212.0576266832482
 30
0.0
 11
72.17266990737439
 21
212.0576266832482
 31
0.0
  0
LINE
  5
1DB
330
70
100
AcDbEntity
  8
Sichtbar (ISO)
100
AcDbLine
 10
61.58749272604019
 20
212.0576266832482
 30
0.0
 11
54.07273896827961
 21
212.0576266832482
 31
0.0
  0
SPLINE
  5
1DC
330
70
100
AcDbEntity
  8
Sichtbar (ISO)
100
AcDbSpline
210
0.0
220
0.0
230
1.0
 70
     8
 71
     3
 72
    14
 73
    10
 74
     0
 42
0.000000001
 43
0.0000000001
 40
1.321353217787921
 40
1.321353217787921
 40
1.321353217787921
 40
1.321353217787921
 40
1.648579871294978
 40
1.648579871294978
 40
1.74313940270212
 40
1.74313940270212
 40
1.798892649323608
 40
1.798892649323608
 40
1.838103658069199
 40
1.838103658069199
 40
1.838103658069199
 40
1.838103658069199
 10
61.58749272604019
 20
212.0576266832482
 30
0.0
 10
60.49673721435
 20
212.0576266832482
 30
0.0
 10
59.18793923759899
 20
212.0407631041692
 30
0.0
 10
57.83367647961516
 20
212.4184916986049
 30
0.0
 10
57.48188445654968
 20
212.5574393584863
 30
0.0
 10
57.07203330581955
 20
212.845650591222
 30
0.0
 10
56.91170766490956
 20
213.0006682708852
 30
0.0
 10
56.75636061651935
 20
213.2764754963869
 30
0.0
 10
56.71202661771392
 20
213.4269233207629
 30
0.0
 10
56.71202661771392
 20
213.5576266832482
 30
0.0
  0
LINE
  5
1DD
330
70
100
AcDbEntity
  8
Sichtbar schmal (ISO)
100
AcDbLine
 10
50.61096720056454
 20
213.5576266832482
 30
0.0
 11
50.61153143959192
 21
213.5576266832482
 31
0.0
  0
LINE
  5
1DE
330
70
100
AcDbEntity
  8
Sichtbar (ISO)
100
AcDbLine
 10
53.04926449375501
 20
212.0576266832482
 30
0.0
 11
52.11096720056453
 21
212.0576266832482
 31
0.0
  0
ARC
  5
1DF
330
70
100
AcDbEntity
  8
Sichtbar (ISO)
100
AcDbCircle
 10
73.11096720056486
 20
213.5576266832482
 30
0.0
 40
1.5
100
AcDbArc
 50
270.0
 51
0.0
  0
ARC
  5
1E0
330
70
100
AcDbEntity
  8
Sichtbar (ISO)
100
AcDbCircle
 10
52.11096720056453
 20
213.5576266832482
 30
0.0
 40
1.5
100
AcDbArc
 50
180.0
 51
270.0
  0
ARC
  5
1E1
330
70
100
AcDbEntity
  8
Sichtbar (ISO)
100
AcDbCircle
 10
36.3609672005647
 20
247.3677717878565
 30
0.0
 40
2.0
100
AcDbArc
 50
180.0
 51
239.9999999999939
  0
ARC
  5
1E2
330
70
100
AcDbEntity
  8
Sichtbar (ISO)
100
AcDbCircle
 10
88.86096720056469
 20
247.3677717878565
 30
0.0
 40
2.0
100
AcDbArc
 50
300.000000000006
 51
0.0
  0
LINE
  5
1E3
330
70
100
AcDbEntity
  8
Sichtbar (ISO)
100
AcDbLine
 10
34.3609672005647
 20
247.3677717878565
 30
0.0
 11
34.3609672005647
 21
249.1152926492641
 31
0.0
  0
LINE
  5
1E4
330
70
100
AcDbEntity
  8
Sichtbar (ISO)
100
AcDbLine
 10
90.86096720056472
 20
247.3677717878565
 30
0.0
 11
90.86096720056472
 21
249.1152926492641
 31
0.0
  0
ARC
  5
1E5
330
70
100
AcDbEntity
  8
Sichtbar (ISO)
100
AcDbCircle
 10
90.56096720056471
 20
249.1152926492641
 30
0.0
 40
0.2999999999999998
100
AcDbArc
 50
0.0
 51
90.0
  0
ARC
  5
1E6
330
70
100
AcDbEntity
  8
Sichtbar (ISO)
100
AcDbCircle
 10
34.66096720056469
 20
249.1152926492641
 30
0.0
 40
0.2999999999999998
100
AcDbArc
 50
90.0
 51
180.0
  0
LINE
  5
1E7
330
70
100
AcDbEntity
  8
Sichtbar (ISO)
100
AcDbLine
 10
90.56096720056471
 20
249.4152926492641
 30
0.0
 11
34.6609672005647
 21
249.4152926492641
 31
0.0
  0
LINE
  5
1E8
330
70
100
AcDbEntity
  8
Sichtbar (ISO)
100
AcDbLine
 10
56.71202661771392
 20
213.5576266832482
 30
0.0
 11
56.71202661771392
 21
226.5576266832482
 31
0.0
  0
LINE
  5
1E9
330
70
100
AcDbEntity
  8
Sichtbar (ISO)
100
AcDbLine
 10
68.50990778341547
 20
226.5576266832482
 30
0.0
 11
68.50990778341547
 21
213.5576266832482
 31
0.0
  0
LINE
  5
1EA
330
70
100
AcDbEntity
  8
Sichtbar (ISO)
100
AcDbLine
 10
63.63444167508919
 20
212.0576266832482
 30
0.0
 11
61.58749272604019
 21
212.0576266832482
 31
0.0
  0
LINE
  5
1EB
330
70
100
AcDbEntity
  8
Sichtbar (ISO)
100
AcDbLine
 10
74.61096720056485
 20
231.0576266832484
 30
0.0
 11
74.61096720056485
 21
213.5576266832482
 31
0.0
  0
LINE
  5
1EC
330
70
100
AcDbEntity
  8
Sichtbar (ISO)
100
AcDbLine
 10
50.61096720056454
 20
231.0576266832484
 30
0.0
 11
50.61096720056454
 21
213.5576266832482
 31
0.0
  0
LINE
  5
1ED
330
70
100
AcDbEntity
  8
Sichtbar (ISO)
100
AcDbLine
 10
45.6109672005655
 20
239.7178807210922
 30
0.0
 11
35.36096720056452
 21
245.6357209802878
 31
0.0
  0
LINE
  5
1EE
330
70
100
AcDbEntity
  8
Sichtbar (ISO)
100
AcDbLine
 10
79.61096720056389
 20
239.7178807210922
 30
0.0
 11
89.86096720056487
 21
245.6357209802878
 31
0.0
  0
ARC
  5
1EF
330
70
100
AcDbEntity
  8
Sichtbar (ISO)
100
AcDbCircle
 10
40.61096720056472
 20
231.0576266832484
 30
0.0
 40
9.999999999999817
100
AcDbArc
 50
0.0
 51
59.99999999999426
  0
ARC
  5
1F0
330
70
100
AcDbEntity
  8
Sichtbar (ISO)
100
AcDbCircle
 10
84.61096720056467
 20
231.0576266832484
 30
0.0
 40
9.999999999999815
100
AcDbArc
 50
120.0000000000057
 51
180.0
  0
LINE
  5
1F1
330
70
100
AcDbEntity
  8
Sichtbar (ISO)
100
AcDbLine
 10
56.03246720056471
 20
203.0576266832483
 30
0.0
 11
69.18946720056471
 21
203.0576266832483
 31
0.0
  0
LINE
  5
1F2
330
70
100
AcDbEntity
  8
Sichtbar (ISO)
100
AcDbLine
 10
68.1894672005647
 20
202.0576266832482
 30
0.0
 11
57.03246720056471
 21
202.0576266832482
 31
0.0
  0
LINE
  5
1F3
330
70
100
AcDbEntity
  8
Sichtbar (ISO)
100
AcDbLine
 10
57.03246720056471
 20
202.0576266832482
 30
0.0
 11
56.03246720056471
 21
203.0576266832482
 31
0.0
  0
LINE
  5
1F4
330
70
100
AcDbEntity
  8
Sichtbar (ISO)
100
AcDbLine
 10
68.1894672005647
 20
202.0576266832482
 30
0.0
 11
69.18946720056471
 21
203.0576266832483
 31
0.0
  0
LINE
  5
1F5
330
70
100
AcDbEntity
  8
Sichtbar (ISO)
100
AcDbLine
 10
56.03246720056471
 20
203.0576266832482
 30
0.0
 11
56.03246720056471
 21
212.0576266832482
 31
0.0
  0
LINE
  5
1F6
330
70
100
AcDbEntity
  8
Sichtbar (ISO)
100
AcDbLine
 10
69.18946720056471
 20
203.0576266832483
 30
0.0
 11
69.18946720056471
 21
212.0576266832482
 31
0.0
  0
LINE
  5
1F7
330
70
100
AcDbEntity
  8
Sichtbar schmal (ISO)
100
AcDbLine
 10
56.76346720056469
 20
211.0576266832482
 30
0.0
 11
56.76346720056471
 21
202.3266266832482
 31
0.0
  0
LINE
  5
1F8
330
70
100
AcDbEntity
  8
Sichtbar schmal (ISO)
100
AcDbLine
 10
68.45846720056471
 20
202.3266266832482
 30
0.0
 11
68.4584672005647
 21
211.0576266832483
 31
0.0
  0
LINE
  5
1F9
330
70
100
AcDbEntity
  8
Sichtbar (ISO)
100
AcDbLine
 10
56.03246720056469
 20
211.0576266832482
 30
0.0
 11
69.18946720056469
 21
211.0576266832482
 31
0.0
  0
CIRCLE
  5
1FA
330
70
100
AcDbEntity
  8
Sichtbar (ISO)
100
AcDbCircle
 10
62.61096720056468
 20
107.6972442444389
 30
0.0
 40
3.499999999999995
  0
SPLINE
  5
1FB
330
70
100
AcDbEntity
  8
Sichtbar (ISO)
100
AcDbSpline
210
0.0
220
0.0
230
1.0
 70
     8
 71
     3
 72
    20
 73
    16
 74
     0
 42
0.000000001
 43
0.0000000001
 40
0.0
 40
0.0
 40
0.0
 40
0.0
 40
0.1296365689918375
 40
0.1296365689918375
 40
0.1296365689918375
 40
0.3525753665543113
 40
0.3525753665543113
 40
0.3525753665543113
 40
0.5184096194083397
 40
0.5184096194083397
 40
0.5184096194083397
 40
0.7621459749470948
 40
0.7621459749470948
 40
0.7621459749470948
 40
1.0
 40
1.0
 40
1.0
 40
1.0
 10
55.11096720056468
 20
107.6972442444419
 30
0.0
 10
55.11096720056468
 20
106.6790810124885
 30
0.0
 10
55.32111692567024
 20
105.6613809542078
 30
0.0
 10
55.72441116156977
 20
104.726495867049
 30
0.0
 10
56.41796493821271
 20
103.1187538632985
 30
0.0
 10
57.69372149649605
 20
101.7696354620122
 30
0.0
 10
59.26021615628983
 20
100.9873658968643
 30
0.0
 10
60.42546183962106
 20
100.4054703708943
 30
0.0
 10
61.74421040389501
 20
100.1344978807793
 30
0.0
 10
63.04449185814283
 20
100.2097843032288
 30
0.0
 10
64.95559199203352
 20
100.3204371865361
 30
0.0
 10
66.81172890125369
 20
101.1958483238442
 30
0.0
 10
68.11272038700304
 20
102.6001164379695
 30
0.0
 10
69.38231375874704
 20
103.9704939610922
 30
0.0
 10
70.11096720056468
 20
105.8291431001096
 30
0.0
 10
70.11096720056468
 20
107.6972442444421
 30
0.0
  0
LINE
  5
1FC
330
70
100
AcDbEntity
  8
Sichtbar (ISO)
100
AcDbLine
 10
70.11096720056468
 20
107.6972442444421
 30
0.0
 11
72.15418308069851
 21
107.6972442444421
 31
0.0
  0
SPLINE
  5
1FD
330
70
100
AcDbEntity
  8
Sichtbar (ISO)
100
AcDbSpline
210
0.0
220
0.0
230
1.0
 70
     8
 71
     3
 72
    32
 73
    28
 74
     0
 42
0.000000001
 43
0.0000000001
 40
0.0
 40
0.0
 40
0.0
 40
0.0
 40
0.3697001753050833
 40
0.3697001753050833
 40
0.73755971636802
 40
0.73755971636802
 40
1.102970054387216
 40
1.102970054387216
 40
1.465093578456708
 40
1.465093578456708
 40
1.822626017625737
 40
1.822626017625737
 40
2.173136551260027
 40
2.173136551260027
 40
2.510660046247628
 40
2.510660046247628
 40
2.867602976477906
 40
2.867602976477906
 40
3.079290215137165
 40
3.079290215137165
 40
3.128794151326717
 40
3.128794151326717
 40
3.136751154834432
 40
3.136751154834432
 40
3.141445083855016
 40
3.141445083855016
 40
3.143686478670131
 40
3.143686478670131
 40
3.143686478670131
 40
3.143686478670131
 10
72.15418308069851
 20
107.6972442444421
 30
0.0
 10
72.14513716917655
 20
106.4652792778345
 30
0.0
 10
71.89617701363132
 20
105.2467593651459
 30
0.0
 10
70.947136239014
 20
102.979750166163
 30
0.0
 10
70.25825302002726
 20
101.9518820616284
 30
0.0
 10
68.53073640907203
 20
100.2243989052421
 30
0.0
 10
67.51070210881906
 20
99.53893457072085
 30
0.0
 10
65.27535895549817
 20
98.60253988562272
 30
0.0
 10
64.08277480724253
 20
98.35655755957535
 30
0.0
 10
61.68608970239739
 20
98.33645051959926
 30
0.0
 10
60.50443229872655
 20
98.55663387112153
 30
0.0
 10
58.31465995730067
 20
99.42940872231284
 30
0.0
 10
57.32313474760044
 20
100.0657375738563
 30
0.0
 10
55.67288637272291
 20
101.6523059341707
 30
0.0
 10
55.01618437967787
 20
102.5777905270835
 30
0.0
 10
54.07366224563645
 20
104.6819513753698
 30
0.0
 10
53.89001187179239
 20
105.6980906786871
 30
0.0
 10
53.84149722338998
 20
106.9489331302222
 30
0.0
 10
53.87824338700449
 20
107.3113382997667
 30
0.0
 10
53.93751375011818
 20
107.5588558979794
 30
0.0
 10
53.95855703286362
 20
107.6352948822496
 30
0.0
 10
53.99142136221151
 20
107.6799080563455
 30
0.0
 10
53.99692131429127
 20
107.6861373838037
 30
0.0
 10
54.00685963664138
 20
107.6932609856282
 30
0.0
 10
54.0109322890694
 20
107.6953862755617
 30
0.0
 10
54.01744654172873
 20
107.6969825233971
 30
0.0
 10
54.01956301891868
 20
107.6972442444419
 30
0.0
 10
54.02169052184778
 20
107.6972442444419
 30
0.0
  0
SPLINE
  5
1FE
330
70
100
AcDbEntity
  8
Sichtbar (ISO)
100
AcDbSpline
210
0.0
220
0.0
230
1.0
 70
     8
 71
     3
 72
    32
 73
    28
 74
     0
 42
0.000000001
 43
0.0000000001
 40
0.0
 40
0.0
 40
0.0
 40
0.0
 40
0.3697001753050808
 40
0.3697001753050808
 40
0.737559716368012
 40
0.737559716368012
 40
1.102970054387207
 40
1.102970054387207
 40
1.465093578456697
 40
1.465093578456697
 40
1.822626017625724
 40
1.822626017625724
 40
2.173136551260009
 40
2.173136551260009
 40
2.510660046247602
 40
2.510660046247602
 40
2.867602976477866
 40
2.867602976477866
 40
3.079290215137103
 40
3.079290215137103
 40
3.128794151326478
 40
3.128794151326478
 40
3.136751154834125
 40
3.136751154834125
 40
3.141445083854239
 40
3.141445083854239
 40
3.143686478669259
 40
3.143686478669259
 40
3.143686478669259
 40
3.143686478669259
 10
53.06775132043086
 20
107.6972442444421
 30
0.0
 10
53.07679723195282
 20
108.9292092110496
 30
0.0
 10
53.32575738749806
 20
110.1477291237382
 30
0.0
 10
54.27479816211537
 20
112.414738322721
 30
0.0
 10
54.96368138110213
 20
113.4426064272557
 30
0.0
 10
56.69119799205735
 20
115.170089583642
 30
0.0
 10
57.71123229231033
 20
115.8555539181632
 30
0.0
 10
59.94657544563118
 20
116.7919486032613
 30
0.0
 10
61.13915959388684
 20
117.0379309293086
 30
0.0
 10
63.53584469873199
 20
117.0580379692847
 30
0.0
 10
64.71750210240283
 20
116.8378546177624
 30
0.0
 10
66.90727444382867
 20
115.9650797665711
 30
0.0
 10
67.89879965352894
 20
115.3287509150276
 30
0.0
 10
69.54904802840648
 20
113.7421825547131
 30
0.0
 10
70.2057500214515
 20
112.8166979618003
 30
0.0
 10
71.14827215549292
 20
110.7125371135141
 30
0.0
 10
71.33192252933698
 20
109.6963978101967
 30
0.0
 10
71.38043717773939
 20
108.4455553586616
 30
0.0
 10
71.34369101412488
 20
108.083150189117
 30
0.0
 10
71.28442065101123
 20
107.8356325909045
 30
0.0
 10
71.26337736826577
 20
107.7591936066341
 30
0.0
 10
71.23051303891788
 20
107.7145804325383
 30
0.0
 10
71.2250130868381
 20
107.7083511050801
 30
0.0
 10
71.21507476448832
 20
107.7012275032558
 30
0.0
 10
71.2110021120601
 20
107.6991022133219
 30
0.0
 10
71.20448785940045
 20
107.6975059654865
 30
0.0
 10
71.20237138221056
 20
107.6972442444419
 30
0.0
 10
71.2002438792816
 20
107.6972442444419
 30
0.0
  0
SPLINE
  5
1FF
330
70
100
AcDbEntity
  8
Sichtbar (ISO)
100
AcDbSpline
210
0.0
220
0.0
230
1.0
 70
     8
 71
     3
 72
    20
 73
    16
 74
     0
 42
0.000000001
 43
0.0000000001
 40
0.0
 40
0.0
 40
0.0
 40
0.0
 40
0.1296365689918375
 40
0.1296365689918375
 40
0.1296365689918375
 40
0.3525753665543113
 40
0.3525753665543113
 40
0.3525753665543113
 40
0.5184096194083397
 40
0.5184096194083397
 40
0.5184096194083397
 40
0.7621459749470948
 40
0.7621459749470948
 40
0.7621459749470948
 40
1.0
 40
1.0
 40
1.0
 40
1.0
 10
70.11096720056468
 20
107.6972442444419
 30
0.0
 10
70.11096720056468
 20
108.7154074763952
 30
0.0
 10
69.90081747545914
 20
109.733107534676
 30
0.0
 10
69.49752323955959
 20
110.6679926218348
 30
0.0
 10
68.80396946291667
 20
112.2757346255853
 30
0.0
 10
67.52821290463334
 20
113.6248530268716
 30
0.0
 10
65.96171824483954
 20
114.4071225920196
 30
0.0
 10
64.79647256150831
 20
114.9890181179896
 30
0.0
 10
63.47772399723436
 20
115.2599906081046
 30
0.0
 10
62.17744254298654
 20
115.1847041856551
 30
0.0
 10
60.26634240909586
 20
115.0740513023479
 30
0.0
 10
58.41020549987568
 20
114.1986401650398
 30
0.0
 10
57.10921401412633
 20
112.7943720509146
 30
0.0
 10
55.83962064238234
 20
111.4239945277919
 30
0.0
 10
55.11096720056468
 20
109.5653453887745
 30
0.0
 10
55.11096720056468
 20
107.6972442444421
 30
0.0
  0
LINE
  5
200
330
70
100
AcDbEntity
  8
Sichtbar (ISO)
100
AcDbLine
 10
55.11096720056468
 20
107.6972442444421
 30
0.0
 11
53.06775132043086
 21
107.6972442444421
 31
0.0
  0
CIRCLE
  5
201
330
70
100
AcDbEntity
  8
Sichtbar (ISO)
100
AcDbCircle
 10
62.61096720056468
 20
107.6972442444471
 30
0.0
 40
28.25
  0
CIRCLE
  5
202
330
70
100
AcDbEntity
  8
Sichtbar (ISO)
100
AcDbCircle
 10
62.61096720056468
 20
107.6972442444466
 30
0.0
 40
25.73300387444052
  0
CIRCLE
  5
203
330
70
100
AcDbEntity
  8
Sichtbar (ISO)
100
AcDbCircle
 10
62.61096720056471
 20
107.6972442444406
 30
0.0
 40
5.722500000000001
  0
CIRCLE
  5
204
330
70
100
AcDbEntity
  8
Sichtbar (ISO)
100
AcDbCircle
 10
62.61096720056471
 20
107.6972442444408
 30
0.0
 40
6.722500000000001
  0
CIRCLE
  5
205
330
70
100
AcDbEntity
  8
Sichtbar (ISO)
100
AcDbCircle
 10
62.6109672005647
 20
107.6972442444375
 30
0.0
 40
2.8
  0
ARC
  5
206
330
70
100
AcDbEntity
  8
Sichtbar schmal (ISO)
100
AcDbCircle
 10
62.61096720056465
 20
107.6972442444408
 30
0.0
 40
6.578500000000001
100
AcDbArc
 50
260.000000000002
 51
169.999999999951
  0
SPLINE
  5
207
330
70
100
AcDbEntity
  8
Sichtbar (ISO)
100
AcDbSpline
210
0.0
220
0.0
230
1.0
 70
     8
 71
     3
 72
    20
 73
    16
 74
     0
 42
0.000000001
 43
0.0000000001
 40
0.6478961059478704
 40
0.6478961059478704
 40
0.6478961059478704
 40
0.6478961059478704
 40
0.6748130597304716
 40
0.6748130597304716
 40
0.7017300135130728
 40
0.7017300135130728
 40
0.7490870107154937
 40
0.7490870107154937
 40
0.7964440079179145
 40
0.7964440079179145
 40
0.9212810589123709
 40
0.9212810589123709
 40
1.046118109906827
 40
1.046118109906827
 40
1.189401519658163
 40
1.189401519658163
 40
1.189401519658163
 40
1.189401519658163
 10
143.2838070567958
 20
226.5576266832482
 30
0.0
 10
143.2838070567958
 20
226.6473498625236
 30
0.0
 10
143.2751040743313
 20
226.743078887083
 30
0.0
 10
143.2415401223732
 20
226.9228300604217
 30
0.0
 10
143.2169127417618
 20
227.0069915084884
 30
0.0
 10
143.1445193138544
 20
227.202738955169
 30
0.0
 10
143.0839396689912
 20
227.3142732349052
 30
0.0
 10
142.9554125653588
 20
227.5011303197782
 30
0.0
 10
142.8876810059666
 20
227.5767802476337
 30
0.0
 10
142.6657297898706
 20
227.7914523853054
 30
0.0
 10
142.5106322862044
 20
227.8782573849906
 30
0.0
 10
142.2357410731116
 20
227.9957142782194
 30
0.0
 10
142.1157571236443
 20
228.0236850299464
 30
0.0
 10
141.9088392150325
 20
228.0565935592401
 30
0.0
 10
141.8311159003339
 20
228.0598525451635
 30
0.0
 10
141.7838070567972
 20
228.0576266832482
 30
0.0
  0
SPLINE
  5
208
330
70
100
AcDbEntity
  8
Sichtbar (ISO)
100
AcDbSpline
210
0.0
220
0.0
230
1.0
 70
     8
 71
     3
 72
    20
 73
    16
 74
     0
 42
0.000000001
 43
0.0000000001
 40
0.6478961059478701
 40
0.6478961059478701
 40
0.6478961059478701
 40
0.6478961059478701
 40
0.6748130597304712
 40
0.6748130597304712
 40
0.7017300135130722
 40
0.7017300135130722
 40
0.7490870107154936
 40
0.7490870107154936
 40
0.796444007917915
 40
0.796444007917915
 40
0.9212810589123712
 40
0.9212810589123712
 40
1.046118109906827
 40
1.046118109906827
 40
1.189401519658163
 40
1.189401519658163
 40
1.189401519658163
 40
1.189401519658163
 10
153.6174394569577
 20
226.5576266832482
 30
0.0
 10
153.6174394569577
 20
226.6473498625236
 30
0.0
 10
153.5998001663984
 20
226.743078887083
 30
0.0
 10
153.5309997426607
 20
226.9228300604217
 30
0.0
 10
153.4802039425802
 20
227.0069915084884
 30
0.0
 10
153.3286667406799
 20
227.202738955169
 30
0.0
 10
153.1995428471546
 20
227.3142732349052
 30
0.0
 10
152.9146130924839
 20
227.5011303197782
 30
0.0
 10
152.7590287654188
 20
227.5767802476337
 30
0.0
 10
152.2290304051771
 20
227.7914523853054
 30
0.0
 10
151.8190911034976
 20
227.8782573849906
 30
0.0
 10
150.9818486993356
 20
227.9957142782194
 30
0.0
 10
150.5541709767102
 20
228.0236850299464
 30
0.0
 10
149.644115737719
 20
228.0565935592401
 30
0.0
 10
149.1640384356211
 20
228.0598525451635
 30
0.0
 10
148.7065016278471
 20
228.0576266832482
 30
0.0
  0
SPLINE
  5
209
330
70
100
AcDbEntity
  8
Sichtbar (ISO)
100
AcDbSpline
210
0.0
220
0.0
230
1.0
 70
     8
 71
     3
 72
    20
 73
    16
 74
     0
 42
0.000000001
 43
0.0000000001
 40
1.402182904133317
 40
1.402182904133317
 40
1.402182904133317
 40
1.402182904133317
 40
1.545466313884652
 40
1.545466313884652
 40
1.670303364879108
 40
1.670303364879108
 40
1.795140415873565
 40
1.795140415873565
 40
1.842497413075986
 40
1.842497413075986
 40
1.889854410278408
 40
1.889854410278408
 40
1.916771364061009
 40
1.916771364061009
 40
1.94368831784361
 40
1.94368831784361
 40
1.94368831784361
 40
1.94368831784361
 10
146.8111124857419
 20
228.0576266832482
 30
0.0
 10
146.4008845215047
 20
228.0598525451635
 30
0.0
 10
145.9985305341057
 20
228.0565935592401
 30
0.0
 10
145.2953932037265
 20
228.0236850299464
 30
0.0
 10
144.9876994305686
 20
227.9957142782194
 30
0.0
 10
144.4253482394998
 20
227.8782573849906
 30
0.0
 10
144.1705064414867
 20
227.7914523853054
 30
0.0
 10
143.8624592973413
 20
227.5767802476337
 30
0.0
 10
143.7746065296684
 20
227.5011303197782
 30
0.0
 10
143.6182038786303
 20
227.3142732349052
 30
0.0
 10
143.5496596299682
 20
227.202738955169
 30
0.0
 10
143.4705158559754
 20
227.0069915084884
 30
0.0
 10
143.4443474365065
 20
226.9228300604217
 30
0.0
 10
143.4091109647268
 20
226.743078887083
 30
0.0
 10
143.400174656632
 20
226.6473498625236
 30
0.0
 10
143.400174656632
 20
226.5576266832482
 30
0.0
  0
SPLINE
  5
20A
330
70
100
AcDbEntity
  8
Sichtbar (ISO)
100
AcDbSpline
210
0.0
220
0.0
230
1.0
 70
     8
 71
     3
 72
    20
 73
    16
 74
     0
 42
0.000000001
 43
0.0000000001
 40
0.6478961059478704
 40
0.6478961059478704
 40
0.6478961059478704
 40
0.6478961059478704
 40
0.6748130597304716
 40
0.6748130597304716
 40
0.7017300135130728
 40
0.7017300135130728
 40
0.7490870107154937
 40
0.7490870107154937
 40
0.7964440079179146
 40
0.7964440079179146
 40
0.9212810589123712
 40
0.9212810589123712
 40
1.046118109906827
 40
1.046118109906827
 40
1.189401519658163
 40
1.189401519658163
 40
1.189401519658163
 40
1.189401519658163
 10
164.0674394569595
 20
226.5576266832482
 30
0.0
 10
164.0674394569595
 20
226.6473498625236
 30
0.0
 10
164.0585031488646
 20
226.743078887083
 30
0.0
 10
164.0232666770849
 20
226.9228300604217
 30
0.0
 10
163.997098257616
 20
227.0069915084884
 30
0.0
 10
163.9179544836231
 20
227.202738955169
 30
0.0
 10
163.849410234961
 20
227.3142732349052
 30
0.0
 10
163.6930075839227
 20
227.5011303197782
 30
0.0
 10
163.6051548162498
 20
227.5767802476337
 30
0.0
 10
163.297107672104
 20
227.7914523853054
 30
0.0
 10
163.0422658740908
 20
227.8782573849906
 30
0.0
 10
162.4799146830216
 20
227.9957142782194
 30
0.0
 10
162.1722209098635
 20
228.0236850299464
 30
0.0
 10
161.469083579484
 20
228.0565935592401
 30
0.0
 10
161.0667295920848
 20
228.0598525451635
 30
0.0
 10
160.6565016278474
 20
228.0576266832482
 30
0.0
  0
SPLINE
  5
20B
330
70
100
AcDbEntity
  8
Sichtbar (ISO)
100
AcDbSpline
210
0.0
220
0.0
230
1.0
 70
     8
 71
     3
 72
    20
 73
    16
 74
     0
 42
0.000000001
 43
0.0000000001
 40
1.402182904133317
 40
1.402182904133317
 40
1.402182904133317
 40
1.402182904133317
 40
1.545466313884654
 40
1.545466313884654
 40
1.67030336487911
 40
1.67030336487911
 40
1.795140415873567
 40
1.795140415873567
 40
1.842497413075988
 40
1.842497413075988
 40
1.889854410278409
 40
1.889854410278409
 40
1.91677136406101
 40
1.91677136406101
 40
1.943688317843611
 40
1.943688317843611
 40
1.943688317843611
 40
1.943688317843611
 10
158.7611124857415
 20
228.0576266832482
 30
0.0
 10
158.3035756779674
 20
228.0598525451635
 30
0.0
 10
157.8234983758694
 20
228.0565935592401
 30
0.0
 10
156.913443136878
 20
228.0236850299464
 30
0.0
 10
156.4857654142525
 20
227.9957142782194
 30
0.0
 10
155.6485230100904
 20
227.8782573849906
 30
0.0
 10
155.2385837084109
 20
227.7914523853054
 30
0.0
 10
154.7085853481692
 20
227.5767802476337
 30
0.0
 10
154.5530010211041
 20
227.5011303197782
 30
0.0
 10
154.2680712664333
 20
227.3142732349052
 30
0.0
 10
154.138947372908
 20
227.202738955169
 30
0.0
 10
153.9874101710078
 20
227.0069915084884
 30
0.0
 10
153.9366143709273
 20
226.9228300604217
 30
0.0
 10
153.8678139471896
 20
226.743078887083
 30
0.0
 10
153.8501746566302
 20
226.6473498625236
 30
0.0
 10
153.8501746566302
 20
226.5576266832482
 30
0.0
  0
SPLINE
  5
20C
330
70
100
AcDbEntity
  8
Sichtbar (ISO)
100
AcDbSpline
210
0.0
220
0.0
230
1.0
 70
     8
 71
     3
 72
    20
 73
    16
 74
     0
 42
0.000000001
 43
0.0000000001
 40
1.402182904133312
 40
1.402182904133312
 40
1.402182904133312
 40
1.402182904133312
 40
1.545466313884652
 40
1.545466313884652
 40
1.670303364879109
 40
1.670303364879109
 40
1.795140415873565
 40
1.795140415873565
 40
1.842497413075986
 40
1.842497413075986
 40
1.889854410278407
 40
1.889854410278407
 40
1.916771364061008
 40
1.916771364061008
 40
1.943688317843609
 40
1.943688317843609
 40
1.943688317843609
 40
1.943688317843609
 10
165.6838070567972
 20
228.0576266832482
 30
0.0
 10
165.6364982132603
 20
228.0598525451635
 30
0.0
 10
165.5587748985613
 20
228.0565935592401
 30
0.0
 10
165.351856989949
 20
228.0236850299464
 30
0.0
 10
165.2318730404815
 20
227.9957142782194
 30
0.0
 10
164.9569818273882
 20
227.8782573849906
 30
0.0
 10
164.8018843237217
 20
227.7914523853054
 30
0.0
 10
164.5799331076255
 20
227.5767802476337
 30
0.0
 10
164.5122015482332
 20
227.5011303197782
 30
0.0
 10
164.3836744446006
 20
227.3142732349052
 30
0.0
 10
164.3230947997373
 20
227.202738955169
 30
0.0
 10
164.2507013718299
 20
227.0069915084884
 30
0.0
 10
164.2260739912184
 20
226.9228300604217
 30
0.0
 10
164.1925100392603
 20
226.743078887083
 30
0.0
 10
164.1838070567958
 20
226.6473498625236
 30
0.0
 10
164.1838070567958
 20
226.5576266832482
 30
0.0
  0
LINE
  5
20D
330
70
100
AcDbEntity
  8
Sichtbar (ISO)
100
AcDbLine
 10
141.7838070567972
 20
228.0576266832482
 30
0.0
 11
141.7338070567974
 21
228.0576266832482
 31
0.0
  0
LINE
  5
20E
330
70
100
AcDbEntity
  8
Sichtbar (ISO)
100
AcDbLine
 10
148.7065016278471
 20
228.0576266832482
 30
0.0
 11
146.8111124857419
 21
228.0576266832482
 31
0.0
  0
LINE
  5
20F
330
70
100
AcDbEntity
  8
Sichtbar (ISO)
100
AcDbLine
 10
160.6565016278474
 20
228.0576266832482
 30
0.0
 11
158.7611124857415
 21
228.0576266832482
 31
0.0
  0
LINE
  5
210
330
70
100
AcDbEntity
  8
Sichtbar (ISO)
100
AcDbLine
 10
165.7338070567977
 20
228.0576266832482
 30
0.0
 11
165.6838070567972
 21
228.0576266832482
 31
0.0
  0
LINE
  5
211
330
70
100
AcDbEntity
  8
Sichtbar (ISO)
100
AcDbLine
 10
153.8501746566302
 20
213.5576266832482
 30
0.0
 11
153.8501746566302
 21
226.5576266832482
 31
0.0
  0
SPLINE
  5
212
330
70
100
AcDbEntity
  8
Sichtbar (ISO)
100
AcDbSpline
210
0.0
220
0.0
230
1.0
 70
     8
 71
     3
 72
    14
 73
    10
 74
     0
 42
0.000000001
 43
0.0000000001
 40
1.321353217787934
 40
1.321353217787934
 40
1.321353217787934
 40
1.321353217787934
 40
1.648579871294984
 40
1.648579871294984
 40
1.743139402702127
 40
1.743139402702127
 40
1.798892649323614
 40
1.798892649323614
 40
1.838103658069205
 40
1.838103658069205
 40
1.838103658069205
 40
1.838103658069205
 10
158.0724521617315
 20
212.0576266832482
 30
0.0
 10
157.1278301792897
 20
212.0576266832482
 30
0.0
 10
155.9943778830015
 20
212.0407631041692
 30
0.0
 10
154.8215519311882
 20
212.4184916986049
 30
0.0
 10
154.5168911023647
 20
212.5574393584863
 30
0.0
 10
154.161949594062
 20
212.845650591222
 30
0.0
 10
154.023103516156
 20
213.0006682708852
 30
0.0
 10
153.8885690258471
 20
213.2764754963869
 30
0.0
 10
153.8501746566302
 20
213.4269233207629
 30
0.0
 10
153.8501746566302
 20
213.5576266832482
 30
0.0
  0
LINE
  5
213
330
70
100
AcDbEntity
  8
Sichtbar (ISO)
100
AcDbLine
 10
159.8451619518582
 20
212.0576266832482
 30
0.0
 11
158.0724521617315
 21
212.0576266832482
 31
0.0
  0
SPLINE
  5
214
330
70
100
AcDbEntity
  8
Sichtbar (ISO)
100
AcDbSpline
210
0.0
220
0.0
230
1.0
 70
     8
 71
     3
 72
    14
 73
    10
 74
     0
 42
0.000000001
 43
0.0000000001
 40
0.6127012193564018
 40
0.6127012193564018
 40
0.6127012193564018
 40
0.6127012193564018
 40
0.6519122281019924
 40
0.6519122281019924
 40
0.7076654747234801
 40
0.7076654747234801
 40
0.8022250061306229
 40
0.8022250061306229
 40
1.129451659637673
 40
1.129451659637673
 40
1.129451659637673
 40
1.129451659637673
 10
164.0674394569595
 20
213.5576266832482
 30
0.0
 10
164.0674394569595
 20
213.4269233207629
 30
0.0
 10
164.0290450877427
 20
213.2764754963869
 30
0.0
 10
163.8945105974338
 20
213.0006682708852
 30
0.0
 10
163.7556645195277
 20
212.845650591222
 30
0.0
 10
163.4007230112251
 20
212.5574393584863
 30
0.0
 10
163.0960621824016
 20
212.4184916986049
 30
0.0
 10
161.9232362305882
 20
212.0407631041692
 30
0.0
 10
160.7897839343
 20
212.0576266832482
 30
0.0
 10
159.8451619518582
 20
212.0576266832482
 30
0.0
  0
LINE
  5
215
330
70
100
AcDbEntity
  8
Sichtbar (ISO)
100
AcDbLine
 10
164.0674394569595
 20
226.5576266832482
 30
0.0
 11
164.0674394569595
 21
213.5576266832482
 31
0.0
  0
LINE
  5
216
330
70
100
AcDbEntity
  8
Sichtbar (ISO)
100
AcDbLine
 10
143.400174656632
 20
213.5576266832482
 30
0.0
 11
143.400174656632
 21
226.5576266832482
 31
0.0
  0
SPLINE
  5
217
330
70
100
AcDbEntity
  8
Sichtbar (ISO)
100
AcDbSpline
210
0.0
220
0.0
230
1.0
 70
     8
 71
     3
 72
    14
 73
    10
 74
     0
 42
0.000000001
 43
0.0000000001
 40
1.321353217787928
 40
1.321353217787928
 40
1.321353217787928
 40
1.321353217787928
 40
1.648579871294981
 40
1.648579871294981
 40
1.743139402702124
 40
1.743139402702124
 40
1.798892649323612
 40
1.798892649323612
 40
1.838103658069202
 40
1.838103658069202
 40
1.838103658069202
 40
1.838103658069202
 10
147.6224521617318
 20
212.0576266832482
 30
0.0
 10
146.6778301792904
 20
212.0576266832482
 30
0.0
 10
145.5443778830026
 20
212.0407631041692
 30
0.0
 10
144.3715519311896
 20
212.4184916986049
 30
0.0
 10
144.0668911023662
 20
212.5574393584863
 30
0.0
 10
143.7119495940637
 20
212.845650591222
 30
0.0
 10
143.5731035161577
 20
213.0006682708852
 30
0.0
 10
143.4385690258488
 20
213.2764754963869
 30
0.0
 10
143.400174656632
 20
213.4269233207629
 30
0.0
 10
143.400174656632
 20
213.5576266832482
 30
0.0
  0
LINE
  5
218
330
70
100
AcDbEntity
  8
Sichtbar (ISO)
100
AcDbLine
 10
149.395161951858
 20
212.0576266832482
 30
0.0
 11
147.6224521617318
 21
212.0576266832482
 31
0.0
  0
SPLINE
  5
219
330
70
100
AcDbEntity
  8
Sichtbar (ISO)
100
AcDbSpline
210
0.0
220
0.0
230
1.0
 70
     8
 71
     3
 72
    14
 73
    10
 74
     0
 42
0.000000001
 43
0.0000000001
 40
0.6127012193564008
 40
0.6127012193564008
 40
0.6127012193564008
 40
0.6127012193564008
 40
0.6519122281019911
 40
0.6519122281019911
 40
0.7076654747234796
 40
0.7076654747234796
 40
0.802225006130622
 40
0.802225006130622
 40
1.129451659637675
 40
1.129451659637675
 40
1.129451659637675
 40
1.129451659637675
 10
153.6174394569577
 20
213.5576266832482
 30
0.0
 10
153.6174394569577
 20
213.4269233207629
 30
0.0
 10
153.5790450877409
 20
213.2764754963869
 30
0.0
 10
153.4445105974321
 20
213.0006682708852
 30
0.0
 10
153.305664519526
 20
212.845650591222
 30
0.0
 10
152.9507230112235
 20
212.5574393584863
 30
0.0
 10
152.6460621824001
 20
212.4184916986049
 30
0.0
 10
151.4732362305872
 20
212.0407631041692
 30
0.0
 10
150.3397839342993
 20
212.0576266832482
 30
0.0
 10
149.3951619518579
 20
212.0576266832482
 30
0.0
  0
LINE
  5
21A
330
70
100
AcDbEntity
  8
Sichtbar (ISO)
100
AcDbLine
 10
153.6174394569577
 20
226.5576266832482
 30
0.0
 11
153.6174394569577
 21
213.5576266832482
 31
0.0
  0
LINE
  5
21B
330
70
100
AcDbEntity
  8
Sichtbar (ISO)
100
AcDbLine
 10
143.2838070567958
 20
213.5576266832482
 30
0.0
 11
143.2838070567973
 21
212.0576266832483
 31
0.0
  0
LINE
  5
21C
330
70
100
AcDbEntity
  8
Sichtbar (ISO)
100
AcDbLine
 10
147.6224521617318
 20
212.0576266832482
 30
0.0
 11
143.2838070567973
 21
212.0576266832482
 31
0.0
  0
LINE
  5
21D
330
70
100
AcDbEntity
  8
Sichtbar (ISO)
100
AcDbLine
 10
164.1838070567972
 20
212.0576266832482
 30
0.0
 11
159.8451619518582
 21
212.0576266832482
 31
0.0
  0
LINE
  5
21E
330
70
100
AcDbEntity
  8
Sichtbar (ISO)
100
AcDbLine
 10
164.1838070567972
 20
212.0576266832482
 30
0.0
 11
164.1838070567958
 21
213.5576266832483
 31
0.0
  0
LINE
  5
21F
330
70
100
AcDbEntity
  8
Sichtbar (ISO)
100
AcDbLine
 10
158.0724521617315
 20
212.0576266832482
 30
0.0
 11
149.395161951858
 21
212.0576266832482
 31
0.0
  0
ARC
  5
220
330
70
100
AcDbEntity
  8
Sichtbar (ISO)
100
AcDbCircle
 10
127.4838070567976
 20
247.3677717878565
 30
0.0
 40
2.0
100
AcDbArc
 50
180.0
 51
239.999999999994
  0
ARC
  5
221
330
70
100
AcDbEntity
  8
Sichtbar (ISO)
100
AcDbCircle
 10
179.9838070567975
 20
247.3677717878565
 30
0.0
 40
2.0
100
AcDbArc
 50
300.0000000000056
 51
0.0
  0
LINE
  5
222
330
70
100
AcDbEntity
  8
Sichtbar (ISO)
100
AcDbLine
 10
125.4838070567976
 20
247.3677717878565
 30
0.0
 11
125.4838070567976
 21
249.1152926492641
 31
0.0
  0
LINE
  5
223
330
70
100
AcDbEntity
  8
Sichtbar (ISO)
100
AcDbLine
 10
181.9838070567975
 20
247.3677717878565
 30
0.0
 11
181.9838070567975
 21
249.1152926492641
 31
0.0
  0
ARC
  5
224
330
70
100
AcDbEntity
  8
Sichtbar (ISO)
100
AcDbCircle
 10
181.6838070567976
 20
249.1152926492641
 30
0.0
 40
0.2999999999999998
100
AcDbArc
 50
0.0
 51
90.0
  0
ARC
  5
225
330
70
100
AcDbEntity
  8
Sichtbar (ISO)
100
AcDbCircle
 10
125.7838070567975
 20
249.1152926492641
 30
0.0
 40
0.2999999999999998
100
AcDbArc
 50
90.0
 51
180.0
  0
LINE
  5
226
330
70
100
AcDbEntity
  8
Sichtbar (ISO)
100
AcDbLine
 10
181.6838070567976
 20
249.4152926492641
 30
0.0
 11
125.7838070567975
 21
249.4152926492641
 31
0.0
  0
LINE
  5
227
330
70
100
AcDbEntity
  8
Sichtbar (ISO)
100
AcDbLine
 10
143.2838070567958
 20
226.5576266832482
 30
0.0
 11
143.2838070567958
 21
213.5576266832482
 31
0.0
  0
LINE
  5
228
330
70
100
AcDbEntity
  8
Sichtbar (ISO)
100
AcDbLine
 10
164.1838070567958
 20
213.5576266832482
 30
0.0
 11
164.1838070567958
 21
226.5576266832482
 31
0.0
  0
LINE
  5
229
330
70
100
AcDbEntity
  8
Sichtbar (ISO)
100
AcDbLine
 10
165.7338070567977
 20
231.0576266832484
 30
0.0
 11
165.7338070567977
 21
228.0576266832482
 31
0.0
  0
LINE
  5
22A
330
70
100
AcDbEntity
  8
Sichtbar (ISO)
100
AcDbLine
 10
141.7338070567974
 20
231.0576266832484
 30
0.0
 11
141.7338070567974
 21
228.0576266832482
 31
0.0
  0
LINE
  5
22B
330
70
100
AcDbEntity
  8
Sichtbar (ISO)
100
AcDbLine
 10
136.7338070567984
 20
239.7178807210922
 30
0.0
 11
126.4838070567974
 21
245.6357209802878
 31
0.0
  0
LINE
  5
22C
330
70
100
AcDbEntity
  8
Sichtbar (ISO)
100
AcDbLine
 10
170.7338070567968
 20
239.7178807210922
 30
0.0
 11
180.9838070567977
 21
245.6357209802878
 31
0.0
  0
ARC
  5
22D
330
70
100
AcDbEntity
  8
Sichtbar (ISO)
100
AcDbCircle
 10
131.7338070567976
 20
231.0576266832484
 30
0.0
 40
9.999999999999817
100
AcDbArc
 50
0.0
 51
59.99999999999426
  0
ARC
  5
22E
330
70
100
AcDbEntity
  8
Sichtbar (ISO)
100
AcDbCircle
 10
175.7338070567975
 20
231.0576266832484
 30
0.0
 40
9.999999999999815
100
AcDbArc
 50
120.0000000000057
 51
180.0
  0
LINE
  5
22F
330
70
100
AcDbEntity
  8
Sichtbar (ISO)
100
AcDbLine
 10
147.1553070567976
 20
203.0576266832483
 30
0.0
 11
160.3123070567976
 21
203.0576266832483
 31
0.0
  0
LINE
  5
230
330
70
100
AcDbEntity
  8
Sichtbar (ISO)
100
AcDbLine
 10
159.3123070567975
 20
202.0576266832482
 30
0.0
 11
148.1553070567976
 21
202.0576266832482
 31
0.0
  0
LINE
  5
231
330
70
100
AcDbEntity
  8
Sichtbar (ISO)
100
AcDbLine
 10
148.1553070567976
 20
202.0576266832482
 30
0.0
 11
147.1553070567976
 21
203.0576266832483
 31
0.0
  0
LINE
  5
232
330
70
100
AcDbEntity
  8
Sichtbar (ISO)
100
AcDbLine
 10
159.3123070567975
 20
202.0576266832482
 30
0.0
 11
160.3123070567976
 21
203.0576266832483
 31
0.0
  0
LINE
  5
233
330
70
100
AcDbEntity
  8
Sichtbar (ISO)
100
AcDbLine
 10
147.1553070567976
 20
203.0576266832483
 30
0.0
 11
147.1553070567976
 21
212.0576266832482
 31
0.0
  0
LINE
  5
234
330
70
100
AcDbEntity
  8
Sichtbar (ISO)
100
AcDbLine
 10
160.3123070567976
 20
203.0576266832483
 30
0.0
 11
160.3123070567975
 21
212.0576266832482
 31
0.0
  0
ELLIPSE
  5
235
330
70
100
AcDbEntity
  8
Sichtbar schmal (ISO)
100
AcDbEllipse
 10
159.4550262076416
 20
100.2684273115399
 30
0.0
 11
7.499999999999995
 21
0.0000000000000003
 31
0.0
210
0.0
220
0.0
230
1.0
 40
0.5773502691896258
 41
0.1264570756397916
 42
0.7853981633973
  0
SPLINE
  5
236
330
70
100
AcDbEntity
  8
Sichtbar (ISO)
100
AcDbSpline
210
0.0
220
0.0
230
1.0
 70
     8
 71
     3
 72
    11
 73
     7
 74
     0
 42
0.000000001
 43
0.0000000001
 40
0.7597387186971171
 40
0.7597387186971171
 40
0.7597387186971171
 40
0.7597387186971171
 40
0.7621459749470948
 40
0.7621459749470948
 40
0.7621459749470948
 40
1.0
 40
1.0
 40
1.0
 40
1.0
 10
166.9515064710726
 20
100.83511566468
 30
0.0
 10
166.9509345728673
 20
100.8464838433497
 30
0.0
 10
166.9502880860942
 20
100.8578512646541
 30
0.0
 10
166.9495668307181
 20
100.8692176390871
 30
0.0
 10
166.8783016738424
 20
101.9922962100411
 30
0.0
 10
166.0792740536411
 20
103.0938730318301
 30
0.0
 10
164.7583270665414
 20
103.9018370966678
 30
0.0
  0
LINE
  5
237
330
70
100
AcDbEntity
  8
Sichtbar (ISO)
100
AcDbLine
 10
164.7583270665414
 20
103.3302894900184
 30
0.0
 11
164.7583270665414
 21
103.9018370966678
 31
0.0
  0
LINE
  5
238
330
70
100
AcDbEntity
  8
Sichtbar (ISO)
100
AcDbLine
 10
164.7583270665414
 20
103.9018370966678
 30
0.0
 11
166.2030988708123
 21
104.7359764867809
 31
0.0
  0
SPLINE
  5
239
330
70
100
AcDbEntity
  8
Sichtbar (ISO)
100
AcDbSpline
210
0.0
220
0.0
230
1.0
 70
     8
 71
     3
 72
    10
 73
     6
 74
     0
 42
0.000000001
 43
0.0000000001
 40
0.0
 40
0.0
 40
0.0
 40
0.0
 40
0.3697001753050833
 40
0.3697001753050833
 40
0.582713410635903
 40
0.582713410635903
 40
0.582713410635903
 40
0.582713410635903
 10
166.2030988708123
 20
104.7359764867809
 30
0.0
 10
167.0678332275055
 20
104.2058500746532
 30
0.0
 10
167.753415506547
 20
103.5834563757242
 30
0.0
 10
168.4897036928092
 20
102.5090185336864
 30
0.0
 10
168.6833744393416
 20
102.1008799582081
 30
0.0
 10
168.7987280789482
 20
101.6849072805107
 30
0.0
  0
SPLINE
  5
23A
330
70
100
AcDbEntity
  8
Sichtbar (ISO)
100
AcDbSpline
210
0.0
220
0.0
230
1.0
 70
     8
 71
     3
 72
    20
 73
    16
 74
     0
 42
0.000000001
 43
0.0000000001
 40
0.9227299381326911
 40
0.9227299381326911
 40
0.9227299381326911
 40
0.9227299381326911
 40
1.102970054387207
 40
1.102970054387207
 40
1.465093578456697
 40
1.465093578456697
 40
1.822626017625724
 40
1.822626017625724
 40
2.173136551260009
 40
2.173136551260009
 40
2.510660046247602
 40
2.510660046247602
 40
2.867602976477866
 40
2.867602976477866
 40
2.957196258702428
 40
2.957196258702428
 40
2.957196258702428
 40
2.957196258702428
 10
150.1657293314447
 20
101.6533917316668
 30
0.0
 10
150.2824990065344
 20
101.980298146106
 30
0.0
 10
150.4553676086956
 20
102.3007328332111
 30
0.0
 10
151.1400896049833
 20
103.23113328727
 30
0.0
 10
151.8094381725505
 20
103.7952782885634
 30
0.0
 10
153.4899326382388
 20
104.7353261839499
 30
0.0
 10
154.4811837423796
 20
105.1048231779176
 30
0.0
 10
156.6467316299832
 20
105.5962568662215
 30
0.0
 10
157.7977982754708
 20
105.718481699741
 30
0.0
 10
160.0865733383832
 20
105.6990950875009
 30
0.0
 10
161.2053482024163
 20
105.5671469769304
 30
0.0
 10
163.3596783993457
 20
105.0465411957937
 30
0.0
 10
164.208057816064
 20
104.6860709519972
 30
0.0
 10
164.9295644236401
 20
104.280473430348
 30
0.0
 10
165.054307697518
 20
104.203009641777
 30
0.0
 10
165.1582250012598
 20
104.1327118652188
 30
0.0
  0
SPLINE
  5
23B
330
70
100
AcDbEntity
  8
Sichtbar (ISO)
100
AcDbSpline
210
0.0
220
0.0
230
1.0
 70
     8
 71
     3
 72
    17
 73
    13
 74
     0
 42
0.000000001
 43
0.0000000001
 40
0.0
 40
0.0
 40
0.0
 40
0.0
 40
0.1296365689918375
 40
0.1296365689918375
 40
0.1296365689918375
 40
0.3525753665543113
 40
0.3525753665543113
 40
0.3525753665543113
 40
0.5184096194083397
 40
0.5184096194083397
 40
0.5184096194083397
 40
0.7394243274339891
 40
0.7394243274339891
 40
0.7394243274339891
 40
0.7394243274339891
 10
164.7583270665414
 20
103.3302894900184
 30
0.0
 10
164.0383769408725
 20
103.7706507124571
 30
0.0
 10
163.1701560327617
 20
104.12502957902
 30
0.0
 10
162.2239203589836
 20
104.3667484588534
 30
0.0
 10
160.5966585071515
 20
104.7824376184578
 30
0.0
 10
158.7405916234731
 20
104.8548608441745
 30
0.0
 10
157.0797645126084
 20
104.577175668672
 30
0.0
 10
155.8443491158209
 20
104.3706180209607
 30
0.0
 10
154.7202465780673
 20
103.9744592866695
 30
0.0
 10
153.8540442841628
 20
103.444480109364
 30
0.0
 10
152.6996178385781
 20
102.7381532129841
 30
0.0
 10
152.0217903007713
 20
101.7935619732923
 30
0.0
 10
151.9598944831868
 20
100.8347610766056
 30
0.0
  0
SPLINE
  5
23C
330
70
100
AcDbEntity
  8
Sichtbar (ISO)
100
AcDbSpline
210
0.0
220
0.0
230
1.0
 70
     8
 71
     3
 72
    20
 73
    16
 74
     0
 42
0.000000001
 43
0.0000000001
 40
0.6478961059478701
 40
0.6478961059478701
 40
0.6478961059478701
 40
0.6478961059478701
 40
0.6748130597304712
 40
0.6748130597304712
 40
0.7017300135130722
 40
0.7017300135130722
 40
0.7490870107154936
 40
0.7490870107154936
 40
0.796444007917915
 40
0.796444007917915
 40
0.9212810589123712
 40
0.9212810589123712
 40
1.046118109906827
 40
1.046118109906827
 40
1.189401519658163
 40
1.189401519658163
 40
1.189401519658163
 40
1.189401519658163
 10
150.8878594916895
 20
91.29387731560591
 30
0.0
 10
150.8878594916895
 20
91.36713598471418
 30
0.0
 10
150.8754818845094
 20
91.45255461155684
 30
0.0
 10
150.8275154416939
 20
91.62780270208225
 30
0.0
 10
150.7922265134803
 20
91.71762076156229
 30
0.0
 10
150.687829347664
 20
91.94090375795063
 30
0.0
 10
150.5997765028242
 20
92.08656299991977
 30
0.0
 10
150.4096808857088
 20
92.36202358562062
 30
0.0
 10
150.3078806018774
 20
92.49205114288299
 30
0.0
 10
149.9682636827749
 20
92.90399413868186
 30
0.0
 10
149.7191132603331
 20
93.16573709887599
 30
0.0
 10
149.2444485234388
 20
93.67119799738894
 30
0.0
 10
149.018666920233
 20
93.91287834941365
 30
0.0
 10
148.5777414201194
 20
94.42823658597395
 30
0.0
 10
148.3708054214743
 20
94.70340445805888
 30
0.0
 10
148.1954391526575
 20
94.97391652610335
 30
0.0
  0
SPLINE
  5
23D
330
70
100
AcDbEntity
  8
Sichtbar (ISO)
100
AcDbSpline
210
0.0
220
0.0
230
1.0
 70
     8
 71
     3
 72
    10
 73
     6
 74
     0
 42
0.000000001
 43
0.0000000001
 40
1.402182904133317
 40
1.402182904133317
 40
1.402182904133317
 40
1.402182904133317
 40
1.545466313884652
 40
1.545466313884652
 40
1.594227813443115
 40
1.594227813443115
 40
1.594227813443115
 40
1.594227813443115
 10
147.628986014316
 20
96.19445340825519
 30
0.0
 10
147.5450134130673
 20
96.48273894316382
 30
0.0
 10
147.488227328367
 20
96.77581318604604
 30
0.0
 10
147.4587238628739
 20
97.1507470692223
 30
0.0
 10
147.4550756561212
 20
97.24413586698823
 30
0.0
 10
147.4550912638485
 20
97.33439827885021
 30
0.0
  0
LINE
  5
23E
330
70
100
AcDbEntity
  8
Sichtbar schmal (ISO)
100
AcDbLine
 10
150.3701654345367
 20
92.40935297926945
 30
0.0
 11
150.8878594916895
 21
91.29387731560591
 31
0.0
  0
SPLINE
  5
23F
330
70
100
AcDbEntity
  8
Sichtbar (ISO)
100
AcDbSpline
210
0.0
220
0.0
230
1.0
 70
     8
 71
     3
 72
    20
 73
    16
 74
     0
 42
0.000000001
 43
0.0000000001
 40
0.6478961059478704
 40
0.6478961059478704
 40
0.6478961059478704
 40
0.6478961059478704
 40
0.6748130597304716
 40
0.6748130597304716
 40
0.7017300135130728
 40
0.7017300135130728
 40
0.7490870107154937
 40
0.7490870107154937
 40
0.7964440079179146
 40
0.7964440079179146
 40
0.9212810589123712
 40
0.9212810589123712
 40
1.046118109906827
 40
1.046118109906827
 40
1.189401519658163
 40
1.189401519658163
 40
1.189401519658163
 40
1.189401519658163
 10
162.4483062430388
 20
89.43591508875428
 30
0.0
 10
162.4483062430388
 20
89.50917375786259
 30
0.0
 10
162.4312331310572
 20
89.58477547831797
 30
0.0
 10
162.3645271015345
 20
89.72179941139732
 30
0.0
 10
162.3152318500962
 20
89.78342274432677
 30
0.0
 10
162.1678494540157
 20
89.92277922008282
 30
0.0
 10
162.0419352057334
 20
89.99711609767789
 30
0.0
 10
161.7625487750058
 20
90.11608266743111
 30
0.0
 10
161.6092591583586
 20
90.16108025786728
 30
0.0
 10
161.0844548047532
 20
90.28488282943019
 30
0.0
 10
160.6735791314167
 20
90.32661709103154
 30
0.0
 10
159.8219101427917
 20
90.38996674770471
 30
0.0
 10
159.3807558478783
 20
90.40933513368969
 30
0.0
 10
158.4275602954586
 20
90.45998635273889
 30
0.0
 10
157.9153319143043
 20
90.49543276489069
 30
0.0
 10
157.419154564864
 20
90.54209696018281
 30
0.0
  0
SPLINE
  5
240
330
70
100
AcDbEntity
  8
Sichtbar (ISO)
100
AcDbSpline
210
0.0
220
0.0
230
1.0
 70
     8
 71
     3
 72
    20
 73
    16
 74
     0
 42
0.000000001
 43
0.0000000001
 40
1.402182904133317
 40
1.402182904133317
 40
1.402182904133317
 40
1.402182904133317
 40
1.545466313884654
 40
1.545466313884654
 40
1.67030336487911
 40
1.67030336487911
 40
1.795140415873567
 40
1.795140415873567
 40
1.842497413075988
 40
1.842497413075988
 40
1.889854410278409
 40
1.889854410278409
 40
1.91677136406101
 40
1.91677136406101
 40
1.943688317843611
 40
1.943688317843611
 40
1.943688317843611
 40
1.943688317843611
 10
155.3051226724655
 20
90.86913883208795
 30
0.0
 10
154.8334341824434
 20
90.97220400323964
 30
0.0
 10
154.3614383494742
 20
91.08901760689875
 30
0.0
 10
153.5153513880977
 20
91.31671636143034
 30
0.0
 10
153.1363053556419
 20
91.42423340766828
 30
0.0
 10
152.4269305295766
 20
91.60237806956146
 30
0.0
 10
152.0963392318336
 20
91.67534914757665
 30
0.0
 10
151.6864252818469
 20
91.69614800081243
 30
0.0
 10
151.5681961002502
 20
91.6931545146447
 30
0.0
 10
151.3553401939866
 20
91.65033809943713
 30
0.0
 10
151.2607842773765
 20
91.6101080750475
 30
0.0
 10
151.1508754770614
 20
91.51055468589412
 30
0.0
 10
151.1143282958896
 20
91.46221122350523
 30
0.0
 10
151.0649962463582
 20
91.34313844372805
 30
0.0
 10
151.0524281295987
 20
91.27212223731712
 30
0.0
 10
151.0524281295987
 20
91.19886356820884
 30
0.0
  0
SPLINE
  5
241
330
70
100
AcDbEntity
  8
Sichtbar (ISO)
100
AcDbSpline
210
0.0
220
0.0
230
1.0
 70
     8
 71
     3
 72
    20
 73
    16
 74
     0
 42
0.000000001
 43
0.0000000001
 40
0.6478961059478701
 40
0.6478961059478701
 40
0.6478961059478701
 40
0.6478961059478701
 40
0.6748130597304712
 40
0.6748130597304712
 40
0.7017300135130724
 40
0.7017300135130724
 40
0.7490870107154933
 40
0.7490870107154933
 40
0.7964440079179143
 40
0.7964440079179143
 40
0.9212810589123707
 40
0.9212810589123707
 40
1.046118109906827
 40
1.046118109906827
 40
1.189401519658167
 40
1.189401519658167
 40
1.189401519658167
 40
1.189401519658167
 10
171.0154729589908
 20
94.28715735100311
 30
0.0
 10
171.0154729589908
 20
94.36041602011139
 30
0.0
 10
171.0107774541894
 20
94.42876153497245
 30
0.0
 10
170.9920378674822
 20
94.53730359597516
 30
0.0
 10
170.9780315442575
 20
94.57782640401697
 30
0.0
 10
170.9350463139933
 20
94.65372700432475
 30
0.0
 10
170.8971849105507
 20
94.67347199801153
 30
0.0
 10
170.8078940969385
 20
94.66954615298483
 30
0.0
 10
170.7564047641228
 20
94.64628409360004
 30
0.0
 10
170.5712173296199
 20
94.53342273579352
 30
0.0
 10
170.4094920787252
 20
94.38429002265113
 30
0.0
 10
170.0324878269945
 20
94.03808193253906
 30
0.0
 10
169.8171151352869
 20
93.83860798965038
 30
0.0
 10
169.3048450829807
 20
93.40077067379096
 30
0.0
 10
168.9995527004715
 20
93.16371016472158
 30
0.0
 10
168.678741619848
 20
92.93804488332574
 30
0.0
  0
SPLINE
  5
242
330
70
100
AcDbEntity
  8
Sichtbar (ISO)
100
AcDbSpline
210
0.0
220
0.0
230
1.0
 70
     8
 71
     3
 72
    20
 73
    16
 74
     0
 42
0.000000001
 43
0.0000000001
 40
1.402182904133312
 40
1.402182904133312
 40
1.402182904133312
 40
1.402182904133312
 40
1.545466313884652
 40
1.545466313884652
 40
1.670303364879109
 40
1.670303364879109
 40
1.795140415873565
 40
1.795140415873565
 40
1.842497413075986
 40
1.842497413075986
 40
1.889854410278407
 40
1.889854410278407
 40
1.916771364061008
 40
1.916771364061008
 40
1.943688317843609
 40
1.943688317843609
 40
1.943688317843609
 40
1.943688317843609
 10
167.1311628657911
 20
92.04454987307912
 30
0.0
 10
166.7434469770177
 20
91.86114691796564
 30
0.0
 10
166.3282372287488
 20
91.68222532787872
 30
0.0
 10
165.5233410637857
 20
91.35959637363042
 30
0.0
 10
165.1382854434743
 20
91.212412868946
 30
0.0
 10
164.3725263100103
 20
90.89884621099603
 30
0.0
 10
163.9914600659404
 20
90.7345981084069
 30
0.0
 10
163.4923862114492
 20
90.45240102681676
 30
0.0
 10
163.3451099887403
 20
90.36090573921383
 30
0.0
 10
163.0740544020385
 20
90.15678549301776
 30
0.0
 10
162.9505204432267
 20
90.04385884348751
 30
0.0
 10
162.8051554453891
 20
89.85921418828324
 30
0.0
 10
162.7563207464979
 20
89.78241009920671
 30
0.0
 10
162.6901145637248
 20
89.62482457532802
 30
0.0
 10
162.673111183089
 20
89.54395120311863
 30
0.0
 10
162.673111183089
 20
89.47069253401037
 30
0.0
  0
SPLINE
  5
243
330
70
100
AcDbEntity
  8
Sichtbar (ISO)
100
AcDbSpline
210
0.0
220
0.0
230
1.0
 70
     8
 71
     3
 72
    18
 73
    14
 74
     0
 42
0.000000001
 43
0.0000000001
 40
1.594227813443118
 40
1.594227813443118
 40
1.594227813443118
 40
1.594227813443118
 40
1.670303364879111
 40
1.670303364879111
 40
1.795140415873568
 40
1.795140415873568
 40
1.842497413075989
 40
1.842497413075989
 40
1.88985441027841
 40
1.88985441027841
 40
1.916771364061012
 40
1.916771364061012
 40
1.943688317843613
 40
1.943688317843613
 40
1.943688317843613
 40
1.943688317843613
 10
171.4549611514346
 20
97.33438917142807
 30
0.0
 10
171.4549368009433
 20
97.16573532988192
 30
0.0
 10
171.4459944069423
 20
96.99273119019927
 30
0.0
 10
171.4006219880752
 20
96.51987817193017
 30
0.0
 10
171.3501470417484
 20
96.21178300587546
 30
0.0
 10
171.2609871372439
 20
95.73350800462007
 30
0.0
 10
171.2319400961317
 20
95.58323829574346
 30
0.0
 10
171.1737404156935
 20
95.26936629383405
 30
0.0
 10
171.1447623734917
 20
95.10560231063259
 30
0.0
 10
171.1093061759692
 20
94.86068392364161
 30
0.0
 10
171.0970186582499
 20
94.76350576236157
 30
0.0
 10
171.0801445250081
 20
94.57822679981129
 30
0.0
 10
171.0757092611318
 20
94.49020721276452
 30
0.0
 10
171.0757092611318
 20
94.41694854365623
 30
0.0
  0
ELLIPSE
  5
244
330
70
100
AcDbEntity
  8
Sichtbar (ISO)
100
AcDbEllipse
 10
159.4550262076418
 20
97.36986444924637
 30
0.0
 11
-12.00000000000039
 21
0.0000000000000039
 31
0.0
210
0.0
220
0.0
230
1.0
 40
0.577350269189626
 41
0.1704805682213122
 42
0.353118207376689
  0
ELLIPSE
  5
245
330
70
100
AcDbEntity
  8
Sichtbar (ISO)
100
AcDbEllipse
 10
159.4550262076414
 20
97.369864449246
 30
0.0
 11
11.99999999999961
 21
-0.0000000000000017
 31
0.0
210
0.0
220
0.0
230
1.0
 40
0.5773502691896258
 41
4.359270773007696
 42
4.541908412163085
  0
ELLIPSE
  5
246
330
70
100
AcDbEntity
  8
Sichtbar (ISO)
100
AcDbEllipse
 10
159.4550262076415
 20
97.36986444924632
 30
0.0
 11
12.00000000000018
 21
-0.0000000000000011
 31
0.0
210
0.0
220
0.0
230
1.0
 40
0.5773502691896257
 41
5.406468324204304
 42
5.589105963359675
  0
LINE
  5
247
330
70
100
AcDbEntity
  8
Sichtbar (ISO)
100
AcDbLine
 10
171.0757092611318
 20
83.80249299159579
 30
0.0
 11
171.0757092611318
 21
94.41694854365623
 31
0.0
  0
SPLINE
  5
248
330
70
100
AcDbEntity
  8
Sichtbar (ISO)
100
AcDbSpline
210
0.0
220
0.0
230
1.0
 70
     8
 71
     3
 72
    10
 73
     6
 74
     0
 42
0.000000001
 43
0.0000000001
 40
1.789250764404943
 40
1.789250764404943
 40
1.789250764404943
 40
1.789250764404943
 40
1.798892649323615
 40
1.798892649323615
 40
1.838103658069205
 40
1.838103658069205
 40
1.838103658069205
 40
1.838103658069205
 10
171.0338849945286
 20
83.50215543768973
 30
0.0
 10
171.0389337098833
 20
83.51363006875111
 30
0.0
 10
171.0435510239654
 20
83.52637695420076
 30
0.0
 10
171.0642347778954
 20
83.59765808400688
 30
0.0
 10
171.0757092611318
 20
83.6957741430108
 30
0.0
 10
171.0757092611318
 20
83.80249299159579
 30
0.0
  0
LINE
  5
249
330
70
100
AcDbEntity
  8
Sichtbar (ISO)
100
AcDbLine
 10
151.0524281295987
 20
80.58440801614841
 30
0.0
 11
151.0524281295987
 21
91.19886356820884
 31
0.0
  0
SPLINE
  5
24A
330
70
100
AcDbEntity
  8
Sichtbar (ISO)
100
AcDbSpline
210
0.0
220
0.0
230
1.0
 70
     8
 71
     3
 72
    14
 73
    10
 74
     0
 42
0.000000001
 43
0.0000000001
 40
1.321353217787934
 40
1.321353217787934
 40
1.321353217787934
 40
1.321353217787934
 40
1.648579871294984
 40
1.648579871294984
 40
1.743139402702127
 40
1.743139402702127
 40
1.798892649323614
 40
1.798892649323614
 40
1.838103658069205
 40
1.838103658069205
 40
1.838103658069205
 40
1.838103658069205
 10
155.7617667588278
 20
78.63112592340444
 30
0.0
 10
154.7081778399192
 20
78.79411669639011
 30
0.0
 10
153.4439760727806
 20
78.97592033572633
 30
0.0
 10
152.1358586992626
 20
79.48670090354835
 30
0.0
 10
151.7960536987012
 20
79.65271920930025
 30
0.0
 10
151.4001678872767
 20
79.949286443578
 30
0.0
 10
151.2453052101054
 20
80.09981518853967
 30
0.0
 10
151.0952514840275
 20
80.34822423736704
 30
0.0
 10
151.0524281295987
 20
80.47768916756339
 30
0.0
 10
151.0524281295987
 20
80.58440801614841
 30
0.0
  0
LINE
  5
24B
330
70
100
AcDbEntity
  8
Sichtbar (ISO)
100
AcDbLine
 10
157.7389676138096
 20
78.32525188665465
 30
0.0
 11
155.7617667588278
 21
78.63112592340444
 31
0.0
  0
SPLINE
  5
24C
330
70
100
AcDbEntity
  8
Sichtbar (ISO)
100
AcDbSpline
210
0.0
220
0.0
230
1.0
 70
     8
 71
     3
 72
    14
 73
    10
 74
     0
 42
0.000000001
 43
0.0000000001
 40
0.6127012193564018
 40
0.6127012193564018
 40
0.6127012193564018
 40
0.6127012193564018
 40
0.6519122281019924
 40
0.6519122281019924
 40
0.7076654747234801
 40
0.7076654747234801
 40
0.8022250061306229
 40
0.8022250061306229
 40
1.129451659637673
 40
1.129451659637673
 40
1.129451659637673
 40
1.129451659637673
 10
162.4483062430388
 20
78.82145953669385
 30
0.0
 10
162.4483062430388
 20
78.71474068810885
 30
0.0
 10
162.4054828886099
 20
78.59852534988319
 30
0.0
 10
162.255429162532
 20
78.39654308547597
 30
0.0
 10
162.1005664853608
 20
78.29392901958083
 30
0.0
 10
161.7046806739363
 20
78.11984928163131
 30
0.0
 10
161.3648756733748
 20
78.05896700894109
 30
0.0
 10
160.0567582998569
 20
77.95291936501226
 30
0.0
 10
158.7925565327183
 20
78.16226111366898
 30
0.0
 10
157.7389676138096
 20
78.32525188665465
 30
0.0
  0
LINE
  5
24D
330
70
100
AcDbEntity
  8
Sichtbar (ISO)
100
AcDbLine
 10
162.4483062430388
 20
89.43591508875428
 30
0.0
 11
162.4483062430388
 21
78.82145953669385
 31
0.0
  0
LINE
  5
24E
330
70
100
AcDbEntity
  8
Sichtbar (ISO)
100
AcDbLine
 10
147.8343431541513
 20
87.25883505999277
 30
0.0
 11
147.8343431541513
 21
95.64169341504783
 31
0.0
  0
SPLINE
  5
24F
330
70
100
AcDbEntity
  8
Sichtbar (ISO)
100
AcDbSpline
210
0.0
220
0.0
230
1.0
 70
     8
 71
     3
 72
    14
 73
    10
 74
     0
 42
0.000000001
 43
0.0000000001
 40
1.321353217787928
 40
1.321353217787928
 40
1.321353217787928
 40
1.321353217787928
 40
1.648579871294981
 40
1.648579871294981
 40
1.743139402702124
 40
1.743139402702124
 40
1.798892649323612
 40
1.798892649323612
 40
1.838103658069202
 40
1.838103658069202
 40
1.838103658069202
 40
1.838103658069202
 10
149.0962066367373
 20
83.31515226331042
 30
0.0
 10
148.8138983367615
 20
83.92344210925758
 30
0.0
 10
148.4751564941869
 20
84.63956028516486
 30
0.0
 10
148.1246475003478
 20
85.70321630877259
 30
0.0
 10
148.0335970248634
 20
86.01285310653976
 30
0.0
 10
147.9275197413973
 20
86.47674137244772
 30
0.0
 10
147.8860244121115
 20
86.69272278622841
 30
0.0
 10
147.8458176373877
 20
87.00455200198968
 30
0.0
 10
147.8343431541513
 20
87.15211621140779
 30
0.0
 10
147.8343431541513
 20
87.25883505999277
 30
0.0
  0
LINE
  5
250
330
70
100
AcDbEntity
  8
Sichtbar (ISO)
100
AcDbLine
 10
149.6259960091035
 20
82.17361481744465
 30
0.0
 11
149.0962066367373
 21
83.31515226331042
 31
0.0
  0
SPLINE
  5
251
330
70
100
AcDbEntity
  8
Sichtbar (ISO)
100
AcDbSpline
210
0.0
220
0.0
230
1.0
 70
     8
 71
     3
 72
    14
 73
    10
 74
     0
 42
0.000000001
 43
0.0000000001
 40
0.6127012193564008
 40
0.6127012193564008
 40
0.6127012193564008
 40
0.6127012193564008
 40
0.6519122281019911
 40
0.6519122281019911
 40
0.7076654747234796
 40
0.7076654747234796
 40
0.802225006130622
 40
0.802225006130622
 40
1.129451659637675
 40
1.129451659637675
 40
1.129451659637675
 40
1.129451659637675
 10
150.8878594916895
 20
80.67942176354547
 30
0.0
 10
150.8878594916895
 20
80.57270291496047
 30
0.0
 10
150.8763850084531
 20
80.47458685595655
 30
0.0
 10
150.8361782337293
 20
80.33602475848324
 30
0.0
 10
150.7946829044435
 20
80.29886336140711
 30
0.0
 10
150.6886056209775
 20
80.2921046550878
 30
0.0
 10
150.597555145493
 20
80.37484087441287
 30
0.0
 10
150.2470461516539
 20
80.82166868626972
 30
0.0
 10
149.9083043090793
 20
81.56532497149749
 30
0.0
 10
149.6259960091035
 20
82.17361481744466
 30
0.0
  0
LINE
  5
252
330
70
100
AcDbEntity
  8
Sichtbar (ISO)
100
AcDbLine
 10
150.8878594916895
 20
91.29387731560591
 30
0.0
 11
150.8878594916895
 21
80.67942176354547
 31
0.0
  0
SPLINE
  5
253
330
70
100
AcDbEntity
  8
Sichtbar (ISO)
100
AcDbSpline
210
0.0
220
0.0
230
1.0
 70
     8
 71
     3
 72
    14
 73
    10
 74
     0
 42
0.000000001
 43
0.0000000001
 40
0.6127012193563997
 40
0.6127012193563997
 40
0.6127012193563997
 40
0.6127012193563997
 40
0.65191222810199
 40
0.65191222810199
 40
0.7076654747234781
 40
0.7076654747234781
 40
0.8022250061306202
 40
0.8022250061306202
 40
1.129451659637677
 40
1.129451659637677
 40
1.129451659637677
 40
1.129451659637677
 10
171.0154729589908
 20
83.67270179894266
 30
0.0
 10
171.0154729589908
 20
83.56598295035766
 30
0.0
 10
170.9841240877984
 20
83.4250435369249
 30
0.0
 10
170.8742771364444
 20
83.13642771337372
 30
0.0
 10
170.7609097885588
 20
82.94440363912629
 30
0.0
 10
170.4711012606003
 20
82.54175912138245
 30
0.0
 10
170.2223467355234
 20
82.28469034014612
 30
0.0
 10
169.2647383558445
 20
81.423400778485
 30
0.0
 10
168.3392784312805
 20
80.90285529657416
 30
0.0
 10
167.5679978123476
 20
80.45755622361268
 30
0.0
  0
SPLINE
  5
254
330
70
100
AcDbEntity
  8
Sichtbar (ISO)
100
AcDbSpline
210
0.0
220
0.0
230
1.0
 70
     8
 71
     3
 72
    14
 73
    10
 74
     0
 42
0.000000001
 43
0.0000000001
 40
1.321353217787921
 40
1.321353217787921
 40
1.321353217787921
 40
1.321353217787921
 40
1.648579871294978
 40
1.648579871294978
 40
1.74313940270212
 40
1.74313940270212
 40
1.798892649323608
 40
1.798892649323608
 40
1.838103658069199
 40
1.838103658069199
 40
1.838103658069199
 40
1.838103658069199
 10
166.1205863297322
 20
79.62189281449673
 30
0.0
 10
165.3493057107993
 20
79.17659374153524
 30
0.0
 10
164.4238457862353
 20
78.6285101503039
 30
0.0
 10
163.4662374065564
 20
78.38404880039366
 30
0.0
 10
163.2174828814795
 20
78.35388059759941
 30
0.0
 10
162.927674353521
 20
78.42188305208286
 30
0.0
 10
162.8143070056355
 20
78.48300178869225
 30
0.0
 10
162.7044600542814
 20
78.64477727837564
 30
0.0
 10
162.673111183089
 20
78.74951813336491
 30
0.0
 10
162.673111183089
 20
78.85623698194992
 30
0.0
  0
SPLINE
  5
255
330
70
100
AcDbEntity
  8
Sichtbar (ISO)
100
AcDbSpline
210
0.0
220
0.0
230
1.0
 70
     8
 71
     3
 72
    16
 73
    12
 74
     0
 42
0.000000001
 43
0.0000000001
 40
1.02572985609907
 40
1.02572985609907
 40
1.02572985609907
 40
1.02572985609907
 40
1.035227207427614
 40
1.035227207427614
 40
1.044724558756159
 40
1.044724558756159
 40
1.054221910084703
 40
1.054221910084703
 40
1.063719261413248
 40
1.063719261413248
 40
1.073216612741792
 40
1.073216612741792
 40
1.073216612741792
 40
1.073216612741792
 10
171.0340058297154
 20
83.50162345963736
 30
0.0
 10
171.0232070834332
 20
83.4761829625058
 30
0.0
 10
171.0122161681315
 20
83.45081231513526
 30
0.0
 10
170.9898542038501
 20
83.40021388727322
 30
0.0
 10
170.9784831551884
 20
83.37498610664285
 30
0.0
 10
170.9553651469169
 20
83.32467638809704
 30
0.0
 10
170.9436181876067
 20
83.29959445002415
 30
0.0
 10
170.919752589199
 20
83.24957920559745
 30
0.0
 10
170.9076339503819
 20
83.22464589906973
 30
0.0
 10
170.8830292238477
 20
83.17493052488462
 30
0.0
 10
170.8705431363914
 20
83.15014845703897
 30
0.0
 10
170.8578754357313
 20
83.12544322399801
 30
0.0
  0
SPLINE
  5
256
330
70
100
AcDbEntity
  8
Sichtbar (ISO)
100
AcDbSpline
210
0.0
220
0.0
230
1.0
 70
     8
 71
     3
 72
    16
 73
    12
 74
     0
 42
0.000000001
 43
0.0000000001
 40
1.98335408491209
 40
1.98335408491209
 40
1.98335408491209
 40
1.98335408491209
 40
2.029191243319126
 40
2.029191243319126
 40
2.075028401726161
 40
2.075028401726161
 40
2.120865560133196
 40
2.120865560133196
 40
2.166702718540231
 40
2.166702718540231
 40
2.212539876947266
 40
2.212539876947266
 40
2.212539876947266
 40
2.212539876947266
 10
163.6101912539031
 20
78.42182258576915
 30
0.0
 10
163.4466237473116
 20
78.38488550977189
 30
0.0
 10
163.2818313069799
 20
78.35016742291002
 30
0.0
 10
162.9500847415893
 20
78.28520294114881
 30
0.0
 10
162.7831306333894
 20
78.25495656745194
 30
0.0
 10
162.4473538518468
 20
78.19896621813865
 30
0.0
 10
162.2785311980283
 20
78.17322226043805
 30
0.0
 10
161.9393148061685
 20
78.12626380610286
 30
0.0
 10
161.7689210896825
 20
78.10504932420958
 30
0.0
 10
161.4268637961913
 20
78.06717275194215
 30
0.0
 10
161.2552002422607
 20
78.05051067325551
 30
0.0
 10
161.0830539056348
 20
78.03613399130799
 30
0.0
  0
SPLINE
  5
257
330
70
100
AcDbEntity
  8
Sichtbar (ISO)
100
AcDbSpline
210
0.0
220
0.0
230
1.0
 70
     8
 71
     3
 72
    16
 73
    12
 74
     0
 42
0.000000001
 43
0.0000000001
 40
3.051693351486153
 40
3.051693351486153
 40
3.051693351486153
 40
3.051693351486153
 40
3.084506581935704
 40
3.084506581935704
 40
3.117319812385255
 40
3.117319812385255
 40
3.150133042834806
 40
3.150133042834806
 40
3.182946273284357
 40
3.182946273284357
 40
3.215759503733908
 40
3.215759503733908
 40
3.215759503733908
 40
3.215759503733908
 10
152.0758074893389
 20
79.52522577645476
 30
0.0
 10
151.9758866595118
 20
79.57337460350351
 30
0.0
 10
151.8770729631187
 20
79.62259569899394
 30
0.0
 10
151.6817507968771
 20
79.72317265707785
 30
0.0
 10
151.5852423139936
 20
79.77452851466456
 30
0.0
 10
151.3946211474972
 20
79.87936660163898
 30
0.0
 10
151.3005084479512
 20
79.93284882761511
 30
0.0
 10
151.1147694881741
 20
80.04193277122384
 30
0.0
 10
151.023143208864
 20
80.09753448774075
 30
0.0
 10
150.8424683211813
 20
80.21085211826175
 30
0.0
 10
150.7534196904081
 20
80.26856803431719
 30
0.0
 10
150.6657061175049
 20
80.32733918980055
 30
0.0
  0
SPLINE
  5
258
330
70
100
AcDbEntity
  8
Sichtbar (ISO)
100
AcDbSpline
210
0.0
220
0.0
230
1.0
 70
     8
 71
     3
 72
    26
 73
    22
 74
     0
 42
0.000000001
 43
0.0000000001
 40
0.7853981633973003
 40
0.7853981633973003
 40
0.7853981633973003
 40
0.7853981633973003
 40
1.067109690552614
 40
1.067109690552614
 40
1.369033585932411
 40
1.369033585932411
 40
1.696527247008054
 40
1.696527247008054
 40
2.028526839242038
 40
2.028526839242038
 40
2.358621455079701
 40
2.358621455079701
 40
2.687801393101875
 40
2.687801393101875
 40
3.017917108912532
 40
3.017917108912532
 40
3.349923249160593
 40
3.349923249160593
 40
3.677125500235582
 40
3.677125500235582
 40
3.926990816987093
 40
3.926990816987093
 40
3.926990816987093
 40
3.926990816987093
 10
187.7050262076416
 20
113.1365319043773
 30
0.0
 10
187.7050262076416
 20
111.3880849744801
 30
0.0
 10
187.2697428659163
 20
109.6459999714703
 30
0.0
 10
185.5884795113438
 20
106.2919915096453
 30
0.0
 10
184.2952229865407
 20
104.694800865799
 30
0.0
 10
180.9198918133137
 20
101.7438365165424
 30
0.0
 10
178.7776316473551
 20
100.4180491214393
 30
0.0
 10
173.908692008934
 20
98.23785177300539
 30
0.0
 10
171.173505089085
 20
97.39107920347317
 30
0.0
 10
165.4197928079964
 20
96.26189328950331
 30
0.0
 10
162.4038892547592
 20
95.97690875960527
 30
0.0
 10
156.3814982561933
 20
95.98534740362522
 30
0.0
 10
153.3761691634663
 20
96.27715560410251
 30
0.0
 10
147.6537992213172
 20
97.41472834708751
 30
0.0
 10
144.9384819788337
 20
98.26141793433837
 30
0.0
 10
140.0571135647248
 20
100.4564723097896
 30
0.0
 10
137.8934344671903
 20
101.8068041640303
 30
0.0
 10
134.3895751766617
 20
104.9143306799767
 30
0.0
 10
133.034984756149
 20
106.6708790104537
 30
0.0
 10
131.5463800601767
 20
110.0386356829002
 30
0.0
 10
131.2050262076416
 20
111.5857389695852
 30
0.0
 10
131.2050262076416
 20
113.1365319043773
 30
0.0
  0
ELLIPSE
  5
259
330
70
100
AcDbEntity
  8
Sichtbar schmal (ISO)
100
AcDbEllipse
 10
159.4550262076416
 20
114.5633767128164
 30
0.0
 11
-28.25000000000001
 21
0.0000000000000125
 31
0.0
210
0.0
220
0.0
230
1.0
 40
0.5773502691896258
 41
0.0000000000000017
 42
3.141592653589793
  0
ELLIPSE
  5
25A
330
70
100
AcDbEntity
  8
Sichtbar (ISO)
100
AcDbEllipse
 10
159.4550262076416
 20
113.3642221143485
 30
0.0
 11
25.73300387444052
 21
-0.0000000000000022
 31
0.0
210
0.0
220
0.0
230
1.0
 40
0.5773502691896258
 41
5.305576320179754
 42
10.40238694776921
  0
LINE
  5
25B
330
70
100
AcDbEntity
  8
Sichtbar (ISO)
100
AcDbLine
 10
131.2050262076416
 20
113.1365319043773
 30
0.0
 11
131.2050262076416
 21
114.5633767128164
 31
0.0
  0
LINE
  5
25C
330
70
100
AcDbEntity
  8
Sichtbar (ISO)
100
AcDbLine
 10
187.7050262076416
 20
113.1365319043773
 30
0.0
 11
187.7050262076416
 21
114.5633767128164
 31
0.0
  0
SPLINE
  5
25D
330
70
100
AcDbEntity
  8
Sichtbar (ISO)
100
AcDbSpline
210
0.0
220
0.0
230
1.0
 70
     8
 71
     3
 72
    26
 73
    22
 74
     0
 42
0.000000001
 43
0.0000000001
 40
5.497787143782286
 40
5.497787143782286
 40
5.497787143782286
 40
5.497787143782286
 40
5.811167366019675
 40
5.811167366019675
 40
6.129158052300741
 40
6.129158052300741
 40
6.450674860936726
 40
6.450674860936726
 40
6.772409739771233
 40
6.772409739771233
 40
7.093840371717724
 40
7.093840371717724
 40
7.415159135886158
 40
7.415159135886158
 40
7.736629849454299
 40
7.736629849454299
 40
8.058404348202351
 40
8.058404348202351
 40
8.379684971499948
 40
8.379684971499948
 40
8.639379797372079
 40
8.639379797372079
 40
8.639379797372079
 40
8.639379797372079
 10
187.7050262076416
 20
114.5633767128164
 30
0.0
 10
187.7050262076416
 20
116.3033217098185
 30
0.0
 10
187.2277695651639
 20
118.0415027670946
 30
0.0
 10
185.3694295510298
 20
121.3523639021376
 30
0.0
 10
183.9768716993847
 20
122.9228544827966
 30
0.0
 10
180.4088702833048
 20
125.7400591055996
 30
0.0
 10
178.2249413569536
 20
126.9830123849171
 30
0.0
 10
173.2958659093816
 20
129.0056851290944
 30
0.0
 10
170.5510211222093
 20
129.7846518628136
 30
0.0
 10
164.7809878448089
 20
130.8012032450013
 30
0.0
 10
161.7570664497938
 20
131.0390726503628
 30
0.0
 10
155.7335734795774
 20
130.9512189202388
 30
0.0
 10
152.7350570490585
 20
130.6257129989837
 30
0.0
 10
147.063121271632
 20
129.4430485089711
 30
0.0
 10
144.3908253506814
 20
128.5859057275274
 30
0.0
 10
139.6407848109515
 20
126.4219054763904
 30
0.0
 10
137.5642069784693
 20
125.1150611111056
 30
0.0
 10
134.2238413260417
 20
122.1777046838933
 30
0.0
 10
132.9588883943833
 20
120.5474023874977
 30
0.0
 10
131.531804435187
 20
117.4463732552742
 30
0.0
 10
131.2050262076416
 20
116.005250452638
 30
0.0
 10
131.2050262076416
 20
114.5633767128164
 30
0.0
  0
SPLINE
  5
25E
330
70
100
AcDbEntity
  8
Sichtbar (ISO)
100
AcDbSpline
210
0.0
220
0.0
230
1.0
 70
     8
 71
     3
 72
    16
 73
    12
 74
     0
 42
0.000000001
 43
0.0000000001
 40
3.358467731052474
 40
3.358467731052474
 40
3.358467731052474
 40
3.358467731052474
 40
3.58587696542644
 40
3.58587696542644
 40
3.813286199800406
 40
3.813286199800406
 40
4.040695434174372
 40
4.040695434174372
 40
4.268104668548338
 40
4.268104668548338
 40
4.495513902922303
 40
4.495513902922303
 40
4.495513902922303
 40
4.495513902922303
 10
144.5109010922695
 20
101.2462877107904
 30
0.0
 10
146.2810512389176
 20
100.5933475016361
 30
0.0
 10
148.1822286751169
 20
100.0564625816741
 30
0.0
 10
152.1476750829162
 20
99.24372880169032
 30
0.0
 10
154.2117621238487
 20
98.96790567460042
 30
0.0
 10
158.3953627374154
 20
98.69207346107831
 30
0.0
 10
160.5146896778677
 20
98.69207346107835
 30
0.0
 10
164.6982902914345
 20
98.96790567460042
 30
0.0
 10
166.7623773323669
 20
99.24372880169032
 30
0.0
 10
170.7278237401662
 20
100.0564625816741
 30
0.0
 10
172.6290011763656
 20
100.5933475016361
 30
0.0
 10
174.3991513230136
 20
101.2462877107904
 30
0.0
  0
LINE
  5
25F
330
70
100
AcDbEntity
  8
Sichtbar (ISO)
100
AcDbLine
 10
171.4550262076417
 20
97.57591846785119
 30
0.0
 11
171.4550262076417
 21
97.33429237360411
 31
0.0
  0
LINE
  5
260
330
70
100
AcDbEntity
  8
Sichtbar (ISO)
100
AcDbLine
 10
147.4550262076414
 20
97.57591846785121
 30
0.0
 11
147.4550262076414
 21
97.33429237360413
 31
0.0
  0
SPLINE
  5
261
330
70
100
AcDbEntity
  8
Sichtbar (ISO)
100
AcDbSpline
210
0.0
220
0.0
230
1.0
 70
     8
 71
     3
 72
    30
 73
    26
 74
     0
 42
0.000000001
 43
0.0000000001
 40
1.265678889068921
 40
1.265678889068921
 40
1.265678889068921
 40
1.265678889068921
 40
1.318526680914039
 40
1.318526680914039
 40
1.507776977412637
 40
1.507776977412637
 40
1.695938016777545
 40
1.695938016777545
 40
1.897995984153684
 40
1.897995984153684
 40
2.117265715823282
 40
2.117265715823282
 40
2.349936718682945
 40
2.349936718682945
 40
2.587800813482855
 40
2.587800813482855
 40
2.820783389198424
 40
2.820783389198424
 40
3.039557543889794
 40
3.039557543889794
 40
3.239607115024372
 40
3.239607115024372
 40
3.426312774166697
 40
3.426312774166697
 40
3.446710091315472
 40
3.446710091315472
 40
3.446710091315472
 40
3.446710091315472
 10
169.6857024980399
 20
102.3248713782154
 30
0.0
 10
169.6857024980399
 20
102.3248713782154
 30
0.0
 10
169.6775213978775
 20
102.3158295007094
 30
0.0
 10
169.5987042285666
 20
102.2387188236676
 30
0.0
 10
169.4182860556944
 20
102.0791670587376
 30
0.0
 10
168.8039494876683
 20
101.6767010980742
 30
0.0
 10
168.3729885469982
 20
101.4347262701807
 30
0.0
 10
167.2560743832637
 20
100.9339894203461
 30
0.0
 10
166.5543224091684
 20
100.6752400421133
 30
0.0
 10
164.9043225758187
 20
100.2053972602638
 30
0.0
 10
163.9405174891994
 20
100.0000751062579
 30
0.0
 10
161.8388012604701
 20
99.70450672754621
 30
0.0
 10
160.694024623146
 20
99.62195762096017
 30
0.0
 10
158.375455154006
 20
99.6135806915444
 30
0.0
 10
157.2017139136674
 20
99.69135147791945
 30
0.0
 10
155.0042168280447
 20
99.99056566298676
 30
0.0
 10
153.9780894683256
 20
100.2092712703784
 30
0.0
 10
152.2215906942888
 20
100.7175225730289
 30
0.0
 10
151.4774753803293
 20
101.0022291618138
 30
0.0
 10
150.3376393614332
 20
101.5380672233465
 30
0.0
 10
149.9184389063696
 20
101.7899719285464
 30
0.0
 10
149.383533732178
 20
102.1661565137312
 30
0.0
 10
149.2507933742609
 20
102.2969060617976
 30
0.0
 10
149.2255649687232
 20
102.3235253480557
 30
0.0
 10
149.2243499172432
 20
102.3248713782154
 30
0.0
 10
149.2243499172432
 20
102.3248713782154
 30
0.0
  0
ELLIPSE
  5
262
330
70
100
AcDbEntity
  8
Sichtbar (ISO)
100
AcDbEllipse
 10
159.4550262076416
 20
97.36986444924632
 30
0.0
 11
7.500000000000001
 21
-0.0000000000004499
 31
0.0
210
0.0
220
0.0
230
1.0
 40
0.5773502691896259
 41
0.7306324374402307
 42
2.410960216150105
  0
LINE
  5
263
330
70
100
AcDbEntity
  8
Sichtbar (ISO)
100
AcDbLine
 10
162.673111183089
 20
78.85623698194992
 30
0.0
 11
162.673111183089
 21
89.47069253401037
 31
0.0
  0
LINE
  5
264
330
70
100
AcDbEntity
  8
Sichtbar (ISO)
100
AcDbLine
 10
171.0154729589908
 20
94.28715735100309
 30
0.0
 11
171.0154729589908
 21
83.67270179894266
 31
0.0
  0
LINE
  5
265
330
70
100
AcDbEntity
  8
Sichtbar (ISO)
100
AcDbLine
 10
167.5679978123476
 20
80.45755622361268
 30
0.0
 11
166.1205863297322
 21
79.62189281449673
 31
0.0
  0
ELLIPSE
  5
266
330
70
100
AcDbEntity
  8
Sichtbar (ISO)
100
AcDbEllipse
 10
159.4550262076416
 20
76.95744992605319
 30
0.0
 11
6.578500000000008
 21
0.0000000000000007
 31
0.0
210
0.0
220
0.0
230
1.0
 40
0.5773502691896251
 41
3.141592653589794
 42
6.283185307179587
  0
ELLIPSE
  5
267
330
70
100
AcDbEntity
  8
Sichtbar (ISO)
100
AcDbEllipse
 10
159.4550262076416
 20
76.14095334512547
 30
0.0
 11
5.578500000000006
 21
0.0000000000003336
 31
0.0
210
0.0
220
0.0
230
1.0
 40
0.5773502691896251
 41
3.926990816987004
 42
5.497787143781753
  0
LINE
  5
268
330
70
100
AcDbEntity
  8
Sichtbar (ISO)
100
AcDbLine
 10
155.5104310287924
 20
73.86354025677279
 30
0.0
 11
154.8033242476059
 21
74.27178854723665
 31
0.0
  0
LINE
  5
269
330
70
100
AcDbEntity
  8
Sichtbar (ISO)
100
AcDbLine
 10
163.3996213864907
 20
73.86354025677279
 30
0.0
 11
164.1067281676773
 21
74.27178854723665
 31
0.0
  0
ELLIPSE
  5
26A
330
70
100
AcDbEntity
  8
Sichtbar (ISO)
100
AcDbEllipse
 10
159.4550262076415
 20
96.5533678683186
 30
0.0
 11
5.722500000000001
 21
0.0000000000000028
 31
0.0
210
0.0
220
0.0
230
1.0
 40
0.5773502691896252
 41
1.245023991960273
 42
1.896568661629508
  0
ELLIPSE
  5
26B
330
70
100
AcDbEntity
  8
Sichtbar (ISO)
100
AcDbEllipse
 10
159.4550262076415
 20
97.36986444924632
 30
0.0
 11
-6.722500000000008
 21
-0.0000000000004033
 31
0.0
210
0.0
220
0.0
230
1.0
 40
0.5773502691896252
 41
3.916501540745375
 42
5.508276420023507
  0
LINE
  5
26C
330
70
100
AcDbEntity
  8
Sichtbar (ISO)
100
AcDbLine
 10
152.8765262076416
 20
76.95744992605319
 30
0.0
 11
152.8765262076416
 21
79.21608057731076
 31
0.0
  0
LINE
  5
26D
330
70
100
AcDbEntity
  8
Sichtbar (ISO)
100
AcDbLine
 10
166.0335262076416
 20
76.95744992605319
 30
0.0
 11
166.0335262076416
 21
79.57167263363867
 31
0.0
  0
DIMENSION
  5
26E
330
70
100
AcDbEntity
  8
Bemaßung (ISO)
100
AcDbDimension
280
     0
  2
*D6
 10
26.03246720056466
 20
202.0576266832483
 30
0.0
 11
26.03246720056472
 21
225.7364596662561
 31
0.0
 70
   160
  1
<>
 42
47.35766596601584
 73
     0
 74
     0
 75
     0
  3
Standard (DIN)
100
AcDbAlignedDimension
 13
34.6609672005647
 23
249.4152926492641
 33
0.0
 14
57.0324672005647
 24
202.0576266832482
 34
0.0
 50
270.0
100
AcDbRotatedDimension
1001
ACAD
1000
DSTYLE
1002
{
1070
   172
1070
     0
1070
   289
1070
     1
1070
   271
1070
     1
1070
   147
1040
0.4
1070
    72
1070
     0
1070
    71
1070
     0
1070
   272
1070
     2
1070
    48
1040
0.0
1070
    47
1040
0.0
1002
}
  0
DIMENSION
  5
35C
330
70
100
AcDbEntity
  8
Bemaßung (ISO)
100
AcDbDimension
280
     0
  2
*D7
 10
90.86096720056472
 20
258.691833344632
 30
0.0
 11
62.6109672005647
 21
258.691833344632
 31
0.0
 70
   160
  1
\fAIGDT|b0|i0;\H2.4873;n\fArial|b0|i0;\H2.5000;<>
 42
56.50000000000002
 73
     0
 74
     0
 75
     0
  3
Standard (DIN)
100
AcDbAlignedDimension
 13
34.3609672005647
 23
249.1152926492641
 33
0.0
 14
90.86096720056472
 24
249.1152926492641
 34
0.0
 50
180.0
100
AcDbRotatedDimension
1001
ACAD
1000
DSTYLE
1002
{
1070
   172
1070
     0
1070
   289
1070
     1
1070
   271
1070
     2
1070
   147
1040
0.4
1070
    72
1070
     0
1070
    71
1070
     0
1070
   272
1070
     2
1070
    48
1040
0.0
1070
    47
1040
0.0
1002
}
  0
DIMENSION
  5
44A
330
70
100
AcDbEntity
  8
Bemaßung (ISO)
100
AcDbDimension
280
     0
  2
*D8
 10
164.1838070567958
 20
193.0576266832482
 30
0.0
 11
153.7338070567958
 21
193.0576266832482
 31
0.0
 70
   160
  1
\fArial|b0|i0;\H2.4873;SW <>
 42
20.90000000000001
 73
     0
 74
     0
 75
     0
  3
Standard (DIN)
100
AcDbAlignedDimension
 13
143.2838070567958
 23
212.0576266832483
 33
0.0
 14
164.1838070567958
 24
212.0576266832482
 34
0.0
 50
180.0
100
AcDbRotatedDimension
1001
ACAD
1000
DSTYLE
1002
{
1070
   172
1070
     0
1070
   289
1070
     1
1070
   271
1070
     0
1070
   147
1040
0.4
1070
    72
1070
     0
1070
    71
1070
     0
1070
   272
1070
     2
1070
    48
1040
0.0
1070
    47
1040
0.0
1002
}
  0
DIMENSION
  5
537
330
70
100
AcDbEntity
  8
Bemaßung (ISO)
100
AcDbDimension
280
     0
  2
*D9
 10
69.18946720056469
 20
193.0576266832482
 30
0.0
 11
62.61096720056468
 21
193.0576266832482
 31
0.0
 70
   160
  1
 \fArial|b0|i0;\H2.4873;D
 42
13.15699999999999
 73
     0
 74
     0
 75
     0
  3
Standard (DIN)
100
AcDbAlignedDimension
 13
56.03246720056469
 23
203.0576266832483
 33
0.0
 14
69.18946720056469
 24
203.0576266832483
 34
0.0
100
AcDbRotatedDimension
1001
ACAD
1000
DSTYLE
1002
{
1070
   172
1070
     0
1070
   289
1070
     1
1070
   271
1070
     2
1070
   147
1040
0.4
1070
    72
1070
     0
1070
    71
1070
     0
1070
   272
1070
     2
1070
    48
1040
0.0
1070
    47
1040
0.0
1002
}
  0
DIMENSION
  5
624
330
70
100
AcDbEntity
  8
Bemaßung (ISO)
100
AcDbDimension
280
     0
  2
*D10
 10
69.18946720056466
 20
144.8210894904447
 30
0.0
 11
62.66093829896973
 21
144.8210894904447
 31
0.0
 70
   160
  1
 \fArial|b0|i0;\H2.4873;G1/4
 42
13.05705780318986
 73
     0
 74
     0
 75
     0
  3
Standard (DIN)
100
AcDbAlignedDimension
 13
56.1324093973748
 23
108.8395887812282
 33
0.0
 14
69.18946720056466
 24
107.6972442444408
 34
0.0
 50
180.0
100
AcDbRotatedDimension
1001
ACAD
1000
DSTYLE
1002
{
1070
   172
1070
     0
1070
   289
1070
     1
1070
   271
1070
     2
1070
   147
1040
0.4
1070
    72
1070
     0
1070
    71
1070
     0
1070
   272
1070
     2
1070
    48
1040
0.0
1070
    47
1040
0.0
1002
}
  0
LINE
  5
711
330
70
100
AcDbEntity
  8
Mittelpunktmarkierung (ISO)
  6
Continuous
100
AcDbLine
 10
93.36096720056469
 20
107.697244244447
 30
0.0
 11
31.86096720056469
 21
107.697244244447
 31
0.0
  0
LINE
  5
712
330
70
100
AcDbEntity
  8
Mittelpunktmarkierung (ISO)
  6
Continuous
100
AcDbLine
 10
62.61096720056468
 20
138.447244244447
 30
0.0
 11
62.61096720056468
 21
76.94724424444706
 31
0.0
  0
LINE
  5
713
330
70
100
AcDbEntity
  8
Mittellinie (ISO)
  6
Continuous
100
AcDbLine
 10
62.6109672005647
 20
251.4576602655601
 30
0.0
 11
62.6109672005647
 21
200.7772174432972
 31
0.0
  0
LINE
  5
714
330
70
100
AcDbEntity
  8
Mittellinie (ISO)
  6
Continuous
100
AcDbLine
 10
153.7338070567975
 20
251.9819407085491
 30
0.0
 11
153.7338070567975
 21
200.4276971479712
 31
0.0
  0
ENDSEC
  0
SECTION
  2
OBJECTS
  0
DICTIONARY
  5
C
330
0
100
AcDbDictionary
281
     1
  3
ACAD_CIP_PREVIOUS_PRODUCT_INFO
350
715
  3
ACAD_COLOR
350
63
  3
ACAD_DETAILVIEWSTYLE
350
6A
  3
ACAD_GROUP
350
D
  3
ACAD_LAYOUT
350
62
  3
ACAD_MATERIAL
350
10
  3
ACAD_MLEADERSTYLE
350
66
  3
ACAD_MLINESTYLE
350
5F
  3
ACAD_PLOTSETTINGS
350
61
  3
ACAD_PLOTSTYLENAME
350
E
  3
ACAD_SCALELIST
350
42
  3
ACAD_SECTIONVIEWSTYLE
350
68
  3
ACAD_TABLESTYLE
350
64
  3
ACAD_VISUALSTYLE
350
29
  3
ACDB_RECOMPOSE_DATA
350
750
  3
AcDbVariableDictionary
350
716
  0
DICTIONARY
  5
71E
330
18E
100
AcDbDictionary
280
     1
281
     1
  3
ACAD_MTEXT_2008_RT
360
71F
  0
DICTIONARY
  5
720
330
190
100
AcDbDictionary
280
     1
281
     1
  3
ACAD_MLATT
360
722
  3
ACAD_XREC_ROUNDTRIP
360
721
  0
DICTIONARY
  5
723
330
194
100
AcDbDictionary
280
     1
281
     1
  3
ACAD_MLATT
360
725
  3
ACAD_XREC_ROUNDTRIP
360
724
  0
DICTIONARY
  5
726
330
195
100
AcDbDictionary
280
     1
281
     1
  3
ACAD_MLATT
360
728
  3
ACAD_XREC_ROUNDTRIP
360
727
  0
DICTIONARY
  5
729
330
196
100
AcDbDictionary
280
     1
281
     1
  3
ACAD_MLATT
360
72B
  3
ACAD_XREC_ROUNDTRIP
360
72A
  0
DICTIONARY
  5
72C
330
197
100
AcDbDictionary
280
     1
281
     1
  3
ACAD_MLATT
360
72E
  3
ACAD_XREC_ROUNDTRIP
360
72D
  0
DICTIONARY
  5
72F
330
198
100
AcDbDictionary
280
     1
281
     1
  3
ACAD_MLATT
360
731
  3
ACAD_XREC_ROUNDTRIP
360
730
  0
DICTIONARY
  5
732
330
199
100
AcDbDictionary
280
     1
281
     1
  3
ACAD_MLATT
360
734
  3
ACAD_XREC_ROUNDTRIP
360
733
  0
DICTIONARY
  5
735
330
19A
100
AcDbDictionary
280
     1
281
     1
  3
ACAD_MLATT
360
737
  3
ACAD_XREC_ROUNDTRIP
360
736
  0
DICTIONARY
  5
738
330
19E
100
AcDbDictionary
280
     1
281
     1
  3
ACAD_MLATT
360
73A
  3
ACAD_XREC_ROUNDTRIP
360
739
  0
DICTIONARY
  5
73B
330
19F
100
AcDbDictionary
280
     1
281
     1
  3
ACAD_MLATT
360
73D
  3
ACAD_XREC_ROUNDTRIP
360
73C
  0
DICTIONARY
  5
73E
330
1A0
100
AcDbDictionary
280
     1
281
     1
  3
ACAD_MLATT
360
740
  3
ACAD_XREC_ROUNDTRIP
360
73F
  0
DICTIONARY
  5
741
330
1A1
100
AcDbDictionary
280
     1
281
     1
  3
ACAD_MLATT
360
743
  3
ACAD_XREC_ROUNDTRIP
360
742
  0
DICTIONARY
  5
744
330
1A2
100
AcDbDictionary
280
     1
281
     1
  3
ACAD_MLATT
360
746
  3
ACAD_XREC_ROUNDTRIP
360
745
  0
DICTIONARY
  5
747
330
1A3
100
AcDbDictionary
280
     1
281
     1
  3
ACAD_MLATT
360
749
  3
ACAD_XREC_ROUNDTRIP
360
748
  0
DICTIONARY
  5
74A
330
1A4
100
AcDbDictionary
280
     1
281
     1
  3
ACAD_MLATT
360
74C
  3
ACAD_XREC_ROUNDTRIP
360
74B
  0
DICTIONARY
  5
74D
330
1A5
100
AcDbDictionary
280
     1
281
     1
  3
ACAD_MLATT
360
74F
  3
ACAD_XREC_ROUNDTRIP
360
74E
  0
XRECORD
  5
715
102
{ACAD_REACTORS
330
C
102
}
330
C
100
AcDbXrecord
280
     1
300
INVPROSA
300
2018
300

  0
DICTIONARY
  5
63
102
{ACAD_REACTORS
330
C
102
}
330
C
100
AcDbDictionary
281
     1
  0
DICTIONARY
  5
6A
102
{ACAD_REACTORS
330
C
102
}
330
C
100
AcDbDictionary
281
     1
  3
Imperial24
350
6B
  0
DICTIONARY
  5
D
102
{ACAD_REACTORS
330
C
102
}
330
C
100
AcDbDictionary
281
     1
  0
DICTIONARY
  5
62
102
{ACAD_REACTORS
330
C
102
}
330
C
100
AcDbDictionary
281
     1
  3
Layout1
350
6F
  3
Layout2
350
77
  3
Model
350
73
  0
DICTIONARY
  5
10
102
{ACAD_REACTORS
330
C
102
}
330
C
100
AcDbDictionary
281
     1
  3
ByBlock
350
19
  3
ByLayer
350
11
  3
Global
350
21
  0
DICTIONARY
  5
66
102
{ACAD_REACTORS
330
C
102
}
330
C
100
AcDbDictionary
281
     1
  3
Standard
350
67
  0
DICTIONARY
  5
5F
102
{ACAD_REACTORS
330
C
102
}
330
C
100
AcDbDictionary
281
     1
  3
Standard
350
60
  0
DICTIONARY
  5
61
102
{ACAD_REACTORS
330
C
102
}
330
C
100
AcDbDictionary
281
     1
  0
ACDBDICTIONARYWDFLT
  5
E
102
{ACAD_REACTORS
330
C
102
}
330
C
100
AcDbDictionary
281
     1
  3
Normal
350
F
100
AcDbDictionaryWithDefault
340
F
  0
DICTIONARY
  5
42
102
{ACAD_REACTORS
330
C
102
}
330
C
100
AcDbDictionary
281
     1
  3
A0
350
43
  3
A1
350
44
  3
A2
350
45
  3
A3
350
46
  3
A4
350
47
  3
A5
350
48
  3
A6
350
49
  3
A7
350
4A
  3
A8
350
4B
  3
A9
350
4C
  3
B0
350
4D
  3
B1
350
4E
  3
B2
350
4F
  3
B3
350
50
  3
B4
350
51
  3
B5
350
52
  3
B6
350
53
  0
DICTIONARY
  5
68
102
{ACAD_REACTORS
330
C
102
}
330
C
100
AcDbDictionary
281
     1
  3
Imperial24
350
69
  0
DICTIONARY
  5
64
102
{ACAD_REACTORS
330
C
102
}
330
C
100
AcDbDictionary
281
     1
  3
Standard
350
65
  0
DICTIONARY
  5
29
102
{ACAD_REACTORS
330
C
102
}
330
C
100
AcDbDictionary
281
     1
  3
2dWireframe
350
2F
  3
Basic
350
2E
  3
Brighten
350
35
  3
ColorChange
350
39
  3
Conceptual
350
32
  3
Dim
350
34
  3
EdgeColorOff
350
41
  3
Facepattern
350
38
  3
Flat
350
2A
  3
FlatWithEdges
350
2B
  3
Gouraud
350
2C
  3
GouraudWithEdges
350
2D
  3
Hidden
350
31
  3
JitterOff
350
3F
  3
Linepattern
350
37
  3
OverhangOff
350
40
  3
Realistic
350
33
  3
Shaded
350
3E
  3
Shaded with edges
350
3D
  3
Shades of Gray
350
3A
  3
Sketchy
350
3B
  3
Thicken
350
36
  3
Wireframe
350
30
  3
X-Ray
350
3C
  0
XRECORD
  5
750
102
{ACAD_REACTORS
330
C
102
}
330
C
100
AcDbXrecord
280
     1
 90
        1
330
65
330
18E
330
190
330
194
330
195
330
196
330
197
330
198
330
199
330
19A
330
19E
330
19F
330
1A0
330
1A1
330
1A2
330
1A3
330
1A4
330
1A5
  0
DICTIONARY
  5
716
102
{ACAD_REACTORS
330
C
102
}
330
C
100
AcDbDictionary
281
     1
  3
CANNOSCALE
350
71B
  3
CMLEADERSTYLE
350
718
  3
CTABLESTYLE
350
717
  3
CVIEWDETAILSTYLE
350
719
  3
CVIEWSECTIONSTYLE
350
71A
  0
XRECORD
  5
71F
102
{ACAD_REACTORS
330
71E
102
}
330
71E
100
AcDbXrecord
280
     1
 40
1337195.0
  1
\pxsm0.94;\fArial|b1|i0;\H1.0000;perma-tec \fArial|b0|i0;\H0.7000;GmbH & Co. KG\P\fArial|b0|i0;\H1.0000;Hammelburger Str.21                       Tel. : +49 9704 609-0\P97717 EUERDORF / GERMANY     Fax : +49 9704 609-50
  0
XRECORD
  5
722
102
{ACAD_REACTORS
330
720
102
}
330
720
100
AcDbXrecord
280
     1
 70
     4
 70
     0
 70
     0
 40
1.0
  2
Maßstab
  1
Embedded Object
 10
145.0127883584022
 20
117.4731139823299
 30
0.0
 40
2.5
 41
13.99999999999998
 46
0.0
 71
     5
 72
     5
  1
1:1
  7
Textstil54
 73
     1
 44
1.0
  0
XRECORD
  5
721
102
{ACAD_REACTORS
330
720
102
}
330
720
100
AcDbXrecord
280
     1
102
ACAD_MATT_HEIGHT
140
2.5
  0
XRECORD
  5
725
102
{ACAD_REACTORS
330
723
102
}
330
723
100
AcDbXrecord
280
     1
 70
     4
 70
     0
 70
     0
 40
1.0
  2
Datum
  1
Embedded Object
 10
164.5127883584021
 20
117.4731139823299
 30
0.0
 40
2.5
 41
21.99999999999992
 46
0.0
 71
     5
 72
     5
  1
04.05.2018
  7
Textstil54
 73
     1
 44
1.0
  0
XRECORD
  5
724
102
{ACAD_REACTORS
330
723
102
}
330
723
100
AcDbXrecord
280
     1
102
ACAD_MATT_HEIGHT
140
2.5
  0
XRECORD
  5
728
102
{ACAD_REACTORS
330
726
102
}
330
726
100
AcDbXrecord
280
     1
 70
     4
 70
     0
 70
     0
 40
1.0
  2
Benennung_Englisch
  1
Embedded Object
 10
205.5127883584022
 20
116.2462846889597
 30
0.0
 40
2.5
 41
81.00000000000001
 46
0.0
 71
     4
 72
     5
  1
Support flange STAR Gen 2.0
  7
Textstil54
 73
     1
 44
0.3300000131130218
  0
XRECORD
  5
727
102
{ACAD_REACTORS
330
726
102
}
330
726
100
AcDbXrecord
280
     1
102
ACAD_MATT_HEIGHT
140
2.5
  0
XRECORD
  5
72B
102
{ACAD_REACTORS
330
729
102
}
330
729
100
AcDbXrecord
280
     1
 70
     4
 70
     0
 70
     0
 40
1.0
  2
Blattgröße
  1
Embedded Object
 10
145.0127883584022
 20
108.7231139823298
 30
0.0
 40
2.5
 41
13.99999999999998
 46
0.0
 71
     5
 72
     5
  1
A4
  7
Textstil54
 73
     1
 44
1.0
  0
XRECORD
  5
72A
102
{ACAD_REACTORS
330
729
102
}
330
729
100
AcDbXrecord
280
     1
102
ACAD_MATT_HEIGHT
140
2.5
  0
XRECORD
  5
72E
102
{ACAD_REACTORS
330
72C
102
}
330
72C
100
AcDbXrecord
280
     1
 70
     4
 70
     0
 70
     0
 40
1.0
  2
Material
  1
Embedded Object
 10
178.5127883584022
 20
117.4731139823299
 30
0.0
 40
2.5
 41
25.0
 46
0.0
 71
     4
 72
     5
  1
brass/plastic
  7
Textstil54
 73
     1
 44
1.0
  0
XRECORD
  5
72D
102
{ACAD_REACTORS
330
72C
102
}
330
72C
100
AcDbXrecord
280
     1
102
ACAD_MATT_HEIGHT
140
2.5
  0
XRECORD
  5
731
102
{ACAD_REACTORS
330
72F
102
}
330
72F
100
AcDbXrecord
280
     1
 70
     4
 70
     0
 70
     0
 40
1.0
  2
Artikelnummer
  1
Embedded Object
 10
178.5127883584022
 20
109.993121529321
 30
0.0
 40
2.5
 41
25.0
 46
0.0
 71
     1
 72
     5
  1

  7
Textstil54
 73
     1
 44
1.0
  0
XRECORD
  5
730
102
{ACAD_REACTORS
330
72F
102
}
330
72F
100
AcDbXrecord
280
     1
102
ACAD_MATT_HEIGHT
140
2.5
  0
XRECORD
  5
734
102
{ACAD_REACTORS
330
732
102
}
330
732
100
AcDbXrecord
280
     1
 70
     4
 70
     0
 70
     0
 40
1.0
  2
Benennung_Deutsch
  1
Embedded Object
 10
205.5127883584022
 20
109.4462846889598
 30
0.0
 40
2.5
 41
80.99999999999994
 46
0.0
 71
     4
 72
     5
  1
Stützkonsole STAR Gen 2.0
  7
Textstil54
 73
     1
 44
0.3300000131130218
  0
XRECORD
  5
733
102
{ACAD_REACTORS
330
732
102
}
330
732
100
AcDbXrecord
280
     1
102
ACAD_MATT_HEIGHT
140
2.5
  0
XRECORD
  5
737
102
{ACAD_REACTORS
330
735
102
}
330
735
100
AcDbXrecord
280
     1
 70
     4
 70
     0
 70
     0
 40
1.0
  2
Revision/Gezeichnet
  1
Embedded Object
 10
165.0127883584022
 20
110.0140818751853
 30
0.0
 40
2.5
 41
23.00000000000001
 46
0.0
 71
     2
 72
     5
  1
B / sbr
  7
Textstil54
 73
     1
 44
1.0
  0
XRECORD
  5
736
102
{ACAD_REACTORS
330
735
102
}
330
735
100
AcDbXrecord
280
     1
102
ACAD_MATT_HEIGHT
140
2.5
  0
XRECORD
  5
73A
102
{ACAD_REACTORS
330
738
102
}
330
738
100
AcDbXrecord
280
     1
 70
     2
 70
     0
 70
     0
 40
1.0
  2
Maßstab
  1
Embedded Object
 10
17.5
 20
21.62499999999998
 30
0.0
 40
2.5
 41
13.99999999999998
 46
0.0
 71
     5
 72
     5
  1
1:1
  7
Textstil54
 73
     1
 44
1.0
  0
XRECORD
  5
739
102
{ACAD_REACTORS
330
738
102
}
330
738
100
AcDbXrecord
280
     1
102
ACAD_MATT_HEIGHT
140
2.5
  0
XRECORD
  5
73D
102
{ACAD_REACTORS
330
73B
102
}
330
73B
100
AcDbXrecord
280
     1
 70
     2
 70
     0
 70
     0
 40
1.0
  2
Datum
  1
Embedded Object
 10
36.99999999999989
 20
21.62499999999998
 30
0.0
 40
2.5
 41
21.99999999999992
 46
0.0
 71
     5
 72
     5
  1
04.05.2018
  7
Textstil54
 73
     1
 44
1.0
  0
XRECORD
  5
73C
102
{ACAD_REACTORS
330
73B
102
}
330
73B
100
AcDbXrecord
280
     1
102
ACAD_MATT_HEIGHT
140
2.5
  0
XRECORD
  5
740
102
{ACAD_REACTORS
330
73E
102
}
330
73E
100
AcDbXrecord
280
     1
 70
     2
 70
     0
 70
     0
 40
1.0
  2
Benennung_Englisch
  1
Embedded Object
 10
77.99999999999997
 20
20.39817070662981
 30
0.0
 40
2.5
 41
81.00000000000001
 46
0.0
 71
     4
 72
     5
  1
Support flange STAR Gen 2.0
  7
Textstil54
 73
     1
 44
0.3300000131130218
  0
XRECORD
  5
73F
102
{ACAD_REACTORS
330
73E
102
}
330
73E
100
AcDbXrecord
280
     1
102
ACAD_MATT_HEIGHT
140
2.5
  0
XRECORD
  5
743
102
{ACAD_REACTORS
330
741
102
}
330
741
100
AcDbXrecord
280
     1
 70
     2
 70
     0
 70
     0
 40
1.0
  2
Blattgröße
  1
Embedded Object
 10
17.5
 20
12.87499999999994
 30
0.0
 40
2.5
 41
13.99999999999998
 46
0.0
 71
     5
 72
     5
  1
A4
  7
Textstil54
 73
     1
 44
1.0
  0
XRECORD
  5
742
102
{ACAD_REACTORS
330
741
102
}
330
741
100
AcDbXrecord
280
     1
102
ACAD_MATT_HEIGHT
140
2.5
  0
XRECORD
  5
746
102
{ACAD_REACTORS
330
744
102
}
330
744
100
AcDbXrecord
280
     1
 70
     2
 70
     0
 70
     0
 40
1.0
  2
Material
  1
Embedded Object
 10
51.00000000000001
 20
21.625
 30
0.0
 40
2.5
 41
25.0
 46
0.0
 71
     4
 72
     5
  1
brass/plastic
  7
Textstil54
 73
     1
 44
1.0
  0
XRECORD
  5
745
102
{ACAD_REACTORS
330
744
102
}
330
744
100
AcDbXrecord
280
     1
102
ACAD_MATT_HEIGHT
140
2.5
  0
XRECORD
  5
749
102
{ACAD_REACTORS
330
747
102
}
330
747
100
AcDbXrecord
280
     1
 70
     2
 70
     0
 70
     0
 40
1.0
  2
Artikelnummer
  1
Embedded Object
 10
51.00000000000001
 20
14.14500754699107
 30
0.0
 40
2.5
 41
25.0
 46
0.0
 71
     1
 72
     5
  1

  7
Textstil54
 73
     1
 44
1.0
  0
XRECORD
  5
748
102
{ACAD_REACTORS
330
747
102
}
330
747
100
AcDbXrecord
280
     1
102
ACAD_MATT_HEIGHT
140
2.5
  0
XRECORD
  5
74C
102
{ACAD_REACTORS
330
74A
102
}
330
74A
100
AcDbXrecord
280
     1
 70
     2
 70
     0
 70
     0
 40
1.0
  2
Benennung_Deutsch
  1
Embedded Object
 10
77.99999999999997
 20
13.59817070662984
 30
0.0
 40
2.5
 41
80.99999999999994
 46
0.0
 71
     4
 72
     5
  1
Stützkonsole STAR Gen 2.0
  7
Textstil54
 73
     1
 44
0.3300000131130218
  0
XRECORD
  5
74B
102
{ACAD_REACTORS
330
74A
102
}
330
74A
100
AcDbXrecord
280
     1
102
ACAD_MATT_HEIGHT
140
2.5
  0
XRECORD
  5
74F
102
{ACAD_REACTORS
330
74D
102
}
330
74D
100
AcDbXrecord
280
     1
 70
     2
 70
     0
 70
     0
 40
1.0
  2
Revision/Gezeichnet
  1
Embedded Object
 10
37.49999999999996
 20
14.16596789285538
 30
0.0
 40
2.5
 41
23.00000000000001
 46
0.0
 71
     2
 72
     5
  1
B / sbr
  7
Textstil54
 73
     1
 44
1.0
  0
XRECORD
  5
74E
102
{ACAD_REACTORS
330
74D
102
}
330
74D
100
AcDbXrecord
280
     1
102
ACAD_MATT_HEIGHT
140
2.5
  0
ACDBDETAILVIEWSTYLE
  5
6B
102
{ACAD_XDICTIONARY
360
753
102
}
102
{ACAD_REACTORS
330
6A
102
}
330
6A
100
AcDbModelDocViewStyle
 70
     0
  3
Imperial24
290
     0
100
AcDbDetailViewStyle
 70
     0
 71
     0
 90
        3
 71
     1
340
55
 62
   256
 40
0.24
340
0
 62
   256
 40
0.24
300

 40
0.36
280
     3
 71
     2
340
5D
 90
       25
 62
   256
 71
     3
340
55
 62
   256
 40
0.24
 90
        1
 40
0.75
 90
        1
300
%<\AcVar ViewType \f "%tc1">% %<\AcVar ViewDetailId>%\PVARIA %<\AcVar ViewScale \f "%sn">%
 71
     4
340
5D
 90
       25
 62
   256
340
5D
 90
       25
 62
   256
280
     0
  0
LAYOUT
  5
6F
102
{ACAD_REACTORS
330
62
102
}
330
62
100
AcDbPlotSettings
  1

  2

  4

  6

 40
0.0
 41
0.0
 42
0.0
 43
0.0
 44
0.0
 45
0.0
 46
0.0
 47
0.0
 48
0.0
 49
0.0
140
0.0
141
0.0
142
1.0
143
1.0
 70
   688
 72
     0
 73
     0
 74
     5
  7

 75
    16
147
1.0
 76
     0
 77
     2
 78
   300
148
0.0
149
0.0
100
AcDbLayout
  1
Layout1
 70
     1
 71
     1
 10
0.0
 20
0.0
 11
12.0
 21
9.0
 12
0.0
 22
0.0
 32
0.0
 14
0.0
 24
0.0
 34
0.0
 15
0.0
 25
0.0
 35
0.0
146
0.0
 13
0.0
 23
0.0
 33
0.0
 16
1.0
 26
0.0
 36
0.0
 17
0.0
 27
1.0
 37
0.0
 76
     0
330
6C
  0
LAYOUT
  5
77
102
{ACAD_REACTORS
330
62
102
}
330
62
100
AcDbPlotSettings
  1

  2

  4

  6

 40
0.0
 41
0.0
 42
0.0
 43
0.0
 44
0.0
 45
0.0
 46
0.0
 47
0.0
 48
0.0
 49
0.0
140
0.0
141
0.0
142
1.0
143
1.0
 70
   688
 72
     0
 73
     0
 74
     5
  7

 75
    16
147
1.0
 76
     0
 77
     2
 78
   300
148
0.0
149
0.0
100
AcDbLayout
  1
Layout2
 70
     1
 71
     2
 10
0.0
 20
0.0
 11
12.0
 21
9.0
 12
0.0
 22
0.0
 32
0.0
 14
0.0
 24
0.0
 34
0.0
 15
0.0
 25
0.0
 35
0.0
146
0.0
 13
0.0
 23
0.0
 33
0.0
 16
1.0
 26
0.0
 36
0.0
 17
0.0
 27
1.0
 37
0.0
 76
     0
330
74
  0
LAYOUT
  5
73
102
{ACAD_REACTORS
330
62
102
}
330
62
100
AcDbPlotSettings
  1

  2

  4

  6

 40
0.0
 41
0.0
 42
0.0
 43
0.0
 44
0.0
 45
0.0
 46
0.0
 47
0.0
 48
0.0
 49
0.0
140
0.0
141
0.0
142
1.0
143
1.0
 70
  1712
 72
     0
 73
     0
 74
     0
  7

 75
     0
147
1.0
 76
     0
 77
     2
 78
   300
148
0.0
149
0.0
100
AcDbLayout
  1
Model
 70
     1
 71
     0
 10
0.0
 20
0.0
 11
12.0
 21
9.0
 12
0.0
 22
0.0
 32
0.0
 14
0.0
 24
0.0
 34
0.0
 15
0.0
 25
0.0
 35
0.0
146
0.0
 13
0.0
 23
0.0
 33
0.0
 16
1.0
 26
0.0
 36
0.0
 17
0.0
 27
1.0
 37
0.0
 76
     0
330
70
  0
MATERIAL
  5
19
102
{ACAD_XDICTIONARY
360
1A
102
}
102
{ACAD_REACTORS
330
10
102
}
330
10
100
AcDbMaterial
  1
ByBlock
 72
     0
 43
0.0208333333333333
 43
0.0
 43
0.0
 43
0.0
 43
0.0
 43
0.0208333333333333
 43
0.0
 43
0.0
 43
0.0
 43
0.0
 43
1.0
 43
0.0
 43
0.0
 43
0.0
 43
0.0
 43
1.0
 77
     0
 47
0.0208333333333333
 47
0.0
 47
0.0
 47
0.0
 47
0.0
 47
0.0208333333333333
 47
0.0
 47
0.0
 47
0.0
 47
0.0
 47
1.0
 47
0.0
 47
0.0
 47
0.0
 47
0.0
 47
1.0
171
     0
 49
0.0208333333333333
 49
0.0
 49
0.0
 49
0.0
 49
0.0
 49
0.0208333333333333
 49
0.0
 49
0.0
 49
0.0
 49
0.0
 49
1.0
 49
0.0
 49
0.0
 49
0.0
 49
0.0
 49
1.0
175
     0
142
0.0208333333333333
142
0.0
142
0.0
142
0.0
142
0.0
142
0.0208333333333333
142
0.0
142
0.0
142
0.0
142
0.0
142
1.0
142
0.0
142
0.0
142
0.0
142
0.0
142
1.0
179
     0
144
0.0208333333333333
144
0.0
144
0.0
144
0.0
144
0.0
144
0.0208333333333333
144
0.0
144
0.0
144
0.0
144
0.0
144
1.0
144
0.0
144
0.0
144
0.0
144
0.0
144
1.0
147
0.0208333333333333
147
0.0
147
0.0
147
0.0
147
0.0
147
0.0208333333333333
147
0.0
147
0.0
147
0.0
147
0.0
147
1.0
147
0.0
147
0.0
147
0.0
147
0.0
147
1.0
  0
MATERIAL
  5
11
102
{ACAD_XDICTIONARY
360
12
102
}
102
{ACAD_REACTORS
330
10
102
}
330
10
100
AcDbMaterial
  1
ByLayer
 72
     0
 43
0.0208333333333333
 43
0.0
 43
0.0
 43
0.0
 43
0.0
 43
0.0208333333333333
 43
0.0
 43
0.0
 43
0.0
 43
0.0
 43
1.0
 43
0.0
 43
0.0
 43
0.0
 43
0.0
 43
1.0
 77
     0
 47
0.0208333333333333
 47
0.0
 47
0.0
 47
0.0
 47
0.0
 47
0.0208333333333333
 47
0.0
 47
0.0
 47
0.0
 47
0.0
 47
1.0
 47
0.0
 47
0.0
 47
0.0
 47
0.0
 47
1.0
171
     0
 49
0.0208333333333333
 49
0.0
 49
0.0
 49
0.0
 49
0.0
 49
0.0208333333333333
 49
0.0
 49
0.0
 49
0.0
 49
0.0
 49
1.0
 49
0.0
 49
0.0
 49
0.0
 49
0.0
 49
1.0
175
     0
142
0.0208333333333333
142
0.0
142
0.0
142
0.0
142
0.0
142
0.0208333333333333
142
0.0
142
0.0
142
0.0
142
0.0
142
1.0
142
0.0
142
0.0
142
0.0
142
0.0
142
1.0
179
     0
144
0.0208333333333333
144
0.0
144
0.0
144
0.0
144
0.0
144
0.0208333333333333
144
0.0
144
0.0
144
0.0
144
0.0
144
1.0
144
0.0
144
0.0
144
0.0
144
0.0
144
1.0
147
0.0208333333333333
147
0.0
147
0.0
147
0.0
147
0.0
147
0.0208333333333333
147
0.0
147
0.0
147
0.0
147
0.0
147
1.0
147
0.0
147
0.0
147
0.0
147
0.0
147
1.0
  0
MATERIAL
  5
21
102
{ACAD_XDICTIONARY
360
22
102
}
102
{ACAD_REACTORS
330
10
102
}
330
10
100
AcDbMaterial
  1
Global
 72
     0
 43
0.0208333333333333
 43
0.0
 43
0.0
 43
0.0
 43
0.0
 43
0.0208333333333333
 43
0.0
 43
0.0
 43
0.0
 43
0.0
 43
1.0
 43
0.0
 43
0.0
 43
0.0
 43
0.0
 43
1.0
 77
     0
 47
0.0208333333333333
 47
0.0
 47
0.0
 47
0.0
 47
0.0
 47
0.0208333333333333
 47
0.0
 47
0.0
 47
0.0
 47
0.0
 47
1.0
 47
0.0
 47
0.0
 47
0.0
 47
0.0
 47
1.0
171
     0
 49
0.0208333333333333
 49
0.0
 49
0.0
 49
0.0
 49
0.0
 49
0.0208333333333333
 49
0.0
 49
0.0
 49
0.0
 49
0.0
 49
1.0
 49
0.0
 49
0.0
 49
0.0
 49
0.0
 49
1.0
175
     0
142
0.0208333333333333
142
0.0
142
0.0
142
0.0
142
0.0
142
0.0208333333333333
142
0.0
142
0.0
142
0.0
142
0.0
142
1.0
142
0.0
142
0.0
142
0.0
142
0.0
142
1.0
179
     0
144
0.0208333333333333
144
0.0
144
0.0
144
0.0
144
0.0
144
0.0208333333333333
144
0.0
144
0.0
144
0.0
144
0.0
144
1.0
144
0.0
144
0.0
144
0.0
144
0.0
144
1.0
147
0.0208333333333333
147
0.0
147
0.0
147
0.0
147
0.0
147
0.0208333333333333
147
0.0
147
0.0
147
0.0
147
0.0
147
1.0
147
0.0
147
0.0
147
0.0
147
0.0
147
1.0
  0
MLEADERSTYLE
  5
67
102
{ACAD_REACTORS
330
66
102
}
330
66
100
AcDbMLeaderStyle
179
     2
170
     2
171
     1
172
     0
 90
        2
 40
0.0
 41
0.0
173
     1
 91
-1056964608
340
5B
 92
       -2
290
     1
 42
0.09
291
     1
 43
0.36
  3
Standard
 44
0.18
300

342
55
174
     1
178
     6
175
     1
176
     0
 93
-1056964608
 45
0.18
292
     0
297
     0
 46
0.18
 94
-1056964608
 47
1.0
 49
1.0
140
1.0
293
     1
141
0.0
294
     1
177
     0
142
1.0
295
     0
296
     0
143
0.125
271
     0
272
     9
273
     9
298
     1
  0
MLINESTYLE
  5
60
102
{ACAD_REACTORS
330
5F
102
}
330
5F
100
AcDbMlineStyle
  2
STANDARD
 70
     0
  3

 62
   256
 51
90.0
 52
90.0
 71
     2
 49
0.5
 62
   256
  6
BYLAYER
 49
-0.5
 62
   256
  6
BYLAYER
  0
ACDBPLACEHOLDER
  5
F
102
{ACAD_REACTORS
330
E
102
}
330
E
  0
SCALE
  5
43
102
{ACAD_REACTORS
330
42
102
}
330
42
100
AcDbScale
 70
     0
300
1:1
140
1.0
141
1.0
290
     1
  0
SCALE
  5
44
102
{ACAD_REACTORS
330
42
102
}
330
42
100
AcDbScale
 70
     0
300
1/128" = 1'-0"
140
0.0078125
141
12.0
290
     0
  0
SCALE
  5
45
102
{ACAD_REACTORS
330
42
102
}
330
42
100
AcDbScale
 70
     0
300
1/64" = 1'-0"
140
0.015625
141
12.0
290
     0
  0
SCALE
  5
46
102
{ACAD_REACTORS
330
42
102
}
330
42
100
AcDbScale
 70
     0
300
1/32" = 1'-0"
140
0.03125
141
12.0
290
     0
  0
SCALE
  5
47
102
{ACAD_REACTORS
330
42
102
}
330
42
100
AcDbScale
 70
     0
300
1/16" = 1'-0"
140
0.0625
141
12.0
290
     0
  0
SCALE
  5
48
102
{ACAD_REACTORS
330
42
102
}
330
42
100
AcDbScale
 70
     0
300
3/32" = 1'-0"
140
0.09375
141
12.0
290
     0
  0
SCALE
  5
49
102
{ACAD_REACTORS
330
42
102
}
330
42
100
AcDbScale
 70
     0
300
1/8" = 1'-0"
140
0.125
141
12.0
290
     0
  0
SCALE
  5
4A
102
{ACAD_REACTORS
330
42
102
}
330
42
100
AcDbScale
 70
     0
300
3/16" = 1'-0"
140
0.1875
141
12.0
290
     0
  0
SCALE
  5
4B
102
{ACAD_REACTORS
330
42
102
}
330
42
100
AcDbScale
 70
     0
300
1/4" = 1'-0"
140
0.25
141
12.0
290
     0
  0
SCALE
  5
4C
102
{ACAD_REACTORS
330
42
102
}
330
42
100
AcDbScale
 70
     0
300
3/8" = 1'-0"
140
0.375
141
12.0
290
     0
  0
SCALE
  5
4D
102
{ACAD_REACTORS
330
42
102
}
330
42
100
AcDbScale
 70
     0
300
1/2" = 1'-0"
140
0.5
141
12.0
290
     0
  0
SCALE
  5
4E
102
{ACAD_REACTORS
330
42
102
}
330
42
100
AcDbScale
 70
     0
300
3/4" = 1'-0"
140
0.75
141
12.0
290
     0
  0
SCALE
  5
4F
102
{ACAD_REACTORS
330
42
102
}
330
42
100
AcDbScale
 70
     0
300
1" = 1'-0"
140
1.0
141
12.0
290
     0
  0
SCALE
  5
50
102
{ACAD_REACTORS
330
42
102
}
330
42
100
AcDbScale
 70
     0
300
1-1/2" = 1'-0"
140
1.5
141
12.0
290
     0
  0
SCALE
  5
51
102
{ACAD_REACTORS
330
42
102
}
330
42
100
AcDbScale
 70
     0
300
3" = 1'-0"
140
3.0
141
12.0
290
     0
  0
SCALE
  5
52
102
{ACAD_REACTORS
330
42
102
}
330
42
100
AcDbScale
 70
     0
300
6" = 1'-0"
140
6.0
141
12.0
290
     0
  0
SCALE
  5
53
102
{ACAD_REACTORS
330
42
102
}
330
42
100
AcDbScale
 70
     0
300
1'-0" = 1'-0"
140
12.0
141
12.0
290
     0
  0
ACDBSECTIONVIEWSTYLE
  5
69
102
{ACAD_XDICTIONARY
360
751
102
}
102
{ACAD_REACTORS
330
68
102
}
330
68
100
AcDbModelDocViewStyle
 70
     0
  3
Imperial24
290
     0
100
AcDbSectionViewStyle
 70
     0
 71
     0
 90
       78
 71
     1
340
55
 62
   256
 40
0.24
340
0
340
0
 62
   256
 40
0.24
300
I, O, Q, S, X, Z
 40
0.48
 90
        3
 40
0.18
 90
        1
 71
     2
340
5D
 90
       25
 62
   256
340
5D
 90
       50
 62
   256
 40
0.24
 40
0.0
 40
0.24
 71
     3
340
55
 62
   256
 40
0.24
 90
        1
 40
0.75
 90
        1
300
%<\AcVar ViewType \f "%tc1">% %<\AcVar ViewSectionStartId>%-%<\AcVar ViewSectionEndId>%\PVARIA %<\AcVar ViewScale \f "%sn">%
 71
     4
 62
   256
 62
   257
300
ANSI31
 40
1.0
 90
        0
290
     0
290
     0
 90
        6
 40
0.0
 40
1.570796326794896
 40
0.2617993877991494
 40
1.308996938995747
 40
-0.2617993877991494
 40
1.832595714594046
  0
TABLESTYLE
  5
65
102
{ACAD_XDICTIONARY
360
71C
102
}
102
{ACAD_REACTORS
330
64
102
}
330
64
100
AcDbTableStyle
280
     0
  3
Standard
 70
     0
 71
     0
 40
0.06
 41
0.06
280
     0
281
     0
  7
Standard
140
0.18
170
     2
 62
     0
 63
     7
283
     0
 90
      512
 91
        0
  1

274
    -2
284
     1
 64
     0
275
    -2
285
     1
 65
     0
276
    -2
286
     1
 66
     0
277
    -2
287
     1
 67
     0
278
    -2
288
     1
 68
     0
279
    -2
289
     1
 69
     0
  7
Standard
140
0.25
170
     5
 62
     0
 63
     7
283
     0
 90
      512
 91
        0
  1

274
    -2
284
     1
 64
     0
275
    -2
285
     1
 65
     0
276
    -2
286
     1
 66
     0
277
    -2
287
     1
 67
     0
278
    -2
288
     1
 68
     0
279
    -2
289
     1
 69
     0
  7
Standard
140
0.18
170
     5
 62
     0
 63
     7
283
     0
 90
      512
 91
        0
  1

274
    -2
284
     1
 64
     0
275
    -2
285
     1
 65
     0
276
    -2
286
     1
 66
     0
277
    -2
287
     1
 67
     0
278
    -2
288
     1
 68
     0
279
    -2
289
     1
 69
     0
  0
VISUALSTYLE
  5
2F
102
{ACAD_REACTORS
330
29
102
}
330
29
100
AcDbVisualStyle
  2
2dWireframe
 70
     4
177
     3
291
     0
 70
    58
 90
        0
176
     1
 90
        2
176
     1
 90
        0
176
     1
 90
        0
176
     1
 40
0.6
176
     1
 40
30.0
176
     1
 62
     7
420
 16777215
176
     1
 90
        1
176
     1
 90
        4
176
     1
 62
     7
176
     1
 62
   257
176
     1
 90
        1
176
     1
 90
        1
176
     1
 40
1.0
176
     1
 90
        0
176
     1
 62
   257
176
     1
 40
1.0
176
     1
 90
        1
176
     1
 90
        6
176
     1
 90
        2
176
     1
 62
     7
176
     1
 90
        5
176
     1
 90
        0
176
     1
 90
        0
176
     1
290
     0
176
     1
 90
        1
176
     1
 40
0.0
176
     1
 90
        0
176
     1
290
     1
176
     1
290
     1
176
     1
290
     0
176
     1
290
     0
176
     1
290
     0
176
     1
290
     0
176
     1
290
     0
176
     1
290
     0
176
     1
290
     0
176
     1
 90
       50
176
     1
 40
0.0
176
     1
 40
1.0
176
     1
 90
        0
176
     1
 62
    18
420
        0
176
     1
 90
       50
176
     1
 90
        3
176
     1
 62
     5
420
      255
176
     1
290
     0
176
     1
 90
       50
176
     1
 90
       50
176
     1
 90
       50
176
     1
290
     0
176
     1
 90
       50
176
     1
 62
   256
176
     0
 40
1.0
176
     0
 90
        2
176
     1
  1
strokes_ogs.tif
176
     1
290
     0
176
     1
 40
1.0
176
     1
 40
1.0
176
     1
1001
ACAD
1000
AcDbSavedByObjectVersion
1070
     0
  0
VISUALSTYLE
  5
2E
102
{ACAD_REACTORS
330
29
102
}
330
29
100
AcDbVisualStyle
  2
Basic
 70
     7
177
     3
291
     1
 70
    58
 90
        1
176
     1
 90
        0
176
     1
 90
        1
176
     1
 90
        0
176
     1
 40
0.6
176
     1
 40
30.0
176
     1
 62
     7
420
 16777215
176
     1
 90
        0
176
     1
 90
        4
176
     1
 62
     7
176
     1
 62
   257
176
     1
 90
        1
176
     1
 90
        1
176
     1
 40
1.0
176
     1
 90
        8
176
     1
 62
     7
176
     1
 40
1.0
176
     1
 90
        1
176
     1
 90
        6
176
     1
 90
        2
176
     1
 62
     7
176
     1
 90
        5
176
     1
 90
        0
176
     1
 90
        0
176
     1
290
     0
176
     1
 90
        1
176
     1
 40
0.0
176
     1
 90
        0
176
     1
290
     0
176
     1
290
     1
176
     1
290
     1
176
     1
290
     0
176
     1
290
     0
176
     1
290
     0
176
     1
290
     0
176
     1
290
     0
176
     1
290
     0
176
     1
 90
       50
176
     1
 40
0.0
176
     1
 40
1.0
176
     1
 90
        0
176
     1
 62
    18
420
        0
176
     1
 90
       50
176
     1
 90
        3
176
     1
 62
     5
420
      255
176
     1
290
     0
176
     1
 90
       50
176
     1
 90
       50
176
     1
 90
       50
176
     1
290
     0
176
     1
 90
       50
176
     1
 62
   256
176
     0
 40
1.0
176
     0
 90
        2
176
     1
  1
strokes_ogs.tif
176
     1
290
     0
176
     1
 40
1.0
176
     1
 40
1.0
176
     1
1001
ACAD
1000
AcDbSavedByObjectVersion
1070
     0
  0
VISUALSTYLE
  5
35
102
{ACAD_REACTORS
330
29
102
}
330
29
100
AcDbVisualStyle
  2
Brighten
 70
    12
177
     3
291
     1
 70
    58
 90
        2
176
     1
 90
        2
176
     1
 90
        0
176
     1
 90
        0
176
     1
 40
0.6
176
     1
 40
30.0
176
     1
 62
     7
420
 16777215
176
     1
 90
        1
176
     1
 90
        4
176
     1
 62
     7
176
     1
 62
   257
176
     1
 90
        1
176
     1
 90
        1
176
     1
 40
1.0
176
     1
 90
        8
176
     1
 62
     7
176
     1
 40
1.0
176
     1
 90
        1
176
     1
 90
        6
176
     1
 90
        2
176
     1
 62
     7
176
     1
 90
        5
176
     1
 90
        0
176
     1
 90
        0
176
     1
290
     0
176
     1
 90
        1
176
     1
 40
50.0
176
     1
 90
        0
176
     1
290
     0
176
     1
290
     1
176
     1
290
     1
176
     1
290
     0
176
     1
290
     0
176
     1
290
     0
176
     1
290
     0
176
     1
290
     0
176
     1
290
     0
176
     1
 90
       50
176
     1
 40
0.0
176
     1
 40
1.0
176
     1
 90
        0
176
     1
 62
    18
420
        0
176
     1
 90
       50
176
     1
 90
        3
176
     1
 62
     5
420
      255
176
     1
290
     0
176
     1
 90
       50
176
     1
 90
       50
176
     1
 90
       50
176
     1
290
     0
176
     1
 90
       50
176
     1
 62
   256
176
     0
 40
1.0
176
     0
 90
        2
176
     1
  1
strokes_ogs.tif
176
     1
290
     0
176
     1
 40
1.0
176
     1
 40
1.0
176
     1
1001
ACAD
1000
AcDbSavedByObjectVersion
1070
     0
  0
VISUALSTYLE
  5
39
102
{ACAD_REACTORS
330
29
102
}
330
29
100
AcDbVisualStyle
  2
ColorChange
 70
    16
177
     3
291
     1
 70
    58
 90
        2
176
     1
 90
        2
176
     1
 90
        3
176
     1
 90
        0
176
     1
 40
0.6
176
     1
 40
30.0
176
     1
 62
     8
420
  8421504
176
     1
 90
        1
176
     1
 90
        4
176
     1
 62
     7
176
     1
 62
   257
176
     1
 90
        1
176
     1
 90
        1
176
     1
 40
1.0
176
     1
 90
        8
176
     1
 62
     8
420
  8421504
176
     1
 40
1.0
176
     1
 90
        1
176
     1
 90
        6
176
     1
 90
        2
176
     1
 62
     7
176
     1
 90
        5
176
     1
 90
        0
176
     1
 90
        0
176
     1
290
     0
176
     1
 90
        1
176
     1
 40
0.0
176
     1
 90
        0
176
     1
290
     0
176
     1
290
     1
176
     1
290
     1
176
     1
290
     0
176
     1
290
     0
176
     1
290
     0
176
     1
290
     0
176
     1
290
     0
176
     1
290
     0
176
     1
 90
       50
176
     1
 40
0.0
176
     1
 40
1.0
176
     1
 90
        0
176
     1
 62
    18
420
        0
176
     1
 90
       50
176
     1
 90
        3
176
     1
 62
     5
420
      255
176
     1
290
     0
176
     1
 90
       50
176
     1
 90
       50
176
     1
 90
       50
176
     1
290
     0
176
     1
 90
       50
176
     1
 62
   256
176
     0
 40
1.0
176
     0
 90
        2
176
     1
  1
strokes_ogs.tif
176
     1
290
     0
176
     1
 40
1.0
176
     1
 40
1.0
176
     1
1001
ACAD
1000
AcDbSavedByObjectVersion
1070
     0
  0
VISUALSTYLE
  5
32
102
{ACAD_REACTORS
330
29
102
}
330
29
100
AcDbVisualStyle
  2
Conceptual
 70
     9
177
     3
291
     0
 70
    58
 90
        3
176
     1
 90
        2
176
     1
 90
        0
176
     1
 90
        0
176
     1
 40
0.6
176
     1
 40
30.0
176
     1
 62
     7
420
 16777215
176
     1
 90
        2
176
     1
 90
        2
176
     1
 62
     7
176
     1
 62
   257
176
     1
 90
        1
176
     1
 90
        1
176
     1
 40
179.0
176
     1
 90
        8
176
     1
 62
     7
176
     1
 40
1.0
176
     1
 90
        1
176
     1
 90
        6
176
     1
 90
        2
176
     1
 62
     7
176
     1
 90
        3
176
     1
 90
        0
176
     1
 90
        0
176
     1
290
     0
176
     1
 90
        1
176
     1
 40
0.0
176
     1
 90
        0
176
     1
290
     0
176
     1
290
     1
176
     1
290
     1
176
     1
290
     0
176
     1
290
     0
176
     1
290
     0
176
     1
290
     0
176
     1
290
     0
176
     1
290
     0
176
     1
 90
       50
176
     1
 40
0.0
176
     1
 40
1.0
176
     1
 90
        0
176
     1
 62
    18
420
        0
176
     1
 90
       50
176
     1
 90
        3
176
     1
 62
     5
420
      255
176
     1
290
     0
176
     1
 90
       50
176
     1
 90
       50
176
     1
 90
       50
176
     1
290
     0
176
     1
 90
       50
176
     1
 62
   256
176
     0
 40
1.0
176
     0
 90
        2
176
     1
  1
strokes_ogs.tif
176
     1
290
     0
176
     1
 40
1.0
176
     1
 40
1.0
176
     1
1001
ACAD
1000
AcDbSavedByObjectVersion
1070
     0
  0
VISUALSTYLE
  5
34
102
{ACAD_REACTORS
330
29
102
}
330
29
100
AcDbVisualStyle
  2
Dim
 70
    11
177
     3
291
     1
 70
    58
 90
        2
176
     1
 90
        2
176
     1
 90
        0
176
     1
 90
        0
176
     1
 40
0.6
176
     1
 40
30.0
176
     1
 62
     7
420
 16777215
176
     1
 90
        1
176
     1
 90
        4
176
     1
 62
     7
176
     1
 62
   257
176
     1
 90
        1
176
     1
 90
        1
176
     1
 40
1.0
176
     1
 90
        8
176
     1
 62
     7
176
     1
 40
1.0
176
     1
 90
        1
176
     1
 90
        6
176
     1
 90
        2
176
     1
 62
     7
176
     1
 90
        5
176
     1
 90
        0
176
     1
 90
        0
176
     1
290
     0
176
     1
 90
        1
176
     1
 40
-50.0
176
     1
 90
        0
176
     1
290
     0
176
     1
290
     1
176
     1
290
     1
176
     1
290
     0
176
     1
290
     0
176
     1
290
     0
176
     1
290
     0
176
     1
290
     0
176
     1
290
     0
176
     1
 90
       50
176
     1
 40
0.0
176
     1
 40
1.0
176
     1
 90
        0
176
     1
 62
    18
420
        0
176
     1
 90
       50
176
     1
 90
        3
176
     1
 62
     5
420
      255
176
     1
290
     0
176
     1
 90
       50
176
     1
 90
       50
176
     1
 90
       50
176
     1
290
     0
176
     1
 90
       50
176
     1
 62
   256
176
     0
 40
1.0
176
     0
 90
        2
176
     1
  1
strokes_ogs.tif
176
     1
290
     0
176
     1
 40
1.0
176
     1
 40
1.0
176
     1
1001
ACAD
1000
AcDbSavedByObjectVersion
1070
     0
  0
VISUALSTYLE
  5
41
102
{ACAD_REACTORS
330
29
102
}
330
29
100
AcDbVisualStyle
  2
EdgeColorOff
 70
    22
177
     3
291
     1
 70
    58
 90
        2
176
     0
 90
        2
176
     0
 90
        0
176
     0
 90
        0
176
     0
 40
0.6
176
     0
 40
30.0
176
     0
 62
     7
420
 16777215
176
     0
 90
        1
176
     0
 90
        4
176
     0
 62
     7
176
     0
 62
   257
176
     0
 90
        1
176
     0
 90
        1
176
     0
 40
1.0
176
     0
 90
        8
176
     2
 62
     7
176
     0
 40
1.0
176
     0
 90
        1
176
     0
 90
        6
176
     0
 90
        2
176
     0
 62
     7
176
     0
 90
        5
176
     0
 90
        0
176
     0
 90
        0
176
     0
290
     0
176
     0
 90
        1
176
     0
 40
0.0
176
     0
 90
        0
176
     0
290
     0
176
     0
290
     1
176
     0
290
     1
176
     0
290
     0
176
     0
290
     0
176
     0
290
     0
176
     0
290
     0
176
     0
290
     0
176
     0
290
     0
176
     0
 90
       50
176
     0
 40
0.0
176
     0
 40
1.0
176
     0
 90
        0
176
     0
 62
    18
420
        0
176
     0
 90
       50
176
     0
 90
        3
176
     0
 62
     5
420
      255
176
     0
290
     0
176
     0
 90
       50
176
     0
 90
       50
176
     0
 90
       50
176
     0
290
     0
176
     0
 90
       50
176
     0
 62
   256
176
     0
 40
1.0
176
     0
 90
        2
176
     0
  1
strokes_ogs.tif
176
     0
290
     0
176
     0
 40
1.0
176
     0
 40
1.0
176
     0
1001
ACAD
1000
AcDbSavedByObjectVersion
1070
     0
  0
VISUALSTYLE
  5
38
102
{ACAD_REACTORS
330
29
102
}
330
29
100
AcDbVisualStyle
  2
Facepattern
 70
    15
177
     3
291
     1
 70
    58
 90
        2
176
     1
 90
        2
176
     1
 90
        0
176
     1
 90
        0
176
     1
 40
0.6
176
     1
 40
30.0
176
     1
 62
     7
420
 16777215
176
     1
 90
        1
176
     1
 90
        4
176
     1
 62
     7
176
     1
 62
   257
176
     1
 90
        1
176
     1
 90
        1
176
     1
 40
1.0
176
     1
 90
        8
176
     1
 62
     7
176
     1
 40
1.0
176
     1
 90
        1
176
     1
 90
        6
176
     1
 90
        2
176
     1
 62
     7
176
     1
 90
        5
176
     1
 90
        0
176
     1
 90
        0
176
     1
290
     0
176
     1
 90
        1
176
     1
 40
0.0
176
     1
 90
        0
176
     1
290
     0
176
     1
290
     1
176
     1
290
     1
176
     1
290
     0
176
     1
290
     0
176
     1
290
     0
176
     1
290
     0
176
     1
290
     0
176
     1
290
     0
176
     1
 90
       50
176
     1
 40
0.0
176
     1
 40
1.0
176
     1
 90
        0
176
     1
 62
    18
420
        0
176
     1
 90
       50
176
     1
 90
        3
176
     1
 62
     5
420
      255
176
     1
290
     0
176
     1
 90
       50
176
     1
 90
       50
176
     1
 90
       50
176
     1
290
     0
176
     1
 90
       50
176
     1
 62
   256
176
     0
 40
1.0
176
     0
 90
        2
176
     1
  1
strokes_ogs.tif
176
     1
290
     0
176
     1
 40
1.0
176
     1
 40
1.0
176
     1
1001
ACAD
1000
AcDbSavedByObjectVersion
1070
     0
  0
VISUALSTYLE
  5
2A
102
{ACAD_REACTORS
330
29
102
}
330
29
100
AcDbVisualStyle
  2
Flat
 70
     0
177
     3
291
     1
 70
    58
 90
        2
176
     1
 90
        1
176
     1
 90
        1
176
     1
 90
        2
176
     1
 40
0.6
176
     1
 40
30.0
176
     1
 62
     7
420
 16777215
176
     1
 90
        0
176
     1
 90
        0
176
     1
 62
     7
176
     1
 62
   257
176
     1
 90
        1
176
     1
 90
        1
176
     1
 40
1.0
176
     1
 90
        8
176
     1
 62
     7
176
     1
 40
1.0
176
     1
 90
        1
176
     1
 90
        6
176
     1
 90
        2
176
     1
 62
     7
176
     1
 90
        5
176
     1
 90
        0
176
     1
 90
        0
176
     1
290
     0
176
     1
 90
       13
176
     1
 40
0.0
176
     1
 90
        0
176
     1
290
     0
176
     1
290
     1
176
     1
290
     1
176
     1
290
     0
176
     1
290
     0
176
     1
290
     0
176
     1
290
     0
176
     1
290
     0
176
     1
290
     0
176
     1
 90
       50
176
     1
 40
0.0
176
     1
 40
1.0
176
     1
 90
        0
176
     1
 62
    18
420
        0
176
     1
 90
       50
176
     1
 90
        3
176
     1
 62
     5
420
      255
176
     1
290
     0
176
     1
 90
       50
176
     1
 90
       50
176
     1
 90
       50
176
     1
290
     0
176
     1
 90
       50
176
     1
 62
   256
176
     0
 40
1.0
176
     0
 90
        2
176
     1
  1
strokes_ogs.tif
176
     1
290
     0
176
     1
 40
1.0
176
     1
 40
1.0
176
     1
1001
ACAD
1000
AcDbSavedByObjectVersion
1070
     0
  0
VISUALSTYLE
  5
2B
102
{ACAD_REACTORS
330
29
102
}
330
29
100
AcDbVisualStyle
  2
FlatWithEdges
 70
     1
177
     3
291
     1
 70
    58
 90
        2
176
     1
 90
        1
176
     1
 90
        1
176
     1
 90
        2
176
     1
 40
0.6
176
     1
 40
30.0
176
     1
 62
     7
420
 16777215
176
     1
 90
        1
176
     1
 90
        0
176
     1
 62
     7
176
     1
 62
   257
176
     1
 90
        1
176
     1
 90
        1
176
     1
 40
1.0
176
     1
 90
        0
176
     1
 62
   257
176
     1
 40
1.0
176
     1
 90
        1
176
     1
 90
        6
176
     1
 90
        2
176
     1
 62
     7
176
     1
 90
        5
176
     1
 90
        0
176
     1
 90
        0
176
     1
290
     0
176
     1
 90
       13
176
     1
 40
0.0
176
     1
 90
        0
176
     1
290
     0
176
     1
290
     1
176
     1
290
     1
176
     1
290
     0
176
     1
290
     0
176
     1
290
     0
176
     1
290
     0
176
     1
290
     0
176
     1
290
     0
176
     1
 90
       50
176
     1
 40
0.0
176
     1
 40
1.0
176
     1
 90
        0
176
     1
 62
    18
420
        0
176
     1
 90
       50
176
     1
 90
        3
176
     1
 62
     5
420
      255
176
     1
290
     0
176
     1
 90
       50
176
     1
 90
       50
176
     1
 90
       50
176
     1
290
     0
176
     1
 90
       50
176
     1
 62
   256
176
     0
 40
1.0
176
     0
 90
        2
176
     1
  1
strokes_ogs.tif
176
     1
290
     0
176
     1
 40
1.0
176
     1
 40
1.0
176
     1
1001
ACAD
1000
AcDbSavedByObjectVersion
1070
     0
  0
VISUALSTYLE
  5
2C
102
{ACAD_REACTORS
330
29
102
}
330
29
100
AcDbVisualStyle
  2
Gouraud
 70
     2
177
     3
291
     1
 70
    58
 90
        2
176
     1
 90
        2
176
     1
 90
        1
176
     1
 90
        2
176
     1
 40
0.6
176
     1
 40
30.0
176
     1
 62
     7
420
 16777215
176
     1
 90
        0
176
     1
 90
        0
176
     1
 62
     7
176
     1
 62
   257
176
     1
 90
        1
176
     1
 90
        1
176
     1
 40
1.0
176
     1
 90
        0
176
     1
 62
     7
176
     1
 40
1.0
176
     1
 90
        1
176
     1
 90
        6
176
     1
 90
        2
176
     1
 62
     7
176
     1
 90
        5
176
     1
 90
        0
176
     1
 90
        0
176
     1
290
     0
176
     1
 90
       13
176
     1
 40
0.0
176
     1
 90
        0
176
     1
290
     0
176
     1
290
     1
176
     1
290
     1
176
     1
290
     0
176
     1
290
     0
176
     1
290
     0
176
     1
290
     0
176
     1
290
     0
176
     1
290
     0
176
     1
 90
       50
176
     1
 40
0.0
176
     1
 40
1.0
176
     1
 90
        0
176
     1
 62
    18
420
        0
176
     1
 90
       50
176
     1
 90
        3
176
     1
 62
     5
420
      255
176
     1
290
     0
176
     1
 90
       50
176
     1
 90
       50
176
     1
 90
       50
176
     1
290
     0
176
     1
 90
       50
176
     1
 62
   256
176
     0
 40
1.0
176
     0
 90
        2
176
     1
  1
strokes_ogs.tif
176
     1
290
     0
176
     1
 40
1.0
176
     1
 40
1.0
176
     1
1001
ACAD
1000
AcDbSavedByObjectVersion
1070
     0
  0
VISUALSTYLE
  5
2D
102
{ACAD_REACTORS
330
29
102
}
330
29
100
AcDbVisualStyle
  2
GouraudWithEdges
 70
     3
177
     3
291
     1
 70
    58
 90
        2
176
     1
 90
        2
176
     1
 90
        1
176
     1
 90
        2
176
     1
 40
0.6
176
     1
 40
30.0
176
     1
 62
     7
420
 16777215
176
     1
 90
        1
176
     1
 90
        0
176
     1
 62
     7
176
     1
 62
   257
176
     1
 90
        1
176
     1
 90
        1
176
     1
 40
1.0
176
     1
 90
        0
176
     1
 62
   257
176
     1
 40
1.0
176
     1
 90
        1
176
     1
 90
        6
176
     1
 90
        2
176
     1
 62
     7
176
     1
 90
        5
176
     1
 90
        0
176
     1
 90
        0
176
     1
290
     0
176
     1
 90
       13
176
     1
 40
0.0
176
     1
 90
        0
176
     1
290
     0
176
     1
290
     1
176
     1
290
     1
176
     1
290
     0
176
     1
290
     0
176
     1
290
     0
176
     1
290
     0
176
     1
290
     0
176
     1
290
     0
176
     1
 90
       50
176
     1
 40
0.0
176
     1
 40
1.0
176
     1
 90
        0
176
     1
 62
    18
420
        0
176
     1
 90
       50
176
     1
 90
        3
176
     1
 62
     5
420
      255
176
     1
290
     0
176
     1
 90
       50
176
     1
 90
       50
176
     1
 90
       50
176
     1
290
     0
176
     1
 90
       50
176
     1
 62
   256
176
     0
 40
1.0
176
     0
 90
        2
176
     1
  1
strokes_ogs.tif
176
     1
290
     0
176
     1
 40
1.0
176
     1
 40
1.0
176
     1
1001
ACAD
1000
AcDbSavedByObjectVersion
1070
     0
  0
VISUALSTYLE
  5
31
102
{ACAD_REACTORS
330
29
102
}
330
29
100
AcDbVisualStyle
  2
Hidden
 70
     6
177
     3
291
     0
 70
    58
 90
        1
176
     1
 90
        2
176
     1
 90
        2
176
     1
 90
        0
176
     1
 40
0.6
176
     1
 40
30.0
176
     1
 62
     7
420
 16777215
176
     1
 90
        2
176
     1
 90
        2
176
     1
 62
     7
176
     1
 62
   257
176
     1
 90
        2
176
     1
 90
        1
176
     1
 40
40.0
176
     1
 90
        0
176
     1
 62
   257
176
     1
 40
1.0
176
     1
 90
        1
176
     1
 90
        6
176
     1
 90
        2
176
     1
 62
     7
176
     1
 90
        3
176
     1
 90
        0
176
     1
 90
        0
176
     1
290
     0
176
     1
 90
        1
176
     1
 40
0.0
176
     1
 90
        0
176
     1
290
     0
176
     1
290
     1
176
     1
290
     1
176
     1
290
     0
176
     1
290
     0
176
     1
290
     0
176
     1
290
     0
176
     1
290
     0
176
     1
290
     0
176
     1
 90
       50
176
     1
 40
0.0
176
     1
 40
1.0
176
     1
 90
        0
176
     1
 62
    18
420
        0
176
     1
 90
       50
176
     1
 90
        3
176
     1
 62
     5
420
      255
176
     1
290
     0
176
     1
 90
       50
176
     1
 90
       50
176
     1
 90
       50
176
     1
290
     0
176
     1
 90
       50
176
     1
 62
   256
176
     0
 40
1.0
176
     0
 90
        2
176
     1
  1
strokes_ogs.tif
176
     1
290
     0
176
     1
 40
1.0
176
     1
 40
1.0
176
     1
1001
ACAD
1000
AcDbSavedByObjectVersion
1070
     0
  0
VISUALSTYLE
  5
3F
102
{ACAD_REACTORS
330
29
102
}
330
29
100
AcDbVisualStyle
  2
JitterOff
 70
    20
177
     3
291
     1
 70
    58
 90
        2
176
     0
 90
        2
176
     0
 90
        0
176
     0
 90
        0
176
     0
 40
0.6
176
     0
 40
30.0
176
     0
 62
     7
420
 16777215
176
     0
 90
        1
176
     0
 90
        4
176
     0
 62
     7
176
     0
 62
   257
176
     0
 90
        1
176
     0
 90
        1
176
     0
 40
1.0
176
     0
 90
       10
176
     2
 62
     7
176
     0
 40
1.0
176
     0
 90
        1
176
     0
 90
        6
176
     0
 90
        2
176
     0
 62
     7
176
     0
 90
        5
176
     0
 90
        0
176
     0
 90
        0
176
     0
290
     0
176
     0
 90
        1
176
     0
 40
0.0
176
     0
 90
        0
176
     0
290
     0
176
     0
290
     1
176
     0
290
     1
176
     0
290
     0
176
     0
290
     0
176
     0
290
     0
176
     0
290
     0
176
     0
290
     0
176
     0
290
     0
176
     0
 90
       50
176
     0
 40
0.0
176
     0
 40
1.0
176
     0
 90
        0
176
     0
 62
    18
420
        0
176
     0
 90
       50
176
     0
 90
        3
176
     0
 62
     5
420
      255
176
     0
290
     0
176
     0
 90
       50
176
     0
 90
       50
176
     0
 90
       50
176
     0
290
     0
176
     0
 90
       50
176
     0
 62
   256
176
     0
 40
1.0
176
     0
 90
        2
176
     0
  1
strokes_ogs.tif
176
     0
290
     0
176
     0
 40
1.0
176
     0
 40
1.0
176
     0
1001
ACAD
1000
AcDbSavedByObjectVersion
1070
     0
  0
VISUALSTYLE
  5
37
102
{ACAD_REACTORS
330
29
102
}
330
29
100
AcDbVisualStyle
  2
Linepattern
 70
    14
177
     3
291
     1
 70
    58
 90
        2
176
     1
 90
        2
176
     1
 90
        0
176
     1
 90
        0
176
     1
 40
0.6
176
     1
 40
30.0
176
     1
 62
     7
420
 16777215
176
     1
 90
        1
176
     1
 90
        4
176
     1
 62
     7
176
     1
 62
   257
176
     1
 90
        7
176
     1
 90
        7
176
     1
 40
1.0
176
     1
 90
        8
176
     1
 62
     7
176
     1
 40
1.0
176
     1
 90
        1
176
     1
 90
        6
176
     1
 90
        2
176
     1
 62
     7
176
     1
 90
        5
176
     1
 90
        0
176
     1
 90
        0
176
     1
290
     0
176
     1
 90
        1
176
     1
 40
0.0
176
     1
 90
        0
176
     1
290
     0
176
     1
290
     1
176
     1
290
     1
176
     1
290
     0
176
     1
290
     0
176
     1
290
     0
176
     1
290
     0
176
     1
290
     0
176
     1
290
     0
176
     1
 90
       50
176
     1
 40
0.0
176
     1
 40
1.0
176
     1
 90
        0
176
     1
 62
    18
420
        0
176
     1
 90
       50
176
     1
 90
        3
176
     1
 62
     5
420
      255
176
     1
290
     0
176
     1
 90
       50
176
     1
 90
       50
176
     1
 90
       50
176
     1
290
     0
176
     1
 90
       50
176
     1
 62
   256
176
     0
 40
1.0
176
     0
 90
        2
176
     1
  1
strokes_ogs.tif
176
     1
290
     0
176
     1
 40
1.0
176
     1
 40
1.0
176
     1
1001
ACAD
1000
AcDbSavedByObjectVersion
1070
     0
  0
VISUALSTYLE
  5
40
102
{ACAD_REACTORS
330
29
102
}
330
29
100
AcDbVisualStyle
  2
OverhangOff
 70
    21
177
     3
291
     1
 70
    58
 90
        2
176
     0
 90
        2
176
     0
 90
        0
176
     0
 90
        0
176
     0
 40
0.6
176
     0
 40
30.0
176
     0
 62
     7
420
 16777215
176
     0
 90
        1
176
     0
 90
        4
176
     0
 62
     7
176
     0
 62
   257
176
     0
 90
        1
176
     0
 90
        1
176
     0
 40
1.0
176
     0
 90
        9
176
     2
 62
     7
176
     0
 40
1.0
176
     0
 90
        1
176
     0
 90
        6
176
     0
 90
        2
176
     0
 62
     7
176
     0
 90
        5
176
     0
 90
        0
176
     0
 90
        0
176
     0
290
     0
176
     0
 90
        1
176
     0
 40
0.0
176
     0
 90
        0
176
     0
290
     0
176
     0
290
     1
176
     0
290
     1
176
     0
290
     0
176
     0
290
     0
176
     0
290
     0
176
     0
290
     0
176
     0
290
     0
176
     0
290
     0
176
     0
 90
       50
176
     0
 40
0.0
176
     0
 40
1.0
176
     0
 90
        0
176
     0
 62
    18
420
        0
176
     0
 90
       50
176
     0
 90
        3
176
     0
 62
     5
420
      255
176
     0
290
     0
176
     0
 90
       50
176
     0
 90
       50
176
     0
 90
       50
176
     0
290
     0
176
     0
 90
       50
176
     0
 62
   256
176
     0
 40
1.0
176
     0
 90
        2
176
     0
  1
strokes_ogs.tif
176
     0
290
     0
176
     0
 40
1.0
176
     0
 40
1.0
176
     0
1001
ACAD
1000
AcDbSavedByObjectVersion
1070
     0
  0
VISUALSTYLE
  5
33
102
{ACAD_REACTORS
330
29
102
}
330
29
100
AcDbVisualStyle
  2
Realistic
 70
     8
177
     3
291
     0
 70
    58
 90
        2
176
     1
 90
        3
176
     1
 90
        0
176
     1
 90
        2
176
     1
 40
0.6
176
     1
 40
30.0
176
     1
 62
     7
420
 16777215
176
     1
 90
        0
176
     1
 90
        0
176
     1
 62
     7
176
     1
 62
   257
176
     1
 90
        1
176
     1
 90
        1
176
     1
 40
1.0
176
     1
 90
        8
176
     1
 62
   257
176
     1
 40
1.0
176
     1
 90
        1
176
     1
 90
        6
176
     1
 90
        2
176
     1
 62
     7
176
     1
 90
        3
176
     1
 90
        0
176
     1
 90
        0
176
     1
290
     0
176
     1
 90
       13
176
     1
 40
0.0
176
     1
 90
        0
176
     1
290
     0
176
     1
290
     1
176
     1
290
     1
176
     1
290
     0
176
     1
290
     0
176
     1
290
     0
176
     1
290
     0
176
     1
290
     0
176
     1
290
     0
176
     1
 90
       50
176
     1
 40
0.0
176
     1
 40
1.0
176
     1
 90
        0
176
     1
 62
    18
420
        0
176
     1
 90
       50
176
     1
 90
        3
176
     1
 62
     5
420
      255
176
     1
290
     0
176
     1
 90
       50
176
     1
 90
       50
176
     1
 90
       50
176
     1
290
     0
176
     1
 90
       50
176
     1
 62
   256
176
     0
 40
1.0
176
     0
 90
        2
176
     1
  1
strokes_ogs.tif
176
     1
290
     0
176
     1
 40
1.0
176
     1
 40
1.0
176
     1
1001
ACAD
1000
AcDbSavedByObjectVersion
1070
     0
  0
VISUALSTYLE
  5
3E
102
{ACAD_REACTORS
330
29
102
}
330
29
100
AcDbVisualStyle
  2
Shaded
 70
    27
177
     3
291
     0
 70
    58
 90
        2
176
     1
 90
        2
176
     1
 90
        1
176
     1
 90
        2
176
     1
 40
0.6
176
     1
 40
30.0
176
     1
 62
     7
420
 16777215
176
     1
 90
        0
176
     1
 90
        4
176
     1
 62
     7
176
     1
 62
   257
176
     1
 90
        1
176
     1
 90
        1
176
     1
 40
1.0
176
     1
 90
        8
176
     1
 62
   257
176
     1
 40
1.0
176
     1
 90
        1
176
     1
 90
        6
176
     1
 90
        2
176
     1
 62
     8
420
  7895160
176
     1
 90
        3
176
     1
 90
        0
176
     1
 90
        0
176
     1
290
     0
176
     1
 90
        5
176
     1
 40
0.0
176
     1
 90
        0
176
     1
290
     0
176
     1
290
     1
176
     1
290
     1
176
     1
290
     0
176
     1
290
     0
176
     1
290
     0
176
     1
290
     0
176
     1
290
     0
176
     1
290
     0
176
     1
 90
       50
176
     1
 40
0.0
176
     1
 40
1.0
176
     1
 90
        0
176
     1
 62
    18
420
        0
176
     1
 90
       50
176
     1
 90
        3
176
     1
 62
     5
420
      255
176
     1
290
     0
176
     1
 90
       50
176
     1
 90
       50
176
     1
 90
       50
176
     1
290
     0
176
     1
 90
       50
176
     1
 62
   256
176
     0
 40
1.0
176
     0
 90
        2
176
     1
  1
strokes_ogs.tif
176
     1
290
     0
176
     1
 40
1.0
176
     1
 40
1.0
176
     1
1001
ACAD
1000
AcDbSavedByObjectVersion
1070
     0
  0
VISUALSTYLE
  5
3D
102
{ACAD_REACTORS
330
29
102
}
330
29
100
AcDbVisualStyle
  2
Shaded with edges
 70
    26
177
     3
291
     0
 70
    58
 90
        2
176
     1
 90
        2
176
     1
 90
        1
176
     1
 90
        2
176
     1
 40
0.6
176
     1
 40
30.0
176
     1
 62
     7
420
 16777215
176
     1
 90
        1
176
     1
 90
        2
176
     1
 62
     7
176
     1
 62
   257
176
     1
 90
        2
176
     1
 90
        1
176
     1
 40
1.0
176
     1
 90
        8
176
     1
 62
   257
176
     1
 40
1.0
176
     1
 90
        1
176
     1
 90
        6
176
     1
 90
        2
176
     1
 62
     7
176
     1
 90
        3
176
     1
 90
        0
176
     1
 90
        0
176
     1
290
     0
176
     1
 90
        5
176
     1
 40
0.0
176
     1
 90
        0
176
     1
290
     0
176
     1
290
     1
176
     1
290
     1
176
     1
290
     0
176
     1
290
     0
176
     1
290
     0
176
     1
290
     0
176
     1
290
     0
176
     1
290
     0
176
     1
 90
       50
176
     1
 40
0.0
176
     1
 40
1.0
176
     1
 90
        0
176
     1
 62
    18
420
        0
176
     1
 90
       50
176
     1
 90
        3
176
     1
 62
     5
420
      255
176
     1
290
     0
176
     1
 90
       50
176
     1
 90
       50
176
     1
 90
       50
176
     1
290
     0
176
     1
 90
       50
176
     1
 62
   256
176
     0
 40
1.0
176
     0
 90
        2
176
     1
  1
strokes_ogs.tif
176
     1
290
     0
176
     1
 40
1.0
176
     1
 40
1.0
176
     1
1001
ACAD
1000
AcDbSavedByObjectVersion
1070
     0
  0
VISUALSTYLE
  5
3A
102
{ACAD_REACTORS
330
29
102
}
330
29
100
AcDbVisualStyle
  2
Shades of Gray
 70
    23
177
     3
291
     0
 70
    58
 90
        2
176
     1
 90
        2
176
     1
 90
        3
176
     1
 90
        0
176
     1
 40
0.6
176
     1
 40
30.0
176
     1
 62
     7
420
 16777215
176
     1
 90
        2
176
     1
 90
        2
176
     1
 62
     7
176
     1
 62
     7
176
     1
 90
        1
176
     1
 90
        1
176
     1
 40
40.0
176
     1
 90
        8
176
     1
 62
     7
176
     1
 40
1.0
176
     1
 90
        1
176
     1
 90
        6
176
     1
 90
        2
176
     1
 62
     7
176
     1
 90
        3
176
     1
 90
        0
176
     1
 90
        0
176
     1
290
     0
176
     1
 90
        1
176
     1
 40
0.0
176
     1
 90
        0
176
     1
290
     0
176
     1
290
     1
176
     1
290
     1
176
     1
290
     0
176
     1
290
     0
176
     1
290
     0
176
     1
290
     0
176
     1
290
     0
176
     1
290
     0
176
     1
 90
       50
176
     1
 40
0.0
176
     1
 40
1.0
176
     1
 90
        0
176
     1
 62
    18
420
        0
176
     1
 90
       50
176
     1
 90
        3
176
     1
 62
     5
420
      255
176
     1
290
     0
176
     1
 90
       50
176
     1
 90
       50
176
     1
 90
       50
176
     1
290
     0
176
     1
 90
       50
176
     1
 62
   256
176
     0
 40
1.0
176
     0
 90
        2
176
     1
  1
strokes_ogs.tif
176
     1
290
     0
176
     1
 40
1.0
176
     1
 40
1.0
176
     1
1001
ACAD
1000
AcDbSavedByObjectVersion
1070
     0
  0
VISUALSTYLE
  5
3B
102
{ACAD_REACTORS
330
29
102
}
330
29
100
AcDbVisualStyle
  2
Sketchy
 70
    24
177
     3
291
     0
 70
    58
 90
        1
176
     1
 90
        2
176
     1
 90
        2
176
     1
 90
        0
176
     1
 40
0.6
176
     1
 40
30.0
176
     1
 62
     7
420
 16777215
176
     1
 90
        2
176
     1
 90
        2
176
     1
 62
     7
176
     1
 62
     7
176
     1
 90
        1
176
     1
 90
        1
176
     1
 40
40.0
176
     1
 90
       11
176
     1
 62
     7
176
     1
 40
1.0
176
     1
 90
        1
176
     1
 90
        6
176
     1
 90
        2
176
     1
 62
     7
176
     1
 90
        6
176
     1
 90
        0
176
     1
 90
        0
176
     1
290
     0
176
     1
 90
        1
176
     1
 40
0.0
176
     1
 90
        0
176
     1
290
     0
176
     1
290
     1
176
     1
290
     1
176
     1
290
     0
176
     1
290
     0
176
     1
290
     0
176
     1
290
     0
176
     1
290
     0
176
     1
290
     0
176
     1
 90
       50
176
     1
 40
0.0
176
     1
 40
1.0
176
     1
 90
        0
176
     1
 62
    18
420
        0
176
     1
 90
       50
176
     1
 90
        3
176
     1
 62
     5
420
      255
176
     1
290
     0
176
     1
 90
       50
176
     1
 90
       50
176
     1
 90
       50
176
     1
290
     0
176
     1
 90
       50
176
     1
 62
   256
176
     0
 40
1.0
176
     0
 90
        2
176
     1
  1
strokes_ogs.tif
176
     1
290
     0
176
     1
 40
1.0
176
     1
 40
1.0
176
     1
1001
ACAD
1000
AcDbSavedByObjectVersion
1070
     0
  0
VISUALSTYLE
  5
36
102
{ACAD_REACTORS
330
29
102
}
330
29
100
AcDbVisualStyle
  2
Thicken
 70
    13
177
     3
291
     1
 70
    58
 90
        2
176
     1
 90
        2
176
     1
 90
        0
176
     1
 90
        0
176
     1
 40
0.6
176
     1
 40
30.0
176
     1
 62
     7
420
 16777215
176
     1
 90
        1
176
     1
 90
        4
176
     1
 62
     7
176
     1
 62
   257
176
     1
 90
        1
176
     1
 90
        1
176
     1
 40
1.0
176
     1
 90
       12
176
     1
 62
     7
176
     1
 40
1.0
176
     1
 90
        1
176
     1
 90
        6
176
     1
 90
        2
176
     1
 62
     7
176
     1
 90
        5
176
     1
 90
        0
176
     1
 90
        0
176
     1
290
     0
176
     1
 90
        1
176
     1
 40
0.0
176
     1
 90
        0
176
     1
290
     0
176
     1
290
     1
176
     1
290
     1
176
     1
290
     0
176
     1
290
     0
176
     1
290
     0
176
     1
290
     0
176
     1
290
     0
176
     1
290
     0
176
     1
 90
       50
176
     1
 40
0.0
176
     1
 40
1.0
176
     1
 90
        0
176
     1
 62
    18
420
        0
176
     1
 90
       50
176
     1
 90
        3
176
     1
 62
     5
420
      255
176
     1
290
     0
176
     1
 90
       50
176
     1
 90
       50
176
     1
 90
       50
176
     1
290
     0
176
     1
 90
       50
176
     1
 62
   256
176
     0
 40
1.0
176
     0
 90
        2
176
     1
  1
strokes_ogs.tif
176
     1
290
     0
176
     1
 40
1.0
176
     1
 40
1.0
176
     1
1001
ACAD
1000
AcDbSavedByObjectVersion
1070
     0
  0
VISUALSTYLE
  5
30
102
{ACAD_REACTORS
330
29
102
}
330
29
100
AcDbVisualStyle
  2
Wireframe
 70
     5
177
     3
291
     0
 70
    58
 90
        0
176
     1
 90
        2
176
     1
 90
        0
176
     1
 90
        0
176
     1
 40
0.6
176
     1
 40
30.0
176
     1
 62
     7
420
 16777215
176
     1
 90
        1
176
     1
 90
        4
176
     1
 62
     7
176
     1
 62
   257
176
     1
 90
        1
176
     1
 90
        1
176
     1
 40
1.0
176
     1
 90
        0
176
     1
 62
   257
176
     1
 40
1.0
176
     1
 90
        1
176
     1
 90
        6
176
     1
 90
        2
176
     1
 62
     7
176
     1
 90
        3
176
     1
 90
        0
176
     1
 90
        0
176
     1
290
     0
176
     1
 90
        1
176
     1
 40
0.0
176
     1
 90
        0
176
     1
290
     0
176
     1
290
     1
176
     1
290
     1
176
     1
290
     0
176
     1
290
     0
176
     1
290
     0
176
     1
290
     0
176
     1
290
     0
176
     1
290
     0
176
     1
 90
       50
176
     1
 40
0.0
176
     1
 40
1.0
176
     1
 90
        0
176
     1
 62
    18
420
        0
176
     1
 90
       50
176
     1
 90
        3
176
     1
 62
     5
420
      255
176
     1
290
     0
176
     1
 90
       50
176
     1
 90
       50
176
     1
 90
       50
176
     1
290
     0
176
     1
 90
       50
176
     1
 62
   256
176
     0
 40
1.0
176
     0
 90
        2
176
     1
  1
strokes_ogs.tif
176
     1
290
     0
176
     1
 40
1.0
176
     1
 40
1.0
176
     1
1001
ACAD
1000
AcDbSavedByObjectVersion
1070
     0
  0
VISUALSTYLE
  5
3C
102
{ACAD_REACTORS
330
29
102
}
330
29
100
AcDbVisualStyle
  2
X-Ray
 70
    25
177
     3
291
     0
 70
    58
 90
        2
176
     1
 90
        2
176
     1
 90
        1
176
     1
 90
        1
176
     1
 40
0.5
176
     1
 40
30.0
176
     1
 62
     7
420
 16777215
176
     1
 90
        1
176
     1
 90
        0
176
     1
 62
     7
176
     1
 62
   257
176
     1
 90
        1
176
     1
 90
        1
176
     1
 40
1.0
176
     1
 90
        8
176
     1
 62
     7
176
     1
 40
1.0
176
     1
 90
        1
176
     1
 90
        6
176
     1
 90
        2
176
     1
 62
     7
176
     1
 90
        3
176
     1
 90
        0
176
     1
 90
        0
176
     1
290
     0
176
     1
 90
       13
176
     1
 40
0.0
176
     1
 90
        0
176
     1
290
     0
176
     1
290
     1
176
     1
290
     1
176
     1
290
     0
176
     1
290
     0
176
     1
290
     0
176
     1
290
     0
176
     1
290
     0
176
     1
290
     0
176
     1
 90
       50
176
     1
 40
0.0
176
     1
 40
1.0
176
     1
 90
        0
176
     1
 62
    18
420
        0
176
     1
 90
       50
176
     1
 90
        3
176
     1
 62
     5
420
      255
176
     1
290
     0
176
     1
 90
       50
176
     1
 90
       50
176
     1
 90
       50
176
     1
290
     0
176
     1
 90
       50
176
     1
 62
   256
176
     0
 40
1.0
176
     0
 90
        2
176
     1
  1
strokes_ogs.tif
176
     1
290
     0
176
     1
 40
1.0
176
     1
 40
1.0
176
     1
1001
ACAD
1000
AcDbSavedByObjectVersion
1070
     0
  0
DICTIONARYVAR
  5
71B
102
{ACAD_REACTORS
330
716
102
}
330
716
100
DictionaryVariables
280
     0
  1
1:1
  0
DICTIONARYVAR
  5
718
102
{ACAD_REACTORS
330
716
102
}
330
716
100
DictionaryVariables
280
     0
  1
STANDARD
  0
DICTIONARYVAR
  5
717
102
{ACAD_REACTORS
330
716
102
}
330
716
100
DictionaryVariables
280
     0
  1
STANDARD
  0
DICTIONARYVAR
  5
719
102
{ACAD_REACTORS
330
716
102
}
330
716
100
DictionaryVariables
280
     0
  1
Imperial24
  0
DICTIONARYVAR
  5
71A
102
{ACAD_REACTORS
330
716
102
}
330
716
100
DictionaryVariables
280
     0
  1
Imperial24
  0
DICTIONARY
  5
753
330
6B
100
AcDbDictionary
280
     1
281
     1
  3
ACAD_XREC_ROUNDTRIP
360
754
  0
DICTIONARY
  5
1A
330
19
100
AcDbDictionary
280
     1
281
     1
  3
BUMPTILE
360
1C
  3
DIFFUSETILE
360
1B
  3
OPACITYTILE
360
1F
  3
REFLECTIONTILE
360
1E
  3
REFRACTIONTILE
360
20
  3
SPECULARTILE
360
1D
  0
DICTIONARY
  5
12
330
11
100
AcDbDictionary
280
     1
281
     1
  3
BUMPTILE
360
14
  3
DIFFUSETILE
360
13
  3
OPACITYTILE
360
17
  3
REFLECTIONTILE
360
16
  3
REFRACTIONTILE
360
18
  3
SPECULARTILE
360
15
  0
DICTIONARY
  5
22
330
21
100
AcDbDictionary
280
     1
281
     1
  3
BUMPTILE
360
24
  3
DIFFUSETILE
360
23
  3
OPACITYTILE
360
27
  3
REFLECTIONTILE
360
26
  3
REFRACTIONTILE
360
28
  3
SPECULARTILE
360
25
  0
DICTIONARY
  5
751
330
69
100
AcDbDictionary
280
     1
281
     1
  3
ACAD_XREC_ROUNDTRIP
360
752
  0
DICTIONARY
  5
71C
330
65
100
AcDbDictionary
280
     1
281
     1
  3
ACAD_ROUNDTRIP_2008_TABLESTYLE_CELLSTYLEMAP
360
71D
  0
XRECORD
  5
754
102
{ACAD_REACTORS
330
753
102
}
330
753
100
AcDbXrecord
280
     1
102
DISPLAYNAME
  1
Imperial24
102
FLAGS
 90
        0
  0
XRECORD
  5
1C
102
{ACAD_REACTORS
330
1A
102
}
330
1A
100
AcDbXrecord
280
     1
270
     1
271
     1
  0
XRECORD
  5
1B
102
{ACAD_REACTORS
330
1A
102
}
330
1A
100
AcDbXrecord
280
     1
270
     1
271
     1
  0
XRECORD
  5
1F
102
{ACAD_REACTORS
330
1A
102
}
330
1A
100
AcDbXrecord
280
     1
270
     1
271
     1
  0
XRECORD
  5
1E
102
{ACAD_REACTORS
330
1A
102
}
330
1A
100
AcDbXrecord
280
     1
270
     1
271
     1
  0
XRECORD
  5
20
102
{ACAD_REACTORS
330
1A
102
}
330
1A
100
AcDbXrecord
280
     1
270
     1
271
     1
  0
XRECORD
  5
1D
102
{ACAD_REACTORS
330
1A
102
}
330
1A
100
AcDbXrecord
280
     1
270
     1
271
     1
  0
XRECORD
  5
14
102
{ACAD_REACTORS
330
12
102
}
330
12
100
AcDbXrecord
280
     1
270
     1
271
     1
  0
XRECORD
  5
13
102
{ACAD_REACTORS
330
12
102
}
330
12
100
AcDbXrecord
280
     1
270
     1
271
     1
  0
XRECORD
  5
17
102
{ACAD_REACTORS
330
12
102
}
330
12
100
AcDbXrecord
280
     1
270
     1
271
     1
  0
XRECORD
  5
16
102
{ACAD_REACTORS
330
12
102
}
330
12
100
AcDbXrecord
280
     1
270
     1
271
     1
  0
XRECORD
  5
18
102
{ACAD_REACTORS
330
12
102
}
330
12
100
AcDbXrecord
280
     1
270
     1
271
     1
  0
XRECORD
  5
15
102
{ACAD_REACTORS
330
12
102
}
330
12
100
AcDbXrecord
280
     1
270
     1
271
     1
  0
XRECORD
  5
24
102
{ACAD_REACTORS
330
22
102
}
330
22
100
AcDbXrecord
280
     1
270
     1
271
     1
  0
XRECORD
  5
23
102
{ACAD_REACTORS
330
22
102
}
330
22
100
AcDbXrecord
280
     1
270
     1
271
     1
  0
XRECORD
  5
27
102
{ACAD_REACTORS
330
22
102
}
330
22
100
AcDbXrecord
280
     1
270
     1
271
     1
  0
XRECORD
  5
26
102
{ACAD_REACTORS
330
22
102
}
330
22
100
AcDbXrecord
280
     1
270
     1
271
     1
  0
XRECORD
  5
28
102
{ACAD_REACTORS
330
22
102
}
330
22
100
AcDbXrecord
280
     1
270
     1
271
     1
  0
XRECORD
  5
25
102
{ACAD_REACTORS
330
22
102
}
330
22
100
AcDbXrecord
280
     1
270
     1
271
     1
  0
XRECORD
  5
752
102
{ACAD_REACTORS
330
751
102
}
330
751
100
AcDbXrecord
280
     1
102
DISPLAYNAME
  1
Imperial24
102
FLAGS
 90
        0
  0
CELLSTYLEMAP
  5
71D
102
{ACAD_REACTORS
330
71C
102
}
330
71C
100
AcDbCellStyleMap
 90
        3
300
CELLSTYLE
  1
TABLEFORMAT_BEGIN
 90
        5
170
     1
 91
        0
 92
    32768
 62
   257
 93
        1
300
CONTENTFORMAT
  1
CONTENTFORMAT_BEGIN
 90
        0
 91
        0
 92
      512
 93
        0
300

 40
0.0
140
1.0
 94
        5
 62
     0
340
55
144
0.25
309
CONTENTFORMAT_END
171
     0
 94
        0
309
TABLEFORMAT_END
  1
CELLSTYLE_BEGIN
 90
        1
 91
        1
300
_TITLE
309
CELLSTYLE_END
300
CELLSTYLE
  1
TABLEFORMAT_BEGIN
 90
        5
170
     1
 91
        0
 92
        0
 62
   257
 93
        1
300
CONTENTFORMAT
  1
CONTENTFORMAT_BEGIN
 90
        0
 91
        0
 92
      512
 93
        0
300

 40
0.0
140
1.0
 94
        5
 62
     0
340
55
144
0.18
309
CONTENTFORMAT_END
171
     0
 94
        0
309
TABLEFORMAT_END
  1
CELLSTYLE_BEGIN
 90
        2
 91
        1
300
_HEADER
309
CELLSTYLE_END
300
CELLSTYLE
  1
TABLEFORMAT_BEGIN
 90
        5
170
     1
 91
        0
 92
        0
 62
   257
 93
        1
300
CONTENTFORMAT
  1
CONTENTFORMAT_BEGIN
 90
        0
 91
        0
 92
      512
 93
        0
300

 40
0.0
140
1.0
 94
        2
 62
     0
340
55
144
0.18
309
CONTENTFORMAT_END
171
     0
 94
        0
309
TABLEFORMAT_END
  1
CELLSTYLE_BEGIN
 90
        3
 91
        2
300
_DATA
309
CELLSTYLE_END
  0
ENDSEC
  0
EOF
