  0
SECTION
  2
HEADER
  9
$ACADVER
  1
AC1024
  9
$ACADMAINTVER
 70
   226
  9
$DWGCODEPAGE
  3
ANSI_1252
  9
$AUTHOR
  1
Peter Kaiser
  9
$CUSTOMPROPERTYTAG
  1
Manager
  9
$CUSTOMPROPERTY
  1

  9
$CUSTOMPROPERTYTAG
  1
Firma
  9
$CUSTOMPROPERTY
  1

  9
$CUSTOMPROPERTYTAG
  1
Kategorie
  9
$CUSTOMPROPERTY
  1

  9
$CUSTOMPROPERTYTAG
  1
Bauteilnummer
  9
$CUSTOMPROPERTY
  1
Stuetzkonsole_FLEX_Gen_2_0_101427_109322_109323
  9
$CUSTOMPROPERTYTAG
  1
Beschreibung
  9
$CUSTOMPROPERTY
  1

  9
$CUSTOMPROPERTYTAG
  1
Projekt
  9
$CUSTOMPROPERTY
  1

  9
$CUSTOMPROPERTYTAG
  1
Konstrukteur
  9
$CUSTOMPROPERTY
  1
Peter Kaiser
  9
$CUSTOMPROPERTYTAG
  1
Ingenieur
  9
$CUSTOMPROPERTY
  1

  9
$CUSTOMPROPERTYTAG
  1
Bevollmächtigter
  9
$CUSTOMPROPERTY
  1

  9
$CUSTOMPROPERTYTAG
  1
Kostenstelle
  9
$CUSTOMPROPERTY
  1

  9
$CUSTOMPROPERTYTAG
  1
Kosten
  9
$CUSTOMPROPERTY
  1

  9
$CUSTOMPROPERTYTAG
  1
Zulieferer
  9
$CUSTOMPROPERTY
  1

  9
$CUSTOMPROPERTYTAG
  1
Benutzerstatus
  9
$CUSTOMPROPERTY
  1

  9
$CUSTOMPROPERTYTAG
  1
Konstruktionsstatus
  9
$CUSTOMPROPERTY
  1
InBearbeitung
  9
$CUSTOMPROPERTYTAG
  1
Kontrolliert von
  9
$CUSTOMPROPERTY
  1

  9
$CUSTOMPROPERTYTAG
  1
Konstruktion genehmigt von
  9
$CUSTOMPROPERTY
  1

  9
$CUSTOMPROPERTYTAG
  1
Fertigung genehmigt von
  9
$CUSTOMPROPERTY
  1

  9
$CUSTOMPROPERTYTAG
  1
Erstellungsdatum
  9
$CUSTOMPROPERTY
  1
12/10/2013
  9
$CUSTOMPROPERTYTAG
  1
Bestandsnummer
  9
$CUSTOMPROPERTY
  1

  9
$INSBASE
 10
0.0
 20
0.0
 30
0.0
  9
$EXTMIN
 10
0.0
 20
0.0
 30
0.0
  9
$EXTMAX
 10
105.0
 20
148.5
 30
0.0
  9
$LIMMIN
 10
0.0
 20
0.0
  9
$LIMMAX
 10
105.0
 20
148.5
  9
$ORTHOMODE
 70
     0
  9
$REGENMODE
 70
     1
  9
$FILLMODE
 70
     1
  9
$QTEXTMODE
 70
     0
  9
$MIRRTEXT
 70
     0
  9
$LTSCALE
 40
0.5
  9
$ATTMODE
 70
     1
  9
$TEXTSIZE
 40
0.2
  9
$TRACEWID
 40
0.05
  9
$TEXTSTYLE
  7
Standard
  9
$CLAYER
  8
0
  9
$CELTYPE
  6
ByLayer
  9
$CECOLOR
 62
   256
  9
$CELTSCALE
 40
1.0
  9
$DISPSILH
 70
     0
  9
$DIMSCALE
 40
1.0
  9
$DIMASZ
 40
0.18
  9
$DIMEXO
 40
0.0625
  9
$DIMDLI
 40
0.38
  9
$DIMRND
 40
0.0
  9
$DIMDLE
 40
0.0
  9
$DIMEXE
 40
0.18
  9
$DIMTP
 40
0.0
  9
$DIMTM
 40
0.0
  9
$DIMTXT
 40
0.18
  9
$DIMCEN
 40
0.09
  9
$DIMTSZ
 40
0.0
  9
$DIMTOL
 70
     0
  9
$DIMLIM
 70
     0
  9
$DIMTIH
 70
     1
  9
$DIMTOH
 70
     1
  9
$DIMSE1
 70
     0
  9
$DIMSE2
 70
     0
  9
$DIMTAD
 70
     0
  9
$DIMZIN
 70
     0
  9
$DIMBLK
  1

  9
$DIMASO
 70
     1
  9
$DIMSHO
 70
     1
  9
$DIMPOST
  1

  9
$DIMAPOST
  1

  9
$DIMALT
 70
     0
  9
$DIMALTD
 70
     2
  9
$DIMALTF
 40
25.4
  9
$DIMLFAC
 40
1.0
  9
$DIMTOFL
 70
     0
  9
$DIMTVP
 40
0.0
  9
$DIMTIX
 70
     0
  9
$DIMSOXD
 70
     0
  9
$DIMSAH
 70
     0
  9
$DIMBLK1
  1

  9
$DIMBLK2
  1

  9
$DIMSTYLE
  2
Standard
  9
$DIMCLRD
 70
     0
  9
$DIMCLRE
 70
     0
  9
$DIMCLRT
 70
     0
  9
$DIMTFAC
 40
1.0
  9
$DIMGAP
 40
0.09
  9
$DIMJUST
 70
     0
  9
$DIMSD1
 70
     0
  9
$DIMSD2
 70
     0
  9
$DIMTOLJ
 70
     1
  9
$DIMTZIN
 70
     0
  9
$DIMALTZ
 70
     0
  9
$DIMALTTZ
 70
     0
  9
$DIMUPT
 70
     0
  9
$DIMDEC
 70
     4
  9
$DIMTDEC
 70
     4
  9
$DIMALTU
 70
     2
  9
$DIMALTTD
 70
     2
  9
$DIMTXSTY
  7
Standard
  9
$DIMAUNIT
 70
     0
  9
$DIMADEC
 70
     0
  9
$DIMALTRND
 40
0.0
  9
$DIMAZIN
 70
     0
  9
$DIMDSEP
 70
    46
  9
$DIMATFIT
 70
     3
  9
$DIMFRAC
 70
     0
  9
$DIMLDRBLK
  1

  9
$DIMLUNIT
 70
     2
  9
$DIMLWD
 70
    -2
  9
$DIMLWE
 70
    -2
  9
$DIMTMOVE
 70
     0
  9
$DIMFXL
 40
1.0
  9
$DIMFXLON
 70
     0
  9
$DIMJOGANG
 40
0.7853981633974483
  9
$DIMTFILL
 70
     0
  9
$DIMTFILLCLR
 70
     0
  9
$DIMARCSYM
 70
     0
  9
$DIMLTYPE
  6

  9
$DIMLTEX1
  6

  9
$DIMLTEX2
  6

  9
$DIMTXTDIRECTION
 70
     0
  9
$LUNITS
 70
     2
  9
$LUPREC
 70
     4
  9
$SKETCHINC
 40
0.1
  9
$FILLETRAD
 40
0.0
  9
$AUNITS
 70
     0
  9
$AUPREC
 70
     0
  9
$MENU
  1
.
  9
$ELEVATION
 40
0.0
  9
$PELEVATION
 40
0.0
  9
$THICKNESS
 40
0.0
  9
$LIMCHECK
 70
     0
  9
$CHAMFERA
 40
0.0
  9
$CHAMFERB
 40
0.0
  9
$CHAMFERC
 40
0.0
  9
$CHAMFERD
 40
0.0
  9
$SKPOLY
 70
     0
  9
$TDCREATE
 40
2458670.339745371
  9
$TDUCREATE
 40
2458670.256412037
  9
$TDUPDATE
 40
2458670.339745371
  9
$TDUUPDATE
 40
2458670.256412037
  9
$TDINDWG
 40
0.0000347222
  9
$TDUSRTIMER
 40
0.0000347222
  9
$USRTIMER
 70
     1
  9
$ANGBASE
 50
0.0
  9
$ANGDIR
 70
     0
  9
$PDMODE
 70
     0
  9
$PDSIZE
 40
0.0
  9
$PLINEWID
 40
0.0
  9
$SPLFRAME
 70
     0
  9
$SPLINETYPE
 70
     6
  9
$SPLINESEGS
 70
     8
  9
$HANDSEED
  5
74C
  9
$SURFTAB1
 70
     6
  9
$SURFTAB2
 70
     6
  9
$SURFTYPE
 70
     6
  9
$SURFU
 70
     6
  9
$SURFV
 70
     6
  9
$UCSBASE
  2

  9
$UCSNAME
  2

  9
$UCSORG
 10
0.0
 20
0.0
 30
0.0
  9
$UCSXDIR
 10
1.0
 20
0.0
 30
0.0
  9
$UCSYDIR
 10
0.0
 20
1.0
 30
0.0
  9
$UCSORTHOREF
  2

  9
$UCSORTHOVIEW
 70
     0
  9
$UCSORGTOP
 10
0.0
 20
0.0
 30
0.0
  9
$UCSORGBOTTOM
 10
0.0
 20
0.0
 30
0.0
  9
$UCSORGLEFT
 10
0.0
 20
0.0
 30
0.0
  9
$UCSORGRIGHT
 10
0.0
 20
0.0
 30
0.0
  9
$UCSORGFRONT
 10
0.0
 20
0.0
 30
0.0
  9
$UCSORGBACK
 10
0.0
 20
0.0
 30
0.0
  9
$PUCSBASE
  2

  9
$PUCSNAME
  2

  9
$PUCSORG
 10
0.0
 20
0.0
 30
0.0
  9
$PUCSXDIR
 10
1.0
 20
0.0
 30
0.0
  9
$PUCSYDIR
 10
0.0
 20
1.0
 30
0.0
  9
$PUCSORTHOREF
  2

  9
$PUCSORTHOVIEW
 70
     0
  9
$PUCSORGTOP
 10
0.0
 20
0.0
 30
0.0
  9
$PUCSORGBOTTOM
 10
0.0
 20
0.0
 30
0.0
  9
$PUCSORGLEFT
 10
0.0
 20
0.0
 30
0.0
  9
$PUCSORGRIGHT
 10
0.0
 20
0.0
 30
0.0
  9
$PUCSORGFRONT
 10
0.0
 20
0.0
 30
0.0
  9
$PUCSORGBACK
 10
0.0
 20
0.0
 30
0.0
  9
$USERI1
 70
     0
  9
$USERI2
 70
     0
  9
$USERI3
 70
     0
  9
$USERI4
 70
     0
  9
$USERI5
 70
     0
  9
$USERR1
 40
0.0
  9
$USERR2
 40
0.0
  9
$USERR3
 40
0.0
  9
$USERR4
 40
0.0
  9
$USERR5
 40
0.0
  9
$WORLDVIEW
 70
     1
  9
$SHADEDGE
 70
     3
  9
$SHADEDIF
 70
    70
  9
$TILEMODE
 70
     1
  9
$MAXACTVP
 70
    64
  9
$PINSBASE
 10
0.0
 20
0.0
 30
0.0
  9
$PLIMCHECK
 70
     0
  9
$PEXTMIN
 10
0.0
 20
0.0
 30
0.0
  9
$PEXTMAX
 10
105.0
 20
148.5
 30
0.0
  9
$PLIMMIN
 10
0.0
 20
0.0
  9
$PLIMMAX
 10
105.0
 20
148.5
  9
$UNITMODE
 70
     0
  9
$VISRETAIN
 70
     1
  9
$PLINEGEN
 70
     0
  9
$PSLTSCALE
 70
     1
  9
$TREEDEPTH
 70
  3020
  9
$CMLSTYLE
  2
Standard
  9
$CMLJUST
 70
     0
  9
$CMLSCALE
 40
1.0
  9
$PROXYGRAPHICS
 70
     1
  9
$MEASUREMENT
 70
     1
  9
$CELWEIGHT
370
    -1
  9
$ENDCAPS
280
     0
  9
$JOINSTYLE
280
     0
  9
$LWDISPLAY
290
     0
  9
$INSUNITS
 70
     4
  9
$HYPERLINKBASE
  1

  9
$STYLESHEET
  1

  9
$XEDIT
290
     1
  9
$CEPSNTYPE
380
     0
  9
$PSTYLEMODE
290
     1
  9
$FINGERPRINTGUID
  2
{60C2D3B4-9A78-244B-8B7D-31943E0A2E61}
  9
$VERSIONGUID
  2
{E8F40790-6768-094E-9B22-1F4ABD36FA80}
  9
$EXTNAMES
290
     1
  9
$PSVPSCALE
 40
0.0
  9
$OLESTARTUP
290
     0
  9
$SORTENTS
280
   127
  9
$INDEXCTL
280
     0
  9
$HIDETEXT
280
     1
  9
$XCLIPFRAME
280
     2
  9
$HALOGAP
280
     0
  9
$OBSCOLOR
 70
   257
  9
$OBSLTYPE
280
     0
  9
$INTERSECTIONDISPLAY
280
     0
  9
$INTERSECTIONCOLOR
 70
   257
  9
$DIMASSOC
280
     1
  9
$PROJECTNAME
  1

  9
$CAMERADISPLAY
290
     0
  9
$LENSLENGTH
 40
50.0
  9
$CAMERAHEIGHT
 40
0.0
  9
$STEPSPERSEC
 40
2.0
  9
$STEPSIZE
 40
6.0
  9
$3DDWFPREC
 40
2.0
  9
$PSOLWIDTH
 40
0.25
  9
$PSOLHEIGHT
 40
4.0
  9
$LOFTANG1
 40
1.570796326794896
  9
$LOFTANG2
 40
1.570796326794896
  9
$LOFTMAG1
 40
0.0
  9
$LOFTMAG2
 40
0.0
  9
$LOFTPARAM
 70
     7
  9
$LOFTNORMALS
280
     1
  9
$LATITUDE
 40
37.795
  9
$LONGITUDE
 40
-122.394
  9
$NORTHDIRECTION
 40
0.0
  9
$TIMEZONE
 70
 -8000
  9
$LIGHTGLYPHDISPLAY
280
     1
  9
$TILEMODELIGHTSYNCH
280
     1
  9
$CMATERIAL
347
11
  9
$SOLIDHIST
280
     0
  9
$SHOWHIST
280
     1
  9
$DWFFRAME
280
     2
  9
$DGNFRAME
280
     0
  9
$REALWORLDSCALE
290
     1
  9
$INTERFERECOLOR
 62
     1
  9
$INTERFEREOBJVS
345
33
  9
$INTERFEREVPVS
346
30
  9
$CSHADOW
280
     0
  9
$SHADOWPLANELOCATION
 40
0.0
  0
ENDSEC
  0
SECTION
  2
CLASSES
  0
CLASS
  1
ACDBDICTIONARYWDFLT
  2
AcDbDictionaryWithDefault
  3
ObjectDBX Classes
 90
        0
 91
        1
280
     0
281
     0
  0
CLASS
  1
MATERIAL
  2
AcDbMaterial
  3
ObjectDBX Classes
 90
     1153
 91
        3
280
     0
281
     0
  0
CLASS
  1
VISUALSTYLE
  2
AcDbVisualStyle
  3
ObjectDBX Classes
 90
     4095
 91
       24
280
     0
281
     0
  0
CLASS
  1
SCALE
  2
AcDbScale
  3
ObjectDBX Classes
 90
     1153
 91
       17
280
     0
281
     0
  0
CLASS
  1
TABLESTYLE
  2
AcDbTableStyle
  3
ObjectDBX Classes
 90
     4095
 91
        1
280
     0
281
     0
  0
CLASS
  1
MLEADERSTYLE
  2
AcDbMLeaderStyle
  3
ACDB_MLEADERSTYLE_CLASS
 90
     4095
 91
        1
280
     0
281
     0
  0
CLASS
  1
ACDBSECTIONVIEWSTYLE
  2
AcDbSectionViewStyle
  3
ObjectDBX Classes
 90
     1025
 91
        1
280
     0
281
     0
  0
CLASS
  1
ACDBDETAILVIEWSTYLE
  2
AcDbDetailViewStyle
  3
ObjectDBX Classes
 90
     1025
 91
        1
280
     0
281
     0
  0
CLASS
  1
DICTIONARYVAR
  2
AcDbDictionaryVar
  3
ObjectDBX Classes
 90
        0
 91
        5
280
     0
281
     0
  0
CLASS
  1
CELLSTYLEMAP
  2
AcDbCellStyleMap
  3
ObjectDBX Classes
 90
     1152
 91
        1
280
     0
281
     0
  0
ENDSEC
  0
SECTION
  2
TABLES
  0
TABLE
  2
VPORT
  5
8
330
0
100
AcDbSymbolTable
 70
     1
  0
VPORT
  5
57
330
8
100
AcDbSymbolTableRecord
100
AcDbViewportTableRecord
  2
*Active
 70
     0
 10
0.0
 20
0.0
 11
1.0
 21
1.0
 12
52.5
 22
74.25
 13
0.0
 23
0.0
 14
1.0
 24
1.0
 15
0.0
 25
0.0
 16
0.0
 26
0.0
 36
1.0
 17
0.0
 27
0.0
 37
0.0
 40
148.5
 41
0.7070707070707071
 42
50.0
 43
0.0
 44
0.0
 50
0.0
 51
0.0
 71
     0
 72
   100
 73
     1
 74
     0
 75
     1
 76
     0
 77
     0
 78
     0
281
     0
 65
     1
110
0.0
120
0.0
130
0.0
111
1.0
121
0.0
131
0.0
112
0.0
122
1.0
132
0.0
 79
     0
146
0.0
 60
     3
 61
     5
292
     1
282
     1
141
0.0
142
0.0
 63
   250
421
  3355443
  0
ENDTAB
  0
TABLE
  2
LTYPE
  5
5
330
0
100
AcDbSymbolTable
 70
    59
  0
LTYPE
  5
5B
330
5
100
AcDbSymbolTableRecord
100
AcDbLinetypeTableRecord
  2
ByBlock
 70
     0
  3

 72
    65
 73
     0
 40
0.0
  0
LTYPE
  5
5C
330
5
100
AcDbSymbolTableRecord
100
AcDbLinetypeTableRecord
  2
ByLayer
 70
     0
  3

 72
    65
 73
     0
 40
0.0
  0
LTYPE
  5
5D
330
5
100
AcDbSymbolTableRecord
100
AcDbLinetypeTableRecord
  2
Continuous
 70
     0
  3
Solid line
 72
    65
 73
     0
 40
0.0
  0
LTYPE
  5
78
330
5
100
AcDbSymbolTableRecord
100
AcDbLinetypeTableRecord
  2
Section_View_Lines
 70
     0
  3
Section View Lines
 72
    65
 73
     4
 40
0.8406
 49
0.6614
 74
     0
 49
-0.0827
 74
     0
 49
0.0138
 74
     0
 49
-0.0827
 74
     0
  0
LTYPE
  5
79
330
5
100
AcDbSymbolTableRecord
100
AcDbLinetypeTableRecord
  2
CHAIN
 70
     0
  3
Chain ____ _ ____ _ ____ _ ____ _ ____ _ ____
 72
    65
 73
     4
 40
0.3543
 49
0.2362
 74
     0
 49
-0.0295
 74
     0
 49
0.0591
 74
     0
 49
-0.0295
 74
     0
  0
LTYPE
  5
7A
330
5
100
AcDbSymbolTableRecord
100
AcDbLinetypeTableRecord
  2
DASH_DOT
 70
     0
  3
Dash dot _._._._._._._._._._._._._._._.
 72
    65
 73
     4
 40
0.37
 49
0.24
 74
     0
 49
-0.06
 74
     0
 49
0.01
 74
     0
 49
-0.06
 74
     0
  0
LTYPE
  5
7B
330
5
100
AcDbSymbolTableRecord
100
AcDbLinetypeTableRecord
  2
DASH_DOUBLE_DOT
 70
     0
  3
Dash Double Dot __ __ . __ __ . __ __ . __ _
 72
    65
 73
     6
 40
0.4398
 49
0.24
 74
     0
 49
-0.06
 74
     0
 49
0.0098
 74
     0
 49
-0.06
 74
     0
 49
0.01
 74
     0
 49
-0.06
 74
     0
  0
LTYPE
  5
7C
330
5
100
AcDbSymbolTableRecord
100
AcDbLinetypeTableRecord
  2
DASH_TRIPLE_DOT
 70
     0
  3
Dash Triple-Dot _ . . . _ . . . _ . . . _
 72
    65
 73
     8
 40
0.51
 49
0.24
 74
     0
 49
-0.06
 74
     0
 49
0.01
 74
     0
 49
-0.06
 74
     0
 49
0.01
 74
     0
 49
-0.06
 74
     0
 49
0.01
 74
     0
 49
-0.06
 74
     0
  0
LTYPE
  5
7D
330
5
100
AcDbSymbolTableRecord
100
AcDbLinetypeTableRecord
  2
DASHED
 70
     0
  3
Dashed __ __ __ __ __ __ __ __ __ __ __ __ __ _
 72
    65
 73
     2
 40
0.2067
 49
0.1654
 74
     0
 49
-0.0413
 74
     0
  0
LTYPE
  5
7E
330
5
100
AcDbSymbolTableRecord
100
AcDbLinetypeTableRecord
  2
DASHED_SPACE
 70
     0
  3
Dashed Space _._._._._._._._._._._._._._._.
 72
    65
 73
     2
 40
0.2067
 49
0.1654
 74
     0
 49
-0.0413
 74
     0
  0
LTYPE
  5
7F
330
5
100
AcDbSymbolTableRecord
100
AcDbLinetypeTableRecord
  2
DOTTED
 70
     0
  3
Dotted . . . . . . . . . . . . . . . . . . . . 
 72
    65
 73
     2
 40
0.0482
 49
0.0069
 74
     0
 49
-0.0413
 74
     0
  0
LTYPE
  5
80
330
5
100
AcDbSymbolTableRecord
100
AcDbLinetypeTableRecord
  2
DOUBLE_DASH_CHAIN
 70
     0
  3
Double Dash Chain ___ _ _ ___ _ _ ___ _ _ ___ _
 72
    65
 73
     6
 40
1.240299999999999
 49
0.6614
 74
     0
 49
-0.0827
 74
     0
 49
0.1654
 74
     0
 49
-0.0827
 74
     0
 49
0.1654
 74
     0
 49
-0.0827
 74
     0
  0
LTYPE
  5
81
330
5
100
AcDbSymbolTableRecord
100
AcDbLinetypeTableRecord
  2
DOUBLE_DASH_DOT
 70
     0
  3
Double Dash Dot __ __ . __ __ . __ __ . __ _
 72
    65
 73
     6
 40
0.67
 49
0.24
 74
     0
 49
-0.06
 74
     0
 49
0.24
 74
     0
 49
-0.06
 74
     0
 49
0.01
 74
     0
 49
-0.06
 74
     0
  0
LTYPE
  5
82
330
5
100
AcDbSymbolTableRecord
100
AcDbLinetypeTableRecord
  2
DOUBLE_DASH_DOUBLE_DOT
 70
     0
  3
Double-dash double-dot _ _ . . _ _ . . _
 72
    65
 73
     8
 40
0.7400000000000001
 49
0.24
 74
     0
 49
-0.06
 74
     0
 49
0.24
 74
     0
 49
-0.06
 74
     0
 49
0.01
 74
     0
 49
-0.06
 74
     0
 49
0.01
 74
     0
 49
-0.06
 74
     0
  0
LTYPE
  5
83
330
5
100
AcDbSymbolTableRecord
100
AcDbLinetypeTableRecord
  2
DOUBLE_DASH_TRIPLE_DOT
 70
     0
  3
Double Dash Triple Dot __ __ . . . __ __ . . .
 72
    65
 73
    10
 40
0.8100000000000001
 49
0.24
 74
     0
 49
-0.06
 74
     0
 49
0.24
 74
     0
 49
-0.06
 74
     0
 49
0.01
 74
     0
 49
-0.06
 74
     0
 49
0.01
 74
     0
 49
-0.06
 74
     0
 49
0.01
 74
     0
 49
-0.06
 74
     0
  0
LTYPE
  5
84
330
5
100
AcDbSymbolTableRecord
100
AcDbLinetypeTableRecord
  2
LONG_DASH_DOTTED
 70
     0
  3
Long-Dash Dot ____ . ____ . ____ . ____ . _
 72
    65
 73
     4
 40
0.3001
 49
0.2362
 74
     0
 49
-0.0295
 74
     0
 49
0.0049
 74
     0
 49
-0.0295
 74
     0
  0
LTYPE
  5
85
330
5
100
AcDbSymbolTableRecord
100
AcDbLinetypeTableRecord
  2
LONG_DASH_DOUBLE_DOT
 70
     0
  3
Long Dash Double Dot ____ . . ____ . . ____ . .
 72
    65
 73
     6
 40
0.3345
 49
0.2362
 74
     0
 49
-0.0295
 74
     0
 49
0.0049
 74
     0
 49
-0.0295
 74
     0
 49
0.0049
 74
     0
 49
-0.0295
 74
     0
  0
LTYPE
  5
86
330
5
100
AcDbSymbolTableRecord
100
AcDbLinetypeTableRecord
  2
LONG_DASH_TRIPLE_DOT
 70
     0
  3
Long Dash Triple Dot ____ ... ____ ... ____
 72
    65
 73
     8
 40
0.75
 49
0.48
 74
     0
 49
-0.06
 74
     0
 49
0.01
 74
     0
 49
-0.06
 74
     0
 49
0.01
 74
     0
 49
-0.06
 74
     0
 49
0.01
 74
     0
 49
-0.06
 74
     0
  0
LTYPE
  5
87
330
5
100
AcDbSymbolTableRecord
100
AcDbLinetypeTableRecord
  2
BORDER
 70
     0
  3
Border __ __ . __ __ . __ __ . __ __ . __ __ .
 72
    65
 73
     6
 40
44.45
 49
12.7
 74
     0
 49
-6.349999999999999
 74
     0
 49
12.7
 74
     0
 49
-6.349999999999999
 74
     0
 49
0.0
 74
     0
 49
-6.349999999999999
 74
     0
  0
LTYPE
  5
88
330
5
100
AcDbSymbolTableRecord
100
AcDbLinetypeTableRecord
  2
BORDER2
 70
     0
  3
Border (.5x) __.__.__.__.__.__.__.__.__.__.__.
 72
    65
 73
     6
 40
22.225
 49
6.349999999999999
 74
     0
 49
-3.174999999999999
 74
     0
 49
6.349999999999999
 74
     0
 49
-3.174999999999999
 74
     0
 49
0.0
 74
     0
 49
-3.174999999999999
 74
     0
  0
LTYPE
  5
89
330
5
100
AcDbSymbolTableRecord
100
AcDbLinetypeTableRecord
  2
BORDERX2
 70
     0
  3
Border (2x) ____  ____  .  ____  ____  .  ___
 72
    65
 73
     6
 40
88.9
 49
25.4
 74
     0
 49
-12.7
 74
     0
 49
25.4
 74
     0
 49
-12.7
 74
     0
 49
0.0
 74
     0
 49
-12.7
 74
     0
  0
LTYPE
  5
8A
330
5
100
AcDbSymbolTableRecord
100
AcDbLinetypeTableRecord
  2
CENTER
 70
     0
  3
Center ____ _ ____ _ ____ _ ____ _ ____ _ ____
 72
    65
 73
     4
 40
50.8
 49
31.75
 74
     0
 49
-6.349999999999999
 74
     0
 49
6.349999999999999
 74
     0
 49
-6.349999999999999
 74
     0
  0
LTYPE
  5
8B
330
5
100
AcDbSymbolTableRecord
100
AcDbLinetypeTableRecord
  2
CENTER2
 70
     0
  3
Center (.5x) ___ _ ___ _ ___ _ ___ _ ___ _ ___
 72
    65
 73
     4
 40
28.575
 49
19.05
 74
     0
 49
-3.174999999999999
 74
     0
 49
3.174999999999999
 74
     0
 49
-3.174999999999999
 74
     0
  0
LTYPE
  5
8C
330
5
100
AcDbSymbolTableRecord
100
AcDbLinetypeTableRecord
  2
CENTERX2
 70
     0
  3
Center (2x) ________  __  ________  __  _____
 72
    65
 73
     4
 40
101.6
 49
63.5
 74
     0
 49
-12.7
 74
     0
 49
12.7
 74
     0
 49
-12.7
 74
     0
  0
LTYPE
  5
8D
330
5
100
AcDbSymbolTableRecord
100
AcDbLinetypeTableRecord
  2
DASHDOT2
 70
     0
  3
Dash dot (.5x) _._._._._._._._._._._._._._._.
 72
    65
 73
     4
 40
12.7
 49
6.349999999999999
 74
     0
 49
-3.174999999999999
 74
     0
 49
0.0
 74
     0
 49
-3.174999999999999
 74
     0
  0
LTYPE
  5
8E
330
5
100
AcDbSymbolTableRecord
100
AcDbLinetypeTableRecord
  2
DASHDOTX2
 70
     0
  3
Dash dot (2x) ____  .  ____  .  ____  .  ___
 72
    65
 73
     4
 40
50.8
 49
25.4
 74
     0
 49
-12.7
 74
     0
 49
0.0
 74
     0
 49
-12.7
 74
     0
  0
LTYPE
  5
8F
330
5
100
AcDbSymbolTableRecord
100
AcDbLinetypeTableRecord
  2
DASHED2
 70
     0
  3
Dashed (.5x) _ _ _ _ _ _ _ _ _ _ _ _ _ _ _ _ _
 72
    65
 73
     2
 40
9.524999999999998
 49
6.349999999999999
 74
     0
 49
-3.174999999999999
 74
     0
  0
LTYPE
  5
90
330
5
100
AcDbSymbolTableRecord
100
AcDbLinetypeTableRecord
  2
DASHEDX2
 70
     0
  3
Dashed (2x) ____  ____  ____  ____  ____  ___
 72
    65
 73
     2
 40
38.1
 49
25.4
 74
     0
 49
-12.7
 74
     0
  0
LTYPE
  5
91
330
5
100
AcDbSymbolTableRecord
100
AcDbLinetypeTableRecord
  2
DIVIDE
 70
     0
  3
Divide ____ . . ____ . . ____ . . ____ . . ____
 72
    65
 73
     6
 40
31.75
 49
12.7
 74
     0
 49
-6.349999999999999
 74
     0
 49
0.0
 74
     0
 49
-6.349999999999999
 74
     0
 49
0.0
 74
     0
 49
-6.349999999999999
 74
     0
  0
LTYPE
  5
92
330
5
100
AcDbSymbolTableRecord
100
AcDbLinetypeTableRecord
  2
DIVIDE2
 70
     0
  3
Divide (.5x) __..__..__..__..__..__..__..__.._
 72
    65
 73
     6
 40
15.875
 49
6.349999999999999
 74
     0
 49
-3.174999999999999
 74
     0
 49
0.0
 74
     0
 49
-3.174999999999999
 74
     0
 49
0.0
 74
     0
 49
-3.174999999999999
 74
     0
  0
LTYPE
  5
93
330
5
100
AcDbSymbolTableRecord
100
AcDbLinetypeTableRecord
  2
DIVIDEX2
 70
     0
  3
Divide (2x) ________  .  .  ________  .  .  _
 72
    65
 73
     6
 40
63.49999999999999
 49
25.4
 74
     0
 49
-12.7
 74
     0
 49
0.0
 74
     0
 49
-12.7
 74
     0
 49
0.0
 74
     0
 49
-12.7
 74
     0
  0
LTYPE
  5
94
330
5
100
AcDbSymbolTableRecord
100
AcDbLinetypeTableRecord
  2
DOT
 70
     0
  3
Dot . . . . . . . . . . . . . . . . . . . . . .
 72
    65
 73
     2
 40
6.349999999999999
 49
0.0
 74
     0
 49
-6.349999999999999
 74
     0
  0
LTYPE
  5
95
330
5
100
AcDbSymbolTableRecord
100
AcDbLinetypeTableRecord
  2
DOT2
 70
     0
  3
Dot (.5x) .....................................
 72
    65
 73
     2
 40
3.174999999999999
 49
0.0
 74
     0
 49
-3.174999999999999
 74
     0
  0
LTYPE
  5
96
330
5
100
AcDbSymbolTableRecord
100
AcDbLinetypeTableRecord
  2
DOTX2
 70
     0
  3
Dot (2x) .  .  .  .  .  .  .  .  .  .  .  .  . 
 72
    65
 73
     2
 40
12.7
 49
0.0
 74
     0
 49
-12.7
 74
     0
  0
LTYPE
  5
97
330
5
100
AcDbSymbolTableRecord
100
AcDbLinetypeTableRecord
  2
HIDDEN
 70
     0
  3
Hidden __ __ __ __ __ __ __ __ __ __ __ __ __ _
 72
    65
 73
     2
 40
9.524999999999998
 49
6.349999999999999
 74
     0
 49
-3.174999999999999
 74
     0
  0
LTYPE
  5
98
330
5
100
AcDbSymbolTableRecord
100
AcDbLinetypeTableRecord
  2
HIDDEN2
 70
     0
  3
Hidden (.5x) _ _ _ _ _ _ _ _ _ _ _ _ _ _ _ _ _
 72
    65
 73
     2
 40
4.762499999999999
 49
3.174999999999999
 74
     0
 49
-1.587499999999999
 74
     0
  0
LTYPE
  5
99
330
5
100
AcDbSymbolTableRecord
100
AcDbLinetypeTableRecord
  2
HIDDENX2
 70
     0
  3
Hidden (2x) ____ ____ ____ ____ ____ ____ ____
 72
    65
 73
     2
 40
19.05
 49
12.7
 74
     0
 49
-6.349999999999999
 74
     0
  0
LTYPE
  5
9A
330
5
100
AcDbSymbolTableRecord
100
AcDbLinetypeTableRecord
  2
PHANTOM
 70
     0
  3
Phantom ______  __  __  ______  __  __  ______
 72
    65
 73
     6
 40
63.5
 49
31.75
 74
     0
 49
-6.349999999999999
 74
     0
 49
6.349999999999999
 74
     0
 49
-6.349999999999999
 74
     0
 49
6.349999999999999
 74
     0
 49
-6.349999999999999
 74
     0
  0
LTYPE
  5
9B
330
5
100
AcDbSymbolTableRecord
100
AcDbLinetypeTableRecord
  2
PHANTOM2
 70
     0
  3
Phantom (.5x) ___ _ _ ___ _ _ ___ _ _ ___ _ _
 72
    65
 73
     6
 40
31.75
 49
15.875
 74
     0
 49
-3.174999999999999
 74
     0
 49
3.174999999999999
 74
     0
 49
-3.174999999999999
 74
     0
 49
3.174999999999999
 74
     0
 49
-3.174999999999999
 74
     0
  0
LTYPE
  5
9C
330
5
100
AcDbSymbolTableRecord
100
AcDbLinetypeTableRecord
  2
PHANTOMX2
 70
     0
  3
Phantom (2x) ____________    ____    ____   _
 72
    65
 73
     6
 40
127.0
 49
63.5
 74
     0
 49
-12.7
 74
     0
 49
12.7
 74
     0
 49
-12.7
 74
     0
 49
12.7
 74
     0
 49
-12.7
 74
     0
  0
LTYPE
  5
9D
330
5
100
AcDbSymbolTableRecord
100
AcDbLinetypeTableRecord
  2
ACAD_ISO02W100
 70
     0
  3
ISO dash __ __ __ __ __ __ __ __ __ __ __ __ __
 72
    65
 73
     2
 40
15.0
 49
12.0
 74
     0
 49
-3.0
 74
     0
  0
LTYPE
  5
9E
330
5
100
AcDbSymbolTableRecord
100
AcDbLinetypeTableRecord
  2
ACAD_ISO03W100
 70
     0
  3
ISO dash space __    __    __    __    __    __
 72
    65
 73
     2
 40
30.0
 49
12.0
 74
     0
 49
-18.0
 74
     0
  0
LTYPE
  5
9F
330
5
100
AcDbSymbolTableRecord
100
AcDbLinetypeTableRecord
  2
ACAD_ISO04W100
 70
     0
  3
ISO long-dash dot ____ . ____ . ____ . ____ . _
 72
    65
 73
     4
 40
30.0
 49
24.0
 74
     0
 49
-3.0
 74
     0
 49
0.0
 74
     0
 49
-3.0
 74
     0
  0
LTYPE
  5
A0
330
5
100
AcDbSymbolTableRecord
100
AcDbLinetypeTableRecord
  2
ACAD_ISO05W100
 70
     0
  3
ISO long-dash double-dot ____ .. ____ .. ____ .
 72
    65
 73
     6
 40
33.0
 49
24.0
 74
     0
 49
-3.0
 74
     0
 49
0.0
 74
     0
 49
-3.0
 74
     0
 49
0.0
 74
     0
 49
-3.0
 74
     0
  0
LTYPE
  5
A1
330
5
100
AcDbSymbolTableRecord
100
AcDbLinetypeTableRecord
  2
ACAD_ISO06W100
 70
     0
  3
ISO long-dash triple-dot ____ ... ____ ... ____
 72
    65
 73
     8
 40
36.0
 49
24.0
 74
     0
 49
-3.0
 74
     0
 49
0.0
 74
     0
 49
-3.0
 74
     0
 49
0.0
 74
     0
 49
-3.0
 74
     0
 49
0.0
 74
     0
 49
-3.0
 74
     0
  0
LTYPE
  5
A2
330
5
100
AcDbSymbolTableRecord
100
AcDbLinetypeTableRecord
  2
ACAD_ISO07W100
 70
     0
  3
ISO dot . . . . . . . . . . . . . . . . . . . .
 72
    65
 73
     2
 40
3.0
 49
0.0
 74
     0
 49
-3.0
 74
     0
  0
LTYPE
  5
A3
330
5
100
AcDbSymbolTableRecord
100
AcDbLinetypeTableRecord
  2
ACAD_ISO08W100
 70
     0
  3
ISO long-dash short-dash ____ __ ____ __ ____ _
 72
    65
 73
     4
 40
36.0
 49
24.0
 74
     0
 49
-3.0
 74
     0
 49
6.0
 74
     0
 49
-3.0
 74
     0
  0
LTYPE
  5
A4
330
5
100
AcDbSymbolTableRecord
100
AcDbLinetypeTableRecord
  2
ACAD_ISO09W100
 70
     0
  3
ISO long-dash double-short-dash ____ __ __ ____
 72
    65
 73
     6
 40
45.0
 49
24.0
 74
     0
 49
-3.0
 74
     0
 49
6.0
 74
     0
 49
-3.0
 74
     0
 49
6.0
 74
     0
 49
-3.0
 74
     0
  0
LTYPE
  5
A5
330
5
100
AcDbSymbolTableRecord
100
AcDbLinetypeTableRecord
  2
ACAD_ISO10W100
 70
     0
  3
ISO dash dot __ . __ . __ . __ . __ . __ . __ .
 72
    65
 73
     4
 40
18.0
 49
12.0
 74
     0
 49
-3.0
 74
     0
 49
0.0
 74
     0
 49
-3.0
 74
     0
  0
LTYPE
  5
A6
330
5
100
AcDbSymbolTableRecord
100
AcDbLinetypeTableRecord
  2
ACAD_ISO11W100
 70
     0
  3
ISO double-dash dot __ __ . __ __ . __ __ . __ 
 72
    65
 73
     6
 40
33.0
 49
12.0
 74
     0
 49
-3.0
 74
     0
 49
12.0
 74
     0
 49
-3.0
 74
     0
 49
0.0
 74
     0
 49
-3.0
 74
     0
  0
LTYPE
  5
A7
330
5
100
AcDbSymbolTableRecord
100
AcDbLinetypeTableRecord
  2
ACAD_ISO12W100
 70
     0
  3
ISO dash double-dot __ . . __ . . __ . . __ . .
 72
    65
 73
     6
 40
21.0
 49
12.0
 74
     0
 49
-3.0
 74
     0
 49
0.0
 74
     0
 49
-3.0
 74
     0
 49
0.0
 74
     0
 49
-3.0
 74
     0
  0
LTYPE
  5
A8
330
5
100
AcDbSymbolTableRecord
100
AcDbLinetypeTableRecord
  2
ACAD_ISO13W100
 70
     0
  3
ISO double-dash double-dot __ __ . . __ __ . . 
 72
    65
 73
     8
 40
36.0
 49
12.0
 74
     0
 49
-3.0
 74
     0
 49
12.0
 74
     0
 49
-3.0
 74
     0
 49
0.0
 74
     0
 49
-3.0
 74
     0
 49
0.0
 74
     0
 49
-3.0
 74
     0
  0
LTYPE
  5
A9
330
5
100
AcDbSymbolTableRecord
100
AcDbLinetypeTableRecord
  2
ACAD_ISO14W100
 70
     0
  3
ISO dash triple-dot __ . . . __ . . . __ . . . 
 72
    65
 73
     8
 40
24.0
 49
12.0
 74
     0
 49
-3.0
 74
     0
 49
0.0
 74
     0
 49
-3.0
 74
     0
 49
0.0
 74
     0
 49
-3.0
 74
     0
 49
0.0
 74
     0
 49
-3.0
 74
     0
  0
LTYPE
  5
AA
330
5
100
AcDbSymbolTableRecord
100
AcDbLinetypeTableRecord
  2
ACAD_ISO15W100
 70
     0
  3
ISO double-dash triple-dot __ __ . . . __ __ . 
 72
    65
 73
    10
 40
39.0
 49
12.0
 74
     0
 49
-3.0
 74
     0
 49
12.0
 74
     0
 49
-3.0
 74
     0
 49
0.0
 74
     0
 49
-3.0
 74
     0
 49
0.0
 74
     0
 49
-3.0
 74
     0
 49
0.0
 74
     0
 49
-3.0
 74
     0
  0
LTYPE
  5
AD
330
5
100
AcDbSymbolTableRecord
100
AcDbLinetypeTableRecord
  2
FENCELINE1
 70
     0
  3
Fenceline circle ----0-----0----0-----0----0---
 72
    65
 73
     4
 40
36.83
 49
6.349999999999999
 74
     0
 49
-2.54
 74
     4
 75
   133
340
AC
 46
2.54
 50
0.0
 44
-2.54
 45
0.0
 49
-2.54
 74
     0
 49
25.4
 74
     0
  0
LTYPE
  5
AE
330
5
100
AcDbSymbolTableRecord
100
AcDbLinetypeTableRecord
  2
FENCELINE2
 70
     0
  3
Fenceline square ----[]-----[]----[]-----[]----
 72
    65
 73
     4
 40
36.83
 49
6.349999999999999
 74
     0
 49
-2.54
 74
     4
 75
   132
340
AC
 46
2.54
 50
0.0
 44
-2.54
 45
0.0
 49
-2.54
 74
     0
 49
25.4
 74
     0
  0
LTYPE
  5
AF
330
5
100
AcDbSymbolTableRecord
100
AcDbLinetypeTableRecord
  2
TRACKS
 70
     0
  3
Tracks -|-|-|-|-|-|-|-|-|-|-|-|-|-|-|-|-|-|-|-|
 72
    65
 73
     2
 40
7.62
 49
3.81
 74
     4
 75
   130
340
AC
 46
6.349999999999999
 50
0.0
 44
0.0
 45
0.0
 49
3.81
 74
     0
  0
LTYPE
  5
B0
330
5
100
AcDbSymbolTableRecord
100
AcDbLinetypeTableRecord
  2
BATTING
 70
     0
  3
Batting SSSSSSSSSSSSSSSSSSSSSSSSSSSSSSSSSSSSSSS
 72
    65
 73
     4
 40
10.16254
 49
0.00254
 74
     0
 49
-2.54
 74
     4
 75
   134
340
AC
 46
2.54
 50
0.0
 44
-2.54
 45
0.0
 49
-5.08
 74
     4
 75
   134
340
AC
 46
2.54
 50
180.0
 44
2.54
 45
0.0
 49
-2.54
 74
     0
  0
LTYPE
  5
B1
330
5
100
AcDbSymbolTableRecord
100
AcDbLinetypeTableRecord
  2
HOT_WATER_SUPPLY
 70
     0
  3
Hot water supply ---- HW ---- HW ---- HW ----
 72
    65
 73
     3
 40
22.86
 49
12.7
 74
     0
 49
-5.08
 74
     2
 75
     0
340
55
 46
2.54
 50
0.0
 44
-2.54
 45
-1.27
  9
HW
 49
-5.08
 74
     0
  0
LTYPE
  5
B2
330
5
100
AcDbSymbolTableRecord
100
AcDbLinetypeTableRecord
  2
GAS_LINE
 70
     0
  3
Gas line ----GAS----GAS----GAS----GAS----GAS---
 72
    65
 73
     3
 40
24.13
 49
12.7
 74
     0
 49
-5.08
 74
     2
 75
     0
340
55
 46
2.54
 50
0.0
 44
-2.54
 45
-1.27
  9
GAS
 49
-6.349999999999999
 74
     0
  0
LTYPE
  5
B3
330
5
100
AcDbSymbolTableRecord
100
AcDbLinetypeTableRecord
  2
ZIGZAG
 70
     0
  3
Zig zag /\/\/\/\/\/\/\/\/\/\/\/\/\/\/\/\/\/\/\/
 72
    65
 73
     4
 40
20.32254
 49
0.00254
 74
     0
 49
-5.08
 74
     4
 75
   131
340
AC
 46
5.08
 50
0.0
 44
-5.08
 45
0.0
 49
-10.16
 74
     4
 75
   131
340
AC
 46
5.08
 50
180.0
 44
5.08
 45
0.0
 49
-5.08
 74
     0
  0
ENDTAB
  0
TABLE
  2
LAYER
  5
2
330
0
100
AcDbSymbolTable
 70
    27
  0
LAYER
  5
54
330
2
100
AcDbSymbolTableRecord
100
AcDbLayerTableRecord
  2
0
 70
     0
 62
     7
  6
Continuous
370
    -3
390
F
347
21
  0
LAYER
  5
B8
330
2
100
AcDbSymbolTableRecord
100
AcDbLayerTableRecord
  2
Bemaßung (ISO)
 70
     0
 62
     7
  6
Continuous
370
    25
390
F
347
21
  0
LAYER
  5
BD
330
2
100
AcDbSymbolTableRecord
100
AcDbLayerTableRecord
  2
Mittellinie (ISO)
 70
     0
 62
     7
  6
Continuous
370
    25
390
F
347
21
  0
LAYER
  5
BE
330
2
100
AcDbSymbolTableRecord
100
AcDbLayerTableRecord
  2
Mittelpunktmarkierung (ISO)
 70
     0
 62
     7
  6
Continuous
370
    25
390
F
347
21
  0
LAYER
  5
C0
330
2
100
AcDbSymbolTableRecord
100
AcDbLayerTableRecord
  2
Rahmen (ISO)
 70
     0
 62
     7
  6
Continuous
370
    70
390
F
347
21
  0
LAYER
  5
C4
330
2
100
AcDbSymbolTableRecord
100
AcDbLayerTableRecord
  2
Schraffur (ISO)
 70
     0
 62
     7
  6
Continuous
370
    18
390
F
347
21
  0
LAYER
  5
C5
330
2
100
AcDbSymbolTableRecord
100
AcDbLayerTableRecord
  2
Sichtbar (ISO)
 70
     0
 62
     7
  6
Continuous
370
    50
390
F
347
21
  0
LAYER
  5
C7
330
2
100
AcDbSymbolTableRecord
100
AcDbLayerTableRecord
  2
Skizziergeometrie (ISO)
 70
     0
 62
     7
  6
Continuous
370
    25
390
F
347
21
  0
LAYER
  5
C8
330
2
100
AcDbSymbolTableRecord
100
AcDbLayerTableRecord
  2
Symbol (ISO)
 70
     0
 62
     7
  6
Continuous
370
    25
390
F
347
21
  0
LAYER
  5
C9
330
2
100
AcDbSymbolTableRecord
100
AcDbLayerTableRecord
  2
Titel (ISO)
 70
     0
 62
     7
  6
Continuous
370
    50
390
F
347
21
  0
LAYER
  5
25C
330
2
100
AcDbSymbolTableRecord
100
AcDbLayerTableRecord
  2
Defpoints
 70
     0
 62
     7
  6
Continuous
290
     0
370
    -3
390
F
347
21
  0
ENDTAB
  0
TABLE
  2
STYLE
  5
3
330
0
100
AcDbSymbolTable
 70
     6
  0
STYLE
  5
55
330
3
100
AcDbSymbolTableRecord
100
AcDbTextStyleTableRecord
  2
Standard
 70
     0
 40
0.0
 41
1.0
 50
0.0
 71
     0
 42
0.2
  3
arial.ttf
  4

1001
ACAD
1000
Arial
1071
      256
  0
STYLE
  5
5A
330
3
100
AcDbSymbolTableRecord
100
AcDbTextStyleTableRecord
  2
Annotative
 70
     0
 40
0.0
 41
1.0
 50
0.0
 71
     0
 42
0.2
  3
txt
  4

1001
AcadAnnotative
1000
AnnotativeData
1002
{
1070
     1
1070
     1
1002
}
  0
STYLE
  5
AC
330
3
100
AcDbSymbolTableRecord
100
AcDbTextStyleTableRecord
  2

 70
     1
 40
0.0
 41
1.0
 50
0.0
 71
     0
 42
0.2
  3
ltypeshp.shx
  4

  0
STYLE
  5
CD
330
3
100
AcDbSymbolTableRecord
100
AcDbTextStyleTableRecord
  2
Bezeichnungstext (DIN)
 70
     0
 40
0.0
 41
1.0
 50
0.0
 71
     0
 42
0.2
  3
arial.ttf
  4

1001
ACAD
1000
Arial
1071
      256
  0
STYLE
  5
CE
330
3
100
AcDbSymbolTableRecord
100
AcDbTextStyleTableRecord
  2
Notiztext (DIN)
 70
     0
 40
0.0
 41
1.0
 50
0.0
 71
     0
 42
0.2
  3
arial.ttf
  4

1001
ACAD
1000
Arial
1071
      256
  0
STYLE
  5
190
330
3
100
AcDbSymbolTableRecord
100
AcDbTextStyleTableRecord
  2
Textstil54
 70
     0
 40
0.0
 41
1.0
 50
0.0
 71
     0
 42
0.2
  3

  4

1001
ACAD
1000
Arial
1071
 33554688
  0
ENDTAB
  0
TABLE
  2
VIEW
  5
6
330
0
100
AcDbSymbolTable
 70
     0
  0
ENDTAB
  0
TABLE
  2
UCS
  5
7
330
0
100
AcDbSymbolTable
 70
     0
  0
ENDTAB
  0
TABLE
  2
APPID
  5
9
330
0
100
AcDbSymbolTable
 70
     3
  0
APPID
  5
56
330
9
100
AcDbSymbolTableRecord
100
AcDbRegAppTableRecord
  2
ACAD
 70
     0
  0
APPID
  5
5E
330
9
100
AcDbSymbolTableRecord
100
AcDbRegAppTableRecord
  2
AcadAnnotative
 70
     0
  0
APPID
  5
194
330
9
100
AcDbSymbolTableRecord
100
AcDbRegAppTableRecord
  2
AcadAnnoPO
 70
     0
  0
ENDTAB
  0
TABLE
  2
DIMSTYLE
  5
A
330
0
100
AcDbSymbolTable
 70
    11
100
AcDbDimStyleTable
 71
     2
340
D3
340
58
  0
DIMSTYLE
105
58
330
A
100
AcDbSymbolTableRecord
100
AcDbDimStyleTableRecord
  2
Standard
 70
     0
340
55
  0
DIMSTYLE
105
59
330
A
100
AcDbSymbolTableRecord
100
AcDbDimStyleTableRecord
  2
Annotative
 70
     0
340
55
1001
AcadAnnotative
1000
AnnotativeData
1002
{
1070
     1
1070
     1
1002
}
  0
DIMSTYLE
105
CF
330
A
100
AcDbSymbolTableRecord
100
AcDbDimStyleTableRecord
  2
Standard - Methode 2a (DIN)
 70
     0
 40
0.5
 41
2.5
 42
0.8
 43
5.999999999999999
 44
3.174999999999999
 45
0.00000001
 46
10.0
 77
     1
 78
     8
 79
     2
140
2.5
143
0.0393700787401575
146
1.399999976158142
147
0.8
170
     1
171
     3
172
     1
176
   256
177
   256
178
   256
179
     2
271
     2
272
     2
274
     3
278
    44
284
     8
286
     8
340
CE
371
    -1
372
    -1
  0
DIMSTYLE
105
D0
330
A
100
AcDbSymbolTableRecord
100
AcDbDimStyleTableRecord
  2
Standard - Methode 2a (DIN)$7
 70
     0
 40
0.5
 41
2.5
 42
0.8
 43
5.999999999999999
 44
3.174999999999999
 45
0.00000001
 46
10.0
 77
     1
 78
     8
 79
     2
140
2.5
143
0.0393700787401575
146
1.399999976158142
147
0.8
170
     1
171
     3
172
     1
176
   256
177
   256
178
   256
179
     2
271
     2
272
     2
274
     3
278
    44
284
     8
286
     8
340
CE
371
    -1
372
    -1
  0
DIMSTYLE
105
D1
330
A
100
AcDbSymbolTableRecord
100
AcDbDimStyleTableRecord
  2
Standard - Methode 2b (DIN)
 70
     0
 40
0.5
 41
2.5
 42
0.0
 43
5.999999999999999
 44
3.174999999999999
 45
0.00000001
 46
10.0
 77
     1
 78
     8
 79
     2
140
2.5
143
0.0393700787401575
146
1.399999976158142
147
0.8
171
     3
172
     1
176
   256
177
   256
178
   256
271
     2
272
     2
274
     3
278
    44
284
     8
286
     8
340
CE
371
    -1
372
    -1
  0
DIMSTYLE
105
D2
330
A
100
AcDbSymbolTableRecord
100
AcDbDimStyleTableRecord
  2
Standard - Methode 2b (DIN)$7
 70
     0
 40
0.5
 41
2.5
 42
0.0
 43
5.999999999999999
 44
3.174999999999999
 45
0.00000001
 46
10.0
 77
     1
 78
     8
 79
     2
140
2.5
143
0.0393700787401575
146
1.399999976158142
147
0.8
171
     3
172
     1
176
   256
177
   256
178
   256
271
     2
272
     2
274
     3
278
    44
284
     8
286
     8
340
CE
371
    -1
372
    -1
  0
DIMSTYLE
105
D3
102
{ACAD_REACTORS
330
25B
330
33D
330
42A
330
509
330
5E8
102
}
330
A
100
AcDbSymbolTableRecord
100
AcDbDimStyleTableRecord
  2
Standard (DIN)
 70
     0
 40
0.5
 41
2.5
 42
0.0
 43
6.999999999999999
 44
2.0
 45
0.00000001
 46
10.0
 73
     0
 74
     0
 77
     1
 78
     8
 79
     2
140
2.5
143
0.0393700787401575
146
0.6000000238418579
147
0.4
171
     3
172
     1
176
   256
177
   256
178
   256
271
     2
272
     2
274
     3
284
     8
285
     8
340
CE
371
    -1
372
    -1
  0
DIMSTYLE
105
D4
330
A
100
AcDbSymbolTableRecord
100
AcDbDimStyleTableRecord
  2
Standard (DIN)$7
 70
     0
 40
0.5
 41
2.5
 42
0.0
 43
6.999999999999999
 44
2.0
 45
0.00000001
 46
10.0
 73
     0
 74
     0
 77
     1
 78
     8
 79
     2
140
2.5
143
0.0393700787401575
146
0.6000000238418579
147
0.4
171
     3
172
     1
176
   256
177
   256
178
   256
271
     2
272
     2
274
     3
284
     8
285
     8
340
CE
371
    -1
372
    -1
  0
DIMSTYLE
105
D5
330
A
100
AcDbSymbolTableRecord
100
AcDbDimStyleTableRecord
  2
Alternativ (ISO)
 70
     0
 40
0.5
 41
2.5
340
55
  0
DIMSTYLE
105
E1
330
A
100
AcDbSymbolTableRecord
100
AcDbDimStyleTableRecord
  2
Bezug (ISO)
 70
     0
 40
0.5
 41
2.5
340
55
  0
DIMSTYLE
105
F0
330
A
100
AcDbSymbolTableRecord
100
AcDbDimStyleTableRecord
  2
Groß (ISO)
 70
     0
 40
0.5
 41
5.0
340
55
  0
ENDTAB
  0
TABLE
  2
BLOCK_RECORD
  5
1
330
0
100
AcDbSymbolTable
 70
    11
  0
BLOCK_RECORD
  5
70
330
1
100
AcDbSymbolTableRecord
100
AcDbBlockTableRecord
  2
*Model_Space
340
73
 70
     0
280
     1
281
     0
  0
BLOCK_RECORD
  5
6C
330
1
100
AcDbSymbolTableRecord
100
AcDbBlockTableRecord
  2
*Paper_Space
340
6F
 70
     0
280
     1
281
     0
  0
BLOCK_RECORD
  5
74
330
1
100
AcDbSymbolTableRecord
100
AcDbBlockTableRecord
  2
*Paper_Space0
340
77
 70
     0
280
     1
281
     0
  0
BLOCK_RECORD
  5
D6
330
1
100
AcDbSymbolTableRecord
100
AcDbBlockTableRecord
  2
DatumFilled45
340
0
 70
     0
280
     1
281
     0
  0
BLOCK_RECORD
  5
E2
330
1
100
AcDbSymbolTableRecord
100
AcDbBlockTableRecord
  2
Filled-1
340
0
 70
     0
280
     1
281
     0
  0
BLOCK_RECORD
  5
F1
330
1
100
AcDbSymbolTableRecord
100
AcDbBlockTableRecord
  2
Ränder Standardrahmen
340
0
102
{BLKREFS
331
117
102
}
 70
     0
280
     1
281
     0
  0
BLOCK_RECORD
  5
118
330
1
100
AcDbSymbolTableRecord
100
AcDbBlockTableRecord
  2
Schriftfelder perma CI-Pool
340
0
102
{BLKREFS
331
19C
102
}
 70
     0
280
     1
281
     0
  0
BLOCK_RECORD
  5
1A7
330
1
100
AcDbSymbolTableRecord
100
AcDbBlockTableRecord
  2
Tabelle1
340
0
102
{BLKREFS
331
1C9
102
}
 70
     0
280
     1
281
     0
  0
BLOCK_RECORD
  5
25D
330
1
100
AcDbSymbolTableRecord
100
AcDbBlockTableRecord
  2
*D6
340
0
 70
     0
280
     1
281
     0
  0
BLOCK_RECORD
  5
33E
330
1
100
AcDbSymbolTableRecord
100
AcDbBlockTableRecord
  2
*D7
340
0
 70
     0
280
     1
281
     0
  0
BLOCK_RECORD
  5
42B
330
1
100
AcDbSymbolTableRecord
100
AcDbBlockTableRecord
  2
*D8
340
0
 70
     0
280
     1
281
     0
  0
BLOCK_RECORD
  5
50A
330
1
100
AcDbSymbolTableRecord
100
AcDbBlockTableRecord
  2
*D9
340
0
 70
     0
280
     1
281
     0
  0
BLOCK_RECORD
  5
5E9
330
1
100
AcDbSymbolTableRecord
100
AcDbBlockTableRecord
  2
*D10
340
0
 70
     0
280
     1
281
     0
  0
ENDTAB
  0
ENDSEC
  0
SECTION
  2
BLOCKS
  0
BLOCK
  5
71
330
70
100
AcDbEntity
  8
0
100
AcDbBlockBegin
  2
*Model_Space
 70
     0
 10
0.0
 20
0.0
 30
0.0
  3
*Model_Space
  1

  0
ENDBLK
  5
72
330
70
100
AcDbEntity
  8
0
100
AcDbBlockEnd
  0
BLOCK
  5
6D
330
6C
100
AcDbEntity
 67
     1
  8
0
100
AcDbBlockBegin
  2
*Paper_Space
 70
     0
 10
0.0
 20
0.0
 30
0.0
  3
*Paper_Space
  1

  0
ENDBLK
  5
6E
330
6C
100
AcDbEntity
 67
     1
  8
0
100
AcDbBlockEnd
  0
BLOCK
  5
75
330
74
100
AcDbEntity
 67
     1
  8
0
100
AcDbBlockBegin
  2
*Paper_Space0
 70
     0
 10
0.0
 20
0.0
 30
0.0
  3
*Paper_Space0
  1

  0
ENDBLK
  5
76
330
74
100
AcDbEntity
 67
     1
  8
0
100
AcDbBlockEnd
  0
BLOCK
  5
D7
330
D6
100
AcDbEntity
  8
0
100
AcDbBlockBegin
  2
DatumFilled45
 70
     0
 10
0.0
 20
0.0
 30
0.0
  3
DatumFilled45
  1

  0
POLYLINE
  5
D9
330
D6
100
AcDbEntity
  8
0
 62
     0
100
AcDb2dPolyline
 66
     1
 10
0.0
 20
0.0
 30
0.0
 70
   128
  0
VERTEX
  5
DA
330
D9
100
AcDbEntity
  8
0
 62
     0
100
AcDbVertex
100
AcDb2dVertex
 10
0.0
 20
1.0
 30
0.0
  0
VERTEX
  5
DB
330
D9
100
AcDbEntity
  8
0
 62
     0
100
AcDbVertex
100
AcDb2dVertex
 10
0.0
 20
-1.0
 30
0.0
  0
VERTEX
  5
DD
330
D9
100
AcDbEntity
  8
0
 62
     0
100
AcDbVertex
100
AcDb2dVertex
 10
-1.0
 20
0.0
 30
0.0
  0
VERTEX
  5
DE
330
D9
100
AcDbEntity
  8
0
 62
     0
100
AcDbVertex
100
AcDb2dVertex
 10
0.0
 20
1.0
 30
0.0
  0
SEQEND
  5
DC
330
D9
100
AcDbEntity
  8
0
 62
     0
  0
SOLID
  5
E0
330
D6
100
AcDbEntity
  8
0
 62
     0
100
AcDbTrace
 10
0.0
 20
1.0
 30
0.0
 11
0.0
 21
-1.0
 31
0.0
 12
-1.0
 22
0.0
 32
0.0
 13
0.0
 23
1.0
 33
0.0
  0
ENDBLK
  5
D8
330
D6
100
AcDbEntity
  8
0
100
AcDbBlockEnd
  0
BLOCK
  5
E3
330
E2
100
AcDbEntity
  8
0
100
AcDbBlockBegin
  2
Filled-1
 70
     0
 10
0.0
 20
0.0
 30
0.0
  3
Filled-1
  1

  0
LINE
  5
E5
330
E2
100
AcDbEntity
  8
0
 62
     0
100
AcDbLine
 10
-1.0
 20
0.0
 30
0.0
 11
0.0
 21
0.0
 31
0.0
  0
POLYLINE
  5
E6
330
E2
100
AcDbEntity
  8
0
 62
     0
100
AcDb2dPolyline
 66
     1
 10
0.0
 20
0.0
 30
0.0
 70
   128
  0
VERTEX
  5
E7
330
E6
100
AcDbEntity
  8
0
 62
     0
100
AcDbVertex
100
AcDb2dVertex
 10
-1.0
 20
-0.1
 30
0.0
  0
VERTEX
  5
E8
330
E6
100
AcDbEntity
  8
0
 62
     0
100
AcDbVertex
100
AcDb2dVertex
 10
0.0
 20
0.0
 30
0.0
  0
VERTEX
  5
EA
330
E6
100
AcDbEntity
  8
0
 62
     0
100
AcDbVertex
100
AcDb2dVertex
 10
-1.0
 20
0.1
 30
0.0
  0
VERTEX
  5
EB
330
E6
100
AcDbEntity
  8
0
 62
     0
100
AcDbVertex
100
AcDb2dVertex
 10
-1.0
 20
-0.1
 30
0.0
  0
SEQEND
  5
E9
330
E6
100
AcDbEntity
  8
0
 62
     0
  0
SOLID
  5
EC
330
E2
100
AcDbEntity
  8
0
 62
     0
100
AcDbTrace
 10
-1.0
 20
-0.1
 30
0.0
 11
0.0
 21
0.0
 31
0.0
 12
-1.0
 22
0.1
 32
0.0
 13
-1.0
 23
-0.1
 33
0.0
  0
LINE
  5
ED
330
E2
100
AcDbEntity
  8
0
 62
     0
100
AcDbLine
 10
-1.0
 20
-0.1
 30
0.0
 11
0.0
 21
0.0
 31
0.0
  0
LINE
  5
EE
330
E2
100
AcDbEntity
  8
0
 62
     0
100
AcDbLine
 10
0.0
 20
0.0
 30
0.0
 11
-1.0
 21
0.1
 31
0.0
  0
LINE
  5
EF
330
E2
100
AcDbEntity
  8
0
 62
     0
100
AcDbLine
 10
-1.0
 20
0.1
 30
0.0
 11
-1.0
 21
-0.1
 31
0.0
  0
ENDBLK
  5
E4
330
E2
100
AcDbEntity
  8
0
100
AcDbBlockEnd
  0
BLOCK
  5
F2
330
F1
100
AcDbEntity
  8
0
100
AcDbBlockBegin
  2
Ränder Standardrahmen
 70
     0
 10
0.0
 20
0.0
 30
0.0
  3
Ränder Standardrahmen
  1

  0
POLYLINE
  5
F4
330
F1
100
AcDbEntity
  8
Rahmen (ISO)
100
AcDb2dPolyline
 66
     1
 10
0.0
 20
0.0
 30
0.0
 70
   128
  0
VERTEX
  5
F5
330
F4
100
AcDbEntity
  8
Rahmen (ISO)
100
AcDbVertex
100
AcDb2dVertex
 10
10.0
 20
10.0
 30
0.0
  0
VERTEX
  5
F6
330
F4
100
AcDbEntity
  8
Rahmen (ISO)
100
AcDbVertex
100
AcDb2dVertex
 10
10.0
 20
287.0000076293946
 30
0.0
  0
VERTEX
  5
F8
330
F4
100
AcDbEntity
  8
Rahmen (ISO)
100
AcDbVertex
100
AcDb2dVertex
 10
200.0
 20
287.0000076293946
 30
0.0
  0
VERTEX
  5
F9
330
F4
100
AcDbEntity
  8
Rahmen (ISO)
100
AcDbVertex
100
AcDb2dVertex
 10
200.0
 20
10.0
 30
0.0
  0
VERTEX
  5
FA
330
F4
100
AcDbEntity
  8
Rahmen (ISO)
100
AcDbVertex
100
AcDb2dVertex
 10
10.0
 20
10.0
 30
0.0
  0
SEQEND
  5
F7
330
F4
100
AcDbEntity
  8
Rahmen (ISO)
  0
POLYLINE
  5
FB
330
F1
100
AcDbEntity
  8
Rahmen (ISO)
100
AcDb2dPolyline
 66
     1
 10
0.0
 20
0.0
 30
0.0
 70
   128
  0
VERTEX
  5
FC
330
FB
100
AcDbEntity
  8
Rahmen (ISO)
100
AcDbVertex
100
AcDb2dVertex
 10
105.0
 20
0.0
 30
0.0
  0
VERTEX
  5
FD
330
FB
100
AcDbEntity
  8
Rahmen (ISO)
100
AcDbVertex
100
AcDb2dVertex
 10
105.0
 20
10.0
 30
0.0
  0
VERTEX
  5
FF
330
FB
100
AcDbEntity
  8
Rahmen (ISO)
100
AcDbVertex
100
AcDb2dVertex
 10
102.1132469177246
 20
5.0
 30
0.0
  0
VERTEX
  5
100
330
FB
100
AcDbEntity
  8
Rahmen (ISO)
100
AcDbVertex
100
AcDb2dVertex
 10
107.8867530822754
 20
5.0
 30
0.0
  0
VERTEX
  5
101
330
FB
100
AcDbEntity
  8
Rahmen (ISO)
100
AcDbVertex
100
AcDb2dVertex
 10
105.0
 20
10.0
 30
0.0
  0
SEQEND
  5
FE
330
FB
100
AcDbEntity
  8
Rahmen (ISO)
  0
POLYLINE
  5
102
330
F1
100
AcDbEntity
  8
Rahmen (ISO)
100
AcDb2dPolyline
 66
     1
 10
0.0
 20
0.0
 30
0.0
 70
   128
  0
VERTEX
  5
103
330
102
100
AcDbEntity
  8
Rahmen (ISO)
100
AcDbVertex
100
AcDb2dVertex
 10
105.0
 20
297.0000076293946
 30
0.0
  0
VERTEX
  5
104
330
102
100
AcDbEntity
  8
Rahmen (ISO)
100
AcDbVertex
100
AcDb2dVertex
 10
105.0
 20
287.0000076293946
 30
0.0
  0
VERTEX
  5
106
330
102
100
AcDbEntity
  8
Rahmen (ISO)
100
AcDbVertex
100
AcDb2dVertex
 10
102.1132469177246
 20
292.0000076293945
 30
0.0
  0
VERTEX
  5
107
330
102
100
AcDbEntity
  8
Rahmen (ISO)
100
AcDbVertex
100
AcDb2dVertex
 10
107.8867530822754
 20
292.0000076293945
 30
0.0
  0
VERTEX
  5
108
330
102
100
AcDbEntity
  8
Rahmen (ISO)
100
AcDbVertex
100
AcDb2dVertex
 10
105.0
 20
287.0000076293946
 30
0.0
  0
SEQEND
  5
105
330
102
100
AcDbEntity
  8
Rahmen (ISO)
  0
POLYLINE
  5
109
330
F1
100
AcDbEntity
  8
Rahmen (ISO)
100
AcDb2dPolyline
 66
     1
 10
0.0
 20
0.0
 30
0.0
 70
   128
  0
VERTEX
  5
10A
330
109
100
AcDbEntity
  8
Rahmen (ISO)
100
AcDbVertex
100
AcDb2dVertex
 10
0.0
 20
148.5000038146973
 30
0.0
  0
VERTEX
  5
10B
330
109
100
AcDbEntity
  8
Rahmen (ISO)
100
AcDbVertex
100
AcDb2dVertex
 10
10.0
 20
148.5000038146973
 30
0.0
  0
VERTEX
  5
10D
330
109
100
AcDbEntity
  8
Rahmen (ISO)
100
AcDbVertex
100
AcDb2dVertex
 10
5.0
 20
151.3867473602295
 30
0.0
  0
VERTEX
  5
10E
330
109
100
AcDbEntity
  8
Rahmen (ISO)
100
AcDbVertex
100
AcDb2dVertex
 10
5.0
 20
145.6132507324219
 30
0.0
  0
VERTEX
  5
10F
330
109
100
AcDbEntity
  8
Rahmen (ISO)
100
AcDbVertex
100
AcDb2dVertex
 10
10.0
 20
148.5000038146973
 30
0.0
  0
SEQEND
  5
10C
330
109
100
AcDbEntity
  8
Rahmen (ISO)
  0
POLYLINE
  5
110
330
F1
100
AcDbEntity
  8
Rahmen (ISO)
100
AcDb2dPolyline
 66
     1
 10
0.0
 20
0.0
 30
0.0
 70
   128
  0
VERTEX
  5
111
330
110
100
AcDbEntity
  8
Rahmen (ISO)
100
AcDbVertex
100
AcDb2dVertex
 10
210.0
 20
148.5000038146973
 30
0.0
  0
VERTEX
  5
112
330
110
100
AcDbEntity
  8
Rahmen (ISO)
100
AcDbVertex
100
AcDb2dVertex
 10
200.0
 20
148.5000038146973
 30
0.0
  0
VERTEX
  5
114
330
110
100
AcDbEntity
  8
Rahmen (ISO)
100
AcDbVertex
100
AcDb2dVertex
 10
205.0
 20
151.3867473602295
 30
0.0
  0
VERTEX
  5
115
330
110
100
AcDbEntity
  8
Rahmen (ISO)
100
AcDbVertex
100
AcDb2dVertex
 10
205.0
 20
145.6132507324219
 30
0.0
  0
VERTEX
  5
116
330
110
100
AcDbEntity
  8
Rahmen (ISO)
100
AcDbVertex
100
AcDb2dVertex
 10
200.0
 20
148.5000038146973
 30
0.0
  0
SEQEND
  5
113
330
110
100
AcDbEntity
  8
Rahmen (ISO)
  0
ENDBLK
  5
F3
330
F1
100
AcDbEntity
  8
0
100
AcDbBlockEnd
  0
BLOCK
  5
119
330
118
100
AcDbEntity
  8
0
100
AcDbBlockBegin
  2
Schriftfelder perma CI-Pool
 70
     2
 10
0.0
 20
0.0
 30
0.0
  3
Schriftfelder perma CI-Pool
  1

  0
HATCH
  5
122
330
118
100
AcDbEntity
  8
Schraffur (ISO)
 62
   242
420
 13640771
100
AcDbHatch
 10
0.0
 20
0.0
 30
0.0
210
0.0
220
0.0
230
1.0
  2
SOLID
 70
     1
 71
     0
 91
        2
 92
        0
 93
        1
 72
     2
 10
292.1655214773733
 20
118.936538419629
 40
1.446945337620578
 50
0.0
 51
360.0
 73
     1
 97
        0
 92
        1
 93
        6
 72
     1
 10
290.4774185834826
 20
121.34811398233
 11
290.4774185834826
 21
120.6587478477342
 72
     2
 10
292.1655214773733
 20
118.936538419629
 40
2.411575562700964
 50
225.5729959991942
 51
489.2964802391872
 73
     0
 72
     1
 10
290.6381902876627
 20
117.0702704507795
 11
290.6381902876627
 21
114.5957024067673
 72
     1
 10
290.6381902876627
 20
114.5957024067673
 11
289.5127883584022
 21
114.5957024067673
 72
     1
 10
289.5127883584022
 20
114.5957024067673
 11
289.5127883584022
 21
121.34811398233
 72
     1
 10
289.5127883584022
 20
121.34811398233
 11
290.4774185834826
 21
121.34811398233
 97
        0
 75
     0
 76
     1
 98
        1
 10
0.0
 20
0.0
450
        0
451
        0
460
0.0
461
0.0
452
        0
462
0.0
453
        0
470

  0
HATCH
  5
12A
330
118
100
AcDbEntity
  8
Schraffur (ISO)
 62
   242
420
 13640771
100
AcDbHatch
 10
0.0
 20
0.0
 30
0.0
210
0.0
220
0.0
230
1.0
  2
SOLID
 70
     1
 71
     0
 91
        1
 92
        1
 93
        7
 72
     2
 10
300.8873864291418
 20
120.9461847218798
 40
0.4019292604501608
 50
90.0
 51
180.0
 73
     1
 72
     1
 10
300.4854571686916
 20
120.9461847218798
 11
300.4854571686916
 21
116.524962856928
 72
     1
 10
300.4854571686916
 20
116.524962856928
 11
301.450087393772
 21
116.524962856928
 72
     1
 10
301.450087393772
 20
116.524962856928
 11
301.450087393772
 21
120.3834837572496
 72
     1
 10
301.450087393772
 20
120.3834837572496
 11
303.1381902876627
 21
120.3834837572496
 72
     1
 10
303.1381902876627
 20
120.3834837572496
 11
303.1381902876627
 21
121.34811398233
 72
     1
 10
303.1381902876627
 20
121.34811398233
 11
300.8873864291418
 21
121.34811398233
 97
        0
 75
     0
 76
     1
 98
        1
 10
0.0
 20
0.0
450
        0
451
        0
460
0.0
461
0.0
452
        0
462
0.0
453
        0
470

  0
HATCH
  5
139
330
118
100
AcDbEntity
  8
Schraffur (ISO)
 62
   242
420
 13640771
100
AcDbHatch
 10
0.0
 20
0.0
 30
0.0
210
0.0
220
0.0
230
1.0
  2
SOLID
 70
     1
 71
     0
 91
        1
 92
        1
 93
       14
 72
     2
 10
308.1623060432897
 20
120.9461847218798
 40
0.4019292604501608
 50
0.0
 51
90.0
 73
     1
 72
     1
 10
308.1623060432897
 20
121.34811398233
 11
303.821470030428
 21
121.34811398233
 72
     2
 10
303.821470030428
 20
120.9461847218798
 40
0.4019292604501608
 50
90.0
 51
180.0
 73
     1
 72
     1
 10
303.4195407699778
 20
120.9461847218798
 11
303.4195407699778
 21
116.524962856928
 72
     1
 10
303.4195407699778
 20
116.524962856928
 11
304.3841709950582
 21
116.524962856928
 72
     1
 10
304.3841709950582
 20
116.524962856928
 11
304.3841709950582
 21
120.3834837572496
 72
     1
 10
304.3841709950582
 20
120.3834837572496
 11
305.4291870722286
 21
120.3834837572496
 72
     1
 10
305.4291870722286
 20
120.3834837572496
 11
305.4291870722286
 21
116.524962856928
 72
     1
 10
305.4291870722286
 20
116.524962856928
 11
306.554589001489
 21
116.524962856928
 72
     1
 10
306.554589001489
 20
116.524962856928
 11
306.554589001489
 21
120.3834837572496
 72
     1
 10
306.554589001489
 20
120.3834837572496
 11
307.5996050786595
 21
120.3834837572496
 72
     1
 10
307.5996050786595
 20
120.3834837572496
 11
307.5996050786595
 21
116.524962856928
 72
     1
 10
307.5996050786595
 20
116.524962856928
 11
308.5642353037398
 21
116.524962856928
 72
     1
 10
308.5642353037398
 20
116.524962856928
 11
308.5642353037398
 21
120.9461847218798
 97
        0
 75
     0
 76
     1
 98
        1
 10
0.0
 20
0.0
450
        0
451
        0
460
0.0
461
0.0
452
        0
462
0.0
453
        0
470

  0
HATCH
  5
141
330
118
100
AcDbEntity
  8
Schraffur (ISO)
 62
   242
420
 13640771
100
AcDbHatch
 10
0.0
 20
0.0
 30
0.0
210
0.0
220
0.0
230
1.0
  2
SOLID
 70
     1
 71
     0
 91
        2
 92
        0
 93
        1
 72
     2
 10
311.7796693873412
 20
118.936538419629
 40
1.446945337620578
 50
0.0
 51
360.0
 73
     1
 97
        0
 92
        1
 93
        6
 72
     2
 10
311.7796693873412
 20
118.936538419629
 40
2.411575562700964
 50
42.83342806606797
 51
317.1665719339312
 73
     1
 72
     1
 10
313.5481581333219
 20
117.2969823059335
 11
313.5481581333219
 21
116.524962856928
 72
     1
 10
313.5481581333219
 20
116.524962856928
 11
314.5127883584022
 21
116.524962856928
 72
     1
 10
314.5127883584022
 20
116.524962856928
 11
314.5127883584022
 21
121.34811398233
 72
     1
 10
314.5127883584022
 20
121.34811398233
 11
313.5481581333219
 21
121.34811398233
 72
     1
 10
313.5481581333219
 20
121.34811398233
 11
313.5481581333219
 21
120.5760945333244
 97
        0
 75
     0
 76
     1
 98
        1
 10
0.0
 20
0.0
450
        0
451
        0
460
0.0
461
0.0
452
        0
462
0.0
453
        0
470

  0
HATCH
  5
146
330
118
100
AcDbEntity
  8
Schraffur (ISO)
 62
   242
420
 13640771
100
AcDbHatch
 10
0.0
 20
0.0
 30
0.0
210
0.0
220
0.0
230
1.0
  2
SOLID
 70
     1
 71
     0
 91
        1
 92
        1
 93
        4
 72
     1
 10
291.361662956473
 20
114.5957024067673
 11
314.5127883584022
 21
114.5957024067673
 72
     1
 10
314.5127883584022
 20
114.5957024067673
 11
314.5127883584022
 21
115.5603326318476
 72
     1
 10
314.5127883584022
 20
115.5603326318476
 11
291.361662956473
 21
115.5603326318476
 72
     1
 10
291.361662956473
 20
115.5603326318476
 11
291.361662956473
 21
114.5957024067673
 97
        0
 75
     0
 76
     1
 98
        1
 10
0.0
 20
0.0
450
        0
451
        0
460
0.0
461
0.0
452
        0
462
0.0
453
        0
470

  0
HATCH
  5
14D
330
118
100
AcDbEntity
  8
Schraffur (ISO)
 62
   242
420
 13640771
100
AcDbHatch
 10
0.0
 20
0.0
 30
0.0
210
0.0
220
0.0
230
1.0
  2
SOLID
 70
     1
 71
     0
 91
        2
 92
        0
 93
        2
 72
     2
 10
297.4655214773733
 20
118.936538419629
 40
1.446945337620578
 50
19.471220634491
 51
160.528779365509
 73
     1
 72
     1
 10
296.1013283303897
 20
119.4188535321692
 11
298.8297146243571
 21
119.4188535321692
 97
        0
 92
        1
 93
        4
 72
     2
 10
297.4655214773733
 20
118.936538419629
 40
2.411575562700964
 50
348.4630409671848
 51
697.8233318603407
 73
     1
 72
     1
 10
299.6986992222124
 20
118.0262561257379
 11
298.5902600938928
 21
118.0262561257379
 72
     2
 10
297.4655214773733
 20
118.936538419629
 40
1.446945337620578
 50
38.98421089227273
 51
160.5287793655103
 73
     0
 72
     1
 10
296.1013283303897
 20
118.4542233070888
 11
299.8283733192863
 21
118.4542233070888
 97
        0
 75
     0
 76
     1
 98
        1
 10
0.0
 20
0.0
450
        0
451
        0
460
0.0
461
0.0
452
        0
462
0.0
453
        0
470

  0
LINE
  5
14E
330
118
100
AcDbEntity
  8
Titel (ISO)
100
AcDbLine
 10
137.5127883584022
 20
105.8481139823299
 30
0.0
 11
327.5127883584023
 21
105.84811398233
 31
0.0
  0
LINE
  5
14F
330
118
100
AcDbEntity
  8
Titel (ISO)
100
AcDbLine
 10
327.5127883584023
 20
105.84811398233
 30
0.0
 11
327.5127883584023
 21
123.34811398233
 31
0.0
  0
LINE
  5
150
330
118
100
AcDbEntity
  8
Titel (ISO)
100
AcDbLine
 10
327.5127883584023
 20
123.34811398233
 30
0.0
 11
137.5127883584022
 21
123.3481139823298
 31
0.0
  0
LINE
  5
151
330
118
100
AcDbEntity
  8
Titel (ISO)
100
AcDbLine
 10
137.5127883584022
 20
123.3481139823298
 30
0.0
 11
137.5127883584022
 21
105.8481139823299
 31
0.0
  0
LINE
  5
152
330
118
100
AcDbEntity
  8
Skizziergeometrie (ISO)
 62
   242
420
 13640771
370
     9
100
AcDbLine
 10
290.4774185834826
 20
121.34811398233
 30
0.0
 11
289.5127883584022
 21
121.34811398233
 31
0.0
  0
LINE
  5
153
330
118
100
AcDbEntity
  8
Skizziergeometrie (ISO)
 62
   242
420
 13640771
370
     9
100
AcDbLine
 10
290.4774185834826
 20
120.6587478477342
 30
0.0
 11
290.4774185834826
 21
121.34811398233
 31
0.0
  0
LINE
  5
154
330
118
100
AcDbEntity
  8
Skizziergeometrie (ISO)
 62
   242
420
 13640771
370
     9
100
AcDbLine
 10
289.5127883584022
 20
121.34811398233
 30
0.0
 11
289.5127883584022
 21
114.5957024067673
 31
0.0
  0
CIRCLE
  5
155
330
118
100
AcDbEntity
  8
Skizziergeometrie (ISO)
 62
   242
420
 13640771
370
     9
100
AcDbCircle
 10
292.1655214773733
 20
118.936538419629
 30
0.0
 40
1.446945337620578
  0
LINE
  5
156
330
118
100
AcDbEntity
  8
Skizziergeometrie (ISO)
 62
   242
420
 13640771
370
     9
100
AcDbLine
 10
289.5127883584022
 20
114.5957024067673
 30
0.0
 11
290.6381902876627
 21
114.5957024067673
 31
0.0
  0
LINE
  5
157
330
118
100
AcDbEntity
  8
Skizziergeometrie (ISO)
 62
   242
420
 13640771
370
     9
100
AcDbLine
 10
290.6381902876627
 20
114.5957024067673
 30
0.0
 11
290.6381902876627
 21
117.0702704507795
 31
0.0
  0
ARC
  5
158
330
118
100
AcDbEntity
  8
Skizziergeometrie (ISO)
 62
   242
420
 13640771
370
     9
100
AcDbCircle
 10
292.1655214773733
 20
118.936538419629
 30
0.0
 40
2.411575562700964
100
AcDbArc
 50
230.7035197608128
 51
134.4270040008057
  0
LINE
  5
159
330
118
100
AcDbEntity
  8
Skizziergeometrie (ISO)
 62
   242
420
 13640771
370
     9
100
AcDbLine
 10
291.361662956473
 20
115.5603326318476
 30
0.0
 11
291.361662956473
 21
114.5957024067673
 31
0.0
  0
ARC
  5
15A
330
118
100
AcDbEntity
  8
Skizziergeometrie (ISO)
 62
   242
420
 13640771
370
     9
100
AcDbCircle
 10
300.8873864291418
 20
120.9461847218798
 30
0.0
 40
0.4019292604501608
100
AcDbArc
 50
90.0
 51
180.0
  0
LINE
  5
15B
330
118
100
AcDbEntity
  8
Skizziergeometrie (ISO)
 62
   242
420
 13640771
370
     9
100
AcDbLine
 10
301.450087393772
 20
120.3834837572496
 30
0.0
 11
301.450087393772
 21
116.524962856928
 31
0.0
  0
LINE
  5
15C
330
118
100
AcDbEntity
  8
Skizziergeometrie (ISO)
 62
   242
420
 13640771
370
     9
100
AcDbLine
 10
300.4854571686916
 20
116.524962856928
 30
0.0
 11
300.4854571686916
 21
120.9461847218798
 31
0.0
  0
LINE
  5
15D
330
118
100
AcDbEntity
  8
Skizziergeometrie (ISO)
 62
   242
420
 13640771
370
     9
100
AcDbLine
 10
301.450087393772
 20
116.524962856928
 30
0.0
 11
300.4854571686916
 21
116.524962856928
 31
0.0
  0
LINE
  5
15E
330
118
100
AcDbEntity
  8
Skizziergeometrie (ISO)
 62
   242
420
 13640771
370
     9
100
AcDbLine
 10
313.5481581333219
 20
120.5760945333244
 30
0.0
 11
313.5481581333219
 21
121.34811398233
 31
0.0
  0
LINE
  5
15F
330
118
100
AcDbEntity
  8
Skizziergeometrie (ISO)
 62
   242
420
 13640771
370
     9
100
AcDbLine
 10
314.5127883584022
 20
121.34811398233
 30
0.0
 11
314.5127883584022
 21
116.524962856928
 31
0.0
  0
LINE
  5
160
330
118
100
AcDbEntity
  8
Skizziergeometrie (ISO)
 62
   242
420
 13640771
370
     9
100
AcDbLine
 10
314.5127883584022
 20
116.524962856928
 30
0.0
 11
313.5481581333219
 21
116.524962856928
 31
0.0
  0
CIRCLE
  5
161
330
118
100
AcDbEntity
  8
Skizziergeometrie (ISO)
 62
   242
420
 13640771
370
     9
100
AcDbCircle
 10
311.7796693873412
 20
118.936538419629
 30
0.0
 40
1.446945337620578
  0
ARC
  5
162
330
118
100
AcDbEntity
  8
Skizziergeometrie (ISO)
 62
   242
420
 13640771
370
     9
100
AcDbCircle
 10
308.1623060432897
 20
120.9461847218798
 30
0.0
 40
0.4019292604501608
100
AcDbArc
 50
0.0
 51
90.0
  0
LINE
  5
163
330
118
100
AcDbEntity
  8
Skizziergeometrie (ISO)
 62
   242
420
 13640771
370
     9
100
AcDbLine
 10
308.5642353037398
 20
120.9461847218798
 30
0.0
 11
308.5642353037398
 21
116.524962856928
 31
0.0
  0
LINE
  5
164
330
118
100
AcDbEntity
  8
Skizziergeometrie (ISO)
 62
   242
420
 13640771
370
     9
100
AcDbLine
 10
307.5996050786595
 20
120.3834837572496
 30
0.0
 11
307.5996050786595
 21
116.524962856928
 31
0.0
  0
LINE
  5
165
330
118
100
AcDbEntity
  8
Skizziergeometrie (ISO)
 62
   242
420
 13640771
370
     9
100
AcDbLine
 10
306.554589001489
 20
120.3834837572496
 30
0.0
 11
307.5996050786595
 21
120.3834837572496
 31
0.0
  0
LINE
  5
166
330
118
100
AcDbEntity
  8
Skizziergeometrie (ISO)
 62
   242
420
 13640771
370
     9
100
AcDbLine
 10
306.554589001489
 20
120.3834837572496
 30
0.0
 11
306.554589001489
 21
116.524962856928
 31
0.0
  0
LINE
  5
167
330
118
100
AcDbEntity
  8
Skizziergeometrie (ISO)
 62
   242
420
 13640771
370
     9
100
AcDbLine
 10
313.5481581333219
 20
116.524962856928
 30
0.0
 11
313.5481581333219
 21
117.2969823059335
 31
0.0
  0
LINE
  5
168
330
118
100
AcDbEntity
  8
Skizziergeometrie (ISO)
 62
   242
420
 13640771
370
     9
100
AcDbLine
 10
303.4195407699778
 20
120.9461847218798
 30
0.0
 11
303.4195407699778
 21
116.524962856928
 31
0.0
  0
LINE
  5
169
330
118
100
AcDbEntity
  8
Skizziergeometrie (ISO)
 62
   242
420
 13640771
370
     9
100
AcDbLine
 10
303.4195407699778
 20
116.524962856928
 30
0.0
 11
304.3841709950582
 21
116.524962856928
 31
0.0
  0
LINE
  5
16A
330
118
100
AcDbEntity
  8
Skizziergeometrie (ISO)
 62
   242
420
 13640771
370
     9
100
AcDbLine
 10
304.3841709950582
 20
116.524962856928
 30
0.0
 11
304.3841709950582
 21
120.3834837572496
 31
0.0
  0
LINE
  5
16B
330
118
100
AcDbEntity
  8
Skizziergeometrie (ISO)
 62
   242
420
 13640771
370
     9
100
AcDbLine
 10
305.4291870722286
 20
116.524962856928
 30
0.0
 11
305.4291870722286
 21
120.3834837572496
 31
0.0
  0
LINE
  5
16C
330
118
100
AcDbEntity
  8
Skizziergeometrie (ISO)
 62
   242
420
 13640771
370
     9
100
AcDbLine
 10
303.821470030428
 20
121.34811398233
 30
0.0
 11
308.1623060432897
 21
121.34811398233
 31
0.0
  0
LINE
  5
16D
330
118
100
AcDbEntity
  8
Skizziergeometrie (ISO)
 62
   242
420
 13640771
370
     9
100
AcDbLine
 10
305.4291870722286
 20
116.524962856928
 30
0.0
 11
306.554589001489
 21
116.524962856928
 31
0.0
  0
ARC
  5
16E
330
118
100
AcDbEntity
  8
Skizziergeometrie (ISO)
 62
   242
420
 13640771
370
     9
100
AcDbCircle
 10
303.821470030428
 20
120.9461847218798
 30
0.0
 40
0.4019292604501608
100
AcDbArc
 50
90.0
 51
180.0
  0
LINE
  5
16F
330
118
100
AcDbEntity
  8
Skizziergeometrie (ISO)
 62
   242
420
 13640771
370
     9
100
AcDbLine
 10
303.1381902876627
 20
120.3834837572496
 30
0.0
 11
301.450087393772
 21
120.3834837572496
 31
0.0
  0
LINE
  5
170
330
118
100
AcDbEntity
  8
Skizziergeometrie (ISO)
 62
   242
420
 13640771
370
     9
100
AcDbLine
 10
303.1381902876627
 20
121.34811398233
 30
0.0
 11
303.1381902876627
 21
120.3834837572496
 31
0.0
  0
LINE
  5
171
330
118
100
AcDbEntity
  8
Skizziergeometrie (ISO)
 62
   242
420
 13640771
370
     9
100
AcDbLine
 10
300.8873864291418
 20
121.34811398233
 30
0.0
 11
303.1381902876627
 21
121.34811398233
 31
0.0
  0
ARC
  5
172
330
118
100
AcDbEntity
  8
Skizziergeometrie (ISO)
 62
   242
420
 13640771
370
     9
100
AcDbCircle
 10
311.7796693873412
 20
118.936538419629
 30
0.0
 40
2.411575562700964
100
AcDbArc
 50
42.83342806606797
 51
317.166571933932
  0
LINE
  5
173
330
118
100
AcDbEntity
  8
Skizziergeometrie (ISO)
 62
   242
420
 13640771
370
     9
100
AcDbLine
 10
314.5127883584022
 20
115.5603326318476
 30
0.0
 11
314.5127883584022
 21
114.5957024067673
 31
0.0
  0
LINE
  5
174
330
118
100
AcDbEntity
  8
Skizziergeometrie (ISO)
 62
   242
420
 13640771
370
     9
100
AcDbLine
 10
313.5481581333219
 20
121.34811398233
 30
0.0
 11
314.5127883584022
 21
121.34811398233
 31
0.0
  0
LINE
  5
175
330
118
100
AcDbEntity
  8
Skizziergeometrie (ISO)
 62
   242
420
 13640771
370
     9
100
AcDbLine
 10
307.5996050786595
 20
116.524962856928
 30
0.0
 11
308.5642353037398
 21
116.524962856928
 31
0.0
  0
LINE
  5
176
330
118
100
AcDbEntity
  8
Skizziergeometrie (ISO)
 62
   242
420
 13640771
370
     9
100
AcDbLine
 10
304.3841709950582
 20
120.3834837572496
 30
0.0
 11
305.4291870722286
 21
120.3834837572496
 31
0.0
  0
LINE
  5
177
330
118
100
AcDbEntity
  8
Skizziergeometrie (ISO)
 62
   242
420
 13640771
370
     9
100
AcDbLine
 10
291.361662956473
 20
115.5603326318476
 30
0.0
 11
314.5127883584022
 21
115.5603326318476
 31
0.0
  0
LINE
  5
178
330
118
100
AcDbEntity
  8
Skizziergeometrie (ISO)
 62
   242
420
 13640771
370
     9
100
AcDbLine
 10
291.361662956473
 20
114.5957024067673
 30
0.0
 11
314.5127883584022
 21
114.5957024067673
 31
0.0
  0
LINE
  5
179
330
118
100
AcDbEntity
  8
Skizziergeometrie (ISO)
 62
   242
420
 13640771
370
     9
100
AcDbLine
 10
298.5902600938929
 20
118.0262561257379
 30
0.0
 11
299.6986992222124
 21
118.0262561257379
 31
0.0
  0
LINE
  5
17A
330
118
100
AcDbEntity
  8
Skizziergeometrie (ISO)
 62
   242
420
 13640771
370
     9
100
AcDbLine
 10
296.1013283303897
 20
119.4188535321692
 30
0.0
 11
298.829714624357
 21
119.4188535321692
 31
0.0
  0
ARC
  5
17B
330
118
100
AcDbEntity
  8
Skizziergeometrie (ISO)
 62
   242
420
 13640771
370
     9
100
AcDbCircle
 10
297.4655214773733
 20
118.936538419629
 30
0.0
 40
1.446945337620578
100
AcDbArc
 50
19.471220634491
 51
160.528779365509
  0
LINE
  5
17C
330
118
100
AcDbEntity
  8
Skizziergeometrie (ISO)
 62
   242
420
 13640771
370
     9
100
AcDbLine
 10
296.1013283303897
 20
118.4542233070888
 30
0.0
 11
299.8283733192863
 21
118.4542233070888
 31
0.0
  0
ARC
  5
17D
330
118
100
AcDbEntity
  8
Skizziergeometrie (ISO)
 62
   242
420
 13640771
370
     9
100
AcDbCircle
 10
297.4655214773733
 20
118.936538419629
 30
0.0
 40
1.446945337620578
100
AcDbArc
 50
199.4712206344896
 51
321.0157891077264
  0
ARC
  5
17E
330
118
100
AcDbEntity
  8
Skizziergeometrie (ISO)
 62
   242
420
 13640771
370
     9
100
AcDbCircle
 10
297.4655214773733
 20
118.936538419629
 30
0.0
 40
2.411575562700964
100
AcDbArc
 50
348.4630409671848
 51
337.8233318603407
  0
LINE
  5
17F
330
118
100
AcDbEntity
  8
Titel (ISO)
100
AcDbLine
 10
137.5127883584022
 20
118.3382056155221
 30
0.0
 11
137.5127883584022
 21
105.8481139823299
 31
0.0
  0
LINE
  5
180
330
118
100
AcDbEntity
  8
Titel (ISO)
100
AcDbLine
 10
217.1992765159977
 20
123.3481139823299
 30
0.0
 11
235.3992765159975
 21
123.3481139823299
 31
0.0
  0
LINE
  5
181
330
118
100
AcDbEntity
  8
Titel (ISO)
100
AcDbLine
 10
152.5127883584022
 20
123.3481139823298
 30
0.0
 11
152.5127883584022
 21
105.8481139823299
 31
0.0
  0
LINE
  5
182
330
118
100
AcDbEntity
  8
Titel (ISO)
100
AcDbLine
 10
177.5127883584022
 20
123.3481139823298
 30
0.0
 11
177.5127883584022
 21
105.8481139823299
 31
0.0
  0
LINE
  5
183
330
118
100
AcDbEntity
  8
Titel (ISO)
100
AcDbLine
 10
287.5127883584022
 20
123.34811398233
 30
0.0
 11
287.5127883584022
 21
105.84811398233
 31
0.0
  0
LINE
  5
184
330
118
100
AcDbEntity
  8
Titel (ISO)
100
AcDbLine
 10
137.5127883584022
 20
114.5981139823299
 30
0.0
 11
177.5127883584022
 21
114.5981139823299
 31
0.0
  0
LINE
  5
185
330
118
100
AcDbEntity
  8
Titel (ISO)
100
AcDbLine
 10
204.5127883584022
 20
123.3481139823299
 30
0.0
 11
204.5127883584022
 21
105.8481139823299
 31
0.0
  0
LINE
  5
186
330
118
100
AcDbEntity
  8
Titel (ISO)
100
AcDbLine
 10
177.5127883584022
 20
114.5981139823299
 30
0.0
 11
204.5127883584022
 21
114.5981139823299
 31
0.0
  0
MTEXT
  5
187
330
118
100
AcDbEntity
  8
Titel (ISO)
100
AcDbMText
 10
138.5127883584022
 20
122.3481139823299
 30
0.0
 40
2.000000029802322
 41
8.499999999999978
 46
0.0
 71
     1
 72
     1
  1
\fArial|b1|i0;\H2.0000;Scale:
  7
Notiztext (DIN)
 73
     1
 44
1.0
  0
MTEXT
  5
189
330
118
100
AcDbEntity
  8
Titel (ISO)
100
AcDbMText
 10
138.5127883584022
 20
113.5981139823299
 30
0.0
 40
2.000000029802322
 41
6.521341204643249
 46
0.0
 71
     1
 72
     1
  1
\fArial|b1|i0;\H2.0000;Size:
  7
Notiztext (DIN)
 73
     1
 44
1.0
  0
MTEXT
  5
18A
330
118
100
AcDbEntity
  8
Titel (ISO)
100
AcDbMText
 10
153.5127883584022
 20
122.3481139823299
 30
0.0
 40
2.000000029802322
 41
7.000000000000081
 46
0.0
 71
     1
 72
     1
  1
\fArial|b1|i0;\H2.0000;Date:
  7
Notiztext (DIN)
 73
     1
 44
1.0
  0
MTEXT
  5
18B
330
118
100
AcDbEntity
  8
Titel (ISO)
100
AcDbMText
 10
153.5127883584022
 20
113.5981139823299
 30
0.0
 40
2.000000029802322
 41
23.13109874725342
 46
0.0
 71
     1
 72
     1
  1
\fArial|b1|i0;\H2.0000;Revision / drawn:
  7
Notiztext (DIN)
 73
     1
 44
1.0
  0
MTEXT
  5
18C
330
118
100
AcDbEntity
  8
Titel (ISO)
100
AcDbMText
 10
205.5127883584022
 20
122.34811398233
 30
0.0
 40
2.000000029802322
 41
16.30000000000002
 46
0.0
 71
     1
 72
     1
  1
\fArial|b1|i0;\H2.0000;Description:
  7
Notiztext (DIN)
 73
     1
 44
1.0
  0
MTEXT
  5
18D
330
118
100
AcDbEntity
  8
Titel (ISO)
100
AcDbMText
 10
178.5127883584022
 20
121.3321078699984
 30
0.0
 40
2.000000029802322
 41
11.48627996444702
 46
0.0
 71
     4
 72
     1
  1
\fArial|b1|i0;\H2.0000;Material:
  7
Notiztext (DIN)
 73
     1
 44
1.0
  0
MTEXT
  5
18E
330
118
100
AcDbEntity
  8
Titel (ISO)
100
AcDbMText
 10
178.5127883584022
 20
112.5821078699984
 30
0.0
 40
2.000000029802322
 41
15.0
 46
0.0
 71
     4
 72
     1
  1
\fArial|b1|i0;\H2.0000;Part No.
  7
Notiztext (DIN)
 73
     1
 44
1.0
  0
MTEXT
  5
18F
102
{ACAD_XDICTIONARY
360
6E3
102
}
330
118
100
AcDbEntity
  8
Titel (ISO)
100
AcDbMText
 10
289.5127883584022
 20
112.6664066478115
 30
0.0
 40
2.5
 41
36.99999999999996
 46
0.0
 71
     1
 72
     1
  1
{\fArial|b1|i0|c0|p34;\H0.4x;perma-tec \fArial|b0|i0|c0|p34;\H0.7x;GmbH & Co. KG\P\H1.42857x;Hammelburger Str.21                       Tel. : +49 9704 609-0\P97717 EUERDORF / GERMANY     Fax : +49 9704 609-50}
  7
Notiztext (DIN)
 73
     1
 44
0.7263241410255433
  0
ATTDEF
  5
191
102
{ACAD_XDICTIONARY
360
6E5
102
}
330
118
100
AcDbEntity
  8
Titel (ISO)
100
AcDbText
 10
138.3637432992358
 20
116.5692940589243
 30
0.0
 40
2.5
  1
2:1 (1:1)
  7
Textstil54
100
AcDbAttributeDefinition
280
     0
  3
Maßstab
  2
Maßstab_001
 70
     0
280
     0
  0
ATTDEF
  5
195
102
{ACAD_XDICTIONARY
360
6E8
102
}
330
118
100
AcDbEntity
  8
Titel (ISO)
100
AcDbText
 10
155.7806941738775
 20
116.2401671811559
 30
0.0
 40
2.5
  1
01.07.2019
  7
Textstil54
100
AcDbAttributeDefinition
280
     0
  3
Datum
  2
Datum_001
 70
     0
280
     0
  0
ATTDEF
  5
196
102
{ACAD_XDICTIONARY
360
6EB
102
}
330
118
100
AcDbEntity
  8
Titel (ISO)
100
AcDbText
 10
205.3865946332475
 20
115.3424647655542
 30
0.0
 40
2.5
  1
Support flange FLEX Gen 2.0
  7
Textstil54
100
AcDbAttributeDefinition
280
     0
  3
Benennung_Englisch
  2
Benennung_Englisch_001
 70
     0
280
     0
  0
ATTDEF
  5
197
102
{ACAD_XDICTIONARY
360
6EE
102
}
330
118
100
AcDbEntity
  8
Titel (ISO)
100
AcDbText
 10
142.8205987139913
 20
107.4679980132233
 30
0.0
 40
2.5
  1
A4
  7
Textstil54
100
AcDbAttributeDefinition
280
     0
  3
Blattgröße
  2
Blattgröße_001
 70
     0
280
     0
  0
ATTDEF
  5
198
102
{ACAD_XDICTIONARY
360
6F1
102
}
330
118
100
AcDbEntity
  8
Titel (ISO)
100
AcDbText
 10
178.2825700760253
 20
116.5462722306867
 30
0.0
 40
2.5
  1
brass / plastic
  7
Textstil54
100
AcDbAttributeDefinition
280
     0
  3
Material
  2
Material_001
 70
     0
280
     0
  0
ATTDEF
  5
199
102
{ACAD_XDICTIONARY
360
6F4
102
}
330
118
100
AcDbEntity
  8
Titel (ISO)
100
AcDbText
 10
178.5127883584022
 20
107.493121529321
 30
0.0
 40
2.5
  1

  7
Textstil54
 11
178.5127883584022
 21
109.993121529321
 31
0.0
100
AcDbAttributeDefinition
280
     0
  3
Artikelnummer
  2
Artikelnummer
 70
     0
 74
     3
280
     0
  0
ATTDEF
  5
19A
102
{ACAD_XDICTIONARY
360
6F7
102
}
330
118
100
AcDbEntity
  8
Titel (ISO)
100
AcDbText
 10
205.3865946332475
 20
108.1971373419889
 30
0.0
 40
2.5
  1
Stützkonsole FLEX Gen 2.0
  7
Textstil54
100
AcDbAttributeDefinition
280
     0
  3
Benennung_Deutsch
  2
Benennung_Deutsch_001
 70
     0
280
     0
  0
ATTDEF
  5
19B
102
{ACAD_XDICTIONARY
360
6FA
102
}
330
118
100
AcDbEntity
  8
Titel (ISO)
100
AcDbText
 10
159.667460905733
 20
107.4714488453784
 30
0.0
 40
2.5
  1
D / cst
  7
Textstil54
100
AcDbAttributeDefinition
280
     0
  3
Revision/Gezeichnet
  2
Revision/Gezeichnet_001
 70
     0
280
     0
  0
ENDBLK
  5
11A
330
118
100
AcDbEntity
  8
0
100
AcDbBlockEnd
  0
BLOCK
  5
1A8
330
1A7
100
AcDbEntity
  8
0
100
AcDbBlockBegin
  2
Tabelle1
 70
     0
 10
0.0
 20
0.0
 30
0.0
  3
Tabelle1
  1

  0
MTEXT
  5
1AA
330
1A7
100
AcDbEntity
  8
Symbol (ISO)
100
AcDbMText
 10
11.81432777868528
 20
58.61891778326047
 30
0.0
 40
2.5
 41
0.0
 46
0.0
 71
     7
 72
     1
  1
Artikelnummer/
  7
Notiztext (DIN)
 73
     1
 44
1.0
  0
MTEXT
  5
1AB
330
1A7
100
AcDbEntity
  8
Symbol (ISO)
100
AcDbMText
 10
14.38883452054558
 20
53.6892409450413
 30
0.0
 40
2.5
 41
0.0
 46
0.0
 71
     7
 72
     1
  1
part number
  7
Notiztext (DIN)
 73
     1
 44
1.0
  0
MTEXT
  5
1AC
330
1A7
100
AcDbEntity
  8
Symbol (ISO)
100
AcDbMText
 10
89.45285649941396
 20
57.60043457290542
 30
0.0
 40
2.5
 41
0.0
 46
0.0
 71
     7
 72
     1
  1
Benennung/
  7
Notiztext (DIN)
 73
     1
 44
1.0
  0
MTEXT
  5
1AD
330
1A7
100
AcDbEntity
  8
Symbol (ISO)
100
AcDbMText
 10
88.2466408334257
 20
54.01603210857523
 30
0.0
 40
2.5
 41
0.0
 46
0.0
 71
     7
 72
     1
  1
denomination
  7
Notiztext (DIN)
 73
     1
 44
1.0
  0
MTEXT
  5
1AE
330
1A7
100
AcDbEntity
  8
Symbol (ISO)
100
AcDbMText
 10
170.091069937034
 20
56.19600007450593
 30
0.0
 40
2.5
 41
0.0
 46
0.0
 71
     7
 72
     1
  1
D
  7
Notiztext (DIN)
 73
     1
 44
1.0
  0
MTEXT
  5
1AF
330
1A7
100
AcDbEntity
  8
Symbol (ISO)
100
AcDbMText
 10
190.3478934039415
 20
56.19600007450593
 30
0.0
 40
2.5
 41
0.0
 46
0.0
 71
     7
 72
     1
  1
L
  7
Notiztext (DIN)
 73
     1
 44
1.0
  0
LINE
  5
1B0
330
1A7
100
AcDbEntity
  8
Symbol (ISO)
100
AcDbLine
 10
10.01951213017334
 20
61.72400000000012
 30
0.0
 11
200.0674612343634
 21
61.72400000000012
 31
0.0
  0
MTEXT
  5
1B1
330
1A7
100
AcDbEntity
  8
Symbol (ISO)
100
AcDbMText
 10
18.13191575620269
 20
47.61427603229892
 30
0.0
 40
2.5
 41
0.0
 46
0.0
 71
     7
 72
     1
  1
101427
  7
Notiztext (DIN)
 73
     1
 44
1.0
  0
MTEXT
  5
1B2
330
1A7
100
AcDbEntity
  8
Symbol (ISO)
100
AcDbMText
 10
48.105527781063
 20
49.38932781606924
 30
0.0
 40
2.5
 41
0.0
 46
0.0
 71
     7
 72
     1
  1
Stützkonsole FLEX Gen 2.0 G1/4a x G1/4i (Messing / Kunststoff)/
  7
Notiztext (DIN)
 73
     1
 44
1.0
  0
MTEXT
  5
1B3
330
1A7
100
AcDbEntity
  8
Symbol (ISO)
100
AcDbMText
 10
52.28140535216896
 20
45.11132781893026
 30
0.0
 40
2.5
 41
0.0
 46
0.0
 71
     7
 72
     1
  1
Support flange FLEX Gen 2.0 G1/4o x G1/4i (brass / plastic)
  7
Notiztext (DIN)
 73
     1
 44
1.0
  0
MTEXT
  5
1B4
330
1A7
100
AcDbEntity
  8
Symbol (ISO)
100
AcDbMText
 10
167.4812512537863
 20
47.59712658390414
 30
0.0
 40
2.5
 41
0.0
 46
0.0
 71
     7
 72
     1
  1
G1/4
  7
Notiztext (DIN)
 73
     1
 44
1.0
  0
MTEXT
  5
1B5
330
1A7
100
AcDbEntity
  8
Symbol (ISO)
100
AcDbMText
 10
187.8072543598787
 20
47.61427603229892
 30
0.0
 40
2.5
 41
0.0
 46
0.0
 71
     7
 72
     1
  1
39.4
  7
Notiztext (DIN)
 73
     1
 44
1.0
  0
LINE
  5
1B6
330
1A7
100
AcDbEntity
  8
Symbol (ISO)
100
AcDbLine
 10
10.01951213017334
 20
53.16800000000012
 30
0.0
 11
200.0674612343634
 21
53.16800000000012
 31
0.0
  0
MTEXT
  5
1B7
330
1A7
100
AcDbEntity
  8
Symbol (ISO)
100
AcDbMText
 10
18.13191575620269
 20
39.05827603229892
 30
0.0
 40
2.5
 41
0.0
 46
0.0
 71
     7
 72
     1
  1
109322
  7
Notiztext (DIN)
 73
     1
 44
1.0
  0
MTEXT
  5
1B8
330
1A7
100
AcDbEntity
  8
Symbol (ISO)
100
AcDbMText
 10
44.86524286132423
 20
40.83332781606924
 30
0.0
 40
2.5
 41
0.0
 46
0.0
 71
     7
 72
     1
  1
Stützkonsole FLEX Gen 2.0 1/4" NPTa x G1/4i (Messing / Kunststoff)/
  7
Notiztext (DIN)
 73
     1
 44
1.0
  0
MTEXT
  5
1B9
330
1A7
100
AcDbEntity
  8
Symbol (ISO)
100
AcDbMText
 10
48.55617704253761
 20
36.55532781893027
 30
0.0
 40
2.5
 41
0.0
 46
0.0
 71
     7
 72
     1
  1
Support flange FLEX Gen 2.0  1/4" NPTa x G1/4i (brass / plastic)
  7
Notiztext (DIN)
 73
     1
 44
1.0
  0
MTEXT
  5
1BA
330
1A7
100
AcDbEntity
  8
Symbol (ISO)
100
AcDbMText
 10
164.4429698314011
 20
39.04207936415088
 30
0.0
 40
2.5
 41
0.0
 46
0.0
 71
     7
 72
     1
  1
1/4" NPT
  7
Notiztext (DIN)
 73
     1
 44
1.0
  0
MTEXT
  5
1BB
330
1A7
100
AcDbEntity
  8
Symbol (ISO)
100
AcDbMText
 10
187.699254083398
 20
39.05827603229892
 30
0.0
 40
2.5
 41
0.0
 46
0.0
 71
     7
 72
     1
  1
40.9
  7
Notiztext (DIN)
 73
     1
 44
1.0
  0
LINE
  5
1BC
330
1A7
100
AcDbEntity
  8
Symbol (ISO)
100
AcDbLine
 10
10.01951213017334
 20
44.61200000000012
 30
0.0
 11
200.0674612343634
 21
44.61200000000012
 31
0.0
  0
MTEXT
  5
1BD
330
1A7
100
AcDbEntity
  8
Symbol (ISO)
100
AcDbMText
 10
18.13191575620269
 20
30.50227603229893
 30
0.0
 40
2.5
 41
0.0
 46
0.0
 71
     7
 72
     1
  1
109323
  7
Notiztext (DIN)
 73
     1
 44
1.0
  0
MTEXT
  5
1BE
330
1A7
100
AcDbEntity
  8
Symbol (ISO)
100
AcDbMText
 10
44.86524286132423
 20
32.27732781606925
 30
0.0
 40
2.5
 41
0.0
 46
0.0
 71
     7
 72
     1
  1
Stützkonsole FLEX Gen 2.0 1/8" NPTa x G1/4i (Messing / Kunststoff)/
  7
Notiztext (DIN)
 73
     1
 44
1.0
  0
MTEXT
  5
1BF
330
1A7
100
AcDbEntity
  8
Symbol (ISO)
100
AcDbMText
 10
49.04112043243019
 20
27.99932781893027
 30
0.0
 40
2.5
 41
0.0
 46
0.0
 71
     7
 72
     1
  1
Support flange FLEX Gen 2.0 1/8" NPTa x G1/4i (brass / plastic)
  7
Notiztext (DIN)
 73
     1
 44
1.0
  0
MTEXT
  5
1C0
330
1A7
100
AcDbEntity
  8
Symbol (ISO)
100
AcDbMText
 10
164.4429698314011
 20
30.48607936415089
 30
0.0
 40
2.5
 41
0.0
 46
0.0
 71
     7
 72
     1
  1
1/8" NPT
  7
Notiztext (DIN)
 73
     1
 44
1.0
  0
MTEXT
  5
1C1
330
1A7
100
AcDbEntity
  8
Symbol (ISO)
100
AcDbMText
 10
187.8072543598787
 20
30.50227603229893
 30
0.0
 40
2.5
 41
0.0
 46
0.0
 71
     7
 72
     1
  1
38.9
  7
Notiztext (DIN)
 73
     1
 44
1.0
  0
LINE
  5
1C2
330
1A7
100
AcDbEntity
  8
Symbol (ISO)
100
AcDbLine
 10
10.01951213017334
 20
36.05600000000013
 30
0.0
 11
200.0674612343634
 21
36.05600000000013
 31
0.0
  0
LINE
  5
1C3
330
1A7
100
AcDbEntity
  8
Symbol (ISO)
100
AcDbLine
 10
10.01951213017334
 20
27.50000000000012
 30
0.0
 11
200.0674612343634
 21
27.50000000000012
 31
0.0
  0
LINE
  5
1C4
330
1A7
100
AcDbEntity
  8
Symbol (ISO)
100
AcDbLine
 10
10.01951213017334
 20
61.72400000000012
 30
0.0
 11
10.01951213017334
 21
27.50000000000012
 31
0.0
  0
LINE
  5
1C5
330
1A7
100
AcDbEntity
  8
Symbol (ISO)
100
AcDbLine
 10
37.09846955088772
 20
61.72400000000012
 30
0.0
 11
37.09846955088772
 21
27.50000000000012
 31
0.0
  0
LINE
  5
1C6
330
1A7
100
AcDbEntity
  8
Symbol (ISO)
100
AcDbLine
 10
160.1069881256576
 20
61.72400000000012
 30
0.0
 11
160.1069881256576
 21
27.50000000000012
 31
0.0
  0
LINE
  5
1C7
330
1A7
100
AcDbEntity
  8
Symbol (ISO)
100
AcDbLine
 10
182.0340161364186
 20
61.72400000000012
 30
0.0
 11
182.0340161364186
 21
27.50000000000012
 31
0.0
  0
LINE
  5
1C8
330
1A7
100
AcDbEntity
  8
Symbol (ISO)
100
AcDbLine
 10
200.0674612343634
 20
61.72400000000012
 30
0.0
 11
200.0674612343634
 21
27.50000000000012
 31
0.0
  0
ENDBLK
  5
1A9
330
1A7
100
AcDbEntity
  8
0
100
AcDbBlockEnd
  0
BLOCK
  5
25E
330
25D
100
AcDbEntity
  8
0
100
AcDbBlockBegin
  2
*D6
 70
     1
 10
0.0
 20
0.0
 30
0.0
  3
*D6
  1

  0
LINE
  5
334
330
25D
100
AcDbEntity
  8
Bemaßung (ISO)
440
 16777216
100
AcDbLine
 10
68.38841594531491
 20
104.455934124863
 30
0.0
 11
68.38841594531491
 21
88.45593393412819
 31
0.0
  0
LINE
  5
335
330
25D
100
AcDbEntity
  8
Bemaßung (ISO)
440
 16777216
100
AcDbLine
 10
89.05568074564186
 20
104.455934124863
 30
0.0
 11
89.05568074564186
 21
88.45593393412819
 31
0.0
  0
LINE
  5
336
330
25D
100
AcDbEntity
  8
Bemaßung (ISO)
440
 16777216
100
AcDbLine
 10
69.63841594531491
 20
89.45593393412819
 30
0.0
 11
87.80568074564186
 21
89.45593393412819
 31
0.0
  0
SOLID
  5
337
330
25D
100
AcDbEntity
  8
Bemaßung (ISO)
440
 16777216
100
AcDbTrace
 10
69.63841594531491
 20
89.66426726746153
 30
0.0
 11
69.63841594531491
 21
89.24760060079487
 31
0.0
 12
68.38841594531491
 22
89.45593393412819
 32
0.0
 13
68.38841594531491
 23
89.45593393412819
 33
0.0
  0
SOLID
  5
338
330
25D
100
AcDbEntity
  8
Bemaßung (ISO)
440
 16777216
100
AcDbTrace
 10
87.80568074564186
 20
89.66426726746153
 30
0.0
 11
87.80568074564186
 21
89.24760060079487
 31
0.0
 12
89.05568074564186
 22
89.45593393412819
 32
0.0
 13
89.05568074564186
 23
89.45593393412819
 33
0.0
  0
MTEXT
  5
339
330
25D
100
AcDbEntity
  8
Bemaßung (ISO)
440
 16777216
100
AcDbMText
 10
76.55990532467744
 20
90.94205208622557
 30
0.0
 40
1.25
 41
0.0
 46
0.0
 71
     1
 72
     1
  1
\A1;\fArial|b0|i0;\H1.2437;SW21
  7
Notiztext (DIN)
 73
     1
 44
1.0
  0
POINT
  5
33A
330
25D
100
AcDbEntity
  8
Defpoints
 62
     0
440
 16777216
100
AcDbPoint
 10
68.38841594531491
 20
104.455934124863
 30
0.0
  0
POINT
  5
33B
330
25D
100
AcDbEntity
  8
Defpoints
 62
     0
440
 16777216
100
AcDbPoint
 10
89.05568074564186
 20
104.455934124863
 30
0.0
  0
POINT
  5
33C
330
25D
100
AcDbEntity
  8
Defpoints
 62
     0
440
 16777216
100
AcDbPoint
 10
89.05568074564186
 20
89.45593393412819
 30
0.0
  0
ENDBLK
  5
25F
330
25D
100
AcDbEntity
  8
0
100
AcDbBlockEnd
  0
BLOCK
  5
33F
330
33E
100
AcDbEntity
  8
0
100
AcDbBlockBegin
  2
*D7
 70
     1
 10
0.0
 20
0.0
 30
0.0
  3
*D7
  1

  0
LINE
  5
421
330
33E
100
AcDbEntity
  8
Bemaßung (ISO)
440
 16777216
100
AcDbLine
 10
27.43720409818018
 20
95.45593412486306
 30
0.0
 11
27.43720409818018
 21
88.45593393412819
 31
0.0
  0
LINE
  5
422
330
33E
100
AcDbEntity
  8
Bemaßung (ISO)
440
 16777216
100
AcDbLine
 10
40.59420409818018
 20
95.45593412486306
 30
0.0
 11
40.59420409818018
 21
88.45593393412819
 31
0.0
  0
LINE
  5
423
330
33E
100
AcDbEntity
  8
Bemaßung (ISO)
440
 16777216
100
AcDbLine
 10
28.68720409818018
 20
89.45593393412819
 30
0.0
 11
39.34420409818019
 21
89.45593393412819
 31
0.0
  0
SOLID
  5
424
330
33E
100
AcDbEntity
  8
Bemaßung (ISO)
440
 16777216
100
AcDbTrace
 10
28.68720409818018
 20
89.66426726746153
 30
0.0
 11
28.68720409818018
 21
89.24760060079487
 31
0.0
 12
27.43720409818018
 22
89.45593393412819
 32
0.0
 13
27.43720409818018
 23
89.45593393412819
 33
0.0
  0
SOLID
  5
425
330
33E
100
AcDbEntity
  8
Bemaßung (ISO)
440
 16777216
100
AcDbTrace
 10
39.34420409818019
 20
89.66426726746153
 30
0.0
 11
39.34420409818019
 21
89.24760060079487
 31
0.0
 12
40.59420409818018
 22
89.45593393412819
 32
0.0
 13
40.59420409818018
 23
89.45593393412819
 33
0.0
  0
MTEXT
  5
426
330
33E
100
AcDbEntity
  8
Bemaßung (ISO)
440
 16777216
100
AcDbMText
 10
33.19404993238616
 20
90.90593394140416
 30
0.0
 40
1.25
 41
0.0
 46
0.0
 71
     1
 72
     1
  1
\A1; \fArial|b0|i0;\H1.2500;D
  7
Notiztext (DIN)
 73
     1
 44
1.0
  0
POINT
  5
427
330
33E
100
AcDbEntity
  8
Defpoints
 62
     0
440
 16777216
100
AcDbPoint
 10
27.43720409818018
 20
95.45593412486306
 30
0.0
  0
POINT
  5
428
330
33E
100
AcDbEntity
  8
Defpoints
 62
     0
440
 16777216
100
AcDbPoint
 10
40.59420409818018
 20
95.45593412486306
 30
0.0
  0
POINT
  5
429
330
33E
100
AcDbEntity
  8
Defpoints
 62
     0
440
 16777216
100
AcDbPoint
 10
40.59420409818018
 20
89.45593393412819
 30
0.0
  0
ENDBLK
  5
340
330
33E
100
AcDbEntity
  8
0
100
AcDbBlockEnd
  0
BLOCK
  5
42C
330
42B
100
AcDbEntity
  8
0
100
AcDbBlockBegin
  2
*D8
 70
     1
 10
0.0
 20
0.0
 30
0.0
  3
*D8
  1

  0
LINE
  5
500
330
42B
100
AcDbEntity
  8
Bemaßung (ISO)
440
 16777216
100
AcDbLine
 10
28.4372040981802
 20
94.45593412486308
 30
0.0
 11
8.230111065343242
 21
94.45593412486308
 31
0.0
  0
LINE
  5
501
330
42B
100
AcDbEntity
  8
Bemaßung (ISO)
440
 16777216
100
AcDbLine
 10
14.53011193992476
 20
133.8059341248631
 30
0.0
 11
8.230111065343233
 21
133.8059341248631
 31
0.0
  0
LINE
  5
502
330
42B
100
AcDbEntity
  8
Bemaßung (ISO)
440
 16777216
100
AcDbLine
 10
9.230111065343242
 20
95.70593412486308
 30
0.0
 11
9.230111065343233
 21
132.5559341248631
 31
0.0
  0
SOLID
  5
503
330
42B
100
AcDbEntity
  8
Bemaßung (ISO)
440
 16777216
100
AcDbTrace
 10
9.021777732009908
 20
95.70593412486308
 30
0.0
 11
9.438444398676576
 21
95.70593412486308
 31
0.0
 12
9.230111065343242
 22
94.45593412486308
 32
0.0
 13
9.230111065343242
 23
94.45593412486308
 33
0.0
  0
SOLID
  5
504
330
42B
100
AcDbEntity
  8
Bemaßung (ISO)
440
 16777216
100
AcDbTrace
 10
9.021777732009899
 20
132.5559341248631
 30
0.0
 11
9.438444398676567
 21
132.5559341248631
 31
0.0
 12
9.230111065343233
 22
133.8059341248631
 32
0.0
 13
9.230111065343233
 23
133.8059341248631
 33
0.0
  0
MTEXT
  5
505
330
42B
100
AcDbEntity
  8
Bemaßung (ISO)
440
 16777216
100
AcDbMText
 10
7.780111058067312
 20
113.4288843254441
 30
0.0
 40
1.25
 41
0.0
 46
0.0
 71
     1
 72
     1
  1
\A1; \fArial|b0|i0;\H1.2500;L
  7
Notiztext (DIN)
 11
0.0000000000000001
 21
1.0
 31
0.0
 73
     1
 44
1.0
  0
POINT
  5
506
330
42B
100
AcDbEntity
  8
Defpoints
 62
     0
440
 16777216
100
AcDbPoint
 10
28.4372040981802
 20
94.45593412486308
 30
0.0
  0
POINT
  5
507
330
42B
100
AcDbEntity
  8
Defpoints
 62
     0
440
 16777216
100
AcDbPoint
 10
14.53011193992476
 20
133.8059341248631
 30
0.0
  0
POINT
  5
508
330
42B
100
AcDbEntity
  8
Defpoints
 62
     0
440
 16777216
100
AcDbPoint
 10
9.230111065343233
 20
133.8059341248631
 30
0.0
  0
ENDBLK
  5
42D
330
42B
100
AcDbEntity
  8
0
100
AcDbBlockEnd
  0
BLOCK
  5
50B
330
50A
100
AcDbEntity
  8
0
100
AcDbBlockBegin
  2
*D9
 70
     1
 10
0.0
 20
0.0
 30
0.0
  3
*D9
  1

  0
LINE
  5
5DF
330
50A
100
AcDbEntity
  8
Bemaßung (ISO)
440
 16777216
100
AcDbLine
 10
14.23011193992476
 20
133.505934124863
 30
0.0
 11
14.23011193992476
 21
139.8059343155979
 31
0.0
  0
LINE
  5
5E0
330
50A
100
AcDbEntity
  8
Bemaßung (ISO)
440
 16777216
100
AcDbLine
 10
53.80129625643561
 20
133.505934124863
 30
0.0
 11
53.80129625643561
 21
139.8059343155979
 31
0.0
  0
LINE
  5
5E1
330
50A
100
AcDbEntity
  8
Bemaßung (ISO)
440
 16777216
100
AcDbLine
 10
15.48011193992476
 20
138.8059343155979
 30
0.0
 11
52.55129625643561
 21
138.8059343155979
 31
0.0
  0
SOLID
  5
5E2
330
50A
100
AcDbEntity
  8
Bemaßung (ISO)
440
 16777216
100
AcDbTrace
 10
15.48011193992476
 20
139.0142676489313
 30
0.0
 11
15.48011193992476
 21
138.5976009822646
 31
0.0
 12
14.23011193992476
 22
138.8059343155979
 32
0.0
 13
14.23011193992476
 23
138.8059343155979
 33
0.0
  0
SOLID
  5
5E3
330
50A
100
AcDbEntity
  8
Bemaßung (ISO)
440
 16777216
100
AcDbTrace
 10
52.55129625643561
 20
139.0142676489313
 30
0.0
 11
52.55129625643561
 21
138.5976009822646
 31
0.0
 12
53.80129625643561
 22
138.8059343155979
 32
0.0
 13
53.80129625643561
 23
138.8059343155979
 33
0.0
  0
MTEXT
  5
5E4
330
50A
100
AcDbEntity
  8
Bemaßung (ISO)
440
 16777216
100
AcDbMText
 10
31.71927591294601
 20
140.3454993302165
 30
0.0
 40
1.25
 41
0.0
 46
0.0
 71
     1
 72
     1
  1
\A1;\fArial|b0|i0;\H1.2437;Ø39.6
  7
Notiztext (DIN)
 73
     1
 44
1.0
  0
POINT
  5
5E5
330
50A
100
AcDbEntity
  8
Defpoints
 62
     0
440
 16777216
100
AcDbPoint
 10
14.23011193992476
 20
133.505934124863
 30
0.0
  0
POINT
  5
5E6
330
50A
100
AcDbEntity
  8
Defpoints
 62
     0
440
 16777216
100
AcDbPoint
 10
53.80129625643561
 20
133.505934124863
 30
0.0
  0
POINT
  5
5E7
330
50A
100
AcDbEntity
  8
Defpoints
 62
     0
440
 16777216
100
AcDbPoint
 10
53.80129625643561
 20
138.8059343155979
 30
0.0
  0
ENDBLK
  5
50C
330
50A
100
AcDbEntity
  8
0
100
AcDbBlockEnd
  0
BLOCK
  5
5EA
330
5E9
100
AcDbEntity
  8
0
100
AcDbBlockBegin
  2
*D10
 70
     1
 10
0.0
 20
0.0
 30
0.0
  3
*D10
  1

  0
LINE
  5
6CC
330
5E9
100
AcDbEntity
  8
Bemaßung (ISO)
440
 16777216
100
AcDbLine
 10
28.29320409818018
 20
58.59719558834328
 30
0.0
 11
28.29320409818018
 21
84.3827886211786
 31
0.0
  0
LINE
  5
6CD
330
5E9
100
AcDbEntity
  8
Bemaßung (ISO)
440
 16777216
100
AcDbLine
 10
39.73820409818018
 20
58.59719558834328
 30
0.0
 11
39.73820409818018
 21
84.3827886211786
 31
0.0
  0
LINE
  5
6CE
330
5E9
100
AcDbEntity
  8
Bemaßung (ISO)
440
 16777216
100
AcDbLine
 10
29.54320409818018
 20
83.38278862117858
 30
0.0
 11
38.48820409818018
 21
83.38278862117858
 31
0.0
  0
SOLID
  5
6CF
330
5E9
100
AcDbEntity
  8
Bemaßung (ISO)
440
 16777216
100
AcDbTrace
 10
29.54320409818018
 20
83.59112195451192
 30
0.0
 11
29.54320409818018
 21
83.17445528784526
 31
0.0
 12
28.29320409818018
 22
83.38278862117858
 32
0.0
 13
28.29320409818018
 23
83.38278862117858
 33
0.0
  0
SOLID
  5
6D0
330
5E9
100
AcDbEntity
  8
Bemaßung (ISO)
440
 16777216
100
AcDbTrace
 10
38.48820409818018
 20
83.59112195451192
 30
0.0
 11
38.48820409818018
 21
83.17445528784526
 31
0.0
 12
39.73820409818018
 22
83.38278862117858
 32
0.0
 13
39.73820409818018
 23
83.38278862117858
 33
0.0
  0
MTEXT
  5
6D1
330
5E9
100
AcDbEntity
  8
Bemaßung (ISO)
440
 16777216
100
AcDbMText
 10
31.91742304916076
 20
84.87542164370953
 30
0.0
 40
1.25
 41
0.0
 46
0.0
 71
     1
 72
     1
  1
\A1; \fArial|b0|i0;\H1.2500;G1/4
  7
Notiztext (DIN)
 73
     1
 44
1.0
  0
POINT
  5
6D2
330
5E9
100
AcDbEntity
  8
Defpoints
 62
     0
440
 16777216
100
AcDbPoint
 10
28.29320409818018
 20
58.59719558834328
 30
0.0
  0
POINT
  5
6D3
330
5E9
100
AcDbEntity
  8
Defpoints
 62
     0
440
 16777216
100
AcDbPoint
 10
39.73820409818018
 20
58.59719558834328
 30
0.0
  0
POINT
  5
6D4
330
5E9
100
AcDbEntity
  8
Defpoints
 62
     0
440
 16777216
100
AcDbPoint
 10
39.73820409818018
 20
83.38278862117858
 30
0.0
  0
ENDBLK
  5
5EB
330
5E9
100
AcDbEntity
  8
0
100
AcDbBlockEnd
  0
ENDSEC
  0
SECTION
  2
ENTITIES
  0
INSERT
  5
117
330
70
100
AcDbEntity
  8
0
100
AcDbBlockReference
  2
Ränder Standardrahmen
 10
0.0
 20
0.0
 30
0.0
 41
0.5
 42
0.5
 43
0.5
  0
INSERT
  5
19C
330
70
100
AcDbEntity
  8
0
100
AcDbBlockReference
 66
     1
  2
Schriftfelder perma CI-Pool
 10
-63.75639417920112
 20
-47.92405699116496
 30
0.0
 41
0.5
 42
0.5
 43
0.5
  0
ATTRIB
  5
19F
102
{ACAD_XDICTIONARY
360
6FD
102
}
330
19C
100
AcDbEntity
  8
Titel (ISO)
100
AcDbText
 10
5.425477470416808
 20
10.36059003829722
 30
0.0
 40
1.25
  1
2:1 (1:1)
  7
Textstil54
100
AcDbAttribute
280
     0
  2
Maßstab_001
 70
     0
280
     0
  0
ATTRIB
  5
1A0
102
{ACAD_XDICTIONARY
360
700
102
}
330
19C
100
AcDbEntity
  8
Titel (ISO)
100
AcDbText
 10
14.13395290773763
 20
10.196026599413
 30
0.0
 40
1.25
  1
01.07.2019
  7
Textstil54
100
AcDbAttribute
280
     0
  2
Datum_001
 70
     0
280
     0
  0
ATTRIB
  5
1A1
102
{ACAD_XDICTIONARY
360
703
102
}
330
19C
100
AcDbEntity
  8
Titel (ISO)
100
AcDbText
 10
38.93690313742262
 20
9.747175391612135
 30
0.0
 40
1.25
  1
Support flange FLEX Gen 2.0
  7
Textstil54
100
AcDbAttribute
280
     0
  2
Benennung_Englisch_001
 70
     0
280
     0
  0
ATTRIB
  5
1A2
102
{ACAD_XDICTIONARY
360
706
102
}
330
19C
100
AcDbEntity
  8
Titel (ISO)
100
AcDbText
 10
7.653905177794513
 20
5.809942015446694
 30
0.0
 40
1.25
  1
A4
  7
Textstil54
100
AcDbAttribute
280
     0
  2
Blattgröße_001
 70
     0
280
     0
  0
ATTRIB
  5
1A3
102
{ACAD_XDICTIONARY
360
709
102
}
330
19C
100
AcDbEntity
  8
Titel (ISO)
100
AcDbText
 10
25.38489085881157
 20
10.34907912417838
 30
0.0
 40
1.25
  1
brass / plastic
  7
Textstil54
100
AcDbAttribute
280
     0
  2
Material_001
 70
     0
280
     0
  0
ATTRIB
  5
1A4
102
{ACAD_XDICTIONARY
360
70C
102
}
330
19C
100
AcDbEntity
  8
Titel (ISO)
100
AcDbText
 10
25.50000000000001
 20
5.822503773495535
 30
0.0
 40
1.25
  1

  7
Textstil54
 11
25.50000000000001
 21
7.072503773495535
 31
0.0
100
AcDbAttribute
280
     0
  2
Artikelnummer
 70
     0
 74
     3
280
     0
  0
ATTRIB
  5
1A5
102
{ACAD_XDICTIONARY
360
70F
102
}
330
19C
100
AcDbEntity
  8
Titel (ISO)
100
AcDbText
 10
38.93690313742262
 20
6.174511679829493
 30
0.0
 40
1.25
  1
Stützkonsole FLEX Gen 2.0
  7
Textstil54
100
AcDbAttribute
280
     0
  2
Benennung_Deutsch_001
 70
     0
280
     0
  0
ATTRIB
  5
1A6
102
{ACAD_XDICTIONARY
360
712
102
}
330
19C
100
AcDbEntity
  8
Titel (ISO)
100
AcDbText
 10
16.0773362736654
 20
5.811667431524245
 30
0.0
 40
1.25
  1
D / cst
  7
Textstil54
100
AcDbAttribute
280
     0
  2
Revision/Gezeichnet_001
 70
     0
280
     0
  0
SEQEND
  5
19E
330
19C
100
AcDbEntity
  8
0
  0
INSERT
  5
1C9
330
70
100
AcDbEntity
  8
0
100
AcDbBlockReference
  2
Tabelle1
 10
0.0
 20
0.0
 30
0.0
 41
0.5
 42
0.5
 43
0.5
  0
SPLINE
  5
1CA
330
70
100
AcDbEntity
  8
Sichtbar (ISO)
100
AcDbSpline
210
0.0
220
0.0
230
1.0
 70
     8
 71
     3
 72
    14
 73
    10
 74
     0
 42
0.000000001
 43
0.0000000001
 40
-0.0001663221218629
 40
-0.0001663221218629
 40
-0.0001663221218629
 40
-0.0001663221218629
 40
0.0
 40
0.0
 40
0.0112537209042299
 40
0.0112537209042299
 40
0.0233726725944023
 40
0.0233726725944023
 40
0.037915306767259
 40
0.037915306767259
 40
0.037915306767259
 40
0.037915306767259
 10
22.01817843607758
 20
120.9559341248612
 30
0.0
 10
22.01817055713687
 20
120.9555381198092
 30
0.0
 10
22.01816271407922
 20
120.9551412982345
 30
0.0
 10
22.01762663529703
 20
120.9278383049048
 30
0.0
 10
22.01726847048535
 20
120.8976420128416
 30
0.0
 10
22.01672390132085
 20
120.8294547666226
 30
0.0
 10
22.01655652512638
 20
120.7915530383105
 30
0.0
 10
22.01631618350038
 20
120.7056847287614
 30
0.0
 10
22.01626833720757
 20
120.6572574095077
 30
0.0
 10
22.01626833720757
 20
120.6088810027844
 30
0.0
  0
SPLINE
  5
1CB
330
70
100
AcDbEntity
  8
Sichtbar (ISO)
100
AcDbSpline
210
0.0
220
0.0
230
1.0
 70
     8
 71
     3
 72
    16
 73
    12
 74
     0
 42
0.000000001
 43
0.0000000001
 40
0.0
 40
0.0
 40
0.0
 40
0.0
 40
0.0034573350522503
 40
0.0034573350522503
 40
0.0173165442669503
 40
0.0173165442669503
 40
0.0277812219842014
 40
0.0277812219842014
 40
0.0378187923626262
 40
0.0378187923626262
 40
0.0379848656277444
 40
0.0379848656277444
 40
0.0379848656277444
 40
0.0379848656277444
 10
27.91520892005802
 20
120.6088810027844
 30
0.0
 10
27.91520892005802
 20
120.6204054529586
 30
0.0
 10
27.91494478760041
 20
120.6319307530609
 30
0.0
 10
27.91224193742934
 20
120.6895660153855
 30
0.0
 10
27.90564678964817
 20
120.7354587054035
 30
0.0
 10
27.88504967143665
 20
120.8127871107766
 30
0.0
 10
27.87326242068177
 20
120.8449692616533
 30
0.0
 10
27.84396640447541
 20
120.9040298080168
 30
0.0
 10
27.82689090796667
 20
120.930705193675
 30
0.0
 10
27.8065751106919
 20
120.9551411500063
 30
0.0
 10
27.80624374565165
 20
120.9555380460263
 30
0.0
 10
27.80591167111875
 20
120.9559341248612
 30
0.0
  0
SPLINE
  5
1CC
330
70
100
AcDbEntity
  8
Sichtbar (ISO)
100
AcDbSpline
210
0.0
220
0.0
230
1.0
 70
     8
 71
     3
 72
    14
 73
    10
 74
     0
 42
0.000000001
 43
0.0000000001
 40
-0.000166353099046
 40
-0.000166353099046
 40
-0.000166353099046
 40
-0.000166353099046
 40
0.0
 40
0.0
 40
0.0112493855676219
 40
0.0112493855676219
 40
0.0233699443255032
 40
0.0233699443255032
 40
0.0379151297610765
 40
0.0379151297610765
 40
0.0379151297610765
 40
0.0379151297610765
 10
40.22549652524161
 20
120.9559341248612
 30
0.0
 10
40.22516445073187
 20
120.955538046054
 30
0.0
 10
40.22483308564542
 20
120.9551411499782
 30
0.0
 10
40.20214220224783
 20
120.9278484265766
 30
0.0
 10
40.18344269591574
 20
120.897664973688
 30
0.0
 10
40.15170258262304
 20
120.8294890212268
 30
0.0
 10
40.13944493246066
 20
120.7915830754574
 30
0.0
 10
40.12085739781596
 20
120.7057021409147
 30
0.0
 10
40.11619927630232
 20
120.657266104589
 30
0.0
 10
40.11619927630232
 20
120.6088810027844
 30
0.0
  0
SPLINE
  5
1CD
330
70
100
AcDbEntity
  8
Sichtbar (ISO)
100
AcDbSpline
210
0.0
220
0.0
230
1.0
 70
     8
 71
     3
 72
    16
 73
    12
 74
     0
 42
0.000000001
 43
0.0000000001
 40
0.0
 40
0.0
 40
0.0
 40
0.0
 40
0.003706136760533
 40
0.003706136760533
 40
0.0175172907718565
 40
0.0175172907718565
 40
0.0278709437254786
 40
0.0278709437254786
 40
0.0378176619065127
 40
0.0378176619065127
 40
0.0379837099910758
 40
0.0379837099910758
 40
0.0379837099910758
 40
0.0379837099910758
 10
46.01513985915278
 20
120.6088810027844
 30
0.0
 10
46.01513985915278
 20
120.6212347919862
 30
0.0
 10
46.01513645782064
 20
120.6335896269747
 30
0.0
 10
46.01510309522286
 20
120.6918795692453
 30
0.0
 10
46.01502994375858
 20
120.7375815813654
 30
0.0
 10
46.01474540237917
 20
120.8143100296189
 30
0.0
 10
46.01457250323905
 20
120.8461038099221
 30
0.0
 10
46.01405523922501
 20
120.9045136616461
 30
0.0
 10
46.01372097842435
 20
120.9309238353213
 30
0.0
 10
46.01324548228106
 20
120.9551412982384
 30
0.0
 10
46.01323763922358
 20
120.9555381198053
 30
0.0
 10
46.01322976028278
 20
120.9559341248612
 30
0.0
  0
SPLINE
  5
1CE
330
70
100
AcDbEntity
  8
Sichtbar (ISO)
100
AcDbSpline
210
0.0
220
0.0
230
1.0
 70
     8
 71
     3
 72
    14
 73
    10
 74
     0
 42
0.000000001
 43
0.0000000001
 40
-0.0001662748836798
 40
-0.0001662748836798
 40
-0.0001662748836798
 40
-0.0001662748836798
 40
0.0
 40
0.0
 40
0.011260318817428
 40
0.011260318817428
 40
0.0233768207736637
 40
0.0233768207736637
 40
0.0379155671461006
 40
0.0379155671461006
 40
0.0379155671461006
 40
0.0379155671461006
 10
28.22797086313901
 20
120.9559341248612
 30
0.0
 10
28.22763106806004
 20
120.9555382322811
 30
0.0
 10
28.22729201794788
 20
120.95514152362
 30
0.0
 10
28.20404312459368
 20
120.927822900847
 30
0.0
 10
28.18497083726319
 20
120.8976070634796
 30
0.0
 10
28.15269144577932
 20
120.8294026207088
 30
0.0
 10
28.1402763968838
 20
120.7915073132379
 30
0.0
 10
28.12146523563812
 20
120.7056582231033
 30
0.0
 10
28.11676351532972
 20
120.6572441734137
 30
0.0
 10
28.11676351532972
 20
120.6088810027844
 30
0.0
  0
SPLINE
  5
1CF
330
70
100
AcDbEntity
  8
Sichtbar (ISO)
100
AcDbSpline
210
0.0
220
0.0
230
1.0
 70
     8
 71
     3
 72
    16
 73
    12
 74
     0
 42
0.000000001
 43
0.0000000001
 40
0.0
 40
0.0
 40
0.0
 40
0.0
 40
0.0040533749261629
 40
0.0040533749261629
 40
0.0177975815606455
 40
0.0177975815606455
 40
0.0279965950870927
 40
0.0279965950870927
 40
0.0378161478062866
 40
0.0378161478062866
 40
0.0379821570647994
 40
0.0379821570647994
 40
0.0379821570647994
 40
0.0379821570647994
 10
39.91464468103064
 20
120.6088810027844
 30
0.0
 10
39.91464468103064
 20
120.6223922525383
 30
0.0
 10
39.91427755814092
 20
120.6359048680606
 30
0.0
 10
39.91097159731152
 20
120.6951066500947
 30
0.0
 10
39.90398136248418
 20
120.7405418306597
 30
0.0
 10
39.88279860427565
 20
120.8164337883517
 30
0.0
 10
39.87093453766528
 20
120.8476874213859
 30
0.0
 10
39.84156543005833
 20
120.9051902573772
 30
0.0
 10
39.82446561332569
 20
120.9312299108147
 30
0.0
 10
39.80411617841308
 20
120.9551415236193
 30
0.0
 10
39.80377712829973
 20
120.9555382322818
 30
0.0
 10
39.80343733322136
 20
120.9559341248613
 30
0.0
  0
LINE
  5
1D0
330
70
100
AcDbEntity
  8
Sichtbar (ISO)
100
AcDbLine
 10
26.289676409822
 20
120.455934124863
 30
0.0
 11
22.77577544365904
 21
120.455934124863
 31
0.0
  0
LINE
  5
1D1
330
70
100
AcDbEntity
  8
Sichtbar (ISO)
100
AcDbLine
 10
45.25563275270119
 20
120.455934124863
 30
0.0
 11
41.7417317865379
 21
120.455934124863
 31
0.0
  0
LINE
  5
1D2
330
70
100
AcDbEntity
  8
Sichtbar (ISO)
100
AcDbLine
 10
37.52960506434302
 20
120.455934124863
 30
0.0
 11
30.50180313201675
 21
120.455934124863
 31
0.0
  0
LINE
  5
1D3
330
70
100
AcDbEntity
  8
Sichtbar (ISO)
100
AcDbLine
 10
22.01626833720757
 20
104.455934124863
 30
0.0
 11
22.016268337208
 21
120.6088810027822
 31
0.0
  0
LINE
  5
1D4
330
70
100
AcDbEntity
  8
Sichtbar (ISO)
100
AcDbLine
 10
27.91520892005803
 20
104.455934124863
 30
0.0
 11
22.01626833720757
 21
104.455934124863
 31
0.0
  0
LINE
  5
1D5
330
70
100
AcDbEntity
  8
Sichtbar (ISO)
100
AcDbLine
 10
27.91520892005785
 20
120.6088810027835
 30
0.0
 11
27.91520892005803
 21
104.455934124863
 31
0.0
  0
LINE
  5
1D6
330
70
100
AcDbEntity
  8
Sichtbar (ISO)
100
AcDbLine
 10
40.11619927630232
 20
104.455934124863
 30
0.0
 11
40.11619927630275
 21
120.6088810027822
 31
0.0
  0
LINE
  5
1D7
330
70
100
AcDbEntity
  8
Sichtbar (ISO)
100
AcDbLine
 10
46.01513985915278
 20
104.455934124863
 30
0.0
 11
40.11619927630232
 21
104.455934124863
 31
0.0
  0
LINE
  5
1D8
330
70
100
AcDbEntity
  8
Sichtbar (ISO)
100
AcDbLine
 10
46.01513985915261
 20
120.6088810027835
 30
0.0
 11
46.01513985915278
 21
104.455934124863
 31
0.0
  0
LINE
  5
1D9
330
70
100
AcDbEntity
  8
Sichtbar (ISO)
100
AcDbLine
 10
28.11676351532972
 20
104.455934124863
 30
0.0
 11
28.11676351533053
 21
120.6088810027823
 31
0.0
  0
LINE
  5
1DA
330
70
100
AcDbEntity
  8
Sichtbar (ISO)
100
AcDbLine
 10
39.91464468103064
 20
104.455934124863
 30
0.0
 11
28.11676351532972
 21
104.455934124863
 31
0.0
  0
LINE
  5
1DB
330
70
100
AcDbEntity
  8
Sichtbar (ISO)
100
AcDbLine
 10
39.91464468103031
 20
120.6088810027835
 30
0.0
 11
39.91464468103064
 21
104.455934124863
 31
0.0
  0
LINE
  5
1DC
330
70
100
AcDbEntity
  8
Sichtbar (ISO)
100
AcDbLine
 10
28.11676351532967
 20
104.455934124863
 30
0.0
 11
27.91520892005804
 21
104.455934124863
 31
0.0
  0
LINE
  5
1DD
330
70
100
AcDbEntity
  8
Sichtbar (ISO)
100
AcDbLine
 10
40.11619927630224
 20
104.455934124863
 30
0.0
 11
39.91464468103064
 21
104.455934124863
 31
0.0
  0
LINE
  5
1DE
330
70
100
AcDbEntity
  8
Sichtbar (ISO)
100
AcDbLine
 10
46.01570409818018
 20
104.455934124863
 30
0.0
 11
46.01513985915278
 21
104.455934124863
 31
0.0
  0
LINE
  5
1DF
330
70
100
AcDbEntity
  8
Sichtbar (ISO)
100
AcDbLine
 10
22.01626833720757
 20
104.455934124863
 30
0.0
 11
22.01570409818018
 21
104.455934124863
 31
0.0
  0
LINE
  5
1E0
330
70
100
AcDbEntity
  8
Sichtbar (ISO)
100
AcDbLine
 10
22.01570409818018
 20
104.455934124863
 30
0.0
 11
22.01570409818018
 21
121.800382849399
 31
0.0
  0
LINE
  5
1E1
330
70
100
AcDbEntity
  8
Sichtbar (ISO)
100
AcDbLine
 10
46.01570409818018
 20
104.455934124863
 30
0.0
 11
46.01570409818018
 21
121.800382849399
 31
0.0
  0
LINE
  5
1E2
330
70
100
AcDbEntity
  8
Sichtbar (ISO)
100
AcDbLine
 10
21.01570409818018
 20
125.405934124863
 30
0.0
 11
21.01570409818018
 21
127.6919192533271
 31
0.0
  0
LINE
  5
1E3
330
70
100
AcDbEntity
  8
Sichtbar (ISO)
100
AcDbLine
 10
47.01570409818017
 20
125.405934124863
 30
0.0
 11
47.01570409818017
 21
127.6919192533271
 31
0.0
  0
LINE
  5
1E4
330
70
100
AcDbEntity
  8
Sichtbar (ISO)
100
AcDbLine
 10
19.99535473889183
 20
129.4355604498332
 30
0.0
 11
14.38316434381801
 21
132.5887240292133
 31
0.0
  0
LINE
  5
1E5
330
70
100
AcDbEntity
  8
Sichtbar (ISO)
100
AcDbLine
 10
48.03605345746852
 20
129.4355604498332
 30
0.0
 11
53.64824385254236
 21
132.5887240292133
 31
0.0
  0
ARC
  5
1E6
330
70
100
AcDbEntity
  8
Sichtbar (ISO)
100
AcDbCircle
 10
42.01570409818017
 20
125.405934124863
 30
0.0
 40
5.0
100
AcDbArc
 50
328.997280866126
 51
0.0
  0
ARC
  5
1E7
330
70
100
AcDbEntity
  8
Sichtbar (ISO)
100
AcDbCircle
 10
26.01570409818018
 20
125.405934124863
 30
0.0
 40
5.0
100
AcDbArc
 50
180.0
 51
211.002719133874
  0
ARC
  5
1E8
330
70
100
AcDbEntity
  8
Sichtbar (ISO)
100
AcDbCircle
 10
53.5012962564356
 20
132.8502702086892
 30
0.0
 40
0.3
100
AcDbArc
 50
299.3291010366412
 51
0.0
  0
ARC
  5
1E9
330
70
100
AcDbEntity
  8
Sichtbar (ISO)
100
AcDbCircle
 10
14.53011193992476
 20
132.8502702086892
 30
0.0
 40
0.3
100
AcDbArc
 50
180.0
 51
240.6708989633573
  0
LINE
  5
1EA
330
70
100
AcDbEntity
  8
Sichtbar (ISO)
100
AcDbLine
 10
14.23011193992476
 20
132.8502702086892
 30
0.0
 11
14.23011193992476
 21
133.505934124863
 31
0.0
  0
LINE
  5
1EB
330
70
100
AcDbEntity
  8
Sichtbar (ISO)
100
AcDbLine
 10
53.80129625643561
 20
132.8502702086892
 30
0.0
 11
53.80129625643561
 21
133.505934124863
 31
0.0
  0
ARC
  5
1EC
330
70
100
AcDbEntity
  8
Sichtbar (ISO)
100
AcDbCircle
 10
53.5012962564356
 20
133.505934124863
 30
0.0
 40
0.2999999999999999
100
AcDbArc
 50
0.0
 51
90.0
  0
ARC
  5
1ED
330
70
100
AcDbEntity
  8
Sichtbar (ISO)
100
AcDbCircle
 10
14.53011193992476
 20
133.505934124863
 30
0.0
 40
0.2999999999999999
100
AcDbArc
 50
90.0
 51
180.0
  0
LINE
  5
1EE
330
70
100
AcDbEntity
  8
Sichtbar (ISO)
100
AcDbLine
 10
53.5012962564356
 20
133.805934124863
 30
0.0
 11
14.53011193992476
 21
133.805934124863
 31
0.0
  0
ARC
  5
1EF
330
70
100
AcDbEntity
  8
Sichtbar (ISO)
100
AcDbCircle
 10
48.01570409818019
 20
121.800382849399
 30
0.0
 40
2.0
100
AcDbArc
 50
148.9972808661263
 51
180.0
  0
ARC
  5
1F0
330
70
100
AcDbEntity
  8
Sichtbar (ISO)
100
AcDbCircle
 10
20.01570409818018
 20
121.800382849399
 30
0.0
 40
2.0
100
AcDbArc
 50
0.0
 51
31.00271913387365
  0
ARC
  5
1F1
330
70
100
AcDbEntity
  8
Sichtbar (ISO)
100
AcDbCircle
 10
49.01570409818018
 20
127.6919192533271
 30
0.0
 40
2.0
100
AcDbArc
 50
119.3291010366422
 51
180.0
  0
ARC
  5
1F2
330
70
100
AcDbEntity
  8
Sichtbar (ISO)
100
AcDbCircle
 10
19.01570409818018
 20
127.6919192533271
 30
0.0
 40
2.0
100
AcDbArc
 50
0.0
 51
60.67089896335768
  0
LINE
  5
1F3
330
70
100
AcDbEntity
  8
Sichtbar (ISO)
100
AcDbLine
 10
27.43720409818018
 20
95.45593412486304
 30
0.0
 11
40.59420409818018
 21
95.45593412486304
 31
0.0
  0
LINE
  5
1F4
330
70
100
AcDbEntity
  8
Sichtbar (ISO)
100
AcDbLine
 10
39.59420409818019
 20
94.45593412486305
 30
0.0
 11
28.43720409818019
 21
94.45593412486305
 31
0.0
  0
LINE
  5
1F5
330
70
100
AcDbEntity
  8
Sichtbar (ISO)
100
AcDbLine
 10
28.43720409818019
 20
94.45593412486305
 30
0.0
 11
27.43720409818021
 21
95.45593412486304
 31
0.0
  0
LINE
  5
1F6
330
70
100
AcDbEntity
  8
Sichtbar (ISO)
100
AcDbLine
 10
39.59420409818019
 20
94.45593412486305
 30
0.0
 11
40.59420409818017
 21
95.45593412486304
 31
0.0
  0
LINE
  5
1F7
330
70
100
AcDbEntity
  8
Sichtbar (ISO)
100
AcDbLine
 10
27.43720409818018
 20
95.45593412486306
 30
0.0
 11
27.43720409818018
 21
104.455934124863
 31
0.0
  0
LINE
  5
1F8
330
70
100
AcDbEntity
  8
Sichtbar (ISO)
100
AcDbLine
 10
40.59420409818018
 20
95.45593412486306
 30
0.0
 11
40.59420409818018
 21
104.455934124863
 31
0.0
  0
SPLINE
  5
1F9
330
70
100
AcDbEntity
  8
Sichtbar (ISO)
100
AcDbSpline
210
0.0
220
0.0
230
1.0
 70
     8
 71
     3
 72
    14
 73
    10
 74
     0
 42
0.000000001
 43
0.0000000001
 40
-0.0001663221218629
 40
-0.0001663221218629
 40
-0.0001663221218629
 40
-0.0001663221218629
 40
0.0
 40
0.0
 40
0.0112537209042299
 40
0.0112537209042299
 40
0.0233726725944023
 40
0.0233726725944023
 40
0.037915306767259
 40
0.037915306767259
 40
0.037915306767259
 40
0.037915306767259
 10
78.96572433360349
 20
120.9559341248612
 30
0.0
 10
78.9653364094827
 20
120.9555381198092
 30
0.0
 10
78.96494932536883
 20
120.9551412982345
 30
0.0
 10
78.9384287445875
 20
120.9278383049048
 30
0.0
 10
78.91662298746783
 20
120.8976420128416
 30
0.0
 10
78.87966060856173
 20
120.8294547666226
 30
0.0
 10
78.86541458217807
 20
120.7915530383105
 30
0.0
 10
78.84382037073985
 20
120.7056847287614
 30
0.0
 10
78.83841594531316
 20
120.6572574095077
 30
0.0
 10
78.83841594531316
 20
120.6088810027844
 30
0.0
  0
SPLINE
  5
1FA
330
70
100
AcDbEntity
  8
Sichtbar (ISO)
100
AcDbSpline
210
0.0
220
0.0
230
1.0
 70
     8
 71
     3
 72
    16
 73
    12
 74
     0
 42
0.000000001
 43
0.0000000001
 40
0.0
 40
0.0
 40
0.0
 40
0.0
 40
0.0034573350522503
 40
0.0034573350522503
 40
0.0173165442669503
 40
0.0173165442669503
 40
0.0277812219842014
 40
0.0277812219842014
 40
0.0378187923626262
 40
0.0378187923626262
 40
0.0379848656277444
 40
0.0379848656277444
 40
0.0379848656277444
 40
0.0379848656277444
 10
89.05568074564186
 20
120.6088810027844
 30
0.0
 10
89.05568074564186
 20
120.6204054529586
 30
0.0
 10
89.05552482859432
 20
120.6319307530609
 30
0.0
 10
89.05392890824296
 20
120.6895660153855
 30
0.0
 10
89.0500387535677
 20
120.7354587054035
 30
0.0
 10
89.03782182344228
 20
120.8127871107766
 30
0.0
 10
89.03081712478664
 20
120.8449692616533
 30
0.0
 10
89.0133035205109
 20
120.9040298080168
 30
0.0
 10
89.00305689091863
 20
120.930705193675
 30
0.0
 10
88.99077355195046
 20
120.9551411500063
 30
0.0
 10
88.99057318018462
 20
120.9555380460263
 30
0.0
 10
88.99037235735148
 20
120.9559341248612
 30
0.0
  0
SPLINE
  5
1FB
330
70
100
AcDbEntity
  8
Sichtbar (ISO)
100
AcDbSpline
210
0.0
220
0.0
230
1.0
 70
     8
 71
     3
 72
    14
 73
    10
 74
     0
 42
0.000000001
 43
0.0000000001
 40
-0.0001663532414515
 40
-0.0001663532414515
 40
-0.0001663532414515
 40
-0.0001663532414515
 40
0.0
 40
0.0
 40
0.0112493878412564
 40
0.0112493878412564
 40
0.0233699515973518
 40
0.0233699515973518
 40
0.0379151430309922
 40
0.0379151430309922
 40
0.0379151430309922
 40
0.0379151430309922
 10
68.45372433360522
 20
120.9559341248612
 30
0.0
 10
68.45352351061419
 20
120.9555380457149
 30
0.0
 10
68.45332313916317
 20
120.955141150322
 30
0.0
 10
68.43960377254759
 20
120.927848421112
 30
0.0
 10
68.4283941204749
 20
120.8976649667878
 30
0.0
 10
68.40944003233921
 20
120.8294890212268
 30
0.0
 10
68.40216973107489
 20
120.7915830754574
 30
0.0
 10
68.39116057894665
 20
120.7057021409147
 30
0.0
 10
68.38841594531491
 20
120.657266104589
 30
0.0
 10
68.38841594531491
 20
120.6088810027844
 30
0.0
  0
SPLINE
  5
1FC
330
70
100
AcDbEntity
  8
Sichtbar (ISO)
100
AcDbSpline
210
0.0
220
0.0
230
1.0
 70
     8
 71
     3
 72
    16
 73
    12
 74
     0
 42
0.000000001
 43
0.0000000001
 40
0.0
 40
0.0
 40
0.0
 40
0.0
 40
0.0037061367605012
 40
0.0037061367605012
 40
0.0175172907717067
 40
0.0175172907717067
 40
0.0278709437251715
 40
0.0278709437251715
 40
0.0378176612396886
 40
0.0378176612396886
 40
0.0379837093477916
 40
0.0379837093477916
 40
0.0379837093477916
 40
0.0379837093477916
 10
78.6056807456401
 20
120.6088810027844
 30
0.0
 10
78.6056807456401
 20
120.6212347919861
 30
0.0
 10
78.60532831039925
 20
120.6335896269747
 30
0.0
 10
78.6019195246495
 20
120.6918795692454
 30
0.0
 10
78.59410736134655
 20
120.7375815813655
 30
0.0
 10
78.57001427786379
 20
120.8143100296186
 30
0.0
 10
78.5563489842772
 20
120.846103809922
 30
0.0
 10
78.52243343429915
 20
120.904513659729
 30
0.0
 10
78.50267083843913
 20
120.9309238337598
 30
0.0
 10
78.47914736547497
 20
120.9551412983485
 30
0.0
 10
78.47876028158066
 20
120.9555381196968
 30
0.0
 10
78.47837235734977
 20
120.9559341248612
 30
0.0
  0
ARC
  5
1FD
330
70
100
AcDbEntity
  8
Sichtbar (ISO)
100
AcDbCircle
 10
67.77204834547912
 20
119.955934124863
 30
0.0
 40
0.5000000000000249
100
AcDbArc
 50
0.0
 51
89.99999999999694
  0
SPLINE
  5
1FE
330
70
100
AcDbEntity
  8
Sichtbar (ISO)
100
AcDbSpline
210
0.0
220
0.0
230
1.0
 70
     8
 71
     3
 72
    16
 73
    12
 74
     0
 42
0.000000001
 43
0.0000000001
 40
0.0
 40
0.0
 40
0.0
 40
0.0
 40
0.0040533749261736
 40
0.0040533749261736
 40
0.0177975815607215
 40
0.0177975815607215
 40
0.027996595087127
 40
0.027996595087127
 40
0.0378161478052171
 40
0.0378161478052171
 40
0.0379821570639316
 40
0.0379821570639316
 40
0.0379821570639316
 40
0.0379821570639316
 10
68.27204834547844
 20
120.6088810027844
 30
0.0
 10
68.27204834547844
 20
120.6223922525383
 30
0.0
 10
68.27184108031378
 20
120.6359048680606
 30
0.0
 10
68.26997535933917
 20
120.6951066500947
 30
0.0
 10
68.26602685780627
 20
120.7405418306597
 30
0.0
 10
68.2541302547651
 20
120.8164337883514
 30
0.0
 10
68.24748057964768
 20
120.8476874213858
 30
0.0
 10
68.23111837252255
 20
120.9051902573743
 30
0.0
 10
68.22162875611098
 20
120.9312299108122
 30
0.0
 10
68.21042212787621
 20
120.9551415236199
 30
0.0
 10
68.21023543102556
 20
120.9555382322812
 30
0.0
 10
68.21004834547847
 20
120.9559341248613
 30
0.0
  0
SPLINE
  5
1FF
330
70
100
AcDbEntity
  8
Sichtbar (ISO)
100
AcDbSpline
210
0.0
220
0.0
230
1.0
 70
     8
 71
     3
 72
    14
 73
    10
 74
     0
 42
0.000000001
 43
0.0000000001
 40
-0.0001662748836798
 40
-0.0001662748836798
 40
-0.0001662748836798
 40
-0.0001662748836798
 40
0.0
 40
0.0
 40
0.011260318817428
 40
0.011260318817428
 40
0.0233768207736637
 40
0.0233768207736637
 40
0.0379155671461006
 40
0.0379155671461006
 40
0.0379155671461006
 40
0.0379155671461006
 10
89.23404834547847
 20
120.9559341248612
 30
0.0
 10
89.23386125993131
 20
120.9555382322811
 30
0.0
 10
89.23367456308078
 20
120.95514152362
 30
0.0
 10
89.22087117538096
 20
120.927822900847
 30
0.0
 10
89.21027348795773
 20
120.8976070634796
 30
0.0
 10
89.19226561524579
 20
120.8294026207088
 30
0.0
 10
89.18529093980223
 20
120.7915073132379
 30
0.0
 10
89.17470766388943
 20
120.7056582231033
 30
0.0
 10
89.17204834547844
 20
120.6572441734137
 30
0.0
 10
89.17204834547844
 20
120.6088810027844
 30
0.0
  0
ARC
  5
200
330
70
100
AcDbEntity
  8
Sichtbar (ISO)
100
AcDbCircle
 10
89.67204834547915
 20
119.955934124863
 30
0.0
 40
0.5000000000000182
100
AcDbArc
 50
90.00000000001831
 51
180.0
  0
LINE
  5
201
330
70
100
AcDbEntity
  8
Sichtbar (ISO)
100
AcDbLine
 10
87.2401758485576
 20
120.455934124863
 30
0.0
 11
81.15392084239658
 21
120.455934124863
 31
0.0
  0
LINE
  5
202
330
70
100
AcDbEntity
  8
Sichtbar (ISO)
100
AcDbLine
 10
76.29017584855652
 20
120.455934124863
 30
0.0
 11
70.20392084239782
 21
120.455934124863
 31
0.0
  0
LINE
  5
203
330
70
100
AcDbEntity
  8
Sichtbar (ISO)
100
AcDbLine
 10
67.77204834547915
 20
120.455934124863
 30
0.0
 11
67.22204834548019
 21
120.455934124863
 31
0.0
  0
LINE
  5
204
330
70
100
AcDbEntity
  8
Sichtbar (ISO)
100
AcDbLine
 10
90.22204834548018
 20
120.455934124863
 30
0.0
 11
89.67204834547894
 21
120.455934124863
 31
0.0
  0
ARC
  5
205
330
70
100
AcDbEntity
  8
Sichtbar (ISO)
100
AcDbCircle
 10
67.22204834548019
 20
120.955934124863
 30
0.0
 40
0.5
100
AcDbArc
 50
180.0
 51
270.0
  0
ARC
  5
206
330
70
100
AcDbEntity
  8
Sichtbar (ISO)
100
AcDbCircle
 10
90.22204834548018
 20
120.955934124863
 30
0.0
 40
0.5
100
AcDbArc
 50
270.0
 51
0.0
  0
LINE
  5
207
330
70
100
AcDbEntity
  8
Sichtbar (ISO)
100
AcDbLine
 10
78.83841594531316
 20
104.455934124863
 30
0.0
 11
78.83841594531388
 21
120.6088810027822
 31
0.0
  0
LINE
  5
208
330
70
100
AcDbEntity
  8
Sichtbar (ISO)
100
AcDbLine
 10
89.05568074564186
 20
104.455934124863
 30
0.0
 11
78.83841594531316
 21
104.455934124863
 31
0.0
  0
LINE
  5
209
330
70
100
AcDbEntity
  8
Sichtbar (ISO)
100
AcDbLine
 10
89.05568074564156
 20
120.6088810027835
 30
0.0
 11
89.05568074564186
 21
104.455934124863
 31
0.0
  0
LINE
  5
20A
330
70
100
AcDbEntity
  8
Sichtbar (ISO)
100
AcDbLine
 10
68.38841594531491
 20
104.455934124863
 30
0.0
 11
68.38841594531564
 21
120.6088810027822
 31
0.0
  0
LINE
  5
20B
330
70
100
AcDbEntity
  8
Sichtbar (ISO)
100
AcDbLine
 10
78.60568074564011
 20
104.455934124863
 30
0.0
 11
68.38841594531491
 21
104.455934124863
 31
0.0
  0
LINE
  5
20C
330
70
100
AcDbEntity
  8
Sichtbar (ISO)
100
AcDbLine
 10
78.6056807456398
 20
120.6088810027835
 30
0.0
 11
78.60568074564011
 21
104.455934124863
 31
0.0
  0
LINE
  5
20D
330
70
100
AcDbEntity
  8
Sichtbar (ISO)
100
AcDbLine
 10
68.27204834547844
 20
120.6088810027835
 30
0.0
 11
68.27204834547844
 21
104.455934124863
 31
0.0
  0
LINE
  5
20E
330
70
100
AcDbEntity
  8
Sichtbar (ISO)
100
AcDbLine
 10
89.17204834547844
 20
104.455934124863
 30
0.0
 11
89.17204834547844
 21
120.6088810027823
 31
0.0
  0
LINE
  5
20F
330
70
100
AcDbEntity
  8
Sichtbar (ISO)
100
AcDbLine
 10
89.1720483454784
 20
104.455934124863
 30
0.0
 11
89.05568074564186
 21
104.455934124863
 31
0.0
  0
LINE
  5
210
330
70
100
AcDbEntity
  8
Sichtbar (ISO)
100
AcDbLine
 10
68.38841594531491
 20
104.455934124863
 30
0.0
 11
68.27204834547844
 21
104.455934124863
 31
0.0
  0
LINE
  5
211
330
70
100
AcDbEntity
  8
Sichtbar (ISO)
100
AcDbLine
 10
78.83841594531311
 20
104.455934124863
 30
0.0
 11
78.6056807456401
 21
104.455934124863
 31
0.0
  0
LINE
  5
212
330
70
100
AcDbEntity
  8
Sichtbar (ISO)
100
AcDbLine
 10
66.72204834548018
 20
120.955934124863
 30
0.0
 11
66.72204834548018
 21
121.800382849399
 31
0.0
  0
LINE
  5
213
330
70
100
AcDbEntity
  8
Sichtbar (ISO)
100
AcDbLine
 10
90.72204834548019
 20
120.955934124863
 30
0.0
 11
90.72204834548019
 21
121.800382849399
 31
0.0
  0
LINE
  5
214
330
70
100
AcDbEntity
  8
Sichtbar (ISO)
100
AcDbLine
 10
65.72204834548019
 20
125.405934124863
 30
0.0
 11
65.72204834548019
 21
127.6919192533271
 31
0.0
  0
LINE
  5
215
330
70
100
AcDbEntity
  8
Sichtbar (ISO)
100
AcDbLine
 10
91.72204834548018
 20
125.405934124863
 30
0.0
 11
91.72204834548018
 21
127.6919192533271
 31
0.0
  0
LINE
  5
216
330
70
100
AcDbEntity
  8
Sichtbar (ISO)
100
AcDbLine
 10
64.70169898619184
 20
129.4355604498332
 30
0.0
 11
59.08950859111802
 21
132.5887240292133
 31
0.0
  0
LINE
  5
217
330
70
100
AcDbEntity
  8
Sichtbar (ISO)
100
AcDbLine
 10
92.74239770476853
 20
129.4355604498332
 30
0.0
 11
98.35458809984235
 21
132.5887240292133
 31
0.0
  0
ARC
  5
218
330
70
100
AcDbEntity
  8
Sichtbar (ISO)
100
AcDbCircle
 10
86.72204834548018
 20
125.405934124863
 30
0.0
 40
5.0
100
AcDbArc
 50
328.997280866126
 51
0.0
  0
ARC
  5
219
330
70
100
AcDbEntity
  8
Sichtbar (ISO)
100
AcDbCircle
 10
70.72204834548019
 20
125.405934124863
 30
0.0
 40
5.0
100
AcDbArc
 50
180.0
 51
211.002719133874
  0
ARC
  5
21A
330
70
100
AcDbEntity
  8
Sichtbar (ISO)
100
AcDbCircle
 10
98.20764050373561
 20
132.8502702086892
 30
0.0
 40
0.3
100
AcDbArc
 50
299.3291010366427
 51
0.0
  0
ARC
  5
21B
330
70
100
AcDbEntity
  8
Sichtbar (ISO)
100
AcDbCircle
 10
59.23645618722476
 20
132.8502702086892
 30
0.0
 40
0.3
100
AcDbArc
 50
180.0
 51
240.6708989633573
  0
LINE
  5
21C
330
70
100
AcDbEntity
  8
Sichtbar (ISO)
100
AcDbLine
 10
58.93645618722477
 20
132.8502702086892
 30
0.0
 11
58.93645618722477
 21
133.505934124863
 31
0.0
  0
LINE
  5
21D
330
70
100
AcDbEntity
  8
Sichtbar (ISO)
100
AcDbLine
 10
98.50764050373562
 20
132.8502702086892
 30
0.0
 11
98.50764050373562
 21
133.505934124863
 31
0.0
  0
ARC
  5
21E
330
70
100
AcDbEntity
  8
Sichtbar (ISO)
100
AcDbCircle
 10
98.20764050373561
 20
133.505934124863
 30
0.0
 40
0.2999999999999999
100
AcDbArc
 50
0.0
 51
90.0
  0
ARC
  5
21F
330
70
100
AcDbEntity
  8
Sichtbar (ISO)
100
AcDbCircle
 10
59.23645618722476
 20
133.505934124863
 30
0.0
 40
0.2999999999999999
100
AcDbArc
 50
90.0
 51
180.0
  0
LINE
  5
220
330
70
100
AcDbEntity
  8
Sichtbar (ISO)
100
AcDbLine
 10
98.20764050373561
 20
133.805934124863
 30
0.0
 11
59.23645618722476
 21
133.805934124863
 31
0.0
  0
ARC
  5
221
330
70
100
AcDbEntity
  8
Sichtbar (ISO)
100
AcDbCircle
 10
92.72204834548018
 20
121.800382849399
 30
0.0
 40
2.0
100
AcDbArc
 50
148.9972808661264
 51
180.0
  0
ARC
  5
222
330
70
100
AcDbEntity
  8
Sichtbar (ISO)
100
AcDbCircle
 10
64.72204834548019
 20
121.800382849399
 30
0.0
 40
2.0
100
AcDbArc
 50
0.0
 51
31.0027191338737
  0
ARC
  5
223
330
70
100
AcDbEntity
  8
Sichtbar (ISO)
100
AcDbCircle
 10
93.72204834548018
 20
127.6919192533271
 30
0.0
 40
2.0
100
AcDbArc
 50
119.3291010366425
 51
180.0
  0
ARC
  5
224
330
70
100
AcDbEntity
  8
Sichtbar (ISO)
100
AcDbCircle
 10
63.72204834548019
 20
127.6919192533271
 30
0.0
 40
2.0
100
AcDbArc
 50
0.0
 51
60.67089896335772
  0
LINE
  5
225
330
70
100
AcDbEntity
  8
Sichtbar (ISO)
100
AcDbLine
 10
72.14354834548021
 20
95.45593412486304
 30
0.0
 11
85.30054834548023
 21
95.45593412486304
 31
0.0
  0
LINE
  5
226
330
70
100
AcDbEntity
  8
Sichtbar (ISO)
100
AcDbLine
 10
84.3005483454802
 20
94.45593412486305
 30
0.0
 11
73.14354834548021
 21
94.45593412486305
 31
0.0
  0
LINE
  5
227
330
70
100
AcDbEntity
  8
Sichtbar (ISO)
100
AcDbLine
 10
73.14354834548021
 20
94.45593412486305
 30
0.0
 11
72.14354834548021
 21
95.45593412486304
 31
0.0
  0
LINE
  5
228
330
70
100
AcDbEntity
  8
Sichtbar (ISO)
100
AcDbLine
 10
84.3005483454802
 20
94.45593412486305
 30
0.0
 11
85.30054834548019
 21
95.45593412486304
 31
0.0
  0
LINE
  5
229
330
70
100
AcDbEntity
  8
Sichtbar (ISO)
100
AcDbLine
 10
72.14354834548021
 20
95.45593412486306
 30
0.0
 11
72.14354834548021
 21
104.455934124863
 31
0.0
  0
LINE
  5
22A
330
70
100
AcDbEntity
  8
Sichtbar (ISO)
100
AcDbLine
 10
85.30054834548023
 20
95.45593412486304
 30
0.0
 11
85.30054834548023
 21
104.455934124863
 31
0.0
  0
CIRCLE
  5
22B
330
70
100
AcDbEntity
  8
Sichtbar (ISO)
100
AcDbCircle
 10
34.01570409818018
 20
58.59719558834439
 30
0.0
 40
7.5
  0
CIRCLE
  5
22C
330
70
100
AcDbEntity
  8
Sichtbar (ISO)
100
AcDbCircle
 10
34.01570409818018
 20
58.59719558834587
 30
0.0
 40
11.0
  0
CIRCLE
  5
22D
330
70
100
AcDbEntity
  8
Sichtbar (ISO)
100
AcDbCircle
 10
34.01570409818018
 20
58.59719558834744
 30
0.0
 40
19.78559215825542
  0
CIRCLE
  5
22E
330
70
100
AcDbEntity
  8
Sichtbar (ISO)
100
AcDbCircle
 10
34.01570409818018
 20
58.59719558834328
 30
0.0
 40
5.722500000000001
  0
CIRCLE
  5
22F
330
70
100
AcDbEntity
  8
Sichtbar (ISO)
100
AcDbCircle
 10
34.01570409818018
 20
58.59719558834357
 30
0.0
 40
6.722500000000001
  0
CIRCLE
  5
230
330
70
100
AcDbEntity
  8
Sichtbar (ISO)
100
AcDbCircle
 10
34.01570409818018
 20
58.59719558834022
 30
0.0
 40
2.8
  0
CIRCLE
  5
231
330
70
100
AcDbEntity
  8
Sichtbar (ISO)
100
AcDbCircle
 10
34.01570409818017
 20
58.59719558834171
 30
0.0
 40
3.499999999999995
  0
ELLIPSE
  5
232
330
70
100
AcDbEntity
  8
Sichtbar (ISO)
100
AcDbEllipse
 10
82.6713680320128
 20
50.18642148093407
 30
0.0
 11
-3.75
 21
-0.0000000000002251
 31
0.0
210
0.0
220
0.0
230
1.0
 40
0.5773502691896257
 41
3.693604405907031
 42
5.731173554861618
  0
ELLIPSE
  5
233
330
70
100
AcDbEntity
  8
Sichtbar (ISO)
100
AcDbEllipse
 10
82.67136803200502
 20
43.65444883351103
 30
0.0
 11
-5.999999999991935
 21
-0.0000000000000031
 31
0.0
210
0.0
220
0.0
230
1.0
 40
0.5773502691896255
 41
0.2521019358211383
 42
0.2714968397771344
  0
ELLIPSE
  5
234
330
70
100
AcDbEntity
  8
Sichtbar (ISO)
100
AcDbEllipse
 10
82.67136803201415
 20
43.65444883351515
 30
0.0
 11
6.000000000005174
 21
0.0000000000000014
 31
0.0
210
0.0
220
0.0
230
1.0
 40
0.5773502691896255
 41
4.440892140607559
 42
4.460287044563509
  0
ELLIPSE
  5
235
330
70
100
AcDbEntity
  8
Sichtbar (ISO)
100
AcDbEllipse
 10
82.67136803201678
 20
43.65444883350996
 30
0.0
 11
5.999999999994376
 21
0.0000000000000025
 31
0.0
210
0.0
220
0.0
230
1.0
 40
0.5773502691896258
 41
5.488089691804137
 42
5.507484595760135
  0
SPLINE
  5
236
330
70
100
AcDbEntity
  8
Sichtbar (ISO)
100
AcDbSpline
210
0.0
220
0.0
230
1.0
 70
     8
 71
     3
 72
    12
 73
     8
 74
     0
 42
0.000000001
 43
0.0000000001
 40
0.3465265407899865
 40
0.3465265407899865
 40
0.3465265407899865
 40
0.3465265407899865
 40
0.434300865311479
 40
0.434300865311479
 40
0.5220751898329715
 40
0.5220751898329715
 40
0.5565700104133638
 40
0.5565700104133638
 40
0.5565700104133638
 40
0.5565700104133638
 10
88.23207709298433
 20
49.6488436011035
 30
0.0
 10
88.3405244914808
 20
49.78223039707078
 30
0.0
 10
88.44324358192727
 20
49.92378153157815
 30
0.0
 10
88.63351309902492
 20
50.22370073462241
 30
0.0
 10
88.72105076125619
 20
50.38209499935689
 30
0.0
 10
88.82924039552397
 20
50.61379860350645
 30
0.0
 10
88.85823522400452
 20
50.68038348203801
 30
0.0
 10
88.88555685334734
 20
50.74811055238743
 30
0.0
  0
SPLINE
  5
237
330
70
100
AcDbEntity
  8
Sichtbar (ISO)
100
AcDbSpline
210
0.0
220
0.0
230
1.0
 70
     8
 71
     3
 72
    12
 73
     8
 74
     0
 42
0.000000001
 43
0.0000000001
 40
4.155818969971327
 40
4.155818969971327
 40
4.155818969971327
 40
4.155818969971327
 40
4.190313790551718
 40
4.190313790551718
 40
4.278088115073209
 40
4.278088115073209
 40
4.365862439594703
 40
4.365862439594703
 40
4.365862439594703
 40
4.365862439594703
 10
76.45717921067824
 20
50.74811055238746
 30
0.0
 10
76.48450084002107
 20
50.68038348203803
 30
0.0
 10
76.51349566850162
 20
50.61379860350645
 30
0.0
 10
76.6216853027694
 20
50.38209499935689
 30
0.0
 10
76.70922296500066
 20
50.22370073462241
 30
0.0
 10
76.89949248209832
 20
49.92378153157815
 30
0.0
 10
77.00221157254479
 20
49.78223039707078
 30
0.0
 10
77.11065897104126
 20
49.64884360110348
 30
0.0
  0
SPLINE
  5
238
330
70
100
AcDbEntity
  8
Sichtbar (ISO)
100
AcDbSpline
210
0.0
220
0.0
230
1.0
 70
     8
 71
     3
 72
    26
 73
    22
 74
     0
 42
0.000000001
 43
0.0000000001
 40
3.926990816987241
 40
3.926990816987241
 40
3.926990816987241
 40
3.926990816987241
 40
4.237643795760015
 40
4.237643795760015
 40
4.554678642690176
 40
4.554678642690176
 40
4.876811519946563
 40
4.876811519946563
 40
5.199296874639122
 40
5.199296874639122
 40
5.521348214002736
 40
5.521348214002736
 40
5.843237137110162
 40
5.843237137110162
 40
6.165341863677435
 40
6.165341863677435
 40
6.487878521395537
 40
6.487878521395537
 40
6.809687312754589
 40
6.809687312754589
 40
7.068583470577035
 40
7.068583470577035
 40
7.068583470577035
 40
7.068583470577035
 10
72.77857195288508
 20
55.24638799859069
 30
0.0
 10
72.77857195288508
 20
54.63700971127034
 30
0.0
 10
72.94441436794085
 20
54.02844045717535
 30
0.0
 10
73.58979552920382
 20
52.8678308006255
 30
0.0
 10
74.07489962027234
 20
52.31683772073257
 30
0.0
 10
75.31957457627339
 20
51.32643821025279
 30
0.0
 10
76.08351319281377
 20
50.88887677727638
 30
0.0
 10
77.80836088989102
 20
50.17646895295792
 30
0.0
 10
78.76927531309663
 20
49.90196819651086
 30
0.0
 10
80.78935412920243
 20
49.54311985645516
 30
0.0
 10
81.8480355104397
 20
49.45860467072408
 30
0.0
 10
83.95730875189384
 20
49.48730240449269
 30
0.0
 10
85.00752969477375
 20
49.60040785290183
 30
0.0
 10
86.99511570293994
 20
50.01338298430912
 30
0.0
 10
87.93206766572987
 20
50.31327506713196
 30
0.0
 10
89.59895116688535
 20
51.07189823041328
 30
0.0
 10
90.32842645572172
 20
51.53067887037949
 30
0.0
 10
91.50259331943471
 20
52.56379358278938
 30
0.0
 10
91.94797287412924
 20
53.13808965604504
 30
0.0
 10
92.44932631539649
 20
54.23103868508484
 30
0.0
 10
92.56416411114051
 20
54.73853612518872
 30
0.0
 10
92.56416411114051
 20
55.2463879985907
 30
0.0
  0
LINE
  5
239
330
70
100
AcDbEntity
  8
Sichtbar (ISO)
100
AcDbLine
 10
72.77857195288508
 20
55.24638799859069
 30
0.0
 11
72.77857195288508
 21
55.51406167148748
 31
0.0
  0
LINE
  5
23A
330
70
100
AcDbEntity
  8
Sichtbar (ISO)
100
AcDbLine
 10
92.56416411114051
 20
55.2463879985907
 30
0.0
 11
92.56416411114051
 21
55.5140616714875
 31
0.0
  0
SPLINE
  5
23B
330
70
100
AcDbEntity
  8
Sichtbar (ISO)
100
AcDbSpline
210
0.0
220
0.0
230
1.0
 70
     8
 71
     3
 72
    26
 73
    22
 74
     0
 42
0.000000001
 43
0.0000000001
 40
0.7853981633974488
 40
0.7853981633974488
 40
0.7853981633974488
 40
0.7853981633974488
 40
1.096051142170222
 40
1.096051142170222
 40
1.413085989100383
 40
1.413085989100383
 40
1.73521886635677
 40
1.73521886635677
 40
2.057704221049329
 40
2.057704221049329
 40
2.379755560412943
 40
2.379755560412943
 40
2.701644483520369
 40
2.701644483520369
 40
3.023749210087642
 40
3.023749210087642
 40
3.346285867805745
 40
3.346285867805745
 40
3.668094659164797
 40
3.668094659164797
 40
3.926990816987241
 40
3.926990816987241
 40
3.926990816987241
 40
3.926990816987241
 10
92.56416411114051
 20
55.5140616714875
 30
0.0
 10
92.56416411114051
 20
56.12343995880785
 30
0.0
 10
92.39832169608474
 20
56.73200921290284
 30
0.0
 10
91.75294053482177
 20
57.89261886945268
 30
0.0
 10
91.26783644375324
 20
58.44361194934562
 30
0.0
 10
90.0231614877522
 20
59.4340114598254
 30
0.0
 10
89.25922287121181
 20
59.87157289280182
 30
0.0
 10
87.53437517413457
 20
60.58398071712026
 30
0.0
 10
86.57346075092897
 20
60.85848147356734
 30
0.0
 10
84.55338193482317
 20
61.21732981362304
 30
0.0
 10
83.49470055358588
 20
61.30184499935411
 30
0.0
 10
81.38542731213176
 20
61.27314726558549
 30
0.0
 10
80.33520636925183
 20
61.16004181717635
 30
0.0
 10
78.34762036108564
 20
60.74706668576907
 30
0.0
 10
77.4106683982957
 20
60.44717460294622
 30
0.0
 10
75.74378489714023
 20
59.6885514396649
 30
0.0
 10
75.01430960830387
 20
59.22977079969869
 30
0.0
 10
73.84014274459087
 20
58.19665608728879
 30
0.0
 10
73.39476318989634
 20
57.62236001403313
 30
0.0
 10
72.89340974862909
 20
56.52941098499336
 30
0.0
 10
72.77857195288508
 20
56.02191354488947
 30
0.0
 10
72.77857195288508
 20
55.5140616714875
 30
0.0
  0
SPLINE
  5
23C
330
70
100
AcDbEntity
  8
Sichtbar (ISO)
100
AcDbSpline
210
0.0
220
0.0
230
1.0
 70
     8
 71
     3
 72
    16
 73
    12
 74
     0
 42
0.000000001
 43
0.0000000001
 40
0.0
 40
0.0
 40
0.0
 40
0.0
 40
0.0034573350522503
 40
0.0034573350522503
 40
0.0173165442669503
 40
0.0173165442669503
 40
0.0277812219842014
 40
0.0277812219842014
 40
0.0378187923626262
 40
0.0378187923626262
 40
0.0379848656277444
 40
0.0379848656277444
 40
0.0379848656277444
 40
0.0379848656277444
 10
76.86102650526748
 20
49.3847762652786
 30
0.0
 10
76.86102650526748
 20
49.38948110236075
 30
0.0
 10
76.86098824534233
 20
49.39427202867079
 30
0.0
 10
76.86059688655141
 20
49.41867900884371
 30
0.0
 10
76.85964052706729
 20
49.43955492448975
 30
0.0
 10
76.85667768315565
 20
49.47782225335597
 30
0.0
 10
76.85498679564529
 20
49.49479645204551
 30
0.0
 10
76.85082108395784
 20
49.52846279290181
 30
0.0
 10
76.84840671490561
 20
49.54493007913054
 30
0.0
 10
76.84556681203649
 20
49.56156028734951
 30
0.0
 10
76.84552049892019
 20
49.56183085979221
 30
0.0
 10
76.84547409443672
 20
49.56210133551878
 30
0.0
  0
SPLINE
  5
23D
330
70
100
AcDbEntity
  8
Sichtbar (ISO)
100
AcDbSpline
210
0.0
220
0.0
230
1.0
 70
     8
 71
     3
 72
    14
 73
    10
 74
     0
 42
0.000000001
 43
0.0000000001
 40
-0.0001663221226379
 40
-0.0001663221226379
 40
-0.0001663221226379
 40
-0.0001663221226379
 40
0.0
 40
0.0
 40
0.0112537209175712
 40
0.0112537209175712
 40
0.0233726726370687
 40
0.0233726726370687
 40
0.0379153068451075
 40
0.0379153068451075
 40
0.0379153068451075
 40
0.0379153068451075
 10
86.99928638038739
 20
47.99130110828037
 30
0.0
 10
86.99915201412478
 20
47.99105864693211
 30
0.0
 10
86.99901793216474
 20
47.99081603103357
 30
0.0
 10
86.9898310233688
 20
47.97414671315533
 30
0.0
 10
86.98224815439125
 20
47.95729493692136
 30
0.0
 10
86.96937251428678
 20
47.92180153652694
 30
0.0
 10
86.96439495977742
 20
47.90338609725673
 30
0.0
 10
86.95684522670303
 20
47.86387354719756
 30
0.0
 10
86.95495138998824
 20
47.84299023659616
 30
0.0
 10
86.95495138998824
 20
47.82324065125258
 30
0.0
  0
SPLINE
  5
23E
330
70
100
AcDbEntity
  8
Sichtbar (ISO)
100
AcDbSpline
210
0.0
220
0.0
230
1.0
 70
     8
 71
     3
 72
    14
 73
    10
 74
     0
 42
0.000000001
 43
0.0000000001
 40
-0.000166353099046
 40
-0.000166353099046
 40
-0.000166353099046
 40
-0.000166353099046
 40
0.0
 40
0.0
 40
0.0112493855676219
 40
0.0112493855676219
 40
0.0233699443255032
 40
0.0233699443255032
 40
0.0379151297610765
 40
0.0379151297610765
 40
0.0379151297610765
 40
0.0379151297610765
 10
81.23646042937272
 20
47.02696419303551
 30
0.0
 10
81.23627202171526
 20
47.02682928617872
 30
0.0
 10
81.23608402433834
 20
47.0266939929282
 30
0.0
 10
81.22321105801438
 20
47.01738308904113
 30
0.0
 10
81.2126365733687
 20
47.00658960593496
 30
0.0
 10
81.194713465892
 20
46.98136682595642
 30
0.0
 10
81.18780929245376
 20
46.96690982672845
 30
0.0
 10
81.17734528349487
 20
46.93339601287134
 30
0.0
 10
81.17472801431349
 20
46.91401267292282
 30
0.0
 10
81.17472801431349
 20
46.89425953782719
 30
0.0
  0
SPLINE
  5
23F
330
70
100
AcDbEntity
  8
Sichtbar (ISO)
100
AcDbSpline
210
0.0
220
0.0
230
1.0
 70
     8
 71
     3
 72
    16
 73
    12
 74
     0
 42
0.000000001
 43
0.0000000001
 40
0.0
 40
0.0
 40
0.0
 40
0.0
 40
0.003706136760533
 40
0.003706136760533
 40
0.0175172907718565
 40
0.0175172907718565
 40
0.0278709437254786
 40
0.0278709437254786
 40
0.0378176619065127
 40
0.0378176619065127
 40
0.0379837099910758
 40
0.0379837099910758
 40
0.0379837099910758
 40
0.0379837099910758
 10
86.87266707103345
 20
47.77573377755394
 30
0.0
 10
86.87266707103345
 20
47.78077719087632
 30
0.0
 10
86.87254126380656
 20
47.78574978489107
 30
0.0
 10
86.87132428058736
 20
47.80885754880859
 30
0.0
 10
86.86853640081553
 20
47.82593559795089
 30
0.0
 10
86.85991760889086
 20
47.85239995747423
 30
0.0
 10
86.85502506893264
 20
47.86262559044686
 30
0.0
 10
86.84285123040451
 20
47.87965391575761
 30
0.0
 10
86.83574591845516
 20
47.88647003164516
 30
0.0
 10
86.82726100212413
 20
47.89165212124031
 30
0.0
 10
86.82712137428636
 20
47.89173671071167
 30
0.0
 10
86.82698143677056
 20
47.89182080270048
 30
0.0
  0
SPLINE
  5
240
330
70
100
AcDbEntity
  8
Sichtbar (ISO)
100
AcDbSpline
210
0.0
220
0.0
230
1.0
 70
     8
 71
     3
 72
    14
 73
    10
 74
     0
 42
0.000000001
 43
0.0000000001
 40
-0.0001662748836798
 40
-0.0001662748836798
 40
-0.0001662748836798
 40
-0.0001662748836798
 40
0.0
 40
0.0
 40
0.011260318817428
 40
0.011260318817428
 40
0.0233768207736637
 40
0.0233768207736637
 40
0.0379155671461006
 40
0.0379155671461006
 40
0.0379155671461006
 40
0.0379155671461006
 10
76.90854208099811
 20
49.42620871092046
 30
0.0
 10
76.90848809002537
 20
49.42615463750883
 30
0.0
 10
76.90843422501315
 20
49.42609999952551
 30
0.0
 10
76.90474118107258
 20
49.42230635953439
 30
0.0
 10
76.90174495754146
 20
49.41602715381987
 30
0.0
 10
76.89669921369072
 20
49.39844765147668
 30
0.0
 10
76.89477575121069
 20
49.38693486789212
 30
0.0
 10
76.89186675445383
 20
49.35788723796631
 30
0.0
 10
76.89114465633804
 20
49.33962485068274
 30
0.0
 10
76.89114465633804
 20
49.31988066895188
 30
0.0
  0
SPLINE
  5
241
330
70
100
AcDbEntity
  8
Sichtbar (ISO)
100
AcDbSpline
210
0.0
220
0.0
230
1.0
 70
     8
 71
     3
 72
    16
 73
    12
 74
     0
 42
0.000000001
 43
0.0000000001
 40
0.0
 40
0.0
 40
0.0
 40
0.0
 40
0.0040533749261629
 40
0.0040533749261629
 40
0.0177975815606455
 40
0.0177975815606455
 40
0.0279965950870927
 40
0.0279965950870927
 40
0.0378161478062866
 40
0.0378161478062866
 40
0.0379821570647994
 40
0.0379821570647994
 40
0.0379821570647994
 40
0.0379821570647994
 10
81.06232554428812
 20
46.91164826045528
 30
0.0
 10
81.06232554428812
 20
46.91716420506932
 30
0.0
 10
81.06212246744398
 20
46.92271333807751
 30
0.0
 10
81.06029400180711
 20
46.94717635211461
 30
0.0
 10
81.05642657447814
 20
46.96634607811595
 30
0.0
 10
81.04473125414962
 20
46.99922436858972
 30
0.0
 10
81.03818565798921
 20
47.01304799405311
 30
0.0
 10
81.02201719660911
 20
47.03917845098616
 30
0.0
 10
81.01261641236691
 20
47.05136252062181
 30
0.0
 10
81.00145965924786
 20
47.06299066326995
 30
0.0
 10
81.00127377962596
 20
47.06318371788263
 30
0.0
 10
81.00108749919447
 20
47.06337651205402
 30
0.0
  0
SPLINE
  5
242
330
70
100
AcDbEntity
  8
Sichtbar (ISO)
100
AcDbSpline
210
0.0
220
0.0
230
1.0
 70
     8
 71
     3
 72
    14
 73
    10
 74
     0
 42
0.000000001
 43
0.0000000001
 40
0.2587613145646602
 40
0.2587613145646602
 40
0.2587613145646602
 40
0.2587613145646602
 40
0.2625833006994816
 40
0.2625833006994816
 40
0.2664052868343032
 40
0.2664052868343032
 40
0.2702272729691246
 40
0.2702272729691246
 40
0.2721399391263485
 40
0.2721399391263485
 40
0.2721399391263485
 40
0.2721399391263485
 10
76.84724774128951
 20
49.52477307805384
 30
0.0
 10
76.84874486493625
 20
49.52114962339045
 30
0.0
 10
76.84987983657852
 20
49.51801717528297
 30
0.0
 10
76.85163997466836
 20
49.51271653688912
 30
0.0
 10
76.85226493445599
 20
49.51054758160367
 30
0.0
 10
76.85317078138499
 20
49.5071265798306
 30
0.0
 10
76.85345136314606
 20
49.50587413535074
 30
0.0
 10
76.85370815756176
 20
49.50463968311692
 30
0.0
 10
76.85376632771265
 20
49.50433554025764
 30
0.0
 10
76.85380294331672
 20
49.50413522415395
 30
0.0
  0
SPLINE
  5
243
330
70
100
AcDbEntity
  8
Sichtbar (ISO)
100
AcDbSpline
210
0.0
220
0.0
230
1.0
 70
     8
 71
     3
 72
    10
 73
     6
 74
     0
 42
0.000000001
 43
0.0000000001
 40
0.154500847128271
 40
0.154500847128271
 40
0.154500847128271
 40
0.154500847128271
 40
0.1674831177532374
 40
0.1674831177532374
 40
0.1760547024371473
 40
0.1760547024371473
 40
0.1760547024371473
 40
0.1760547024371473
 10
87.11810050702617
 20
47.98379793688957
 30
0.0
 10
87.11066355315441
 20
47.97893592623748
 30
0.0
 10
87.10684096981289
 20
47.9756320457023
 30
0.0
 10
87.10345893740683
 20
47.97264550061387
 30
0.0
 10
87.1028939372068
 20
47.97209461435848
 30
0.0
 10
87.10289252684864
 20
47.97209412114113
 30
0.0
  0
SPLINE
  5
244
330
70
100
AcDbEntity
  8
Sichtbar (ISO)
100
AcDbSpline
210
0.0
220
0.0
230
1.0
 70
     8
 71
     3
 72
    16
 73
    12
 74
     0
 42
0.000000001
 43
0.0000000001
 40
3.952643439433775
 40
3.952643439433775
 40
3.952643439433775
 40
3.952643439433775
 40
3.973824975760546
 40
3.973824975760546
 40
4.020659134533851
 40
4.020659134533851
 40
4.067493293307157
 40
4.067493293307157
 40
4.114327452080462
 40
4.114327452080462
 40
4.161161610853766
 40
4.161161610853766
 40
4.161161610853766
 40
4.161161610853766
 10
76.6735063568444
 20
50.29429491913052
 30
0.0
 10
76.67468324431888
 20
50.26781313348212
 30
0.0
 10
76.67634574100742
 20
50.24134351759951
 30
0.0
 10
76.68323983748587
 20
50.15641837003599
 30
0.0
 10
76.690356453036
 20
50.09804923384979
 30
0.0
 10
76.70928221774747
 20
49.98173647632803
 30
0.0
 10
76.72109120591219
 20
49.92379304023962
 30
0.0
 10
76.7493282876587
 20
49.80852625702073
 30
0.0
 10
76.76575618405109
 20
49.75120301432504
 30
0.0
 10
76.80313636116648
 20
49.63735237601383
 30
0.0
 10
76.82408844432436
 20
49.58082500320514
 30
0.0
 10
76.84724774128951
 20
49.52477307805382
 30
0.0
  0
SPLINE
  5
245
330
70
100
AcDbEntity
  8
Sichtbar (ISO)
100
AcDbSpline
210
0.0
220
0.0
230
1.0
 70
     8
 71
     3
 72
    16
 73
    12
 74
     0
 42
0.000000001
 43
0.0000000001
 40
0.0619890220694059
 40
0.0619890220694059
 40
0.0619890220694059
 40
0.0619890220694059
 40
0.2066708503350144
 40
0.2066708503350144
 40
0.351352678600623
 40
0.351352678600623
 40
0.4960345068662316
 40
0.4960345068662316
 40
0.6407163351318403
 40
0.6407163351318403
 40
0.7597455409509144
 40
0.7597455409509144
 40
0.7597455409509144
 40
0.7597455409509144
 10
87.11810050702617
 20
47.98379793688956
 30
0.0
 10
87.31097760285861
 20
48.10989398517119
 30
0.0
 10
87.48911339278272
 20
48.24475090656179
 30
0.0
 10
87.81204552148524
 20
48.53011812400943
 30
0.0
 10
87.95684941957945
 20
48.68063794612702
 30
0.0
 10
88.20940465397459
 20
48.99521072915843
 30
0.0
 10
88.31715441380714
 20
49.15928830929239
 30
0.0
 10
88.49187073195645
 20
49.49810513201831
 30
0.0
 10
88.55880419152606
 20
49.67286756381511
 30
0.0
 10
88.64062011630336
 20
49.99707128970854
 30
0.0
 10
88.66261621233045
 20
50.1454810717414
 30
0.0
 10
88.66922970718119
 20
50.29429491913052
 30
0.0
  0
SPLINE
  5
246
330
70
100
AcDbEntity
  8
Sichtbar (ISO)
100
AcDbSpline
210
0.0
220
0.0
230
1.0
 70
     8
 71
     3
 72
    16
 73
    12
 74
     0
 42
0.000000001
 43
0.0000000001
 40
5.323028980302794
 40
5.323028980302794
 40
5.323028980302794
 40
5.323028980302794
 40
5.501123445325087
 40
5.501123445325087
 40
5.67921791034738
 40
5.67921791034738
 40
5.857312375369674
 40
5.857312375369674
 40
6.035406840391967
 40
6.035406840391967
 40
6.213501305414261
 40
6.213501305414261
 40
6.213501305414261
 40
6.213501305414261
 10
81.64626284201508
 20
46.87263502599738
 30
0.0
 10
81.99111110105834
 20
46.83748239467011
 30
0.0
 10
82.34111883833358
 20
46.8201265052783
 30
0.0
 10
83.04094773134217
 20
46.82147453090685
 30
0.0
 10
83.3907571938125
 20
46.84017840096243
 30
0.0
 10
84.07966717510861
 20
46.91314346522627
 30
0.0
 10
84.41875647628096
 20
46.96740217322347
 30
0.0
 10
85.07605679787436
 20
47.11003857823086
 30
0.0
 10
85.39425832877386
 20
47.19841117790395
 30
0.0
 10
86.0002831002213
 20
47.40701426548913
 30
0.0
 10
86.28810105136251
 20
47.52723727006574
 30
0.0
 10
86.55643117009596
 20
47.66194271294378
 30
0.0
  0
SPLINE
  5
247
330
70
100
AcDbEntity
  8
Sichtbar (ISO)
100
AcDbSpline
210
0.0
220
0.0
230
1.0
 70
     8
 71
     3
 72
    16
 73
    12
 74
     0
 42
0.000000001
 43
0.0000000001
 40
4.220065023800971
 40
4.220065023800971
 40
4.220065023800971
 40
4.220065023800971
 40
4.406461001815647
 40
4.406461001815647
 40
4.592856979830322
 40
4.592856979830322
 40
4.779252957844998
 40
4.779252957844998
 40
4.965648935859674
 40
4.965648935859674
 40
5.152044913874347
 40
5.152044913874347
 40
5.152044913874347
 40
5.152044913874347
 10
76.9449849214396
 20
49.31567308007463
 30
0.0
 10
77.05887548491431
 20
49.09777172990313
 30
0.0
 10
77.20653345063579
 20
48.88883816009503
 30
0.0
 10
77.56140497112847
 20
48.49478094700299
 30
0.0
 10
77.76862850847213
 20
48.30958690462097
 30
0.0
 10
78.23460512084759
 20
47.96711023566373
 30
0.0
 10
78.49338085026786
 20
47.80981594105127
 30
0.0
 10
79.05376509988667
 20
47.52688913224614
 30
0.0
 10
79.35537855978856
 20
47.40126493338393
 30
0.0
 10
79.9915956973968
 20
47.18498945579628
 30
0.0
 10
80.32619252459458
 20
47.09434749394294
 30
0.0
 10
80.67181851055229
 20
47.02246840658426
 30
0.0
  0
LINE
  5
248
330
70
100
AcDbEntity
  8
Sichtbar (ISO)
100
AcDbLine
 10
76.86102650526753
 20
49.38477626527834
 30
0.0
 11
76.86102650526748
 21
42.79036331641361
 31
0.0
  0
LINE
  5
249
330
70
100
AcDbEntity
  8
Sichtbar (ISO)
100
AcDbLine
 10
86.95495138998825
 20
41.22882770238759
 30
0.0
 11
86.95495138998836
 21
47.82324065125194
 31
0.0
  0
LINE
  5
24A
330
70
100
AcDbEntity
  8
Sichtbar (ISO)
100
AcDbLine
 10
88.48170955875813
 20
44.51853435061092
 30
0.0
 11
86.95495138998825
 21
41.22882770238759
 31
0.0
  0
LINE
  5
24B
330
70
100
AcDbEntity
  8
Sichtbar (ISO)
100
AcDbLine
 10
88.48170955875806
 20
49.49208558717168
 30
0.0
 11
88.48170955875813
 21
44.51853435061092
 31
0.0
  0
LINE
  5
24C
330
70
100
AcDbEntity
  8
Sichtbar (ISO)
100
AcDbLine
 10
81.17472801431349
 20
40.2998465889622
 30
0.0
 11
81.17472801431389
 21
46.89425953782637
 31
0.0
  0
LINE
  5
24D
330
70
100
AcDbEntity
  8
Sichtbar (ISO)
100
AcDbLine
 10
86.87266707103345
 20
41.18132082868895
 30
0.0
 11
81.17472801431349
 21
40.2998465889622
 31
0.0
  0
LINE
  5
24E
330
70
100
AcDbEntity
  8
Sichtbar (ISO)
100
AcDbLine
 10
86.87266707103326
 20
47.77573377755355
 30
0.0
 11
86.87266707103345
 21
41.18132082868895
 31
0.0
  0
LINE
  5
24F
330
70
100
AcDbEntity
  8
Sichtbar (ISO)
100
AcDbLine
 10
76.89114465633804
 20
42.72546772008689
 30
0.0
 11
76.89114465633834
 21
49.31988066895087
 31
0.0
  0
LINE
  5
250
330
70
100
AcDbEntity
  8
Sichtbar (ISO)
100
AcDbLine
 10
81.06232554428812
 20
40.31723531159028
 30
0.0
 11
76.89114465633804
 21
42.72546772008689
 31
0.0
  0
LINE
  5
251
330
70
100
AcDbEntity
  8
Sichtbar (ISO)
100
AcDbLine
 10
81.06232554428801
 20
46.911648260455
 30
0.0
 11
81.06232554428812
 21
40.31723531159028
 31
0.0
  0
SPLINE
  5
252
330
70
100
AcDbEntity
  8
Sichtbar (ISO)
100
AcDbSpline
210
0.0
220
0.0
230
1.0
 70
     8
 71
     3
 72
    28
 73
    24
 74
     0
 42
0.000000001
 43
0.0000000001
 40
3.926990816987241
 40
3.926990816987241
 40
3.926990816987241
 40
3.926990816987241
 40
4.24115008234622
 40
4.24115008234622
 40
4.571553331563221
 40
4.571553331563221
 40
4.846441931058181
 40
4.846441931058181
 40
5.126340853285829
 40
5.126340853285829
 40
5.414093921331335
 40
5.414093921331335
 40
5.705812197658453
 40
5.705812197658453
 40
5.996425077950915
 40
5.996425077950915
 40
6.280946234618869
 40
6.280946234618869
 40
6.557138781104993
 40
6.557138781104993
 40
6.83828267434779
 40
6.83828267434779
 40
7.068583470577034
 40
7.068583470577034
 40
7.068583470577034
 40
7.068583470577034
 10
77.17136803201279
 20
53.34080134382517
 30
0.0
 10
77.17136803201279
 20
53.18965139680566
 30
0.0
 10
77.2066973958775
 20
53.03101696419187
 30
0.0
 10
77.44158357316786
 20
52.61364738253897
 30
0.0
 10
77.65810743645694
 20
52.35666677688502
 30
0.0
 10
78.26530384972342
 20
51.89027888787357
 30
0.0
 10
78.61794101997128
 20
51.68183134532188
 30
0.0
 10
79.45326135944333
 20
51.31418099555495
 30
0.0
 10
79.93760719531595
 20
51.15583626799961
 30
0.0
 10
80.99653329758394
 20
50.91769006186453
 30
0.0
 10
81.57304883914717
 20
50.84010744170854
 30
0.0
 10
82.75255081360937
 20
50.78298010092687
 30
0.0
 10
83.35564549596316
 20
50.80478659917647
 30
0.0
 10
84.51337007571796
 20
50.9458742233506
 30
0.0
 10
85.06800394397503
 20
51.06486712461244
 30
0.0
 10
86.0596999413096
 20
51.37664401353497
 30
0.0
 10
86.49862784142795
 20
51.56799541779948
 30
0.0
 10
87.21579525799585
 20
51.9802021517083
 30
0.0
 10
87.49739536725954
 20
52.19981833239526
 30
0.0
 10
87.90642245849943
 20
52.62057374196725
 30
0.0
 10
88.02999682828961
 20
52.81819342480748
 30
0.0
 10
88.15148376646469
 20
53.11735027700972
 30
0.0
 10
88.17136803201279
 20
53.22999782157722
 30
0.0
 10
88.17136803201279
 20
53.34080134382517
 30
0.0
  0
ELLIPSE
  5
253
330
70
100
AcDbEntity
  8
Sichtbar (ISO)
100
AcDbEllipse
 10
82.6713680320128
 20
39.98021421933751
 30
0.0
 11
3.28925
 21
0.0000000000000009
 31
0.0
210
0.0
220
0.0
230
1.0
 40
0.5773502691896257
 41
3.141592653589793
 42
6.283185307179586
  0
ELLIPSE
  5
254
330
70
100
AcDbEntity
  8
Sichtbar (ISO)
100
AcDbEllipse
 10
82.6713680320128
 20
39.57196592887364
 30
0.0
 11
2.78925
 21
0.0000000000001672
 31
0.0
210
0.0
220
0.0
230
1.0
 40
0.5773502691896257
 41
3.926990816987
 42
5.497787143781895
  0
LINE
  5
255
330
70
100
AcDbEntity
  8
Sichtbar (ISO)
100
AcDbLine
 10
80.69907044258824
 20
38.43325938469731
 30
0.0
 11
80.34551705199495
 21
38.63738352992924
 31
0.0
  0
LINE
  5
256
330
70
100
AcDbEntity
  8
Sichtbar (ISO)
100
AcDbLine
 10
84.64366562143737
 20
38.43325938469731
 30
0.0
 11
84.99721901203065
 21
38.63738352992925
 31
0.0
  0
ELLIPSE
  5
257
330
70
100
AcDbEntity
  8
Sichtbar (ISO)
100
AcDbEllipse
 10
82.6713680320128
 20
49.77817319047021
 30
0.0
 11
2.86125
 21
-0.0000000000001696
 31
0.0
210
0.0
220
0.0
230
1.0
 40
0.5773502691896258
 41
0.81867670769347
 42
2.322915945896783
  0
ELLIPSE
  5
258
330
70
100
AcDbEntity
  8
Sichtbar (ISO)
100
AcDbEllipse
 10
82.6713680320128
 20
50.18642148093407
 30
0.0
 11
-3.36125
 21
-0.0000000000002023
 31
0.0
210
0.0
220
0.0
230
1.0
 40
0.5773502691896257
 41
3.69687409913156
 42
5.727903861637086
  0
LINE
  5
259
330
70
100
AcDbEntity
  8
Sichtbar (ISO)
100
AcDbLine
 10
79.38211803201281
 20
39.98021421933751
 30
0.0
 11
79.38211803201281
 21
41.28730357109688
 31
0.0
  0
LINE
  5
25A
330
70
100
AcDbEntity
  8
Sichtbar (ISO)
100
AcDbLine
 10
85.9606180320128
 20
39.98021421933751
 30
0.0
 11
85.9606180320128
 21
41.04022635132417
 31
0.0
  0
DIMENSION
  5
25B
330
70
100
AcDbEntity
  8
Bemaßung (ISO)
100
AcDbDimension
280
     0
  2
*D6
 10
89.05568074564186
 20
89.45593393412819
 30
0.0
 11
78.72704834547741
 21
89.45593393412819
 31
0.0
 70
   160
  1
\fArial|b0|i0;\H1.2437;SW<>
 42
20.66726480032696
 73
     0
 74
     0
 75
     0
  3
Standard (DIN)
100
AcDbAlignedDimension
 13
68.38841594531491
 23
104.455934124863
 33
0.0
 14
89.05568074564186
 24
104.455934124863
 34
0.0
100
AcDbRotatedDimension
1001
ACAD
1000
DSTYLE
1002
{
1070
   172
1070
     0
1070
   289
1070
     1
1070
   271
1070
     0
1070
   147
1040
0.4
1070
    72
1070
     0
1070
    71
1070
     0
1070
   272
1070
     2
1070
    48
1040
0.0
1070
    47
1040
0.0
1002
}
  0
DIMENSION
  5
33D
330
70
100
AcDbEntity
  8
Bemaßung (ISO)
100
AcDbDimension
280
     0
  2
*D7
 10
40.59420409818018
 20
89.45593393412819
 30
0.0
 11
34.02070409818018
 21
89.45593393412819
 31
0.0
 70
   160
  1
 \fArial|b0|i0;\H1.2500;D
 42
13.157
 73
     0
 74
     0
 75
     0
  3
Standard (DIN)
100
AcDbAlignedDimension
 13
27.43720409818018
 23
95.45593412486306
 33
0.0
 14
40.59420409818018
 24
95.45593412486306
 34
0.0
100
AcDbRotatedDimension
1001
ACAD
1000
DSTYLE
1002
{
1070
   172
1070
     0
1070
   289
1070
     1
1070
   271
1070
     2
1070
   147
1040
0.4
1070
    72
1070
     0
1070
    71
1070
     0
1070
   272
1070
     2
1070
    48
1040
0.0
1070
    47
1040
0.0
1002
}
  0
DIMENSION
  5
42A
330
70
100
AcDbEntity
  8
Bemaßung (ISO)
100
AcDbDimension
280
     0
  2
*D8
 10
9.230111065343233
 20
133.8059341248631
 30
0.0
 11
9.230111065343269
 21
114.125934124863
 31
0.0
 70
   160
  1
 \fArial|b0|i0;\H1.2500;L
 42
39.35000000000005
 73
     0
 74
     0
 75
     0
  3
Standard (DIN)
100
AcDbAlignedDimension
 13
28.43720409818019
 23
94.45593412486305
 33
0.0
 14
14.53011193992475
 24
133.8059341248631
 34
0.0
 50
90.0
100
AcDbRotatedDimension
1001
ACAD
1000
DSTYLE
1002
{
1070
   172
1070
     0
1070
   289
1070
     1
1070
   271
1070
     2
1070
   147
1040
0.4
1070
    72
1070
     0
1070
    71
1070
     0
1070
   272
1070
     2
1070
    48
1040
0.0
1070
    47
1040
0.0
1002
}
  0
DIMENSION
  5
509
330
70
100
AcDbEntity
  8
Bemaßung (ISO)
100
AcDbDimension
280
     0
  2
*D9
 10
53.80129625643561
 20
138.8059343155979
 30
0.0
 11
34.01070409818019
 21
138.8059343155979
 31
0.0
 70
   160
  1
\fArial|b0|i0;\H1.2437;Ø<>
 42
39.57118431651085
 73
     0
 74
     0
 75
     0
  3
Standard (DIN)
100
AcDbAlignedDimension
 13
14.23011193992476
 23
133.505934124863
 33
0.0
 14
53.80129625643561
 24
133.505934124863
 34
0.0
 50
180.0
100
AcDbRotatedDimension
1001
ACAD
1000
DSTYLE
1002
{
1070
   172
1070
     0
1070
   289
1070
     1
1070
   271
1070
     1
1070
   147
1040
0.4
1070
    72
1070
     0
1070
    71
1070
     0
1070
   272
1070
     2
1070
    48
1040
0.0
1070
    47
1040
0.0
1002
}
  0
DIMENSION
  5
5E8
330
70
100
AcDbEntity
  8
Bemaßung (ISO)
100
AcDbDimension
280
     0
  2
*D10
 10
39.73820409818018
 20
83.38278862117858
 30
0.0
 11
34.01070409818018
 21
83.38278862117858
 31
0.0
 70
   160
  1
 \fArial|b0|i0;\H1.2500;G1/4
 42
11.445
 73
     0
 74
     0
 75
     0
  3
Standard (DIN)
100
AcDbAlignedDimension
 13
28.29320409818018
 23
58.59719558834328
 33
0.0
 14
39.73820409818018
 24
58.59719558834328
 34
0.0
 50
180.0
100
AcDbRotatedDimension
1001
ACAD
1000
DSTYLE
1002
{
1070
   172
1070
     0
1070
   289
1070
     1
1070
   271
1070
     2
1070
   147
1040
0.4
1070
    72
1070
     0
1070
    71
1070
     0
1070
   272
1070
     2
1070
    48
1040
0.0
1070
    47
1040
0.0
1002
}
  0
MTEXT
  5
6D5
330
70
100
AcDbEntity
  8
Symbol (ISO)
100
AcDbMText
 10
85.37719697747565
 20
68.55499269492163
 30
0.0
 40
2.62499988079071
 41
11.61042213439941
 46
0.0
 71
     1
 72
     1
  1
\fArial|b0|i0;\H2.6250;( 1 : 1 )
  7
Notiztext (DIN)
 73
     1
 44
1.0
  0
LINE
  5
6D6
330
70
100
AcDbEntity
  8
Mittellinie (ISO)
  6
Continuous
100
AcDbLine
 10
34.0157040981801
 20
93.74708920814882
 30
0.0
 11
34.01570409818042
 21
135.1817371439822
 31
0.0
  0
LINE
  5
6D7
330
70
100
AcDbEntity
  8
Mittellinie (ISO)
  6
Continuous
100
AcDbLine
 10
78.72204834547703
 20
134.552986817417
 30
0.0
 11
78.72204834547648
 21
93.6213391600156
 31
0.0
  0
LINE
  5
6D8
330
70
100
AcDbEntity
  8
Mittelpunktmarkierung (ISO)
  6
Continuous
100
AcDbLine
 10
55.05129625643561
 20
58.59719558834744
 30
0.0
 11
12.98011193992476
 21
58.59719558834744
 31
0.0
  0
LINE
  5
6D9
330
70
100
AcDbEntity
  8
Mittelpunktmarkierung (ISO)
  6
Continuous
100
AcDbLine
 10
34.01570409818018
 20
79.63278774660287
 30
0.0
 11
34.01570409818018
 21
37.56160343009203
 31
0.0
  0
ENDSEC
  0
SECTION
  2
OBJECTS
  0
DICTIONARY
  5
C
330
0
100
AcDbDictionary
281
     1
  3
ACAD_CIP_PREVIOUS_PRODUCT_INFO
350
6DA
  3
ACAD_COLOR
350
63
  3
ACAD_DETAILVIEWSTYLE
350
6A
  3
ACAD_GROUP
350
D
  3
ACAD_LAYOUT
350
62
  3
ACAD_MATERIAL
350
10
  3
ACAD_MLEADERSTYLE
350
66
  3
ACAD_MLINESTYLE
350
5F
  3
ACAD_PLOTSETTINGS
350
61
  3
ACAD_PLOTSTYLENAME
350
E
  3
ACAD_SCALELIST
350
42
  3
ACAD_SECTIONVIEWSTYLE
350
68
  3
ACAD_TABLESTYLE
350
64
  3
ACAD_VISUALSTYLE
350
29
  3
ACDB_RECOMPOSE_DATA
350
715
  3
AcDbVariableDictionary
350
6DB
  0
DICTIONARY
  5
6E3
330
18F
100
AcDbDictionary
280
     1
281
     1
  3
ACAD_MTEXT_2008_RT
360
6E4
  0
DICTIONARY
  5
6E5
330
191
100
AcDbDictionary
280
     1
281
     1
  3
ACAD_MLATT
360
6E7
  3
ACAD_XREC_ROUNDTRIP
360
6E6
  0
DICTIONARY
  5
6E8
330
195
100
AcDbDictionary
280
     1
281
     1
  3
ACAD_MLATT
360
6EA
  3
ACAD_XREC_ROUNDTRIP
360
6E9
  0
DICTIONARY
  5
6EB
330
196
100
AcDbDictionary
280
     1
281
     1
  3
ACAD_MLATT
360
6ED
  3
ACAD_XREC_ROUNDTRIP
360
6EC
  0
DICTIONARY
  5
6EE
330
197
100
AcDbDictionary
280
     1
281
     1
  3
ACAD_MLATT
360
6F0
  3
ACAD_XREC_ROUNDTRIP
360
6EF
  0
DICTIONARY
  5
6F1
330
198
100
AcDbDictionary
280
     1
281
     1
  3
ACAD_MLATT
360
6F3
  3
ACAD_XREC_ROUNDTRIP
360
6F2
  0
DICTIONARY
  5
6F4
330
199
100
AcDbDictionary
280
     1
281
     1
  3
ACAD_MLATT
360
6F6
  3
ACAD_XREC_ROUNDTRIP
360
6F5
  0
DICTIONARY
  5
6F7
330
19A
100
AcDbDictionary
280
     1
281
     1
  3
ACAD_MLATT
360
6F9
  3
ACAD_XREC_ROUNDTRIP
360
6F8
  0
DICTIONARY
  5
6FA
330
19B
100
AcDbDictionary
280
     1
281
     1
  3
ACAD_MLATT
360
6FC
  3
ACAD_XREC_ROUNDTRIP
360
6FB
  0
DICTIONARY
  5
6FD
330
19F
100
AcDbDictionary
280
     1
281
     1
  3
ACAD_MLATT
360
6FF
  3
ACAD_XREC_ROUNDTRIP
360
6FE
  0
DICTIONARY
  5
700
330
1A0
100
AcDbDictionary
280
     1
281
     1
  3
ACAD_MLATT
360
702
  3
ACAD_XREC_ROUNDTRIP
360
701
  0
DICTIONARY
  5
703
330
1A1
100
AcDbDictionary
280
     1
281
     1
  3
ACAD_MLATT
360
705
  3
ACAD_XREC_ROUNDTRIP
360
704
  0
DICTIONARY
  5
706
330
1A2
100
AcDbDictionary
280
     1
281
     1
  3
ACAD_MLATT
360
708
  3
ACAD_XREC_ROUNDTRIP
360
707
  0
DICTIONARY
  5
709
330
1A3
100
AcDbDictionary
280
     1
281
     1
  3
ACAD_MLATT
360
70B
  3
ACAD_XREC_ROUNDTRIP
360
70A
  0
DICTIONARY
  5
70C
330
1A4
100
AcDbDictionary
280
     1
281
     1
  3
ACAD_MLATT
360
70E
  3
ACAD_XREC_ROUNDTRIP
360
70D
  0
DICTIONARY
  5
70F
330
1A5
100
AcDbDictionary
280
     1
281
     1
  3
ACAD_MLATT
360
711
  3
ACAD_XREC_ROUNDTRIP
360
710
  0
DICTIONARY
  5
712
330
1A6
100
AcDbDictionary
280
     1
281
     1
  3
ACAD_MLATT
360
714
  3
ACAD_XREC_ROUNDTRIP
360
713
  0
XRECORD
  5
6DA
102
{ACAD_REACTORS
330
C
102
}
330
C
100
AcDbXrecord
280
     1
300
INVPROSA
300
2019
300

  0
DICTIONARY
  5
63
102
{ACAD_REACTORS
330
C
102
}
330
C
100
AcDbDictionary
281
     1
  0
DICTIONARY
  5
6A
102
{ACAD_REACTORS
330
C
102
}
330
C
100
AcDbDictionary
281
     1
  3
Imperial24
350
6B
  0
DICTIONARY
  5
D
102
{ACAD_REACTORS
330
C
102
}
330
C
100
AcDbDictionary
281
     1
  0
DICTIONARY
  5
62
102
{ACAD_REACTORS
330
C
102
}
330
C
100
AcDbDictionary
281
     1
  3
Layout1
350
6F
  3
Layout2
350
77
  3
Model
350
73
  0
DICTIONARY
  5
10
102
{ACAD_REACTORS
330
C
102
}
330
C
100
AcDbDictionary
281
     1
  3
ByBlock
350
19
  3
ByLayer
350
11
  3
Global
350
21
  0
DICTIONARY
  5
66
102
{ACAD_REACTORS
330
C
102
}
330
C
100
AcDbDictionary
281
     1
  3
Standard
350
67
  0
DICTIONARY
  5
5F
102
{ACAD_REACTORS
330
C
102
}
330
C
100
AcDbDictionary
281
     1
  3
Standard
350
60
  0
DICTIONARY
  5
61
102
{ACAD_REACTORS
330
C
102
}
330
C
100
AcDbDictionary
281
     1
  0
ACDBDICTIONARYWDFLT
  5
E
102
{ACAD_REACTORS
330
C
102
}
330
C
100
AcDbDictionary
281
     1
  3
Normal
350
F
100
AcDbDictionaryWithDefault
340
F
  0
DICTIONARY
  5
42
102
{ACAD_REACTORS
330
C
102
}
330
C
100
AcDbDictionary
281
     1
  3
A0
350
43
  3
A1
350
44
  3
A2
350
45
  3
A3
350
46
  3
A4
350
47
  3
A5
350
48
  3
A6
350
49
  3
A7
350
4A
  3
A8
350
4B
  3
A9
350
4C
  3
B0
350
4D
  3
B1
350
4E
  3
B2
350
4F
  3
B3
350
50
  3
B4
350
51
  3
B5
350
52
  3
B6
350
53
  0
DICTIONARY
  5
68
102
{ACAD_REACTORS
330
C
102
}
330
C
100
AcDbDictionary
281
     1
  3
Imperial24
350
69
  0
DICTIONARY
  5
64
102
{ACAD_REACTORS
330
C
102
}
330
C
100
AcDbDictionary
281
     1
  3
Standard
350
65
  0
DICTIONARY
  5
29
102
{ACAD_REACTORS
330
C
102
}
330
C
100
AcDbDictionary
281
     1
  3
2dWireframe
350
2F
  3
Basic
350
2E
  3
Brighten
350
35
  3
ColorChange
350
39
  3
Conceptual
350
32
  3
Dim
350
34
  3
EdgeColorOff
350
41
  3
Facepattern
350
38
  3
Flat
350
2A
  3
FlatWithEdges
350
2B
  3
Gouraud
350
2C
  3
GouraudWithEdges
350
2D
  3
Hidden
350
31
  3
JitterOff
350
3F
  3
Linepattern
350
37
  3
OverhangOff
350
40
  3
Realistic
350
33
  3
Shaded
350
3E
  3
Shaded with edges
350
3D
  3
Shades of Gray
350
3A
  3
Sketchy
350
3B
  3
Thicken
350
36
  3
Wireframe
350
30
  3
X-Ray
350
3C
  0
XRECORD
  5
715
102
{ACAD_REACTORS
330
C
102
}
330
C
100
AcDbXrecord
280
     1
 90
        1
330
65
330
18F
330
191
330
195
330
196
330
197
330
198
330
199
330
19A
330
19B
330
19F
330
1A0
330
1A1
330
1A2
330
1A3
330
1A4
330
1A5
330
1A6
  0
DICTIONARY
  5
6DB
102
{ACAD_REACTORS
330
C
102
}
330
C
100
AcDbDictionary
281
     1
  3
CANNOSCALE
350
6E0
  3
CMLEADERSTYLE
350
6DD
  3
CTABLESTYLE
350
6DC
  3
CVIEWDETAILSTYLE
350
6DE
  3
CVIEWSECTIONSTYLE
350
6DF
  0
XRECORD
  5
6E4
102
{ACAD_REACTORS
330
6E3
102
}
330
6E3
100
AcDbXrecord
280
     1
 40
1337195.0
  1
\pxsm0.94;\fArial|b1|i0;\H1.0000;perma-tec \fArial|b0|i0;\H0.7000;GmbH & Co. KG\P\fArial|b0|i0;\H1.0000;Hammelburger Str.21                       Tel. : +49 9704 609-0\P97717 EUERDORF / GERMANY     Fax : +49 9704 609-50
  0
XRECORD
  5
6E7
102
{ACAD_REACTORS
330
6E5
102
}
330
6E5
100
AcDbXrecord
280
     1
 70
     4
 70
     0
 70
     0
 40
1.0
  2
Maßstab
  1
Embedded Object
 10
145.0127883584022
 20
117.4731139823299
 30
0.0
 40
2.5
 41
13.99999999999998
 46
0.0
 71
     5
 72
     5
  1
2:1 (1:1)
  7
Textstil54
 73
     1
 44
1.0
  0
XRECORD
  5
6E6
102
{ACAD_REACTORS
330
6E5
102
}
330
6E5
100
AcDbXrecord
280
     1
102
ACAD_MATT_HEIGHT
140
2.5
  0
XRECORD
  5
6EA
102
{ACAD_REACTORS
330
6E8
102
}
330
6E8
100
AcDbXrecord
280
     1
 70
     4
 70
     0
 70
     0
 40
1.0
  2
Datum
  1
Embedded Object
 10
164.5127883584021
 20
117.4731139823299
 30
0.0
 40
2.5
 41
21.99999999999992
 46
0.0
 71
     5
 72
     5
  1
01.07.2019
  7
Textstil54
 73
     1
 44
1.0
  0
XRECORD
  5
6E9
102
{ACAD_REACTORS
330
6E8
102
}
330
6E8
100
AcDbXrecord
280
     1
102
ACAD_MATT_HEIGHT
140
2.5
  0
XRECORD
  5
6ED
102
{ACAD_REACTORS
330
6EB
102
}
330
6EB
100
AcDbXrecord
280
     1
 70
     4
 70
     0
 70
     0
 40
1.0
  2
Benennung_Englisch
  1
Embedded Object
 10
205.5127883584022
 20
116.2462846889597
 30
0.0
 40
2.5
 41
81.00000000000001
 46
0.0
 71
     4
 72
     5
  1
Support flange FLEX Gen 2.0
  7
Textstil54
 73
     1
 44
0.3300000131130218
  0
XRECORD
  5
6EC
102
{ACAD_REACTORS
330
6EB
102
}
330
6EB
100
AcDbXrecord
280
     1
102
ACAD_MATT_HEIGHT
140
2.5
  0
XRECORD
  5
6F0
102
{ACAD_REACTORS
330
6EE
102
}
330
6EE
100
AcDbXrecord
280
     1
 70
     4
 70
     0
 70
     0
 40
1.0
  2
Blattgröße
  1
Embedded Object
 10
145.0127883584022
 20
108.7231139823298
 30
0.0
 40
2.5
 41
13.99999999999998
 46
0.0
 71
     5
 72
     5
  1
A4
  7
Textstil54
 73
     1
 44
1.0
  0
XRECORD
  5
6EF
102
{ACAD_REACTORS
330
6EE
102
}
330
6EE
100
AcDbXrecord
280
     1
102
ACAD_MATT_HEIGHT
140
2.5
  0
XRECORD
  5
6F3
102
{ACAD_REACTORS
330
6F1
102
}
330
6F1
100
AcDbXrecord
280
     1
 70
     4
 70
     0
 70
     0
 40
1.0
  2
Material
  1
Embedded Object
 10
178.5127883584022
 20
117.4731139823299
 30
0.0
 40
2.5
 41
25.0
 46
0.0
 71
     4
 72
     5
  1
brass / plastic
  7
Textstil54
 73
     1
 44
1.0
  0
XRECORD
  5
6F2
102
{ACAD_REACTORS
330
6F1
102
}
330
6F1
100
AcDbXrecord
280
     1
102
ACAD_MATT_HEIGHT
140
2.5
  0
XRECORD
  5
6F6
102
{ACAD_REACTORS
330
6F4
102
}
330
6F4
100
AcDbXrecord
280
     1
 70
     4
 70
     0
 70
     0
 40
1.0
  2
Artikelnummer
  1
Embedded Object
 10
178.5127883584022
 20
109.993121529321
 30
0.0
 40
2.5
 41
25.0
 46
0.0
 71
     1
 72
     5
  1

  7
Textstil54
 73
     1
 44
1.0
  0
XRECORD
  5
6F5
102
{ACAD_REACTORS
330
6F4
102
}
330
6F4
100
AcDbXrecord
280
     1
102
ACAD_MATT_HEIGHT
140
2.5
  0
XRECORD
  5
6F9
102
{ACAD_REACTORS
330
6F7
102
}
330
6F7
100
AcDbXrecord
280
     1
 70
     4
 70
     0
 70
     0
 40
1.0
  2
Benennung_Deutsch
  1
Embedded Object
 10
205.5127883584022
 20
109.4462846889598
 30
0.0
 40
2.5
 41
80.99999999999994
 46
0.0
 71
     4
 72
     5
  1
Stützkonsole FLEX Gen 2.0
  7
Textstil54
 73
     1
 44
0.3300000131130218
  0
XRECORD
  5
6F8
102
{ACAD_REACTORS
330
6F7
102
}
330
6F7
100
AcDbXrecord
280
     1
102
ACAD_MATT_HEIGHT
140
2.5
  0
XRECORD
  5
6FC
102
{ACAD_REACTORS
330
6FA
102
}
330
6FA
100
AcDbXrecord
280
     1
 70
     4
 70
     0
 70
     0
 40
1.0
  2
Revision/Gezeichnet
  1
Embedded Object
 10
165.0127883584022
 20
110.0140818751853
 30
0.0
 40
2.5
 41
23.00000000000001
 46
0.0
 71
     2
 72
     5
  1
D / cst
  7
Textstil54
 73
     1
 44
1.0
  0
XRECORD
  5
6FB
102
{ACAD_REACTORS
330
6FA
102
}
330
6FA
100
AcDbXrecord
280
     1
102
ACAD_MATT_HEIGHT
140
2.5
  0
XRECORD
  5
6FF
102
{ACAD_REACTORS
330
6FD
102
}
330
6FD
100
AcDbXrecord
280
     1
 70
     2
 70
     0
 70
     0
 40
1.0
  2
Maßstab
  1
Embedded Object
 10
8.75
 20
10.81249999999999
 30
0.0
 40
1.25
 41
6.999999999999992
 46
0.0
 71
     5
 72
     5
  1
2:1 (1:1)
  7
Textstil54
 73
     1
 44
1.0
  0
XRECORD
  5
6FE
102
{ACAD_REACTORS
330
6FD
102
}
330
6FD
100
AcDbXrecord
280
     1
102
ACAD_MATT_HEIGHT
140
1.25
  0
XRECORD
  5
702
102
{ACAD_REACTORS
330
700
102
}
330
700
100
AcDbXrecord
280
     1
 70
     2
 70
     0
 70
     0
 40
1.0
  2
Datum
  1
Embedded Object
 10
18.49999999999994
 20
10.81249999999999
 30
0.0
 40
1.25
 41
10.99999999999996
 46
0.0
 71
     5
 72
     5
  1
01.07.2019
  7
Textstil54
 73
     1
 44
1.0
  0
XRECORD
  5
701
102
{ACAD_REACTORS
330
700
102
}
330
700
100
AcDbXrecord
280
     1
102
ACAD_MATT_HEIGHT
140
1.25
  0
XRECORD
  5
705
102
{ACAD_REACTORS
330
703
102
}
330
703
100
AcDbXrecord
280
     1
 70
     2
 70
     0
 70
     0
 40
1.0
  2
Benennung_Englisch
  1
Embedded Object
 10
38.99999999999998
 20
10.1990853533149
 30
0.0
 40
1.25
 41
40.5
 46
0.0
 71
     4
 72
     5
  1
Support flange FLEX Gen 2.0
  7
Textstil54
 73
     1
 44
0.3300000131130218
  0
XRECORD
  5
704
102
{ACAD_REACTORS
330
703
102
}
330
703
100
AcDbXrecord
280
     1
102
ACAD_MATT_HEIGHT
140
1.25
  0
XRECORD
  5
708
102
{ACAD_REACTORS
330
706
102
}
330
706
100
AcDbXrecord
280
     1
 70
     2
 70
     0
 70
     0
 40
1.0
  2
Blattgröße
  1
Embedded Object
 10
8.75
 20
6.437499999999971
 30
0.0
 40
1.25
 41
6.999999999999992
 46
0.0
 71
     5
 72
     5
  1
A4
  7
Textstil54
 73
     1
 44
1.0
  0
XRECORD
  5
707
102
{ACAD_REACTORS
330
706
102
}
330
706
100
AcDbXrecord
280
     1
102
ACAD_MATT_HEIGHT
140
1.25
  0
XRECORD
  5
70B
102
{ACAD_REACTORS
330
709
102
}
330
709
100
AcDbXrecord
280
     1
 70
     2
 70
     0
 70
     0
 40
1.0
  2
Material
  1
Embedded Object
 10
25.50000000000001
 20
10.8125
 30
0.0
 40
1.25
 41
12.5
 46
0.0
 71
     4
 72
     5
  1
brass / plastic
  7
Textstil54
 73
     1
 44
1.0
  0
XRECORD
  5
70A
102
{ACAD_REACTORS
330
709
102
}
330
709
100
AcDbXrecord
280
     1
102
ACAD_MATT_HEIGHT
140
1.25
  0
XRECORD
  5
70E
102
{ACAD_REACTORS
330
70C
102
}
330
70C
100
AcDbXrecord
280
     1
 70
     2
 70
     0
 70
     0
 40
1.0
  2
Artikelnummer
  1
Embedded Object
 10
25.50000000000001
 20
7.072503773495535
 30
0.0
 40
1.25
 41
12.5
 46
0.0
 71
     1
 72
     5
  1

  7
Textstil54
 73
     1
 44
1.0
  0
XRECORD
  5
70D
102
{ACAD_REACTORS
330
70C
102
}
330
70C
100
AcDbXrecord
280
     1
102
ACAD_MATT_HEIGHT
140
1.25
  0
XRECORD
  5
711
102
{ACAD_REACTORS
330
70F
102
}
330
70F
100
AcDbXrecord
280
     1
 70
     2
 70
     0
 70
     0
 40
1.0
  2
Benennung_Deutsch
  1
Embedded Object
 10
38.99999999999998
 20
6.799085353314922
 30
0.0
 40
1.25
 41
40.49999999999997
 46
0.0
 71
     4
 72
     5
  1
Stützkonsole FLEX Gen 2.0
  7
Textstil54
 73
     1
 44
0.3300000131130218
  0
XRECORD
  5
710
102
{ACAD_REACTORS
330
70F
102
}
330
70F
100
AcDbXrecord
280
     1
102
ACAD_MATT_HEIGHT
140
1.25
  0
XRECORD
  5
714
102
{ACAD_REACTORS
330
712
102
}
330
712
100
AcDbXrecord
280
     1
 70
     2
 70
     0
 70
     0
 40
1.0
  2
Revision/Gezeichnet
  1
Embedded Object
 10
18.74999999999998
 20
7.082983946427692
 30
0.0
 40
1.25
 41
11.5
 46
0.0
 71
     2
 72
     5
  1
D / cst
  7
Textstil54
 73
     1
 44
1.0
  0
XRECORD
  5
713
102
{ACAD_REACTORS
330
712
102
}
330
712
100
AcDbXrecord
280
     1
102
ACAD_MATT_HEIGHT
140
1.25
  0
ACDBDETAILVIEWSTYLE
  5
6B
102
{ACAD_XDICTIONARY
360
74A
102
}
102
{ACAD_REACTORS
330
6A
102
}
330
6A
100
AcDbModelDocViewStyle
 70
     0
  3
Imperial24
290
     0
100
AcDbDetailViewStyle
 70
     0
 71
     0
 90
        3
 71
     1
340
55
 62
   256
 40
0.24
340
0
 62
   256
 40
0.24
300

 40
0.36
280
     3
 71
     2
340
5D
 90
       25
 62
   256
 71
     3
340
55
 62
   256
 40
0.24
 90
        1
 40
0.75
 90
        1
300
%<\AcVar ViewType \f "%tc1">% %<\AcVar ViewDetailId>%\PVARIA %<\AcVar ViewScale \f "%sn">%
 71
     4
340
5D
 90
       25
 62
   256
340
5D
 90
       25
 62
   256
280
     0
  0
LAYOUT
  5
6F
102
{ACAD_REACTORS
330
62
102
}
330
62
100
AcDbPlotSettings
  1

  2

  4

  6

 40
0.0
 41
0.0
 42
0.0
 43
0.0
 44
0.0
 45
0.0
 46
0.0
 47
0.0
 48
0.0
 49
0.0
140
0.0
141
0.0
142
1.0
143
1.0
 70
   688
 72
     0
 73
     0
 74
     5
  7

 75
    16
147
1.0
 76
     0
 77
     2
 78
   300
148
0.0
149
0.0
100
AcDbLayout
  1
Layout1
 70
     1
 71
     1
 10
0.0
 20
0.0
 11
12.0
 21
9.0
 12
0.0
 22
0.0
 32
0.0
 14
0.0
 24
0.0
 34
0.0
 15
0.0
 25
0.0
 35
0.0
146
0.0
 13
0.0
 23
0.0
 33
0.0
 16
1.0
 26
0.0
 36
0.0
 17
0.0
 27
1.0
 37
0.0
 76
     0
330
6C
  0
LAYOUT
  5
77
102
{ACAD_REACTORS
330
62
102
}
330
62
100
AcDbPlotSettings
  1

  2

  4

  6

 40
0.0
 41
0.0
 42
0.0
 43
0.0
 44
0.0
 45
0.0
 46
0.0
 47
0.0
 48
0.0
 49
0.0
140
0.0
141
0.0
142
1.0
143
1.0
 70
   688
 72
     0
 73
     0
 74
     5
  7

 75
    16
147
1.0
 76
     0
 77
     2
 78
   300
148
0.0
149
0.0
100
AcDbLayout
  1
Layout2
 70
     1
 71
     2
 10
0.0
 20
0.0
 11
12.0
 21
9.0
 12
0.0
 22
0.0
 32
0.0
 14
0.0
 24
0.0
 34
0.0
 15
0.0
 25
0.0
 35
0.0
146
0.0
 13
0.0
 23
0.0
 33
0.0
 16
1.0
 26
0.0
 36
0.0
 17
0.0
 27
1.0
 37
0.0
 76
     0
330
74
  0
LAYOUT
  5
73
102
{ACAD_REACTORS
330
62
102
}
330
62
100
AcDbPlotSettings
  1

  2

  4

  6

 40
0.0
 41
0.0
 42
0.0
 43
0.0
 44
0.0
 45
0.0
 46
0.0
 47
0.0
 48
0.0
 49
0.0
140
0.0
141
0.0
142
1.0
143
1.0
 70
  1712
 72
     0
 73
     0
 74
     0
  7

 75
     0
147
1.0
 76
     0
 77
     2
 78
   300
148
0.0
149
0.0
100
AcDbLayout
  1
Model
 70
     1
 71
     0
 10
0.0
 20
0.0
 11
12.0
 21
9.0
 12
0.0
 22
0.0
 32
0.0
 14
0.0
 24
0.0
 34
0.0
 15
0.0
 25
0.0
 35
0.0
146
0.0
 13
0.0
 23
0.0
 33
0.0
 16
1.0
 26
0.0
 36
0.0
 17
0.0
 27
1.0
 37
0.0
 76
     0
330
70
  0
MATERIAL
  5
19
102
{ACAD_XDICTIONARY
360
1A
102
}
102
{ACAD_REACTORS
330
10
102
}
330
10
100
AcDbMaterial
  1
ByBlock
 72
     0
 43
0.0208333333333333
 43
0.0
 43
0.0
 43
0.0
 43
0.0
 43
0.0208333333333333
 43
0.0
 43
0.0
 43
0.0
 43
0.0
 43
1.0
 43
0.0
 43
0.0
 43
0.0
 43
0.0
 43
1.0
 77
     0
 47
0.0208333333333333
 47
0.0
 47
0.0
 47
0.0
 47
0.0
 47
0.0208333333333333
 47
0.0
 47
0.0
 47
0.0
 47
0.0
 47
1.0
 47
0.0
 47
0.0
 47
0.0
 47
0.0
 47
1.0
171
     0
 49
0.0208333333333333
 49
0.0
 49
0.0
 49
0.0
 49
0.0
 49
0.0208333333333333
 49
0.0
 49
0.0
 49
0.0
 49
0.0
 49
1.0
 49
0.0
 49
0.0
 49
0.0
 49
0.0
 49
1.0
175
     0
142
0.0208333333333333
142
0.0
142
0.0
142
0.0
142
0.0
142
0.0208333333333333
142
0.0
142
0.0
142
0.0
142
0.0
142
1.0
142
0.0
142
0.0
142
0.0
142
0.0
142
1.0
179
     0
144
0.0208333333333333
144
0.0
144
0.0
144
0.0
144
0.0
144
0.0208333333333333
144
0.0
144
0.0
144
0.0
144
0.0
144
1.0
144
0.0
144
0.0
144
0.0
144
0.0
144
1.0
147
0.0208333333333333
147
0.0
147
0.0
147
0.0
147
0.0
147
0.0208333333333333
147
0.0
147
0.0
147
0.0
147
0.0
147
1.0
147
0.0
147
0.0
147
0.0
147
0.0
147
1.0
  0
MATERIAL
  5
11
102
{ACAD_XDICTIONARY
360
12
102
}
102
{ACAD_REACTORS
330
10
102
}
330
10
100
AcDbMaterial
  1
ByLayer
 72
     0
 43
0.0208333333333333
 43
0.0
 43
0.0
 43
0.0
 43
0.0
 43
0.0208333333333333
 43
0.0
 43
0.0
 43
0.0
 43
0.0
 43
1.0
 43
0.0
 43
0.0
 43
0.0
 43
0.0
 43
1.0
 77
     0
 47
0.0208333333333333
 47
0.0
 47
0.0
 47
0.0
 47
0.0
 47
0.0208333333333333
 47
0.0
 47
0.0
 47
0.0
 47
0.0
 47
1.0
 47
0.0
 47
0.0
 47
0.0
 47
0.0
 47
1.0
171
     0
 49
0.0208333333333333
 49
0.0
 49
0.0
 49
0.0
 49
0.0
 49
0.0208333333333333
 49
0.0
 49
0.0
 49
0.0
 49
0.0
 49
1.0
 49
0.0
 49
0.0
 49
0.0
 49
0.0
 49
1.0
175
     0
142
0.0208333333333333
142
0.0
142
0.0
142
0.0
142
0.0
142
0.0208333333333333
142
0.0
142
0.0
142
0.0
142
0.0
142
1.0
142
0.0
142
0.0
142
0.0
142
0.0
142
1.0
179
     0
144
0.0208333333333333
144
0.0
144
0.0
144
0.0
144
0.0
144
0.0208333333333333
144
0.0
144
0.0
144
0.0
144
0.0
144
1.0
144
0.0
144
0.0
144
0.0
144
0.0
144
1.0
147
0.0208333333333333
147
0.0
147
0.0
147
0.0
147
0.0
147
0.0208333333333333
147
0.0
147
0.0
147
0.0
147
0.0
147
1.0
147
0.0
147
0.0
147
0.0
147
0.0
147
1.0
  0
MATERIAL
  5
21
102
{ACAD_XDICTIONARY
360
22
102
}
102
{ACAD_REACTORS
330
10
102
}
330
10
100
AcDbMaterial
  1
Global
 72
     0
 43
0.0208333333333333
 43
0.0
 43
0.0
 43
0.0
 43
0.0
 43
0.0208333333333333
 43
0.0
 43
0.0
 43
0.0
 43
0.0
 43
1.0
 43
0.0
 43
0.0
 43
0.0
 43
0.0
 43
1.0
 77
     0
 47
0.0208333333333333
 47
0.0
 47
0.0
 47
0.0
 47
0.0
 47
0.0208333333333333
 47
0.0
 47
0.0
 47
0.0
 47
0.0
 47
1.0
 47
0.0
 47
0.0
 47
0.0
 47
0.0
 47
1.0
171
     0
 49
0.0208333333333333
 49
0.0
 49
0.0
 49
0.0
 49
0.0
 49
0.0208333333333333
 49
0.0
 49
0.0
 49
0.0
 49
0.0
 49
1.0
 49
0.0
 49
0.0
 49
0.0
 49
0.0
 49
1.0
175
     0
142
0.0208333333333333
142
0.0
142
0.0
142
0.0
142
0.0
142
0.0208333333333333
142
0.0
142
0.0
142
0.0
142
0.0
142
1.0
142
0.0
142
0.0
142
0.0
142
0.0
142
1.0
179
     0
144
0.0208333333333333
144
0.0
144
0.0
144
0.0
144
0.0
144
0.0208333333333333
144
0.0
144
0.0
144
0.0
144
0.0
144
1.0
144
0.0
144
0.0
144
0.0
144
0.0
144
1.0
147
0.0208333333333333
147
0.0
147
0.0
147
0.0
147
0.0
147
0.0208333333333333
147
0.0
147
0.0
147
0.0
147
0.0
147
1.0
147
0.0
147
0.0
147
0.0
147
0.0
147
1.0
  0
MLEADERSTYLE
  5
67
102
{ACAD_XDICTIONARY
360
746
102
}
102
{ACAD_REACTORS
330
66
102
}
330
66
100
AcDbMLeaderStyle
179
     2
170
     2
171
     1
172
     0
 90
        2
 40
0.0
 41
0.0
173
     1
 91
-1056964608
340
5B
 92
       -2
290
     1
 42
0.09
291
     1
 43
0.36
  3
Standard
 44
0.18
300

342
55
174
     1
178
     6
175
     1
176
     0
 93
-1056964608
 45
0.18
292
     0
297
     0
 46
0.18
 94
-1056964608
 47
1.0
 49
1.0
140
1.0
293
     1
141
0.0
294
     1
177
     0
142
1.0
295
     0
296
     0
143
0.125
271
     0
272
     9
273
     9
  0
MLINESTYLE
  5
60
102
{ACAD_REACTORS
330
5F
102
}
330
5F
100
AcDbMlineStyle
  2
STANDARD
 70
     0
  3

 62
   256
 51
90.0
 52
90.0
 71
     2
 49
0.5
 62
   256
  6
BYLAYER
 49
-0.5
 62
   256
  6
BYLAYER
  0
ACDBPLACEHOLDER
  5
F
102
{ACAD_REACTORS
330
E
102
}
330
E
  0
SCALE
  5
43
102
{ACAD_REACTORS
330
42
102
}
330
42
100
AcDbScale
 70
     0
300
1:1
140
1.0
141
1.0
290
     1
  0
SCALE
  5
44
102
{ACAD_REACTORS
330
42
102
}
330
42
100
AcDbScale
 70
     0
300
1/128" = 1'-0"
140
0.0078125
141
12.0
290
     0
  0
SCALE
  5
45
102
{ACAD_REACTORS
330
42
102
}
330
42
100
AcDbScale
 70
     0
300
1/64" = 1'-0"
140
0.015625
141
12.0
290
     0
  0
SCALE
  5
46
102
{ACAD_REACTORS
330
42
102
}
330
42
100
AcDbScale
 70
     0
300
1/32" = 1'-0"
140
0.03125
141
12.0
290
     0
  0
SCALE
  5
47
102
{ACAD_REACTORS
330
42
102
}
330
42
100
AcDbScale
 70
     0
300
1/16" = 1'-0"
140
0.0625
141
12.0
290
     0
  0
SCALE
  5
48
102
{ACAD_REACTORS
330
42
102
}
330
42
100
AcDbScale
 70
     0
300
3/32" = 1'-0"
140
0.09375
141
12.0
290
     0
  0
SCALE
  5
49
102
{ACAD_REACTORS
330
42
102
}
330
42
100
AcDbScale
 70
     0
300
1/8" = 1'-0"
140
0.125
141
12.0
290
     0
  0
SCALE
  5
4A
102
{ACAD_REACTORS
330
42
102
}
330
42
100
AcDbScale
 70
     0
300
3/16" = 1'-0"
140
0.1875
141
12.0
290
     0
  0
SCALE
  5
4B
102
{ACAD_REACTORS
330
42
102
}
330
42
100
AcDbScale
 70
     0
300
1/4" = 1'-0"
140
0.25
141
12.0
290
     0
  0
SCALE
  5
4C
102
{ACAD_REACTORS
330
42
102
}
330
42
100
AcDbScale
 70
     0
300
3/8" = 1'-0"
140
0.375
141
12.0
290
     0
  0
SCALE
  5
4D
102
{ACAD_REACTORS
330
42
102
}
330
42
100
AcDbScale
 70
     0
300
1/2" = 1'-0"
140
0.5
141
12.0
290
     0
  0
SCALE
  5
4E
102
{ACAD_REACTORS
330
42
102
}
330
42
100
AcDbScale
 70
     0
300
3/4" = 1'-0"
140
0.75
141
12.0
290
     0
  0
SCALE
  5
4F
102
{ACAD_REACTORS
330
42
102
}
330
42
100
AcDbScale
 70
     0
300
1" = 1'-0"
140
1.0
141
12.0
290
     0
  0
SCALE
  5
50
102
{ACAD_REACTORS
330
42
102
}
330
42
100
AcDbScale
 70
     0
300
1-1/2" = 1'-0"
140
1.5
141
12.0
290
     0
  0
SCALE
  5
51
102
{ACAD_REACTORS
330
42
102
}
330
42
100
AcDbScale
 70
     0
300
3" = 1'-0"
140
3.0
141
12.0
290
     0
  0
SCALE
  5
52
102
{ACAD_REACTORS
330
42
102
}
330
42
100
AcDbScale
 70
     0
300
6" = 1'-0"
140
6.0
141
12.0
290
     0
  0
SCALE
  5
53
102
{ACAD_REACTORS
330
42
102
}
330
42
100
AcDbScale
 70
     0
300
1'-0" = 1'-0"
140
12.0
141
12.0
290
     0
  0
ACDBSECTIONVIEWSTYLE
  5
69
102
{ACAD_XDICTIONARY
360
748
102
}
102
{ACAD_REACTORS
330
68
102
}
330
68
100
AcDbModelDocViewStyle
 70
     0
  3
Imperial24
290
     0
100
AcDbSectionViewStyle
 70
     0
 71
     0
 90
       78
 71
     1
340
55
 62
   256
 40
0.24
340
0
340
0
 62
   256
 40
0.24
300
I, O, Q, S, X, Z
 40
0.48
 90
        3
 40
0.18
 90
        1
 71
     2
340
5D
 90
       25
 62
   256
340
5D
 90
       50
 62
   256
 40
0.24
 40
0.0
 40
0.24
 71
     3
340
55
 62
   256
 40
0.24
 90
        1
 40
0.75
 90
        1
300
%<\AcVar ViewType \f "%tc1">% %<\AcVar ViewSectionStartId>%-%<\AcVar ViewSectionEndId>%\PVARIA %<\AcVar ViewScale \f "%sn">%
 71
     4
 62
   256
 62
   257
300
ANSI31
 40
1.0
 90
        0
290
     0
290
     0
 90
        6
 40
0.0
 40
1.570796326794896
 40
0.2617993877991494
 40
1.308996938995747
 40
-0.2617993877991494
 40
1.832595714594046
  0
TABLESTYLE
  5
65
102
{ACAD_XDICTIONARY
360
6E1
102
}
102
{ACAD_REACTORS
330
64
102
}
330
64
100
AcDbTableStyle
280
     0
  3
Standard
 70
     0
 71
     0
 40
0.06
 41
0.06
280
     0
281
     0
  7
Standard
140
0.18
170
     2
 62
     0
 63
     7
283
     0
 90
      512
 91
        0
  1

274
    -2
284
     1
 64
     0
275
    -2
285
     1
 65
     0
276
    -2
286
     1
 66
     0
277
    -2
287
     1
 67
     0
278
    -2
288
     1
 68
     0
279
    -2
289
     1
 69
     0
  7
Standard
140
0.25
170
     5
 62
     0
 63
     7
283
     0
 90
      512
 91
        0
  1

274
    -2
284
     1
 64
     0
275
    -2
285
     1
 65
     0
276
    -2
286
     1
 66
     0
277
    -2
287
     1
 67
     0
278
    -2
288
     1
 68
     0
279
    -2
289
     1
 69
     0
  7
Standard
140
0.18
170
     5
 62
     0
 63
     7
283
     0
 90
      512
 91
        0
  1

274
    -2
284
     1
 64
     0
275
    -2
285
     1
 65
     0
276
    -2
286
     1
 66
     0
277
    -2
287
     1
 67
     0
278
    -2
288
     1
 68
     0
279
    -2
289
     1
 69
     0
  0
VISUALSTYLE
  5
2F
102
{ACAD_XDICTIONARY
360
720
102
}
102
{ACAD_REACTORS
330
29
102
}
330
29
100
AcDbVisualStyle
  2
2dWireframe
 70
     4
177
     2
291
     0
 71
     0
176
     1
 72
     2
176
     1
 73
     0
176
     1
 90
        0
176
     1
 40
0.6
176
     1
 41
30.0
176
     1
 63
     7
421
 16777215
176
     1
 74
     1
176
     1
 91
        4
176
     1
 64
     7
176
     1
 65
   257
176
     1
 75
     1
176
     1
175
     1
176
     1
 42
1.0
176
     1
 92
        0
176
     1
 66
   257
176
     1
 43
1.0
176
     1
 76
     1
176
     1
 77
     6
176
     1
 78
     2
176
     1
 67
     7
176
     1
 79
     5
176
     1
170
     0
176
     1
171
     0
176
     1
290
     0
176
     1
 93
        1
176
     1
 44
0.0
176
     1
173
     0
176
     1
1001
ACAD
1000
AcDbSavedByObjectVersion
1070
     0
  0
VISUALSTYLE
  5
2E
102
{ACAD_XDICTIONARY
360
71E
102
}
102
{ACAD_REACTORS
330
29
102
}
330
29
100
AcDbVisualStyle
  2
Basic
 70
     7
177
     2
291
     1
 71
     1
176
     1
 72
     0
176
     1
 73
     1
176
     1
 90
        0
176
     1
 40
0.6
176
     1
 41
30.0
176
     1
 63
     7
421
 16777215
176
     1
 74
     0
176
     1
 91
        4
176
     1
 64
     7
176
     1
 65
   257
176
     1
 75
     1
176
     1
175
     1
176
     1
 42
1.0
176
     1
 92
        8
176
     1
 66
     7
176
     1
 43
1.0
176
     1
 76
     1
176
     1
 77
     6
176
     1
 78
     2
176
     1
 67
     7
176
     1
 79
     5
176
     1
170
     0
176
     1
171
     0
176
     1
290
     0
176
     1
 93
        1
176
     1
 44
0.0
176
     1
173
     0
176
     1
1001
ACAD
1000
AcDbSavedByObjectVersion
1070
     0
  0
VISUALSTYLE
  5
35
102
{ACAD_XDICTIONARY
360
72C
102
}
102
{ACAD_REACTORS
330
29
102
}
330
29
100
AcDbVisualStyle
  2
Brighten
 70
    12
177
     2
291
     1
 71
     2
176
     1
 72
     2
176
     1
 73
     0
176
     1
 90
        0
176
     1
 40
0.6
176
     1
 41
30.0
176
     1
 63
     7
421
 16777215
176
     1
 74
     1
176
     1
 91
        4
176
     1
 64
     7
176
     1
 65
   257
176
     1
 75
     1
176
     1
175
     1
176
     1
 42
1.0
176
     1
 92
        8
176
     1
 66
     7
176
     1
 43
1.0
176
     1
 76
     1
176
     1
 77
     6
176
     1
 78
     2
176
     1
 67
     7
176
     1
 79
     5
176
     1
170
     0
176
     1
171
     0
176
     1
290
     0
176
     1
 93
        1
176
     1
 44
50.0
176
     1
173
     0
176
     1
1001
ACAD
1000
AcDbSavedByObjectVersion
1070
     0
  0
VISUALSTYLE
  5
39
102
{ACAD_XDICTIONARY
360
734
102
}
102
{ACAD_REACTORS
330
29
102
}
330
29
100
AcDbVisualStyle
  2
ColorChange
 70
    16
177
     2
291
     1
 71
     2
176
     1
 72
     2
176
     1
 73
     3
176
     1
 90
        0
176
     1
 40
0.6
176
     1
 41
30.0
176
     1
 63
     8
421
  8421504
176
     1
 74
     1
176
     1
 91
        4
176
     1
 64
     7
176
     1
 65
   257
176
     1
 75
     1
176
     1
175
     1
176
     1
 42
1.0
176
     1
 92
        8
176
     1
 66
     8
424
  8421504
176
     1
 43
1.0
176
     1
 76
     1
176
     1
 77
     6
176
     1
 78
     2
176
     1
 67
     7
176
     1
 79
     5
176
     1
170
     0
176
     1
171
     0
176
     1
290
     0
176
     1
 93
        1
176
     1
 44
0.0
176
     1
173
     0
176
     1
1001
ACAD
1000
AcDbSavedByObjectVersion
1070
     0
  0
VISUALSTYLE
  5
32
102
{ACAD_XDICTIONARY
360
726
102
}
102
{ACAD_REACTORS
330
29
102
}
330
29
100
AcDbVisualStyle
  2
Conceptual
 70
     9
177
     2
291
     0
 71
     3
176
     1
 72
     2
176
     1
 73
     0
176
     1
 90
        0
176
     1
 40
0.6
176
     1
 41
30.0
176
     1
 63
     7
421
 16777215
176
     1
 74
     2
176
     1
 91
        2
176
     1
 64
     7
176
     1
 65
   257
176
     1
 75
     1
176
     1
175
     1
176
     1
 42
179.0
176
     1
 92
        8
176
     1
 66
     7
176
     1
 43
1.0
176
     1
 76
     1
176
     1
 77
     6
176
     1
 78
     2
176
     1
 67
     7
176
     1
 79
     3
176
     1
170
     0
176
     1
171
     0
176
     1
290
     0
176
     1
 93
        1
176
     1
 44
0.0
176
     1
173
     0
176
     1
1001
ACAD
1000
AcDbSavedByObjectVersion
1070
     0
  0
VISUALSTYLE
  5
34
102
{ACAD_XDICTIONARY
360
72A
102
}
102
{ACAD_REACTORS
330
29
102
}
330
29
100
AcDbVisualStyle
  2
Dim
 70
    11
177
     2
291
     1
 71
     2
176
     1
 72
     2
176
     1
 73
     0
176
     1
 90
        0
176
     1
 40
0.6
176
     1
 41
30.0
176
     1
 63
     7
421
 16777215
176
     1
 74
     1
176
     1
 91
        4
176
     1
 64
     7
176
     1
 65
   257
176
     1
 75
     1
176
     1
175
     1
176
     1
 42
1.0
176
     1
 92
        8
176
     1
 66
     7
176
     1
 43
1.0
176
     1
 76
     1
176
     1
 77
     6
176
     1
 78
     2
176
     1
 67
     7
176
     1
 79
     5
176
     1
170
     0
176
     1
171
     0
176
     1
290
     0
176
     1
 93
        1
176
     1
 44
-50.0
176
     1
173
     0
176
     1
1001
ACAD
1000
AcDbSavedByObjectVersion
1070
     0
  0
VISUALSTYLE
  5
41
102
{ACAD_XDICTIONARY
360
744
102
}
102
{ACAD_REACTORS
330
29
102
}
330
29
100
AcDbVisualStyle
  2
EdgeColorOff
 70
    22
177
     2
291
     1
 71
     2
176
     0
 72
     2
176
     0
 73
     0
176
     0
 90
        0
176
     0
 40
0.6
176
     0
 41
30.0
176
     0
 63
     7
421
 16777215
176
     0
 74
     1
176
     0
 91
        4
176
     0
 64
     7
176
     0
 65
   257
176
     0
 75
     1
176
     0
175
     1
176
     0
 42
1.0
176
     0
 92
        8
176
     2
 66
     7
176
     0
 43
1.0
176
     0
 76
     1
176
     0
 77
     6
176
     0
 78
     2
176
     0
 67
     7
176
     0
 79
     5
176
     0
170
     0
176
     0
171
     0
176
     0
290
     0
176
     0
 93
        1
176
     0
 44
0.0
176
     0
173
     0
176
     0
1001
ACAD
1000
AcDbSavedByObjectVersion
1070
     0
  0
VISUALSTYLE
  5
38
102
{ACAD_XDICTIONARY
360
732
102
}
102
{ACAD_REACTORS
330
29
102
}
330
29
100
AcDbVisualStyle
  2
Facepattern
 70
    15
177
     2
291
     1
 71
     2
176
     1
 72
     2
176
     1
 73
     0
176
     1
 90
        0
176
     1
 40
0.6
176
     1
 41
30.0
176
     1
 63
     7
421
 16777215
176
     1
 74
     1
176
     1
 91
        4
176
     1
 64
     7
176
     1
 65
   257
176
     1
 75
     1
176
     1
175
     1
176
     1
 42
1.0
176
     1
 92
        8
176
     1
 66
     7
176
     1
 43
1.0
176
     1
 76
     1
176
     1
 77
     6
176
     1
 78
     2
176
     1
 67
     7
176
     1
 79
     5
176
     1
170
     0
176
     1
171
     0
176
     1
290
     0
176
     1
 93
        1
176
     1
 44
0.0
176
     1
173
     0
176
     1
1001
ACAD
1000
AcDbSavedByObjectVersion
1070
     0
  0
VISUALSTYLE
  5
2A
102
{ACAD_XDICTIONARY
360
716
102
}
102
{ACAD_REACTORS
330
29
102
}
330
29
100
AcDbVisualStyle
  2
Flat
 70
     0
177
     2
291
     1
 71
     2
176
     1
 72
     1
176
     1
 73
     1
176
     1
 90
        2
176
     1
 40
0.6
176
     1
 41
30.0
176
     1
 63
     7
421
 16777215
176
     1
 74
     0
176
     1
 91
        0
176
     1
 64
     7
176
     1
 65
   257
176
     1
 75
     1
176
     1
175
     1
176
     1
 42
1.0
176
     1
 92
        8
176
     1
 66
     7
176
     1
 43
1.0
176
     1
 76
     1
176
     1
 77
     6
176
     1
 78
     2
176
     1
 67
     7
176
     1
 79
     5
176
     1
170
     0
176
     1
171
     0
176
     1
290
     0
176
     1
 93
       13
176
     1
 44
0.0
176
     1
173
     0
176
     1
1001
ACAD
1000
AcDbSavedByObjectVersion
1070
     0
  0
VISUALSTYLE
  5
2B
102
{ACAD_XDICTIONARY
360
718
102
}
102
{ACAD_REACTORS
330
29
102
}
330
29
100
AcDbVisualStyle
  2
FlatWithEdges
 70
     1
177
     2
291
     1
 71
     2
176
     1
 72
     1
176
     1
 73
     1
176
     1
 90
        2
176
     1
 40
0.6
176
     1
 41
30.0
176
     1
 63
     7
421
 16777215
176
     1
 74
     1
176
     1
 91
        0
176
     1
 64
     7
176
     1
 65
   257
176
     1
 75
     1
176
     1
175
     1
176
     1
 42
1.0
176
     1
 92
        0
176
     1
 66
   257
176
     1
 43
1.0
176
     1
 76
     1
176
     1
 77
     6
176
     1
 78
     2
176
     1
 67
     7
176
     1
 79
     5
176
     1
170
     0
176
     1
171
     0
176
     1
290
     0
176
     1
 93
       13
176
     1
 44
0.0
176
     1
173
     0
176
     1
1001
ACAD
1000
AcDbSavedByObjectVersion
1070
     0
  0
VISUALSTYLE
  5
2C
102
{ACAD_XDICTIONARY
360
71A
102
}
102
{ACAD_REACTORS
330
29
102
}
330
29
100
AcDbVisualStyle
  2
Gouraud
 70
     2
177
     2
291
     1
 71
     2
176
     1
 72
     2
176
     1
 73
     1
176
     1
 90
        2
176
     1
 40
0.6
176
     1
 41
30.0
176
     1
 63
     7
421
 16777215
176
     1
 74
     0
176
     1
 91
        0
176
     1
 64
     7
176
     1
 65
   257
176
     1
 75
     1
176
     1
175
     1
176
     1
 42
1.0
176
     1
 92
        0
176
     1
 66
     7
176
     1
 43
1.0
176
     1
 76
     1
176
     1
 77
     6
176
     1
 78
     2
176
     1
 67
     7
176
     1
 79
     5
176
     1
170
     0
176
     1
171
     0
176
     1
290
     0
176
     1
 93
       13
176
     1
 44
0.0
176
     1
173
     0
176
     1
1001
ACAD
1000
AcDbSavedByObjectVersion
1070
     0
  0
VISUALSTYLE
  5
2D
102
{ACAD_XDICTIONARY
360
71C
102
}
102
{ACAD_REACTORS
330
29
102
}
330
29
100
AcDbVisualStyle
  2
GouraudWithEdges
 70
     3
177
     2
291
     1
 71
     2
176
     1
 72
     2
176
     1
 73
     1
176
     1
 90
        2
176
     1
 40
0.6
176
     1
 41
30.0
176
     1
 63
     7
421
 16777215
176
     1
 74
     1
176
     1
 91
        0
176
     1
 64
     7
176
     1
 65
   257
176
     1
 75
     1
176
     1
175
     1
176
     1
 42
1.0
176
     1
 92
        0
176
     1
 66
   257
176
     1
 43
1.0
176
     1
 76
     1
176
     1
 77
     6
176
     1
 78
     2
176
     1
 67
     7
176
     1
 79
     5
176
     1
170
     0
176
     1
171
     0
176
     1
290
     0
176
     1
 93
       13
176
     1
 44
0.0
176
     1
173
     0
176
     1
1001
ACAD
1000
AcDbSavedByObjectVersion
1070
     0
  0
VISUALSTYLE
  5
31
102
{ACAD_XDICTIONARY
360
724
102
}
102
{ACAD_REACTORS
330
29
102
}
330
29
100
AcDbVisualStyle
  2
Hidden
 70
     6
177
     2
291
     0
 71
     1
176
     1
 72
     2
176
     1
 73
     2
176
     1
 90
        0
176
     1
 40
0.6
176
     1
 41
30.0
176
     1
 63
     7
421
 16777215
176
     1
 74
     2
176
     1
 91
        2
176
     1
 64
     7
176
     1
 65
   257
176
     1
 75
     2
176
     1
175
     1
176
     1
 42
40.0
176
     1
 92
        0
176
     1
 66
   257
176
     1
 43
1.0
176
     1
 76
     1
176
     1
 77
     6
176
     1
 78
     2
176
     1
 67
     7
176
     1
 79
     3
176
     1
170
     0
176
     1
171
     0
176
     1
290
     0
176
     1
 93
        1
176
     1
 44
0.0
176
     1
173
     0
176
     1
1001
ACAD
1000
AcDbSavedByObjectVersion
1070
     0
  0
VISUALSTYLE
  5
3F
102
{ACAD_XDICTIONARY
360
740
102
}
102
{ACAD_REACTORS
330
29
102
}
330
29
100
AcDbVisualStyle
  2
JitterOff
 70
    20
177
     2
291
     1
 71
     2
176
     0
 72
     2
176
     0
 73
     0
176
     0
 90
        0
176
     0
 40
0.6
176
     0
 41
30.0
176
     0
 63
     7
421
 16777215
176
     0
 74
     1
176
     0
 91
        4
176
     0
 64
     7
176
     0
 65
   257
176
     0
 75
     1
176
     0
175
     1
176
     0
 42
1.0
176
     0
 92
       10
176
     2
 66
     7
176
     0
 43
1.0
176
     0
 76
     1
176
     0
 77
     6
176
     0
 78
     2
176
     0
 67
     7
176
     0
 79
     5
176
     0
170
     0
176
     0
171
     0
176
     0
290
     0
176
     0
 93
        1
176
     0
 44
0.0
176
     0
173
     0
176
     0
1001
ACAD
1000
AcDbSavedByObjectVersion
1070
     0
  0
VISUALSTYLE
  5
37
102
{ACAD_XDICTIONARY
360
730
102
}
102
{ACAD_REACTORS
330
29
102
}
330
29
100
AcDbVisualStyle
  2
Linepattern
 70
    14
177
     2
291
     1
 71
     2
176
     1
 72
     2
176
     1
 73
     0
176
     1
 90
        0
176
     1
 40
0.6
176
     1
 41
30.0
176
     1
 63
     7
421
 16777215
176
     1
 74
     1
176
     1
 91
        4
176
     1
 64
     7
176
     1
 65
   257
176
     1
 75
     7
176
     1
175
     7
176
     1
 42
1.0
176
     1
 92
        8
176
     1
 66
     7
176
     1
 43
1.0
176
     1
 76
     1
176
     1
 77
     6
176
     1
 78
     2
176
     1
 67
     7
176
     1
 79
     5
176
     1
170
     0
176
     1
171
     0
176
     1
290
     0
176
     1
 93
        1
176
     1
 44
0.0
176
     1
173
     0
176
     1
1001
ACAD
1000
AcDbSavedByObjectVersion
1070
     0
  0
VISUALSTYLE
  5
40
102
{ACAD_XDICTIONARY
360
742
102
}
102
{ACAD_REACTORS
330
29
102
}
330
29
100
AcDbVisualStyle
  2
OverhangOff
 70
    21
177
     2
291
     1
 71
     2
176
     0
 72
     2
176
     0
 73
     0
176
     0
 90
        0
176
     0
 40
0.6
176
     0
 41
30.0
176
     0
 63
     7
421
 16777215
176
     0
 74
     1
176
     0
 91
        4
176
     0
 64
     7
176
     0
 65
   257
176
     0
 75
     1
176
     0
175
     1
176
     0
 42
1.0
176
     0
 92
        9
176
     2
 66
     7
176
     0
 43
1.0
176
     0
 76
     1
176
     0
 77
     6
176
     0
 78
     2
176
     0
 67
     7
176
     0
 79
     5
176
     0
170
     0
176
     0
171
     0
176
     0
290
     0
176
     0
 93
        1
176
     0
 44
0.0
176
     0
173
     0
176
     0
1001
ACAD
1000
AcDbSavedByObjectVersion
1070
     0
  0
VISUALSTYLE
  5
33
102
{ACAD_XDICTIONARY
360
728
102
}
102
{ACAD_REACTORS
330
29
102
}
330
29
100
AcDbVisualStyle
  2
Realistic
 70
     8
177
     2
291
     0
 71
     2
176
     1
 72
     3
176
     1
 73
     0
176
     1
 90
        2
176
     1
 40
0.6
176
     1
 41
30.0
176
     1
 63
     7
421
 16777215
176
     1
 74
     0
176
     1
 91
        0
176
     1
 64
     7
176
     1
 65
   257
176
     1
 75
     1
176
     1
175
     1
176
     1
 42
1.0
176
     1
 92
        8
176
     1
 66
   257
176
     1
 43
1.0
176
     1
 76
     1
176
     1
 77
     6
176
     1
 78
     2
176
     1
 67
     7
176
     1
 79
     3
176
     1
170
     0
176
     1
171
     0
176
     1
290
     0
176
     1
 93
       13
176
     1
 44
0.0
176
     1
173
     0
176
     1
1001
ACAD
1000
AcDbSavedByObjectVersion
1070
     0
  0
VISUALSTYLE
  5
3E
102
{ACAD_XDICTIONARY
360
73E
102
}
102
{ACAD_REACTORS
330
29
102
}
330
29
100
AcDbVisualStyle
  2
Shaded
 70
    27
177
     2
291
     0
 71
     2
176
     1
 72
     2
176
     1
 73
     1
176
     1
 90
        2
176
     1
 40
0.6
176
     1
 41
30.0
176
     1
 63
     7
421
 16777215
176
     1
 74
     0
176
     1
 91
        4
176
     1
 64
     7
176
     1
 65
   257
176
     1
 75
     1
176
     1
175
     1
176
     1
 42
1.0
176
     1
 92
        8
176
     1
 66
   257
176
     1
 43
1.0
176
     1
 76
     1
176
     1
 77
     6
176
     1
 78
     2
176
     1
 67
     8
425
  7895160
176
     1
 79
     3
176
     1
170
     0
176
     1
171
     0
176
     1
290
     0
176
     1
 93
        5
176
     1
 44
0.0
176
     1
173
     0
176
     1
1001
ACAD
1000
AcDbSavedByObjectVersion
1070
     0
  0
VISUALSTYLE
  5
3D
102
{ACAD_XDICTIONARY
360
73C
102
}
102
{ACAD_REACTORS
330
29
102
}
330
29
100
AcDbVisualStyle
  2
Shaded with edges
 70
    26
177
     2
291
     0
 71
     2
176
     1
 72
     2
176
     1
 73
     1
176
     1
 90
        2
176
     1
 40
0.6
176
     1
 41
30.0
176
     1
 63
     7
421
 16777215
176
     1
 74
     1
176
     1
 91
        2
176
     1
 64
     7
176
     1
 65
   257
176
     1
 75
     2
176
     1
175
     1
176
     1
 42
1.0
176
     1
 92
        8
176
     1
 66
   257
176
     1
 43
1.0
176
     1
 76
     1
176
     1
 77
     6
176
     1
 78
     2
176
     1
 67
     7
176
     1
 79
     3
176
     1
170
     0
176
     1
171
     0
176
     1
290
     0
176
     1
 93
        5
176
     1
 44
0.0
176
     1
173
     0
176
     1
1001
ACAD
1000
AcDbSavedByObjectVersion
1070
     0
  0
VISUALSTYLE
  5
3A
102
{ACAD_XDICTIONARY
360
736
102
}
102
{ACAD_REACTORS
330
29
102
}
330
29
100
AcDbVisualStyle
  2
Shades of Gray
 70
    23
177
     2
291
     0
 71
     2
176
     1
 72
     2
176
     1
 73
     3
176
     1
 90
        0
176
     1
 40
0.6
176
     1
 41
30.0
176
     1
 63
     7
421
 16777215
176
     1
 74
     2
176
     1
 91
        2
176
     1
 64
     7
176
     1
 65
     7
176
     1
 75
     1
176
     1
175
     1
176
     1
 42
40.0
176
     1
 92
        8
176
     1
 66
     7
176
     1
 43
1.0
176
     1
 76
     1
176
     1
 77
     6
176
     1
 78
     2
176
     1
 67
     7
176
     1
 79
     3
176
     1
170
     0
176
     1
171
     0
176
     1
290
     0
176
     1
 93
        1
176
     1
 44
0.0
176
     1
173
     0
176
     1
1001
ACAD
1000
AcDbSavedByObjectVersion
1070
     0
  0
VISUALSTYLE
  5
3B
102
{ACAD_XDICTIONARY
360
738
102
}
102
{ACAD_REACTORS
330
29
102
}
330
29
100
AcDbVisualStyle
  2
Sketchy
 70
    24
177
     2
291
     0
 71
     1
176
     1
 72
     2
176
     1
 73
     2
176
     1
 90
        0
176
     1
 40
0.6
176
     1
 41
30.0
176
     1
 63
     7
421
 16777215
176
     1
 74
     2
176
     1
 91
        2
176
     1
 64
     7
176
     1
 65
     7
176
     1
 75
     1
176
     1
175
     1
176
     1
 42
40.0
176
     1
 92
       11
176
     1
 66
     7
176
     1
 43
1.0
176
     1
 76
     1
176
     1
 77
     6
176
     1
 78
     2
176
     1
 67
     7
176
     1
 79
     6
176
     1
170
     0
176
     1
171
     0
176
     1
290
     0
176
     1
 93
        1
176
     1
 44
0.0
176
     1
173
     0
176
     1
1001
ACAD
1000
AcDbSavedByObjectVersion
1070
     0
  0
VISUALSTYLE
  5
36
102
{ACAD_XDICTIONARY
360
72E
102
}
102
{ACAD_REACTORS
330
29
102
}
330
29
100
AcDbVisualStyle
  2
Thicken
 70
    13
177
     2
291
     1
 71
     2
176
     1
 72
     2
176
     1
 73
     0
176
     1
 90
        0
176
     1
 40
0.6
176
     1
 41
30.0
176
     1
 63
     7
421
 16777215
176
     1
 74
     1
176
     1
 91
        4
176
     1
 64
     7
176
     1
 65
   257
176
     1
 75
     1
176
     1
175
     1
176
     1
 42
1.0
176
     1
 92
       12
176
     1
 66
     7
176
     1
 43
1.0
176
     1
 76
     1
176
     1
 77
     6
176
     1
 78
     2
176
     1
 67
     7
176
     1
 79
     5
176
     1
170
     0
176
     1
171
     0
176
     1
290
     0
176
     1
 93
        1
176
     1
 44
0.0
176
     1
173
     0
176
     1
1001
ACAD
1000
AcDbSavedByObjectVersion
1070
     0
  0
VISUALSTYLE
  5
30
102
{ACAD_XDICTIONARY
360
722
102
}
102
{ACAD_REACTORS
330
29
102
}
330
29
100
AcDbVisualStyle
  2
Wireframe
 70
     5
177
     2
291
     0
 71
     0
176
     1
 72
     2
176
     1
 73
     0
176
     1
 90
        0
176
     1
 40
0.6
176
     1
 41
30.0
176
     1
 63
     7
421
 16777215
176
     1
 74
     1
176
     1
 91
        4
176
     1
 64
     7
176
     1
 65
   257
176
     1
 75
     1
176
     1
175
     1
176
     1
 42
1.0
176
     1
 92
        0
176
     1
 66
   257
176
     1
 43
1.0
176
     1
 76
     1
176
     1
 77
     6
176
     1
 78
     2
176
     1
 67
     7
176
     1
 79
     3
176
     1
170
     0
176
     1
171
     0
176
     1
290
     0
176
     1
 93
        1
176
     1
 44
0.0
176
     1
173
     0
176
     1
1001
ACAD
1000
AcDbSavedByObjectVersion
1070
     0
  0
VISUALSTYLE
  5
3C
102
{ACAD_XDICTIONARY
360
73A
102
}
102
{ACAD_REACTORS
330
29
102
}
330
29
100
AcDbVisualStyle
  2
X-Ray
 70
    25
177
     2
291
     0
 71
     2
176
     1
 72
     2
176
     1
 73
     1
176
     1
 90
        1
176
     1
 40
0.5
176
     1
 41
30.0
176
     1
 63
     7
421
 16777215
176
     1
 74
     1
176
     1
 91
        0
176
     1
 64
     7
176
     1
 65
   257
176
     1
 75
     1
176
     1
175
     1
176
     1
 42
1.0
176
     1
 92
        8
176
     1
 66
     7
176
     1
 43
1.0
176
     1
 76
     1
176
     1
 77
     6
176
     1
 78
     2
176
     1
 67
     7
176
     1
 79
     3
176
     1
170
     0
176
     1
171
     0
176
     1
290
     0
176
     1
 93
       13
176
     1
 44
0.0
176
     1
173
     0
176
     1
1001
ACAD
1000
AcDbSavedByObjectVersion
1070
     0
  0
DICTIONARYVAR
  5
6E0
102
{ACAD_REACTORS
330
6DB
102
}
330
6DB
100
DictionaryVariables
280
     0
  1
1:1
  0
DICTIONARYVAR
  5
6DD
102
{ACAD_REACTORS
330
6DB
102
}
330
6DB
100
DictionaryVariables
280
     0
  1
STANDARD
  0
DICTIONARYVAR
  5
6DC
102
{ACAD_REACTORS
330
6DB
102
}
330
6DB
100
DictionaryVariables
280
     0
  1
STANDARD
  0
DICTIONARYVAR
  5
6DE
102
{ACAD_REACTORS
330
6DB
102
}
330
6DB
100
DictionaryVariables
280
     0
  1
Imperial24
  0
DICTIONARYVAR
  5
6DF
102
{ACAD_REACTORS
330
6DB
102
}
330
6DB
100
DictionaryVariables
280
     0
  1
Imperial24
  0
DICTIONARY
  5
74A
330
6B
100
AcDbDictionary
280
     1
281
     1
  3
ACAD_XREC_ROUNDTRIP
360
74B
  0
DICTIONARY
  5
1A
330
19
100
AcDbDictionary
280
     1
281
     1
  3
BUMPTILE
360
1C
  3
DIFFUSETILE
360
1B
  3
OPACITYTILE
360
1F
  3
REFLECTIONTILE
360
1E
  3
REFRACTIONTILE
360
20
  3
SPECULARTILE
360
1D
  0
DICTIONARY
  5
12
330
11
100
AcDbDictionary
280
     1
281
     1
  3
BUMPTILE
360
14
  3
DIFFUSETILE
360
13
  3
FBXASSET
360
DF
  3
OPACITYTILE
360
17
  3
REFLECTIONTILE
360
16
  3
REFRACTIONTILE
360
18
  3
SPECULARTILE
360
15
  0
DICTIONARY
  5
22
330
21
100
AcDbDictionary
280
     1
281
     1
  3
BUMPTILE
360
24
  3
DIFFUSETILE
360
23
  3
OPACITYTILE
360
27
  3
REFLECTIONTILE
360
26
  3
REFRACTIONTILE
360
28
  3
SPECULARTILE
360
25
  0
DICTIONARY
  5
746
330
67
100
AcDbDictionary
280
     1
281
     1
  3
ACAD_XREC_ROUNDTRIP
360
747
  0
DICTIONARY
  5
748
330
69
100
AcDbDictionary
280
     1
281
     1
  3
ACAD_XREC_ROUNDTRIP
360
749
  0
DICTIONARY
  5
6E1
330
65
100
AcDbDictionary
280
     1
281
     1
  3
ACAD_ROUNDTRIP_2008_TABLESTYLE_CELLSTYLEMAP
360
6E2
  0
DICTIONARY
  5
720
330
2F
100
AcDbDictionary
280
     1
281
     1
  3
ACAD_XREC_ROUNDTRIP
360
721
  0
DICTIONARY
  5
71E
330
2E
100
AcDbDictionary
280
     1
281
     1
  3
ACAD_XREC_ROUNDTRIP
360
71F
  0
DICTIONARY
  5
72C
330
35
100
AcDbDictionary
280
     1
281
     1
  3
ACAD_XREC_ROUNDTRIP
360
72D
  0
DICTIONARY
  5
734
330
39
100
AcDbDictionary
280
     1
281
     1
  3
ACAD_XREC_ROUNDTRIP
360
735
  0
DICTIONARY
  5
726
330
32
100
AcDbDictionary
280
     1
281
     1
  3
ACAD_XREC_ROUNDTRIP
360
727
  0
DICTIONARY
  5
72A
330
34
100
AcDbDictionary
280
     1
281
     1
  3
ACAD_XREC_ROUNDTRIP
360
72B
  0
DICTIONARY
  5
744
330
41
100
AcDbDictionary
280
     1
281
     1
  3
ACAD_XREC_ROUNDTRIP
360
745
  0
DICTIONARY
  5
732
330
38
100
AcDbDictionary
280
     1
281
     1
  3
ACAD_XREC_ROUNDTRIP
360
733
  0
DICTIONARY
  5
716
330
2A
100
AcDbDictionary
280
     1
281
     1
  3
ACAD_XREC_ROUNDTRIP
360
717
  0
DICTIONARY
  5
718
330
2B
100
AcDbDictionary
280
     1
281
     1
  3
ACAD_XREC_ROUNDTRIP
360
719
  0
DICTIONARY
  5
71A
330
2C
100
AcDbDictionary
280
     1
281
     1
  3
ACAD_XREC_ROUNDTRIP
360
71B
  0
DICTIONARY
  5
71C
330
2D
100
AcDbDictionary
280
     1
281
     1
  3
ACAD_XREC_ROUNDTRIP
360
71D
  0
DICTIONARY
  5
724
330
31
100
AcDbDictionary
280
     1
281
     1
  3
ACAD_XREC_ROUNDTRIP
360
725
  0
DICTIONARY
  5
740
330
3F
100
AcDbDictionary
280
     1
281
     1
  3
ACAD_XREC_ROUNDTRIP
360
741
  0
DICTIONARY
  5
730
330
37
100
AcDbDictionary
280
     1
281
     1
  3
ACAD_XREC_ROUNDTRIP
360
731
  0
DICTIONARY
  5
742
330
40
100
AcDbDictionary
280
     1
281
     1
  3
ACAD_XREC_ROUNDTRIP
360
743
  0
DICTIONARY
  5
728
330
33
100
AcDbDictionary
280
     1
281
     1
  3
ACAD_XREC_ROUNDTRIP
360
729
  0
DICTIONARY
  5
73E
330
3E
100
AcDbDictionary
280
     1
281
     1
  3
ACAD_XREC_ROUNDTRIP
360
73F
  0
DICTIONARY
  5
73C
330
3D
100
AcDbDictionary
280
     1
281
     1
  3
ACAD_XREC_ROUNDTRIP
360
73D
  0
DICTIONARY
  5
736
330
3A
100
AcDbDictionary
280
     1
281
     1
  3
ACAD_XREC_ROUNDTRIP
360
737
  0
DICTIONARY
  5
738
330
3B
100
AcDbDictionary
280
     1
281
     1
  3
ACAD_XREC_ROUNDTRIP
360
739
  0
DICTIONARY
  5
72E
330
36
100
AcDbDictionary
280
     1
281
     1
  3
ACAD_XREC_ROUNDTRIP
360
72F
  0
DICTIONARY
  5
722
330
30
100
AcDbDictionary
280
     1
281
     1
  3
ACAD_XREC_ROUNDTRIP
360
723
  0
DICTIONARY
  5
73A
330
3C
100
AcDbDictionary
280
     1
281
     1
  3
ACAD_XREC_ROUNDTRIP
360
73B
  0
XRECORD
  5
74B
102
{ACAD_REACTORS
330
74A
102
}
330
74A
100
AcDbXrecord
280
     1
102
DISPLAYNAME
  1
Imperial24
102
FLAGS
 90
        0
  0
XRECORD
  5
1C
102
{ACAD_REACTORS
330
1A
102
}
330
1A
100
AcDbXrecord
280
     1
270
     1
271
     1
  0
XRECORD
  5
1B
102
{ACAD_REACTORS
330
1A
102
}
330
1A
100
AcDbXrecord
280
     1
270
     1
271
     1
  0
XRECORD
  5
1F
102
{ACAD_REACTORS
330
1A
102
}
330
1A
100
AcDbXrecord
280
     1
270
     1
271
     1
  0
XRECORD
  5
1E
102
{ACAD_REACTORS
330
1A
102
}
330
1A
100
AcDbXrecord
280
     1
270
     1
271
     1
  0
XRECORD
  5
20
102
{ACAD_REACTORS
330
1A
102
}
330
1A
100
AcDbXrecord
280
     1
270
     1
271
     1
  0
XRECORD
  5
1D
102
{ACAD_REACTORS
330
1A
102
}
330
1A
100
AcDbXrecord
280
     1
270
     1
271
     1
  0
XRECORD
  5
14
102
{ACAD_REACTORS
330
12
102
}
330
12
100
AcDbXrecord
280
     1
270
     1
271
     1
  0
XRECORD
  5
13
102
{ACAD_REACTORS
330
12
102
}
330
12
100
AcDbXrecord
280
     1
270
     1
271
     1
  0
XRECORD
  5
DF
102
{ACAD_REACTORS
330
12
102
}
330
12
100
AcDbXrecord
280
     1
 70
     1
 90
1959938040
 71
     1
  1
7BA93CC2-DEF9-4EB1-9D85-C17C6607355D
311
504B03041400060808002741E54EA10B4AFCF9000000A80100004F00000037384437464136422D443238422D343344382D383446332D4542394246433131453846362F4173736574446174612F446566696E6974696F6E4974657261746F7250726F706572746965732E62696EBD50BB4EC430103434888282829E8276711E
311
7E0509A1D88E69A0810F402698BB4849EE142742D75DC95FC35A77FC022BCD7A3DEBDD19F99B10F2730C2CC909628FF902CFC73086A96B5FDB75183C394346EF9EFC2E4C375832A3B82C740D6591D5C01AE14073A18065CEE18DB35A66A7F82E8DD9F0E9977E4E3B9FBBD886BEF763D82CF11289A3C8F5E06714F3FD6D1A3A
311
2729EF1184FC3562DAB43A584A2EBF10FE637BF7E0630CF33D95CA4A570B0DB6501A58691528E64A6874A59DC9F34639415F42DC2C531B2295BAAE4A630AB08DABD0BFCEA1B28A83C9A511229325E796CEEBF43557A8B40CEFA3EF7A9AD1A385B7EDB842FEBFE217504B03041400060808002741E54EF243799AEC00000030
311
0200004500000037384437464136422D443238422D343344382D383446332D4542394246433131453846362F4173736574446174612F496E7374616E636550726F706572746965732E62696EEB606060F80F0540260323103700495E20ED9E9A975A94991C9C9C919A9BA80214307772B434767636D2757175B3D435717532
311
D4B574B130D5753634773633333037363575614768046931363471713532B5D435353131D635313332D475727372D13534373670367376B67474B5042A03DBCBA019D37FE8ABC6157B20CD04146B0062181F4C03F940F0C11EA29A8141C08141002C0426541C106CAC2CA046088033B02A030AC2157C6006F21A8018AAF501
311
94E6010A610250382264E08660284CD9E98021862280A91564B406929A0FF62C401E28B6F88038B83CB1243943D7A928312F25350524432B0000504B03041400060808002741E54E88E57597CD3F0000904100006B00000037384437464136422D443238422D343344382D383446332D4542394246433131453846362F5265
311
736F75726365732F37424139334343322D444546392D344542312D394438352D4331374336363037333535442F7468756D626E61696C2F302F67656E657269635F706E67355B773CD4FF1FBF73E71C0E67EF7576C9DEF3EC995D46C6A1EC5046649CBDF79E192942562825CE965D8A868C2842C8DE9FDFD1F7E7F138F7078F
311
CF6B3F5FCFD7EBFDFEC41B196891913091804020321D6D7513FC77D8C5070EC3FFEE51B21F068154CC75D455CC028A3EA68992803810109FDDE5D5CEC5521B28A1B422BF80741695D5B529DA1C2D058AD2388BDA9F476F7C2CADC939304173DBF48A452BF8A700C0C70C3D121C1AA15A5270C22E2B9E28763651F7DA0D12CE
311
11077B2ECD0D560B5E3DE2368B1E65C5E1C87384A4CC5F2D9FB8BE39E9B77C753783A37998F5CEF1B4FEE553463245C9712270880DF339E0B882A6BA713D865F6F384C842D440934EF264F4A304F8DE4EEFA1E2BF5E2D91F5ADD9613D6E31DDB33ED31DB1D7916CAF091286EA3D31B9CFECB78BB0060245B943C4C040119FF
311
780A74DD308BA9D028678674EB5504ECF284EE814DAED07440BAF649BE4B55DA2890F4D73E2D489A59EE54FDB0A85B59F2F52C4858A02705C4815A792B0C4A996A2023ECB195073E115E3E3647F64243A8338F2000BCB58DA5692C7E7C3D413F963FEDF3CF00FBB0F831A9D51360FECA43819F527B89FA260EB63C5DA67683
311
0AA3626A3693B23F1A17A0DFFCE3EE164E31B5365EDF0C89EF64D8E38AB0BA9A1117D7C3A0EC44F44F4023095E80BA610DE336D0F99593A88BFC5306E72DF98F7FD132ED95878DF2964EA7E43071359FD83B2BDF9C6B5BDF768F0F3C0FC351199526F53D9460A34511F75D1B63E488178569472C91A94497807A3FD4A390C6
311
558F26D416365C3656DE6E769DA9D8FC73774E1709812842DD8EF96AED1960F79D21B395CDDFE6F92CB4EB962A4668C76990E2EF29798C8941D67DA50F4A5F947872460F1F6FDB794E8A29FD7AC0C0D6E0714339CE258FB17AE8535221E3464A10F29A0BE5EEECEFC5675926A89F49EB14E5711894F6586DB5754EB4D5DA9C
311
6437EBA57DB97A24F8B8A8DB295FFD73266CF57E82694DF5166DDF93573AFE9C9C5EB05F8FEF8E89E0A8917B0B3724DB7BEBB53252581EFC3E38166BA131A3A5B42FE2AD00A769BBFA4458D2DE7822F8C4F63D0B8E21B285AE13325F3410A435C648C9D91FDEB109E73CEDA7BC796961AF79175E1A3CE4C5E8B0D009B0C9E2
311
9EFD98BC8E97554E3D8D838424E270F7685226E5AC268E021EDE3522D583E8F20C0BDE2959EF5BBFEEDAB32FE9A3ED0E39F211A86AA9DEBFC68182EDED132AB8BB794442D2D7EA9F4D8BFF52BC4D55BB165124EE90A42D101E67BBBB292FFB4F66DE5BF2300E44546757DA7CEF8932BFC9F92A0707953491A55C5A5ACEDABD
311
9FA1AEA01BAC3DC5A24E22E7C47213493996EFBC369D086ED9397C9BA6C7F9855C7BD5E15BFC8C53DB3D2A4C5901A57ACD2FBDF4D1676E95338B2C2BCE65FDA4C64F5FEFDC7D9CA5AA1FCF11E193F2FDABF0F4916BF13FB916A224380E6462A9815F2300DC49CC4DF8D055CEF76462F4B7A7ACA7365C2707891370BC1D0AA6
311
203C44CCAB47084FEC057F27FFCD57F89B8B9852459798A675C66BD7CE572CAF71FF7E6D7ECF7BF62CAB7B3F1107DCD04DC55A3F9961700286141C94A4F771FEB2BCDA2DDEE0CB0BAE402FF1DB0100F8E475DFFFC074DDB4498AB7D186A7654DDB1CB680D703D47CEB4E72F8CB13D86A4AA68116E26387B93FD6738779B34F
311
EDB8E517EDF2BAF28D9BE93A1D3A164320E07D42E514725C29515FF361754213EDE06B079A2E99EB1CA82A02019EADEEB87B9AF005BD04BBCECB14AACD6B24EFBE482194A97DD32400685FF1FEF1544D1B14EFB1E7F08E6D2CD2AF52DE757F35F5E62332EE88EA26417AD5C3E0E319D68F25414E6D672BD4522B278C57D18F
311
0113921C71D96527E091F00CEB15AE23D24667369BD3CEFA10C7549D930890BA4366F4EBC55F01F746109F98ABCDD5A3EE06619C6AD78AB33E48E4C9BD21BF7478B385EC05C4F8987E2C1BFA0A60EBEDAA0AE0B015C2720ECE180FB6F2DEFBEB822D96338C9B63822183BBF52FB664A7AE57003AABCE512BF77E7E31BDA2E7
311
39AC4C131657DDFE5225E900FB56CC01CDE808FA4A9C9DA16AC679656BB64796283D89812B8F91136AE18EE5EBBAF47A73BE3C153EB5D4CD491B4BFB4FE690A4CF9ABA08C0D8AA64220C438C96EA6CA80B58FE5761E697B3A292EB9FBDA502FA863E49FE694ADDFFF9D62C520BDD1A22014147A0903A05B9B729F54272EF83
311
931FEEC057BFF8C8055C279EAC5C0011804828734024F6CFA319C9CC6867C727184465CD9BB7ED386AFFD96B294A85E3802FAE47244602D8273615952B98C4F23F7EAE4463D9D638EEE374A20959E0FE519C4CFB0FBFE5DD80C2AA3F9DB961D1BDE57E67C9BB47B77FDD74EE3094F5DBBE3EBC1FBDB7393F5116263009E2EF
311
E1AF9A221B2AE234C902BF70E9F280ED23E73908361565964333A3F01D0B006AF32FB21AA1316744B489D5A198E85299241735BE559675130955C902A8ED761FC0DBE337A9F91919AF5CE32AF902ADF9AB2615E00E8A94586BA1A90839B61832FF1BFB76D2EFADE6DB1BA04CCAD3DA649E7E2A0219F592E22F2AD54847EEA8
311
E42271011E9074F8F3DD9FBA6CDF88FFC9FC7E811AD1CA8F4557CE4AFC7BBEDCF0114A48689F20A584520C74DA8127124B767E2FB91A6B186246727BE63C9445BAE02088D58B8EFDC0F1072407CD9B89A13F6303B4A928F593AD489B58E6869325790ADC406036C591729FE14021F94B7796BB11848D463536A092A26F077F
311
94639F7CEEE2A724C66EC885F4A24F8B8A0AC321F8FD149BA529460FAA34E4663C02D41FDF80BCA222D42F0ABFF8490F4FA74C673807C2051D8E467B47B616072860069A9A303ABA9B319D58404461401B0A0F9BE5E1E151C14BC33B32ABE03DDE91708DFAEB15E7C0D593C86BB7D7EC17BE56E57975F077BFD5525F3A1A36
311
1D584A75E08CF29FC7B44B2B3085014F3A5A14517377C3F6B8F37E59514C3B12F8AACDEDDA4DFC49BE5710101534CD6FB6DE15B50F11A09472AABA727F0C49D9CB906B158030065F48EB3625E010CEC1D511D0053474B11E6A4F01C0D6EF1BED3A944FDEC70E0DDCDC756C86545910E0DAE3BE3AA9A404574C2995CD5CAF95
311
49226BC94B4F4F0F5F9086F418F6B32346464610D8BC7391D3C3A3CCF04CFC1FB2A3A3170E369511868F14EEA4E5E438CC73DB1F3248AA94B6B2FF33B222FF3D1E7BF146CAD229770158063BCE4F5391964DF62F7E52A7BE0EEA829C9E13C4C147D6F93FE59E111DAB5E4594D6F3CD1AD375EE039930EFE5AF2BB2D41C83C7
311
DABD8C659BAFBE8FAB392CA634F3D15C1D945DB4588D2B0824A4EC928AAC565557CA2F0DAA588CA5BE30B3A8004F7BF005E96CBF891D7F18112A3619FDF530DC8AA64954258E1811789B5189B49B4EB53F5F89F7D37523894F3EB57B373763C91E502F52CC99EB7BDDF933FC324C4FFC2561DFFA7339FAFDD0A4BFBE6D3A8F
311
F9ED1FC49898139864602458968913181918F719CCF5A68B2EE9C1FF050E34E63107003B8120FA982C21B30A874E4F5E4B38D5A8290C4B8D9BE48A0BE31EA995BDC37AC6DE90BA17D259DEF53605D55922FEB1855D915B659FBEB350EE0DFB2F9F766E1C84CC8964B75D08667445EAB966015F63A18A9E0A325C1B3DC628C0
311
D3CB60F767FA93CC65F25458BD23C3B312716E5F40E5858AC06EBA9AB14F95DB99147B832069201541D09A0D856E12C629CF32683760EE855537D1901988D5EBC156676C7DD51D7207CF3267AF1D76C2AD867315E44618015313A98B19941C696FED3461CAA9B5415F918556D7802EDACEFD6B2E45853A9735DFC9DBF7E440
311
F9319F8B6805A973BCCDC76C069A9144E51F187EDCC12FC31B5DEAAF0A76137199B106EC84ADA6B6EE697D4E6A96E007417F4E880E8B1E89B4BCE9D81EF611E2ED8F0C1A6C25F620FAFAAB656A7C42D464880E8AFAB0E0FC8EA38CA9A8AEEAEE3E4648BA4680270A89743CDD3E6C6CBF34B7B640EFA285ABC7EA0A1E28F3CC
311
963D114A80123EE66D0AF7D5380EB41909B605AB4765B709B808590458157E69BA1378FEC4B48CAF6A730E3BE3C5EF2DD1A5EAF94B1DDE50CEB55DDFD7EE9A16747FA4B223359FB1FCC69E1194892BABB93A1D5C4E807AC0EA2E30180811E77A2291F6E7F7FAA5E0F60215BC6024E48DE436C511F0628B8CA189982D4D83CC
311
A17D305A7E923C37941CFDFDCD93ACAF735EF5F0E61BBD3E6C41A59B242790D3A3BAC7064DCD89AA2E37214EC839820949D5CAA31E240D2948E48F690298974A96BA9A8432BC90F5071D6537C9666EA4564796B7AFFFA548077BEEA75F63083435074BA182F3699557397F71548383FDA8CA34D99B981E72835ECDA5DDDC15
311
1315173D05A21F651AAF8524E88209E2E7A737ED1045800CE3390050BCFB8BE588DF111617874C62575039CA588EEFDEFEFE319B739DE2EDC147092A262611E159650E787917885EF08F1F51B8F2D8A71D60B58B190FEF9541A1BE94BC19FEA50784DA1419FE4B0FB51B8D36B5FF8E1286FD8AF42B91E59A5F1CC4D60174E7
311
64045FD8C57B18209B217F89A62252BD20BE0E63E12B8E8F029FE19E0E8D0870F58721A557082250D5424F7909369376E41666C0EE77CD87CB283F661D5FB6D0DA023CB67320A20DC7BE661E9E1BFE5463085C557DA1FF9BE835733766C3D139F2CF9E2208873AD0EB4814DE9E6BF2CAF81614D4D43906ED1C05A3265CABBF
311
E192770FC2F64F940CB6B17B5F166F133C9AEEAD2641807C3E69515171DD74C4A85311513D6EC9530B3B601B6BA3EBFF3B5C3D2F7D69765141E345F75433953D013ADDF8F6AA7DC3F4A7563FE5C7D367937E2900D7EAD0F9FC9A4A1A9B5BDF1FEF08532660C01C5D6DE22199AA774383E306DAB87E301ABB7D213887F9869D
311
4942D0D71E94B27EDF216A318BD488D45DF84529EF575AF3C3938C0AAA0215B01994153E2054A0B894DA5C784980633AAD48576957CF4AEAEAFADC7C587368551C73DBE1E57C58AC713303A8BFC258BD04B51724459FF9E24C03A81E0E0679CEB9B348C0DC998FEB9C6D6EFA77D247CC8F92D3848599ED89A23218D0636465
311
AD1CEEB7DC140D7426F83491C4E8E8281C2FB35240918FFECE880CA2A42D70E8B20B34DF5221C7DB0CF90ECCB9C745B37A47E9B716FF7A97B7A252C1F3814DC7B1E1A7F72B8751D524EF7CAE45B0C73B3BE7D08ED39781B380DDFC9AA4A4749C9493DB5BAD07A6EA6C092FBD0E85DB004DF06B8C9D3089C5320187E4CE1846
311
158C7EA7DDAE8AD9AFFF21AA3A1026BB06A259845E8232DEE62811A4DA9CEAB3A4887320B76E2AE5615EAB7BDF738CBDD01F1E64064BC13D9EC53576751CA8CACD58B3CEB0E6CA585BD089B2A59B9FC101403387AADBDBE70586B93D64BF3AD4453EF9C3B6A93817E8346991798601344F79A83C51F3D50F7BF2683A3605F5
311
1A72449489E0EE6169C749C60B1035651103AEE24D24E51A759C840DD3FC6504DA6FE107510E447B43461C79D22970B75DE5E1BD3007D1AFC619A4A4A69B5626AF5E9B8374E20677F77E2F8E73DF868E8BEC7EBA7B6A75EEF7205E1AB9486CB642741D6E03FF13FCCEDB1C4AC129886268B01CDF4B124AF797CF784F3C6DEC
311
97A17D4B558070A0F1C04DA4FF9BDBF34159AEFE958479824B3F58EBD1E19088A2AFDE501B6F2052368A3FD0E650A179EFAB1561E1D27527077136E652676C3670F42DCB3352F48F6BC86D2C3B0051727E41A0A4DC6CE2BE9D47F5CAA2935A3C0539AF080665997194ABECD723B08129CC5B6B21D2E7D54CD4D12610E7E9FB
311
8306771A89576C7A982002775ED44F3F744CF21EEBB27A631671D921938AAEE3EB0D19CD1E083727F607823E817BF599DCED5394E37EEBC2E88782E638920CA641EF74D4CDFCDEF06F4278ECB18E31E7E9876F2D783C8BF429C75395F57E98C2B495A3DA077EB3AC3C158608B6B57FE3EA48484D9A480096FCEE0DE880950E
311
7E5A5714131C5C41AAA29FD19AE81AC145FA1B9E85C7169A5AB837B213493DF7E9AA4B5FBF9CDEB36EBD21EF1181B7CF7366AB2A951D01E37AF4EB835D1BE8C117CFBE7625D2EBCDB0B20C5A4B45CED0BCDE3EE8DA9DA78C2E21DEAAFFD1197E463C33CC6A80FB785669B856EFF7A8CCCA2841B5A5369173320B1170C368B2
311
748D81062EA0296E5E2D95D7667A4A46D98A6FF475C76AAB0A8C8D45E226FAFC9FE0133EA9F60111F99CA81ACE03A1D14C89E8B0D69079C91464FA1D99E651D0EAF606F345C42A8A1AA9BA391031582B96D5B4176A77AADB01F12FD298A75DEEBB2C82F0B8650E880722F8DDD90C56A7A058E5FDEF1AC93545BA27367C76F5
311
D8F9690CB6F8DAE141EDD7971F0FB548A2AE435F224D6E5954CA155512F7332029D5A1230854B79F258EC5FFDB09F5F6343A8EB193229B7F7E79B3E48F8E183860B38C8269D1B53738FF1E0BACF6AADA6D4869E9DE708E79B5DADCC09B1BC76F649731CFAF59A83FD8BAE4C749D66FA87A3810D4D62FFE826FA400C0F325D2
311
BC0F3CA35F5847B82A2ACC7961745C823E4D863D54460AF792CE6F79B5C7A33B25C3AEA6CDE15A919B6367D781E9D44F61BF828672594A3E1D9EDD6DF179A81F27EAC05B936575D73E05C209DDD2115CFB705DF9BBF3C911589B3640735E9E618FC9C36A7326C82B2205E244C55D56FDB9D5DC93CE958D4BF8174D2B3DA54C
311
B3C09F2C2A6DFF73D23B2197355761AD421EC581284A7EF8DE2CE3497C0C804D49B41DFD6A7360844E5BEFFB495CFCDB97A4595911CDBA623274CE852B5E278AF0BEB1770E9D37CD977B2766A7DED0E94B840E1E95E8C77DE5CB6354AF7871427C28ADBEEF7BA0A28E19DE9ACD75F379FE373EAE6DDDAE3834692F9C2B03B4
311
FCA8FCA9ABE8EEEBEBB725B88A7C90941E850682CA04061A7DF0CE82ED49BFAFFD42C309818FAE14755CAAE78B0F73243ECCCAD7DF58FCB9CDFAE7A4D3E6671A613639130D056C8383C8F4FCF4808C331E544DD26E4755D09EA05253B3049A1E32587CC25D72E073E2CD96D04A71BBCB0038FEC3F53D254199C3CDC67CD666
311
40269431860225392B2CB3ECD0B4498AAE78BA1994246AE1EE78F2EDFB79F6C6CB6B5E279C4D373FBC21CB2698C9ACBBEB6A4BB6B39E16AB0E421CCBFC7654D81ED86022F9BB522146F9F4772E2D0E4FA70120C95A85A417BF5078B232F4754363EB1750B2AC2148EB46B1EA72AD9B4D23ADCBC589D70106C3EC2ABEEED84D
311
FE28E718C6C83502C28E9FDD3B09DA0A6F6F7B72B706A31C9E2A331EE70DA56A083D2177BFD63C55B11D8D949FAFCF90B23A1E24B9B5018B9A17E99F2890EC302F330FE7936E2C23F0D237EC8916F5166AB84B62A21BB0B950146962D754F92CC2C8877BED8FC7B7B25726DD19545392570B3A2C66B58F027BEF412E552D12
311
A588C4A3CC5C3193FCB3485EFFF700D0B9EEC077754A33DC1FB9E25AF814628F91DDFECB667D3F7690803F38D13F8AE39353523BB08FC6760144AFA2CE28236F65EDBB3D5F59A57D612B99E3D7E5F8A851666BF9B5A6658EFC96EEB37A378ABB0EB3FDDF1303AF32C41BD1C8560745D7BD81066B0D6313359CF488563D3BA3
311
F8E2185D1FAA3EBA1397C9D0E3DD232180A4DCADB6AF25DB3AC3CC26589C8239E66E81547BC7E2F328F9884764CA37EB5DBE390DFC03A5246B456A7C3684C4377D0EEF9A350680FA9A077E8B2957B489E09AB1AD41316944C2254B5984830F691C93CAA767EECF976FA5647538830B5E63236A6F0365C1E0F3E327F24FE35E
311
DDBD7360B0F7374837409F7A6311BECC12B7026D4FA1AE204FA3F5FE904B1F420C7A9044AE58E403E7C4848E7DA25DC9EDAC79DD756FAA26B9EA83ACE8A214A2612A22AFA19DAE7DBAC5F8CDE1292A485F98DAC731A29FE01A3966E96BCB9FB5A4C8830E1B9AF0C54B87FBE221A097036E5D28D1F869F810C06A9BB0AC0612
311
F69AEBAF893C6E7AD59460208BAB3A6B09CA4F6BDDAB8CF0D1F84B72487498395A70DCD754796E271099A567A55CF242BBED64696378BB6CF25EF0FCDB589F3A82F1116D010A9AB9FA4358809EE0C973A2B4229BAA876A70B03AB49CBA7FBE71DB1832FFD32F9BF2C8E98075CACAFB36921235D0F552B6A67E94E094097A5D
311
7DF681B40623DA535ADA7A9AD8E9A62407D7C9A5AE51D62A17A83A23728DE86BB56115804D3F2675F2C6B87541A0FC497BF0CA86420F558C9859EBE9FAD62747E323E3AADC03FDCDDFE7407B09DA90B44E3185723C5381EAEF589765E2F7A099BA46695BAD60CEF3491B8A171F5F56444F7CE9455312C3498C74173AEA0214
311
EC029833B34B650CBB5A5508D5091665309642791708ECF27CF11DB3D797D6CFE474453BD4BFADB768094B2147814D81C7CBAF8228DCAF5564B5891F5EF6A860EB2E323CB82AB868D8EA048880D63B0DE5341F1B3D53297B928A11E15F25E5148990F710747C3509ED14909C552EBE3973246FCE55D00564D8310BC3EBC508
311
5D08D806799B77D6C57FDF5E55837F9E934F09C03C729271B64F12D0A9F9E938107CAF7BF1EC8CF1BB9B42363D33070F4CACB425E605DDB0A34A12BB936DE286B9887A4E2E558F0886498BFF49C311D96C277CF6A9FC0D75AD0ECC5226D7E0E3572012E56D7FDE4410CEC7A6D0F997F225A2055B8B92E3956E875AE4993CB3
311
D4C9063AF98FD45E1BAB165640A43439A2C9181A7C355B297C0A0CCFFAE19B6FA3C2BA238A885FBC98B8F6DAF4B94B97304878DF4D8BFF6A4AEDF79E90ED4E68F00CD7299F4E0D83E35601AF0CBEF18C1E870E74758FA91F5131075004DB3CFCF09AE1DABC11957FD9808C92E8A678CE9DBE40DDA0E0D1D505AAFBCBA20823
311
2BFB6FB3704E8985E61ADE53DE74152F5C7DE74B1DEDCD37DC3E8FB30D7EBA8B9EFFC3606BF90B8D438279CB7709FC7C00D327F41817EEA71CD9E49FE9C8C9A81C70915D9F0F15958EC5AA4C3BBFAF46986B90F188BDB24B89DE3C6F29EC3E6F66D84856EE96A35E657CA41B41EFD8DBFA16AD6E91439EA92B40B21C053249
311
F51AE50EB0B24C770FFAF40DF12C8436366819C48E36547D4E7B72FE2BBF10828583057814A668BDF183F6B2E58DFB151103E56303E63D00F39C27C4661605DB644D19175D02E3F0241E8FC3458D17AAAADB117CE9EEA690D0DB01E634878C04C2C9310B69FCAB831151E3AD293BEF6E46B0ABCECB50F5939B39C613D41E81
311
FAE8D34CAE3C4566B761D37185FE864AC32FCB71AEF39DAA5BAB88609BB980CD2F07A8F941653B529567726E2B2A58D079DD57E1E5E31426CF184A04D7B03B985F276D47406AF276FE32E3328BA866EB1FD39BEF57863A317634AA5FE467409B3873F5069EF0D71AF00AD189D17BA1974ECDB2D623E9E14086386A6AAB5807
311
825C37B015BFE892AFD154920EC437EB945D958E18622E1E0FE2FA06557CE4BB9BBD05A2D40E774DA2B65473791E314B7D6C886820B2FCFE4AA272B3B8B15E7344A145E8AF919B5454D89D36D413E87211186BF6F645E5EC94DCCE8E1C799022E4EC9BC86D7A0F2AFB1FC4B2CE48F84B3F49ECE65BAD24CADCC07EFF39AB06
311
BE9E6B27A059938EA7208838455383DDBCFCD967DDE4650EF92A14FF933C975DB20BD7FEEBC4487576485963D757D16340D9599FEB362F775F38CA4185A86F74B629C81B133644A3B18FD056E997E0734F9BE26D11C0AAFC669E2AC9FC41D281F8B2E1C35AE27BCE05F3DA295488096688719D974DF1B5D182DB7792288697
311
F8763CFB43562C1CDEE11C4AABD5C22B6E33F6F389CFC3477C5919DC0D533F8A7A1846B7ADB60ABDC26C43D0CFC8910B7C15EE22675BD02702ED39DB77A87A192CA7A543E6205B979B9F5A6B512A3CA799E198B2D5797C0AF8D1D872CA455D4D431A7879D4DD76110B5FF7F4176B54477A9EB5E4A5D11214FDA585F0382751
311
D8E2582BA5D2075053298FEB8F1537304E32CB22C2E2B693DC0A760B1DFCA751BDC445AFDCBB12820ED85F6D5298933C7EF1211E9E057684056CDA3FEF3BB6052355E162DF27C59E965A8DDB7F9437EB72CDDA3A090DE65A5B2F50326247B7EC67B73ACC7047FC9B353D6EE990F772207C6EC52B39DC2F3C0754821DAB559F
311
7C1809C7D0DD5B0499D0442E0A6E391B3D5DB46D11E731E6794EC77523FBDAA242ED67F9FA1FB684255671F63C9BCFE6E7E896D51001A6113EF2298BA494E0B0980D1FA5B9D60796554C02256B1E0345FB7C6186B6A19D2DCA270416262845FA4F42DB5D9B0A0B6F07FCA2E56C242522E001E0CEB734AF310FC8BFB57E38E0
311
3AACE93B3326A2197891E68452B26A6307FDABFEE0223D3C03C3C73D2D5BC054C8311F12004CAE488E5C29287F8156A2CAA4AD0D7BE6B97264E4139F437CE73ADF52E5134C52B819777C18B323A5924E4F67AFD13B1CDC3A61793A79FAF5C0CEB718E441071E797C6DCCB9EFCF7E4A1E9F3DF3C2F9C9E8294E9586868788C9
311
72857FB0556D7A26941A7EEB9B580AD78EC40B85DC906B4120A563CA3B87797ED612D3B035962BB75F6515A393F4CB057F564CDF54F2E5A024514E6A1F901DB80C7E70B1FC05E356A7E72FABF4775B3E3FB8F70A2A8E7B6A94542BB304157978CCC999E707A29CC795E67A59CC546A5D47B368954CA7B6E75EC9E1F6FC73CE
311
3B4F71F8CB1A6B15923D61EAAEB14626AAA9D04A26EB9C66CD1BE86CA31A5D8703DE04CD1EBCE4F5CCB62F93909AD11E55799A781A956ED27D3E738F4538CB04ADABC7DAEF20BC35BA6A90BCC1DC61BA05F20D8832FFB9BC9B15E2DB838A0AFBB7E0C82A562127E0446894F427794C3037186F622BF24DE1B00AA10A23BFA4
311
7B2A180D6DA5AD6F7326FEB8C100C2D7142EB2A0B2A9D1008A09BA343D70E054AB69E2A7EDB783CBD92537FAF4A44D1296AC2792729104B3276C276C951D0CF3CF3F1E6B017720A7B8505A5FF9589365979678C36F1BAF759EAF57C60F1FF5FE9DCF5F8E764FF25A2D06CF25117A8FED51884C13B2B750DB0E4F5E3D64124F
311
CF11F0AD8F1CC3B3DA4B38ED22BF1CB2585EE6BFEBBA63FBFD44F9537B9B37BDD6B358720F98A8125AED4349CCFEB0E135F19E208A04CA7E2B10711185D72E381F448036EF57C9F874E54A971CA37A639E986AC0226DC5AA00D5B14FEA9192234B3DE617814FC221C92F33F1D392F297731B567FD98FD91D989379AF567A65
311
B8ADF177591DB90FBEA99BF4ED11B16E50A0AB1DBF1156D034BBE04D69D08F939D8E92BF525A1DDAFF80ECBC95D8F45D3FDD289FD23F7D8B452F8EBB34EC082DEEE68E18EDDF072060FAD2AB1504DD4879BF67099FC58F6E9DEFBF645D16334A3E9A127C6F1AF6132CF287E433B43A0EE93812B4AA0B194E03EE3FF91EF9C6
311
ED0074A2F6EB18A96A7C9890B1FCDA1F2095E944DB911ED54C60DF16FB74C8CE9BDC7C54C4F14078CF73C2FFF1F1BBCCD7CF64F71407EA1683DBC410D226627F66E509060D5C0AFD611DE681D509DB8DD12FB1265B03C6F5C55FF4C30BD94187FF692B4F152982502F193098A789526A038AB529A52BC0DC4FB6285CBAC10A
311
8B8DB75DCD9BDABBB221E27D1F8DA9F5EE5926A1C8AA9BA9BC09239C6A7F12914EA3B59EFF7AAEC3FFCCE56F1C5C2980AD072793527565E774F4631DB178CEEC691B1F367BEA0CF2907E1D6B854D527065979DDEF002D8B2ACEA7CE21AE297737EDE1D45B31233B73FEA35BCFDD0B09721FDBAF6432681F2FD10C3E9EFB246
311
FD6E854B344ACC9D8A0EEF876A7314B49B6A499FC650B099D650DBFEC7638ADFD245E2B7839DA5AC5F7D5623FC0ECEEC8653FC9B2BDD1AD4D00A566FBA7186DD3C9CD26512551637498CADB950FEC71ADB9A5524285DE328B8EC7EC75D2345AEC6A27C42AF6D9B92155315C80DBFCABBB7DA0FAE425C4FB896B15C9BFAC4FE
311
67DF5A23D30C93DA4D8F36FB15D100050DA6062E22AEC5F4DAC4F6FEEF97AE05DE63C6D38F9E068A20BC5E3B6BCD75320C5090924E7F93640A7735B1A43451C2D91EE62C6238B797349E59890AF3A520DF4A87095F3ABEC2E61F0593416CE46CDCBE0E00E2523FCCD04408588B5B6C9DB6459C786CE378770B54F51DA3A5E1
311
DF2A3349BEAAC234A6CF8993B598B3B25B4B113E353A4D750FA7534749430F3EBF2512E7EA3FD43C6AB9A1F765A58463B306721A15D224FAFE8C6F5E3432D57EE697DA0DD5A9D4866A8BCCAAA9DFF1F06047851408FEC060471D0E3EB86BFAF46E4B5E60311DC3E3CEA147C75CF971BE74689507154FF2D2E92F15CDB2B918
311
2B11459FD8ACAC5A85F174BC94A7F4EE4C4F5CAFA7C02E37BF0BC77B7DCD0C047BC316F562A01A441AFA7931CC84A28CB9F4AA367EB515778F29BFE61195FA671F4352E5E46E3A64773F1F76EE5EB36D7BCE9BCEAD837A4D77F8DB8C92AEEF6711920D7C7D0F76B0FD0EB7AB83724CD35BCA7D36DDDF5FBB7FF6F04A91F3E2
311
BB3B8F1A43CD659639507FF6331C5F697BCC782AE57D757A27D97F1AB9E0AEDB43F92F1B2AACDF5FEC8ADBAF9F814E2027003BA2F9E144B1938A7A04050AE5D953B82C45619165C813A10E76DD6906B3C16438064D14CDA713AEC420034613E1AC7241904A49FBF87409AFB1FCB9B72FE7933A87D8FBEDACECE4EDCF6A4FE9
311
FB94D5DEB74FAB7CFEAE17EE965DF980DCCA2D04134994F9A2E94D2265DA4FE6AA7B7AC15FACAC2B5ABBCD7DFF542C5314FDAB2E1B9D8B65220B8E2B638BE008E8DCA22678C820C5053664D15E89F2D735B51A84955E81A443545E9FF787BE0FA700A76D136C27DA179A7C6E8939E01BE756E19CB292798063D8B97F44E8A2
311
7BCF3A614FEB8BE974A718E86F7EC99B53CA35FA24F61F2B07266684623A3D4CF073E511F3A10A8FDAFAF0078C577F4DF9D339FE7862E5FA47CF4344209E5BF76D783B1B48E152AD281B15FCB934DCDA49CEC5706B1EE8B460F435324A5CAD154725E21AB8044B75A557A79F6C807B9340AA3D92503E866F4274412926C8C5
311
04E4D5EF8C0E68DD0B028781A6B4054F11CF18941F101C57CCC796773ABC8DED9CD91FE5788806C05E548895354AEAC96546D55B0E94A59F148D061F42AA398D822CDECA4CDE79E13469BDCC44FDC990F366BA5978C15F97ED80CBFD73B0CD9B8B83A4F6845BDFBFAF034019473FB9A63BD55D3A4A7284757071574029A4D0
311
16DCCBE95DD679EF3C4880BF169422F8C89B68A988D2B13793CAED4F74DE7486C72DC94DF46B8E93D8E02EFCB1FF9B3BA10C8AE7F653DF94F4AF466CDDCEF5776687F7C4C14B63E4EED1719DC2EC482D7DBCC7AE518CDE3D5FF86D39000EC3673C0044E1D308BF05F74D1B5F033A7D1BE7F74BC55BBE3E4A20F920946CA027
311
1EB17BD2B80E5660ACB8A29A79F5E4BBA49D4D945B6EEF4A7EFEAA65E5555BBB57A7E15D2F83C69F30BBB978D2B39F1F26FC097424D39BB33CA3D87ABF64E307938B685BAD44F71556A30B7E712CA4FE600613C3E554B69ADE949A7CFE214DF1FFF05CB82151EC6FC31950239F94CF7AD39DC473F6EA356E5EC2C4EFA04383
311
CEFE985A127484366FBEE3C0EC4FEA363E4F6632AE781392FD45D67B63FB8DF70E82734F431FD3443172A0E30A83D60982D55FA6A2CF86DBA8382502ACC6CDEF3B907982EED1160E14863FA242F9757347E1544275CCDCF71ECD5F8621CBEA326B8BA884AD7F825781923E66971F04010D574C541D8427A438A37EEF8AF882
311
40EED7362C953F5A81DE2D56109CDE2524EA0F5D2F87308C0C47BD97AD605878AB8589E17CA83930CB5E0DCCD75853D68B1AB136594926DE426C367428E9334AFAFF90ECE221BB5DC9E5BB53D2CDEF954EAA9CD814F0E5725F1965DD458E5F8487683AD86B9D0076BE3EE91EB1CECC5331A67A3F79D8B27587C12EC2A6A704
311
74749F27B4C0BBAFB94B34189E88DC18964BE4121B9137FD516C7755356E50D6714E31ACD222621EBBCD1CFF81D87479056A9DA0E0B8EA19D24CF937DA89F78E8650CCBDC110AAB6C4E46DCBFD0446BA9E2060E81F314AC2031E88135E5476AC0160EF5C0DD2EEF1B8B5CB2D198BE9A554A9093B5F7D7E4B5407DDFCA1D9C1
311
52FD97F55BFFFDFE802954DFEC8995B983E28AC92F1971E28F531DC407A1280EB125F64A72E617EFB27DFBCEDCDA2D6F2BDADA36873EE46B9BE1782998C63DA7182BC383FB6FD15DA472B175D7E8B4FC88F38D6E07FEAA3FA3CBB8F6B449ECF14D2175E5C5CCA3A42ABF24CA6C9395AF74535F4DDB38CB84F56614B0FD32D7
311
E19CA5CF988DB4449C40E23DF2B16772594554579094450F56F253CD25EA7F77366FB1CFE79696C428BB64D5A41E986189427E5E4D7E2DAE3D5BB4972B3DC44EAABDDDD63A2264ECFA5C786EB0EE1FDC5BE34FA0F08376869FD1E61EA06CAE15191135445EE8F0394161C3266A596AA035572BB0C8876180D8B9C77D307DF9
311
DCDF7365ABDA6F3A2366436457A4DFC1F259666569A9E4A79C817BDD5610E5200FCE894A358EC72858D50EF67545DA81C6FACE3D457BAF70367E1E6BDD9A952FB4F56247F58F523B97E640246051A72F79BE42FFA0B3187F63097F91C48B868586F714B0EBD5A00A8412C1236E1298F60C72BE6C96B82B404CADAA304AE9F3
311
03176B14BA53FBC2D5E86377E35542019E24D97B96A49B2C0E5006E7795954DEAF5DA58958839043C6C70BD3B1B33B6DC5C31316D8A6923F142E26F6711A2258AF977DDF1F970ECC4F1F2B434B96D81BEB6E89BF3BBB3C7C8CC80505070723D6D7D7D3C8CA27CA164A26024FED94B12A86031867241DA53D929636DA600F05
311
0BC40CE48B8BA03D69224720DEE2ED2127390BDF5E6EA64527BBD4C4C63FA76BB801FEEC0E61218EC98A8A86CD8313781617877E66692839B9468CF4DB8E50A73986E558E309C0D6F676F921BE02F1185454DC75B111572FF9D27D85EA14C05AD7271225B391C4275659CA4A43759D0BA44639BE4C30A84DB7F67A41399FB9
311
5CBF923B1B1672ABC807C1590557FB18D811983FA97F5E609516D62281D38B1281F68FC75528C35E4CD7DF0F7DBB5E5DD69C414EBEA2F4A5B241B996BA77AE6C772E367408C633EA3E438B68563EA8BE7667F3A4C4FDEEA52ABD78A2820F443B7914A15F180018D231E64519C56A12F6CA7C8DAE18F06F6B769DBF92329EF6
311
A5D18FBCE600F36BD8E8198DE5CDAA96181F3A756EBA5501CEE58F497EA4F418A2B82565B9BCC611713C0B708CCA1F398B78C5F7D03B3437CC18F13061F55C7BEDADD5ACB1DB0E36D3CE47FF6EA1A563A57E9649EA5D14D1A50EAA457463381C073777EF1600607BAF6428A7DDC079D47A204EF1E1F1F0589FB054D45E02CE
311
623B3823C317C601E589E22B1E88B448524B86A82828E32345EC18AE17214B42F8C41C6D428016D9BA31DDCB47572561E5A402E5BA4FCE55F78AF7268524AA04130F3A20BA5D1E9F9948EA48FC8F5314FDB35E21898198060034ACE5E3E2BBCA34092518F275190AF65F45867FF0900AA4B81F25427414C372BF51DC29AA85
311
5C5428EE1EEDD6B849AD60F6E73475C2D2523F8A2772C840A478DED18A8C5C91B085F255DC4F54EA7AA8947354FD17ECF8FB3B4A0DE7B483CAF3A1165EE05BBA413E5C1FEF3DE1D6B8F2F3F3251C17D9FCAB48A9AAF63AC773A0E413BBC46A9ADF84A566FC920E4D8C52C9769EE3301CADEEEDD92B312E02E2A7E35B7F1E7D
311
203FE5A7D75578B06E99D0E46FFADB8FDA17ED8880390DA29094202D6F645F76F6F96409CDA05495A96E84B04A00D1A6C6C81D7F3DE9376E828CCF144EE50E364ACCE7237EA0BFB5607ED1AC3CFE73794E5B61739D14DF1743441B1AC98F00ECEDE9E7301FA29755FBEFA68C91EF2B314CF510537EF1ABFC9A762496280B54
311
6F5EDAAF8A5B387D469FC9A878A92828C88608453ACEC6094DCA54111E7AD5B2663DFE2DD151B7F123B9F4FEF8EE36AB125FD7AD52A59B1B765B3E3F73E3F73DEA93875004D2AFFE3CDE9493B87A9904DD052028949041A91DC0E1BA47BA714343FD5B25E0A6A09503AFC17C790058A836A324FE31D7893512E28230332F15
311
3181C1E018E1124EBE1BA262AA428A518237D1EA7275E48C5C561BD19ED6912EDD8367DA0F31E40EEAE9683DA9257525AEA7B632B97119E17145A90231768A4F3B9120FF32E8319B015E3CBE26F1A754177D8185345817C096B0CE443A955D13AC15E1FB5DEEA0239EC32A3C92241A237B0B02FFCB4F93CF2B02570C8D192E
311
2F2A68CEEB42F12E6F8CEEFF46C251E22B4341C56FB08CCE550E7A9D6F4D6564B9EA52A83D5BF2C6E03FA19D2775E15A8A7ACF30A13C259EE7F5EF2AC3BA354F1500E1A07FC63FB4686E2F12EC69719F9ECF5FE3F35598DF2CE944008CE78F0911BA5BE5D0A34E0098FF038669C26030BA9B300303039852A8F6F496341737
311
CA7E0D2E3AAA36DE0A70AA7D9CA0D54D9AD84B18A44C9E625475E1C97B93BEBB38DCE7D227E67A2D00F531436136355F243D1FC0D712C5765754FA22FCFFAE97919161F46D6E61ACB37D83777B385889770B50765B127768443A5C4D3A4E35A3151111F146B7CA116F918A049F1C272F2CD7976C69A0068773451659A97E0F
311
4A08FE604C3FF6CE7385DB19F4D3ABC8A0D80DA8A42096AC377DB49382B36E270B6FA7570188B4B7D1DDDDA82ACA487CCA5D38BD3BD039ADBAFA4ACFF27809239B722081E2EB9F145320553D183F28471C388BC8814E5045676767AB58A8E72D1CED2CA731379515D2E533E4CF0B39DFC625F97AC4836831A4DE330E87A812
311
6FA17EBE583D614E71E22A8DBF2825599743E0640037303E8E1B1E8EA4E1ABFA4F62907B5E4E0E5DCFDAB417C36C6848A2B8D15F1E505434C0707E16B1CFC2A1C36A42BBF55734F8F4301DDC2A5110CEE8C0747F69519265012A2174BF4E955ECD4FDE095A3ABC70536B7AD0B9D7892F81287D667C108703C9B66A221E9A09
311
29D030008F77FF6F5D2108EF5706FC87A3069B976F7C9FC3239D13D283CDEA83597461079FEEE049B0F392889898B7D87D31F8D60ED7B56B91823A8E4EDDB36C6172ECEE42BD42B12CD67994FA0F0DFAE9389356F4CD4425A4B8AA55CBF7ECD585C6A2C2316791E43D5C06841ADBB226A87FD61515FFBB0167B74E56BD7F3E
311
90A57A97FEDCBDF483A0D6699A8C0849CAEB4947FAA90D8E332D9DEBD9F4738C37DA0CAF9CF3DAA68BCB67C420459C7A64498D6E848E5CADE92BB6901F607AA331104A67F7CD650EE169B1DAE94D2C31C2F993632259B6957E246EFE4C5481107B07118607700040E5812A2A2A38DA0076875258C753F60E0F2662C748EDD5
311
F3F3686B8FC3BD6FE631ECCAA1E8B1C1E565AD117E54893E79F4672E32F9E46B2A183DFDCF3EECB4D4D077DBEA0DA254D256045109670050129E9B9B1A9E4A11344D61497A992778095151510C4BB7EF2009B63AA4360635312E4CF668B7E0D3D85A8688E2BD83B569439892ADB63461930D428E0DE42E4AC57CE48DA5CC14
311
49530D8BD3D6A0F08DF20C8E8F570F2CFFFCEA286E30969B4654D498A58D9DA782E19FE3F002181838925592C4A1EF0B332D88B61A92C644547BED490D3A42CFFAB70E36D961F694F6307F72FF15A1C79D5B1B5CEFD353D9E2B52566DEC8F8F09CB3E8359C0F68EBBB7898243E34E12A015B2685AB303C04D3A9E00671FF3D
311
FF0A184E4A2ABEB2B666AF5B3A209C73D8EF29DCDB069C9F391EEE9DD0F74C7BCDE16F8F02E3B8816122BBEB50665775B600549D8BB33A54A6BF940C028118BC6878C79958D6784F9DEAA6E26748386FFAF8D0D0101E2847B6563F5D8DC1D78F787BE00E2C941AE12148D4A81599FE8F68D4DA5CDED75530ADE138240300EE
311
13B0FC13A1687FED6774662C05A2B7DFB186732F0D7A93545D8B0A6390AE5054D9CB582DA846D7A061B3358B45E2B52DDE63E114397EDB7E09233A579155D795BE76102CF277F4DF8B188C4F2879BEAE3C08347124BF9ED23B128259FE107D31E34A652F090B30B39E0D9AF917B76A2806135621A8A60681F16AF216514BBD
311
02711585B5B1AE823F4B2D0369EA5B6BCB863072727FFC871CA6C9AB79A814D989057E9470A3D238BC87CBB4A0EA49AFE2B86F22E499793CAA9047080450166BDC357524561E258C77CB697F1ABB32562CF87C3B7AA12F911EF19FB3E5C02222E887D08202A60A17151F5E053A86B437771088B4FEE14D652C43E8D939995D
311
34545E12E2FF93D4E366EAD25F10CB7DED141563C3D0C447AF06078A91135FD4B9611583CB4BF3BD167F2399CEAB0E0100F8FFC305F00F1711717173138B4B48C83022295DE657EFEDD97F238ECA80F528AFB4F8D67AD4E2594B9A3AA86D7487EFC313BA95745C186F0CDD84CC12DC9CB0424B42203D351FD9C0A3AF10CC7F
311
388E0329279087386421F194F4A29464C1DEF7EF8BE515E4A199DCD5B909342598D8FE6A231F71336248D5CEC5454455C7BE383B3BC7B260FED27F703FDC39A170F3827239102F59D4DEE7FEF82EAA1A5E4BA94DCC4CC44E7E2EDE20F24244E4454369D2E87C3F823F193FD4FD27E1C23984B01898D15ABC20711A8A558054
311
951A6AE280096BA36CBA439603B7B0B4C45F248C14B2383B4B5CD8ECECE4FF859AD4A6CA2326D020EF090F4041D28DB66E5256B56232CC52829DE8060BAE6BBF37D4B7469B822454FE93210A3E8D15E69FFCF01123222611C51C4FD0A041A0CFA2471CF6BE38D2B20FA4C3525B5B8B586759475CF80ADFE67A284AC24651E5
311
2B8E683D24C2622642F27E7C3C22783BCF63648BC398BD6CD0D9C97E7E7E3EACB6126DB7A6C1FD9F1031302EE67ED96F22B77C7CA0239BB324207559B105E4693EB26EC46182A92C9C0DBD24F29B31C5C5AC1F84300E0E17CEEAC15F5736FA4A98971E2F1423BFCD68D4BBD5F86E74B40A369F39507C88FCDB35D2DD8DEBEA
311
4AF999E23CF2816D204200DF6E611781B9884C1AC8888B4DE397320472959434323A5A36B22A8E1F721A270DF3BD65E4A31C11FF048AFB0D8B7B6881423793963A23CFCE935FC189ED36FAE35C46DA3574C979E4394BE52084F3081837BE033396D2EBD80F1F691B273F660D2B32FA27A33B1DE4ADA5F0FA4651511102DFA4
311
10DDA86E065272CA314D5249DF91B06BB92807B28EFD54F08F7B525252782CD276DD02E6B0319B13DF87B1F6361AD6B28FC0D711CF445429B9E5A433CD493051C49A9E03DDB1B147D880253514A5DED88009018620EE229101C041950E2D8AA8E1F5F5438E0C0C0C60EEDEE9E3E0C051948C69F84BB7B2A48A1F3C8EB9E686
311
4687F4F4F6F6E2FA87608ADAF9C5E117B7C1A737E710769DA1D15ECE6A84502AA855398712D5FB51BE92E4EF824969CE18278798AC303C2C7980DD2500ADF8FB1E6D6C2FAAFF9987178923334A244758BAA01A9A1B70FA5097D01E1CC2A58DAD0EC94CE6430AA9B0C10D75E3C6BAC670EFBADEE1607739CE0FC18A2587E3EC
311
3058562014C64219C69BC269082D5C2F4A659278D585755912176D78A1B641719C2A394CED495A1AC5D583FD2F5EDD93308EA7EAE8A6DD396598BDBD3D4CFED62D18A5BDFDE0DD5C80D1A89BA62697B131AE7CE9A6594138582F1B37D68F1749AC7CB67A70695D48A4A056AC1FBD4E82358CEAE38F54B95A9016F9000F9879
311
C0D9D131768635CA798895F27D6F1614F11F2838A83611AA51C9A3DDB539D42979C29F10465655C17BEC3E2760B80DCBF609198C7B171A531905F3EC218D696025975E986C6B4C666666787271F202805577DD5A3EF0CAFAF91B62DC4B2DB4217A7606282F31D8DDBC290593BAA93EA6353AFA9939B877978481E15CFC9F27
311
55CDC00C538F63A4BA3E80AE009B73CA0185687D339A507D165B74290D6EE46D5C58148F020C3668ABE9EF2F7549170DC80DB41FFC1D678FF19AEB10C7133832B104B80F691B3138F97A92D26E551F1F110400D45AC71A9B9AC41A1A1B1DAEED0B0810638EFFB511D46B121C6FEA0F38CD00E03CFFEB9713FE1F9C263E4DDE
311
C160D0497FA9A132BA608584057FB15380825DE6C7FC3C667EE947D488A09898D8E939C4953BF4EC9836344D2CC6B2971B2A21A572B06096F4982D2CC7232D46E8EA69DC83722E267754D777F97F96D5DA74E1E75178084D0E70F12AD33E5F71EF2AFA599B2BEBF60A5BE475F444F240CBFE8143C334E7ED9150FEEFEF7EB0
311
20C4DBED388DD1D6A167A76F3CBF119B578AE8CFA7736ACAFA4440A1C47185638A0D2F3EB5BDDEFDA958FB13CE4AA4923D5BF840392D45544329525749734866684BF7F8D9D54D892E19BCA9F829A0F8BFCBEEA6CFDFC61D74EA1A645ED7A1FF241739F15694BD835B66FEC5677E40FE69BD3F91AE402F036537218A401CB0
311
828604AD189E575015C6F3F6BBC8AC79CF6C70653847254B31551EFCBEB5978B9DB85D58D0FA41A9DFE9C624834AA04949D24B5AE6D299E072D152D12097920F14AA92C31C3B97E28B6C2E6E9C23D63043ECBBC0A60FDF5BD0C33C127EA8A3308B8B6AFFEB28B4455BF6E7AF4FC6222728357EB8E46E85053E6A8843AB2329
311
5BF838ABDA94658FEF3F832F147046B4ACD6F7D48E8FCC9618582961C898D1C7A253C91BFECBDA6BA18A1FCF70755DCCEE2222F41B76D23CA98D0CB3D95F0CF66D57FFF65E2A90F5DF40FC3187621E981BD0BC1D992787212688976B94A8F0C6EF646624B570B78E068826F87CE27041A95C9A4871FF65CC17FCB1639629AD
311
6A9517000D63AC231F3D741CB8430777E7ECF80CE7A3F73C0F162F7E56AA71F4DA80A33CD6ACEE78E2C11FAC03DAFCE929B106F8F6B3ED2DC71FF994BD9CEF4E9A94896EF1B6E2B7B4978168BCF0847A3D2A4F1B0500B926E634B174548E9FBAD27153FB5FC36799B1E6C7C38A94E1F9E996796D7B485E635D5287A2AE76FB
311
D11A341DB3F8F810385BB7296391973DC6C37C452A9305AEBBE0CDB6C566DB59FE60C8E94B1FD090354BF51439FFD1B48D725228FFA88C84F686F547107A7A235665A4593B7C34D748C1AC8D56DD5DA861EEFBADDECBBD65117E65851F90351AEB65F0EFCFF4BCFEF24CB7A5879699FAC437A7AF9099186CF006BB923A59E3
311
7D7A36A29FD8D2CBB914A5E9D0A8FD212FBF796AE9A67958FF1D5D8B85F78F96219D4714EB919929241B6C018AAE0C02069F8D919961EC5DDFBFB7573E3AC8E08BFB7C8534BE6DE045B3CD63DBD71F7638BA2309CAE398EA3A7D8F98BBBC7AEB367EFA5CFA27A9F8F2F52FE878058E6209C026453F8E7E8A237DFC389E9590
311
F6059B397CFD65183BBF936E86896612A5B5FEE49DAC8455D026218AFEBEC12B3523A45B57B82C9C97E02ACFA1184DB18E48CF615DBF39C3CC6F0B4AE6BBEEA2E39D944E290302FA3DE33FA7E40296E2EF7BF1CD855BBECFAD0FD622BEE9746FC4FDFDE545AE6E3BC234CADF83A0FB76DFB145BF3828AE3436368AC2498945
311
4F8FF70A177672C711CAA1A76107218CF948CA01F873520E7A2B118EBB161ABAD432932029628B6761590C98AB590C8C8C79798CE9F715BA696E839E9131A4BB68BE923F1747FBFF165331FFDD4D05997ACD168F12CA75348DAC04C7F509FE83898A8B421181AF492861CE81E4A2DD0A30850CFA95E05F097FF70F9E777310
311
D584A75BA7018922E271DAB1D785671157685B7D383D3E074DDB4F1E44EF04B07BAAC75A062077C54B9752C738C9D804D402E02851F3F89605AF189738C18C021D2139EAF72513824E10DDD3047BACC8521ED7E98B257D1166903B1B08FA6F918FD7E162913FEC7D0EF4787E29C35FBA8C6E2C9C20E9AB30AE42CA2A01A090
311
E7D010C1B5BF9CEE2A304BF3A987FB40D836979B79E18D70F257DA61E808472DD85B82761825779D6B90CAEB0F23360C6F80A7D7D77545E95B3DFF0CF96A827F9B5BCECD2C9698718417EF80FEEDEE938AFF55859D0D540B7FE09435583A6F04874A0C7E8CF234DF4879722000167F5872CEC6BF3EF7E5A8CC8121E6A35922
311
7C8A29C95212F9F735BC72A887D56B8F309FC525BFB4FD767AAEC4AEFF249CFBBD2DE1AB9969A6155C7D8DABC307E47324C1F916C7BCFF40ABA5644E9FFB9238D19ADADA49D9610F01ABBA57E4DFCBDCCBB2B93C8953206C91DE01B0E2651A6D6C31721915B31F7B7CBCE55466F6D70402788FA91D73BE4ADCBA99A35F17D6
311
B83383704917D6833F0FA3CD45C926ADB8BC17999A4A0AFBCE2541F7B8CF4C2F5FBA611B3E626D64407CB32C122DFF4EF8674D6EDBB86C8F7C6A16D50FA685E2CCA34F8F7D1D8265BB0042E9D7F1F666F7BE5FAA5184DF58E12122A42EF02F461B3F369AC746F96528AD208512AB56844CF75B97F352DF7995024FB0285538
311
5854F3798670D01CAC771AC3E1889EC25F61A20C1F8CAB46898817F9C47E2CDA1F286BF2F358298709FE567C91133E2638C8B53975E753EA8BFD3578B5F7186B7BF084EBA3F77BAC3132A5779902EC22AF2D2E79F42D324E083386DAEE9810D1B44A5DAA54513C7A71E52A4AB9257D975B621308FE4D2141CC3DCFE946C154
311
A3C1DFCCA7629EC69ACFA831634ADDA93C0388D2A9A2DDAFCF957C6995BCE7FBB6DC4EBAE79E63EB08E9A25F52F67076F7093CA545CA3053B5BF576DEAD4E0017143C5F759F32B2D6F145B52B67B48909B7C7FCA6586EE385A2189C16932CB6DDFD9152AE317C430492A578ED27B72D85D40C7C93C097939E1B50F4D67F053
311
34FE9DC362C30B7FF561B95259138ECFD9274C8D695C31B14D4EAA9F3D7FA8DDF652F8C5DEFA23284C799B7D94416DEE81E05A866302DC70192A5368EA65E1CED8BF107A1E2D3119A71E85DC1A7B0C1E93274CE04DD0F2ABC8AC7C987FDB002B6F81757B43502EF7A0D92E416494FAEEA4C9C090CD9557AA4D532F4996A272
311
B94355C5A0E4974EEA9627476F30809B94D8D8D860062E02204643BEC7D0438AF800FC7E2B26955D595421E83C69E1A07E0E3122285835F014AD538188CF9737CE76D464A353FA55A001AB2526B84E985083693BC76FE211CA1D000679C889E3C009832C87E1AC2EDD05C302557422DF0800E316FCAC86978A371F025A6C7D
311
AA9F333E7BD160403A1A06EA75AA9888FF01504B03041400060808002741E54E28BB58AF800100009E0500003D00000037384437464136422D443238422D343344382D383446332D4542394246433131453846362F536368656D61732F436F6D6D6F6E536368656D612E786D6CBD544D4FC23018BEFB2B96DE15493C786010
311
10A34B880709DEDFB52FD0D8B54BD70DF6EFED3AC0B12E6442E2716BFB3CEFF3D18E26FB440405EA8C2B1992E1C323095052C5B8DC842437EBFB673219DF8DA659866649B798C078B48AE6410122242F2A4994AC7F93815DF85C049C8564CA0A901499DD886B2EB9B1E02448F358701A9235880C49A0119892A20C89D1B9FD
311
768815CAD268CB5E0355B40B1E47F3E37A2020464BED06AA57CE8FCC20C3C3446D46761A2632A8C1283D07031EFF2AE7CCB1BFEEE916E406DFAC8E36FFD99A9D60A6944090EEDC3B670C7DC13DE86B6B2C5C240D6E503BB85ACD579D513F1B9F9A69DC9CC22AFA80C426D40AF0B21EA168559156B6276F0F726A6BFF04DCD5
311
13A87A62CAD41FB24FCB2858B3952E3D852084DA25B9303C15687973CC8E8AAE11DF2836C38C6A9E765E8C1BA1BFB1DC29CDFE518C8B5A7655A4ED7E77291ABEB80DBD82EC866ADE1B8D05AF9E35CF09D7A061F38A986D9EC412B8F0F65E5D81534D9B231D1E5A8FE577A241F3A5FD01504B03041400060808002741E54E67
311
0136ADA9040000B41400003E00000037384437464136422D443238422D343344382D383446332D4542394246433131453846362F536368656D61732F47656E65726963536368656D612E786D6CDD586D6FE3360CFEBE5F21F87BD3245B0E2D90F4905CD12E1F8A0CCDF5BE0A8AAC24DAE417C872DAECD78FD48BE3D44EE3B5
311
C3E16E010EE75A34C5877C48911A7F7E4914D9095DC82C9D44835E3F2222E5592CD3CD242ACDFAE22AFA7CF3CB785A14C22CF95624EC66FC34BF253BA626D1BD488596DCBD8F2E6FC6335608B7F428D258E807664080A98384D9E75E22F16B2CCF05D32CE502359492C878124DE31DBE89612BB196A934605E44F272A5249F
311
446BA60A11112D589CA56A3F898C2EE16F6B136C595C7AC3C2FF076D3D808BDBC824572211A961A8D96E393F7AF5806BEA91EDDFB1ABFB769EB08DE8BCDFE27EF98E9DE0ABCE3BFCA1C54E8AE777ECE2BFFC92A94C87EDE6A9111BA1ADE75C74BF391275D33FAAC5FABF89F1D33C9836CB3225980B2A479BE96A4FB3D59F82
311
1BCF11CF1FC55602586C7191D99E2C9C0CF2B8A662E3484E59466361985485D7E248E7953C01F19DA23B9D256461B6E09C40FF02D1DEA98C19EBAFBA4659184B7D47DEDF22E2F53DB017721B164F5B845961697F0C699AAC2410982C385725A6361A500F59CD848221F103A8C1A7CA84A55F407794695C905C688E69B11155
311
0ACA946B9B4785FC1BDE0E229240B62665328986D5B32C400CEDD88188F35AC25EBCD40836F47F35E5C0EA4B6F767B50568CFFB5665C505E2AD5EA8A9997205F50A2350EAB32C9294B0024108429953DF32C4D812E226658F78A490408362A94987E6F787DFCBBBABAAEDC36758ADEE9B58B41BF0F35D87BB1E991E02BF0B5
311
13748E6C0AA2EB2CE56EC68E97585643D82DE284E51DE03E4E22B00738761F1E66E1616A03EE093B0327B6BB9797262B0DCD72C6A5817ADAC1C3C0A3909CF6639B404D18B15CAF4B3C09CEAA4414BD5F0723F059ED37048E7A64271711EDC9C5230F58FBDA5DE00DA512CF04BA6671A0D201A83D2EC81D2EB552C7E5CD1BF9
311
D6913567B2CD53A659AC362A2B200B440195E2ACBBD167A32A86F7874F7F00686DB55D163481DADE5E417E979BAD827FC6B2B0AD8A6AB1567038E466EB4B10C4C2F3F71196A09260938125FDAB8662456EAD68AB2F7C1DFF709C874887B76A4355564F017256531BF73D7D754A40E23401DA38EFC907CF8D8E3C1E5E7505D8
311
E432C60BE1EDA01E5166683F169B6EAC6EC046153F66C2BE0679FD3F407982ABFA28F92E0E457501938D96B12090869079360D3F947CA8BBC3D9FCE1ECF3C676C9BE80EB67CABE004FC290F8E26BE6A0371AD6CE66781C408A1FAA8CFFA63DD93A94CD5E1F3BA6A3DFB05B34E1247BB3949E3C332105035203136EA14AE89F
311
F99E3E0B3C4EFE65C581A3A3D2D0EE84EFDB22B49DA31A07059E69B81628A8ED1228B63E42C3D840C3C01F460D1F331FE199821B03F22CCDB6DBF074B49566B12C3B3626074EA1B130B4596BDBFBB642A835954A9509E5769234228129889952870EEE13F494954AD7A27EAD09411BDEEC5B6B6AD752C11509F826EF4007E8
311
6281B1AE63750FD09DBA87A34EF4CE2A75F3E85960004EA6B519F4806609E8C91CD18380BD81691D9F2CB5730631E6DDBAFBC30E96D3E1D3D67EE8FB72BAD92AD4C1FD3CEDFBD2681858ED6583CA3853294B80AF67AECFAC6418D08164D5FD1E52E8B546BCC77B87C6E9D1655FFD384FB26A28AADD82E04B9C64EBF78FFF00
311
504B03041400060808002741E54E8DFFFC99640100009B0300004500000037384437464136422D443238422D343344382D383446332D4542394246433131453846362F536368656D61732F52656E6465724D6174657269616C536368656D612E786D6CA5535D6BC230147DDFAF08799F5FDB600FADA20EA430D968A7AF12D3
311
6B1B481349529DFF7EF9A85A718860DFDA73EFB987734EA3D16FC5D10E946652C4B8DFE9610482CA9C8922C6B5D93CBFE3D1F0291A6B0D26A3255464182D920FB4233CC629881CD49C18508CF000E3EE309A100D61622AAB4A8A33B2483F11CB639C545B0E1508438C3D3C0361192846DB7ACD198DF186700D182920B914FC
311
1063A36AFBEE8FBA03FFD3CC1D1F4FC9E151A2AF59F628C5B7821D83FDFD3489305080F2EE04BF962195FB285E9D2DD352320A9E827AE357594914E42B1F5FE35F83688F60C4C91A6C946ED0668E8F244BC2EB0BA6E3BCCFC0B6A4B507F9F9F8D51EB315D9BA9E08D308E89F96931666E577837E2B4172199C68C4FE306156
311
D47DF51C698C7B9D97FE5BEFE2190C3C38BB054E6E8163FB039CB4B993C80BF18D969203116D6BBD26238B821F9BB909AD6D9C71B85BCD8C33D66FEA3D31B4BC0AD45BEA46BBEDDFEC0F504B03041400060808002741E54EA91B9E8351000000570000004700000037384437464136422D443238422D343344382D38344633
311
2D4542394246433131453846362F4173736574446174612F41737365745461626C654F66436F6E74656E74732E62696E53616060307772B434767636D2757175B3D435717532D4B574B130D57536347736333330373635751102AACB4D2C492DCA4CCC492C28484D2C4ACC4B4E050A82012F90744FCD03CA26072767A4E626
311
0200504B03041400060808002741E54EC55C663656000000680000004500000037384437464136422D443238422D343344382D383446332D4542394246433131453846362F4173736574446174612F53747265616D56657273696F6E5461626C652E696E665D8CBD0A80300C06F73E4B29FE6CDD8A2E82A083B8B7F2090149
311
25C9FBA3AEAEC7DD2555D896CB85E51C2A1BD834F6A1F56EC4494C4695278364ABB24ABD2146F88CCEBB89D5321FF8F3F43D672A3B44DF3CB6A1710F504B03041400060808002741E54EA5088EC337010000A20400003600000037384437464136422D443238422D343344382D383446332D4542394246433131453846362F
311
4173736574446174612F636E782E786D6CCD94316BC3301085FF8A1174B425074293202B9476C9D44243876E17F99C88C89291CEA5FDF795120F2D299D32643DBEBB7B7AE89D5C7FF6B6F8C0108D770DAB2BC10A74DAB7C6ED1B3652572E58B15632784F3F305638E8B161B9CC94DC073F0E53A9C50E469BABD6B8E3547C88
311
11690B3B8BCFDDA377848E222BB485181B16F5017BA86024DF623C562D1054751530FA31684C93C8F4384DD20181B0656A26EA6529EE4B31DF8AC54A2C57F5FC5DF24C2AB9F3DE4EBC49CB821FEE66429FF7322524CF8092633013955FC3D45F2AAB9D71922752C94821B93275D0D7903A6018ACD140C93CEE3521950942E8
311
253FC34AF2ECC22F2F9EB033CEE4964D9206E4C34B1288810CDEA027FFA9BDBE371B17099CC65B76E452E3F57D783DFDA2B7732C4FB9B9BDB45C6AAC8CEBAE90157E3A27293AF9BAA86F504B03041400060808002741E54E8C057089E7000000600100006700000037384437464136422D443238422D343344382D38344633
311
2D4542394246433131453846362F5265736F75726365732F37424139334343322D444546392D344542312D394438352D4331374336363037333535442F7468756D626E61696C2F302F636E782E786D6C4D90C16E03210C447F6585D4E32E6CA4A849C4929FC8A997CA659D2D0A8B1198AAFDFB42CB21A7B1C64F9667F4F57B
311
F7C317A6EC282C629E941830585A5DD81651F83E9EC470353A11F1132686003B2EA2D9C2E82D5189DD5AF10EC537D7BBF0E8E6860193B3EF316C62B01E725E44B69FB8C3048569C5FC98566098E62961A6922CD603EC76EC076C42605C8539A8F93CAAD7511D6FEA7451E7CB7C7CD3B291467F10F9CEBBC09828BE1C94A53A
311
86FA8FD2B2014697E43AD54208F3F49C96756974E654F377887F62852046EF2C70AD499265E4B14208BB96FFB0D1B2E5ADF25746D5D68DF905504B03041400060808002741E54EA233C2345D000000800000006500000037384437464136422D443238422D343344382D383446332D4542394246433131453846362F526573
311
6F75726365732F37424139334343322D444546392D344542312D394438352D4331374336363037333535442F7468756D626E61696C2F636E782E786D6C4D8B490E80201004BF42E6EE76F3C0F216234B883063108CCF170C074F95AE5473F5C4C06E932E4F28601967600677D21E9D8092EDB002539227A2FCCB80E1168D80
311
A6417297A89C5D6963B7129A0D1E8F2EE73AA7B62BBEB8B27DE50B504B03041400060808002741E54EBE89762363000000880000005B00000037384437464136422D443238422D343344382D383446332D4542394246433131453846362F5265736F75726365732F37424139334343322D444546392D344542312D39443835
311
2D4331374336363037333535442F636E782E786D6C4DCC3B0E80201004D0AB90EDFD75167CCE820A4A845D83603CBE602CAC26799919AEEEE0D965E2E908050C6D0FCCE04C8BC355404EB6198129C92351FAD580A10E464065907C8D948F8F166375F655BDC3FDC3B4E530A176BE7057BDC43B2A593FE403504B0304140006
311
0808002741E54E3FE9034E7F000000A30000003600000037384437464136422D443238422D343344382D383446332D4542394246433131453846362F5265736F75726365732F636E782E786D6C4D8CD10E822018465F85FDF79464886C884BB0F770898EA9D0485A8F1F342FBAFAB6B3EF1CD17EB615BD4D7859EF1A20A702
311
90710F3F5A373710F709D7805A2982F7FBDF0D901B36D340C620C51C7C7C1E6834D310D74C57EB9603B2EEC64BA52E58F7778EAF7D4730D735C58A305555052B29D5C9386725CDAF9736E7E517504B03041400060808002741E54E0FFF1F6A0B010000550300003400000037384437464136422D443238422D343344382D38
311
3446332D4542394246433131453846362F536368656D61732F636E782E786D6CCD93B16E032110447FE58494F280B364C5B6385CA448952649958EC0DA4606F6045C94FC7DE042614BE992C21D8C9E5633032BF69FDE751F1093C530928172D241D0686C388E64CE877E43BABD1411315F60A40BCAC348AA4CA438469CA726
311
1938A8D955D5D9706EE2037A8FE1459FC02BD269A7521A495AAE54CD190DA433352A2B3AD00809E7A8A14CC8D6439BA023A80C86C8151FB63DBFEFF9FA956F767CBB1BD66F8255528A7744D7781B32449CEE565C63398662880B560129E6681B55531079E98E963E042B841429C7D24223F3D75448354DCE6A954B596C017F
311
1829580D7B15F9110244AB6F35F395BD7F0BFD0CC1407C2A2F15AD72B79AFD37977FAB802D1B50BE415D08F90D504B03041400060808002741E54EE3603EBE7A000000C20000002C00000037384437464136422D443238422D343344382D383446332D4542394246433131453846362F636E782E786D6C6DCD410EC2201085
311
E1AB90D9DBEACE05D09878023D01A1D34A8419C380F1F82DA68B9AB8FDFEC93C3D7C52546FCC12980C9CBA232824CF63A0D9402DD3E10C6AB03A3397DD192872090D3406ABE7CCF5B5D18893ABB1690CF4DCF02282E5EA8A5BB96FFE536F285CB347F95BEFFE81C9ED5AFF9D5B1FB575BB00504B03041400060808002741E5
311
4ED672ADF57F000000A300000007000000636E782E786D6C4D8CD10E822018465F85FDF754A4D3BF0D7011F21E2ED1B9101A49EBF183E64557DF76F69DC3BBCFEAC8DBC6D712BC00763801B1FE1EC6C5CF02D2365104D2491E43D8FE6E40FCB05A010583E4730CE9B9A3D14E437285BAC53F76D8A26ECDB551549F51D1BAD2
311
48B13615EDD545991B633D9A261BC7A2E4F9F5F296BCFC02504B03041400060808002741E54ECA1DF9C9A900000073010000130000005B436F6E74656E745F54797065735D2E786D6CA590410EC2300C04BF12E5DEBA70400835E500FC800F84E0B411AD13252E2ABF27A55740421CEDDDD9B55CEFA7A117778CC979527255
311
565220197F75D42A39B22DB652EC9BFAFC089844F65252B2630E3B80643A1C742A7D40CA8AF571D09CC7D842D0E6A65B8475556DC07862242E78CE904D7D44ABC79EC569CAEBA537E3521C16DF5CA5A40EA17746733E0B6615DE7217475F386F18B9481C510F1F021CD9FF027EA0E1F5C4E609504B03041400060808002741
311
E54E3DEE336E64000000790000001B0000006175746F6465736B2D64657369676E2D7061636B6167652E786D6C35CBC10E83200C00D05F21DCA56CA76D41FC96062B120735B69A7DBE268BB7777961F8D5AF396893C2ADB70FE7ADA196782C2DF776D7A97B5933C430F15651E5469C55D70F80A4992A3ADC954792C525AE70
311
A1E4D6AD9816CC044FEFDF01FE3FDE907802504B03041400060808002741E54E7BF38276F8000000960100003700000037384437464136422D443238422D343344382D383446332D4542394246433131453846362F4173736574446174612F636F72652E786D6C85504D6FC3200CFD2B91EF10C8D636A908559B6CBF60A7DD
311
10D00CB581888F693F7FD064D276DAC1B2F5FCFC6C3F76FA9AEFD5A7F6C138DB03C5042A6DA553C64E3DA478452D5427CEBC73F1170D2A2B66DD438181B3C9BBB46C9074366A5B50EB94DE4011828E50C97B2E7A08F243CF028B143323DCF022E44D4C1A53BCF2384BC9A86DD4A8AC66AE467BE0A46D9FF7231D51F3D27428
311
977B74BED00BEA067AE886D71C03617519E62C9AF967BBF45A44AD80378476881C10D9BD91F648BA23DDBDB3BA30390BD1E79FB7A5E53BE0E772F528A260F5DAFDA39A16F5BF6A32363E359BEA3A1180D37CE4A3C1595D5CCAE96161CEC551FE0D504B03041400060808002741E54E4114AD05F30000008E01000068000000
311
37384437464136422D443238422D343344382D383446332D4542394246433131453846362F5265736F75726365732F37424139334343322D444546392D344542312D394438352D4331374336363037333535442F7468756D626E61696C2F302F636F72652E786D6C8550CB6EC32010FC156BEFD8E036891D61A22669BFA0A7
311
DE106C1C94182C1E553FBF10BB527BEA01ED6A989DD91D7EF89AEED527FA609C1D80D5142AB4CA6963C70152BC900EAA83E0DEB9F88B069595130E5060107CF42ECD2BA49C8D680B6A9DC615942160844ADD73334050579C642D53CC8C70AB67A96E72C49AD50B4FF0948C5E478DCE6AE662D083A05DF7BC3DB333695FDB9E
311
E4764B5E8EEC48FA13DBF5A7B7FC4E94376558F068A61F77E55146D4205ACA7A4277846EDE69B7A7FD9E6D3E7853988287E8F3CDAB69B92EDBF16641FFA8A559FFAF968C8D4FEDAAB64C04102C2FF7F810BC29E9E4F2882ED792A4F806504B03041400060808002741E54E1B3DB374F9000000960100006600000037384437
311
464136422D443238422D343344382D383446332D4542394246433131453846362F5265736F75726365732F37424139334343322D444546392D344542312D394438352D4331374336363037333535442F7468756D626E61696C2F636F72652E786D6C8550CB6EC32010FC156BEFD8E034891D61A2C669BFA0A7DE281007C506
311
8B4794CF2FC4AED49E7A40BB9A9D9965871E1FD358DC95F3DA9A0E4889A1504658A9CDD0410C17D4407164D4591B7ED1A0307C521D6418181D9C8DF30A096B8232193556AA15E4DEAB00851853D381175735F192C79018FE56CE5CDCF8A04A522E3C4663D472956A99DCF4452B070C37CDCBEE4CCEA87EAB5B94DA1D7A3D91
311
136A7BB26FFBF7F47A4CAB2C6634E8E967BB708A072581D598B408EF11DE7EE0E680DB03D97ED22A3319F5C1A59BD7A5F93A60E11AA72FC3F548AB65FAC735CEF27FD7A84DD8D4ABEBA2F0C048FAE473C06895534AE51961AA3951F60D504B03041400060808002741E54E15CED1B80D010000B10100005C00000037384437
311
464136422D443238422D343344382D383446332D4542394246433131453846362F5265736F75726365732F37424139334343322D444546392D344542312D394438352D4331374336363037333535442F636F72652E786D6C8590CB6EC32010457FC59A3D3638F5830813C58F7C4157DD219B3828314406AA7E7E2176A576D5
311
059AD1E55E0E33ECF4B53C924FB95A65740324C590483D9A49E9B901EFAEA886E4C4D96A8CFB6583448B45361065E06C5E8D7FEED268B4933AAADA4C721785B5D241323E42D3801D6F7211A9F02E38EC3D7D8AF12E66999274F371E6BD9AF6A89AC26BEAAAE40A1CD7F55BD9931EE5434E51684B746E498B68472ADA5DC2E9
311
30CB629833A7961FFAB84AE1E4043CC784225C215CBCE3FA88E991141F2C8B4ECEAC5BC3CC3B344E07BC6ACFF4D07539EA874BC00D2D41B4AF0B14685D59E2EA50143DCBB6E01FA07F4EFF03BDD2EE90EFC02D618193F0FFD70567595C6028AFED861A97CDBF01504B03041400060808002741E54EEFAFE52BF90000009601
311
00003700000037384437464136422D443238422D343344382D383446332D4542394246433131453846362F5265736F75726365732F636F72652E786D6C8550CB6EC32010FC156BEFD8E036891D61A2C6693FA0EAA937041B1725068B47D5CF2F24AED49E7A40BB9A9D9965871FBEE66BF5893E1867076035850AAD72DAD869
311
8014CFA483EA20B8772EFEA24165E58C031418049FBC4BCB0A296723DA825AA77105650818A152D7DC0C10D407CEB296296646B8D48B54173961CDEA3B4FF0948C5EA54667377336E841D0AE7BDC9ED889B4CF6D4F72BB254F477624FDC876FDF892DF487953C4824733FF6C571E65440DA2A5AC277447E8E68D767BDAEFD9
311
E69D37852978883EDFBC2E2DD78178C5E092571878739FFE714D8BFEDF35191B1FDAD5F5AE082058FEE46D20785352CAE51661AE2551F10D504B03041400060808002741E54ECBE1EA6BF7000000940100003500000037384437464136422D443238422D343344382D383446332D4542394246433131453846362F53636865
311
6D61732F636F72652E786D6C85504D4FC3300CFD2B95EF4993C2B6764A33B10EFE009CB8454956A2AD49950FC4CF27698B04270E96ADE7E767FBB1D3D774AF3EB50FC6D91E282650692B9D3276EC21C52B6AA13A71E69D8BBF68505931E91E0A0C9C8DDEA57983A4B351DB825AA7F4068A1074844ADE73D143901F7A1258A4
311
9819E18667216F62D498E295C7594A466DA34665357335DA03276DFBB8BFD00B6A9E9B0EE5728F9ECEF48CBA811EBAE125C740585D86398B66FAD92EBD16512BE00DA11D220744766FA43D92EE4877EFAC2E4CCE42F4F9E76D69F90EF8EB726760F5DAFBA39966F5BF6632363E349BE63A1180D37CE2D2E0AC2E1EE5B41898
311
73F1937F03504B03041400060808002741E54EB2DE63B703010000D80100002D00000037384437464136422D443238422D343344382D383446332D4542394246433131453846362F636F72652E786D6C9591C16E842010865FC5CC1D155D57DC209B5AD727E8A9372AB396EC0A46B0E9E317AB4DDB5B7B82FC7CFF0CFF0C3F
311
BF8FF7E80D67A7ADA981C62944687AABB4196A58FC953088CE82CFD6FA1F1844468E58C32A83E0C36C9769977A6B3C9A553556E12E4AE7D043D4DFC3A506D7BFE22863B9F840B85B3CC9FE26078C69BC71827B3D7E59FB19A54705224B6945D292A4C553CA4E6975A2C5334F5652F0451B9F677B331C5F504576F221128822
311
E7C9F61CB045AB1DD22A7C525F35CE204AD696DDC3B1216DC61A72C85B46D8A1CBC9A5A99AEE91D20BEB8EA148300BEEFC1C46B3175987F057FB66FC156D99D43FA36D0E07827E874AD6390B9E7C2E219CEB4EC407504B03041400060808002741E54E739D17AF06010000B201000008000000636F72652E786D6C8D50CB6E
311
C32010FC15C41D1BDC26B1234CD438ED17F4D41B35C445B1C1E211B57FDF25A1527BEB01ED6A667667587EF85C6674D53E18677BCC2A8A91B6A353C64E3D4EF14C5A8C0E827BE7E22F1946562EBAC719C6824FDEA5B540A3B351DB8C5AA7740165083A6234CED0F4388C1F7A91954C1114E152AD72BCC84957ACBAEB048F66
311
F9191DBD96512B2C1ACA3A4277846E5E69BBA7DD9E6DDE789D9582A76454B1320ADCCDD9688F056DDBC7ED899D48F3DC7404DA2D793AB223E906B6EB86177803E5751E163C440F7F2E4B206744415EB32FAFEF94E0EFCECD4500A1147276FE02135E67E24FE8B4AA7F8436363E3465E17D2260C120D08D00E37C4128B7F342
311
CDD716DF504B010214001400060808002741E54EA10B4AFCF9000000A80100004F000000000000000000000000000000000037384437464136422D443238422D343344382D383446332D4542394246433131453846362F4173736574446174612F446566696E6974696F6E4974657261746F7250726F706572746965732E62
311
696E504B010214001400060808002741E54EF243799AEC0000003002000045000000000000000000000000006601000037384437464136422D443238422D343344382D383446332D4542394246433131453846362F4173736574446174612F496E7374616E636550726F706572746965732E62696E504B0102140014000608
311
08002741E54E88E57597CD3F0000904100006B00000000000000000000000000B502000037384437464136422D443238422D343344382D383446332D4542394246433131453846362F5265736F75726365732F37424139334343322D444546392D344542312D394438352D4331374336363037333535442F7468756D626E61
311
696C2F302F67656E657269635F706E67504B010214001400060808002741E54E28BB58AF800100009E0500003D000000000000000000000000000B43000037384437464136422D443238422D343344382D383446332D4542394246433131453846362F536368656D61732F436F6D6D6F6E536368656D612E786D6C504B0102
311
14001400060808002741E54E670136ADA9040000B41400003E00000000000000000000000000E644000037384437464136422D443238422D343344382D383446332D4542394246433131453846362F536368656D61732F47656E65726963536368656D612E786D6C504B010214001400060808002741E54E8DFFFC99640100
311
009B0300004500000000000000000000000000EB49000037384437464136422D443238422D343344382D383446332D4542394246433131453846362F536368656D61732F52656E6465724D6174657269616C536368656D612E786D6C504B010214001400060808002741E54EA91B9E83510000005700000047000000000000
311
00000000000000B24B000037384437464136422D443238422D343344382D383446332D4542394246433131453846362F4173736574446174612F41737365745461626C654F66436F6E74656E74732E62696E504B010214001400060808002741E54EC55C663656000000680000004500000000000000000000000000684C00
311
0037384437464136422D443238422D343344382D383446332D4542394246433131453846362F4173736574446174612F53747265616D56657273696F6E5461626C652E696E66504B010214001400060808002741E54EA5088EC337010000A20400003600000000000000000000000000214D000037384437464136422D4432
311
38422D343344382D383446332D4542394246433131453846362F4173736574446174612F636E782E786D6C504B010214001400060808002741E54E8C057089E7000000600100006700000000000000000000000000AC4E000037384437464136422D443238422D343344382D383446332D4542394246433131453846362F52
311
65736F75726365732F37424139334343322D444546392D344542312D394438352D4331374336363037333535442F7468756D626E61696C2F302F636E782E786D6C504B010214001400060808002741E54EA233C2345D0000008000000065000000000000000000000000001850000037384437464136422D443238422D3433
311
44382D383446332D4542394246433131453846362F5265736F75726365732F37424139334343322D444546392D344542312D394438352D4331374336363037333535442F7468756D626E61696C2F636E782E786D6C504B010214001400060808002741E54EBE89762363000000880000005B00000000000000000000000000
311
F850000037384437464136422D443238422D343344382D383446332D4542394246433131453846362F5265736F75726365732F37424139334343322D444546392D344542312D394438352D4331374336363037333535442F636E782E786D6C504B010214001400060808002741E54E3FE9034E7F000000A300000036000000
311
00000000000000000000D451000037384437464136422D443238422D343344382D383446332D4542394246433131453846362F5265736F75726365732F636E782E786D6C504B010214001400060808002741E54E0FFF1F6A0B010000550300003400000000000000000000000000A752000037384437464136422D44323842
311
2D343344382D383446332D4542394246433131453846362F536368656D61732F636E782E786D6C504B010214001400060808002741E54EE3603EBE7A000000C20000002C000000000000000000000000000454000037384437464136422D443238422D343344382D383446332D4542394246433131453846362F636E782E78
311
6D6C504B010214001400060808002741E54ED672ADF57F000000A30000000700000000000000000000000000C8540000636E782E786D6C504B010214001400060808002741E54ECA1DF9C9A90000007301000013000000000000000000000000006C5500005B436F6E74656E745F54797065735D2E786D6C504B0102140014
311
00060808002741E54E3DEE336E64000000790000001B00000000000000000000000000465600006175746F6465736B2D64657369676E2D7061636B6167652E786D6C504B010214001400060808002741E54E7BF38276F8000000960100003700000000000000000000000000E356000037384437464136422D443238422D34
311
3344382D383446332D4542394246433131453846362F4173736574446174612F636F72652E786D6C504B010214001400060808002741E54E4114AD05F30000008E01000068000000000000000000000000003058000037384437464136422D443238422D343344382D383446332D4542394246433131453846362F5265736F
311
75726365732F37424139334343322D444546392D344542312D394438352D4331374336363037333535442F7468756D626E61696C2F302F636F72652E786D6C504B010214001400060808002741E54E1B3DB374F9000000960100006600000000000000000000000000A959000037384437464136422D443238422D34334438
311
2D383446332D4542394246433131453846362F5265736F75726365732F37424139334343322D444546392D344542312D394438352D4331374336363037333535442F7468756D626E61696C2F636F72652E786D6C504B010214001400060808002741E54E15CED1B80D010000B10100005C0000000000000000000000000026
311
5B000037384437464136422D443238422D343344382D383446332D4542394246433131453846362F5265736F75726365732F37424139334343322D444546392D344542312D394438352D4331374336363037333535442F636F72652E786D6C504B010214001400060808002741E54EEFAFE52BF90000009601000037000000
311
00000000000000000000AD5C000037384437464136422D443238422D343344382D383446332D4542394246433131453846362F5265736F75726365732F636F72652E786D6C504B010214001400060808002741E54ECBE1EA6BF7000000940100003500000000000000000000000000FB5D000037384437464136422D443238
311
422D343344382D383446332D4542394246433131453846362F536368656D61732F636F72652E786D6C504B010214001400060808002741E54EB2DE63B703010000D80100002D00000000000000000000000000455F000037384437464136422D443238422D343344382D383446332D4542394246433131453846362F636F72
311
652E786D6C504B010214001400060808002741E54E739D17AF06010000B2010000080000000000000000000000000093600000636F72652E786D6C504B0506000000001A001A00210B0000BF6100000000
310
504B03041400060808002741E54E000000000000000000000000370000006662782F35434436463545362D433241432D344341412D423537322D3138454630413242424331422F617474726962757465732E62696E504B03041400060808002741E54E000000000000000000000000350000006662782F3543443646354536
310
2D433241432D344341412D423537322D3138454630413242424331422F76657274696365732E62696E504B03041400060808002741E54EF270F1330600000004000000360000006662782F35434436463545362D433241432D344341412D423537322D3138454630413242424331422F747269616E676C65732E62696E6366
310
60600000504B03041400060808002741E54E88E57597CD3F000090410000420000006662782F35434436463545362D433241432D344341412D423537322D3138454630413242424331422F7265736F75726365732F322F305F67656E657269632E706E67355B773CD4FF1FBF73E71C0E67EF7576C9DEF3EC995D46C6A1EC50
310
46649CBDF79E192942562825CE965D8A868C2842C8DE9FDFD1F7E7F138F7078FCF6B3F5FCFD7EBFDFEC41B196891913091804020321D6D7513FC77D8C5070EC3FFEE51B21F068154CC75D455CC028A3EA68992803810109FDDE5D5CEC5521B28A1B422BF80741695D5B529DA1C2D058AD2388BDA9F476F7C2CADC939304173
310
DBF48A452BF8A700C0C70C3D121C1AA15A5270C22E2B9E28763651F7DA0D12CE11077B2ECD0D560B5E3DE2368B1E65C5E1C87384A4CC5F2D9FB8BE39E9B77C753783A37998F5CEF1B4FEE553463245C9712270880DF339E0B882A6BA713D865F6F384C842D440934EF264F4A304F8DE4EEFA1E2BF5E2D91F5ADD9613D6E31D
310
DB33ED31DB1D7916CAF091286EA3D31B9CFECB78BB0060245B943C4C040119FF780A74DD308BA9D028678674EB5504ECF284EE814DAED07440BAF649BE4B55DA2890F4D73E2D489A59EE54FDB0A85B59F2F52C4858A02705C4815A792B0C4A996A2023ECB195073E115E3E3647F64243A8338F2000BCB58DA5692C7E7C3D41
310
3F963FEDF3CF00FBB0F831A9D51360FECA43819F527B89FA260EB63C5DA676830AA3626A3693B23F1A17A0DFFCE3EE164E31B5365EDF0C89EF64D8E38AB0BA9A1117D7C3A0EC44F44F4023095E80BA610DE336D0F99593A88BFC5306E72DF98F7FD132ED95878DF2964EA7E43071359FD83B2BDF9C6B5BDF768F0F3C0FC351
310
199526F53D9460A34511F75D1B63E488178569472C91A94497807A3FD4A390C6558F26D416365C3656DE6E769DA9D8FC73774E1709812842DD8EF96AED1960F79D21B395CDDFE6F92CB4EB962A4668C76990E2EF29798C8941D67DA50F4A5F947872460F1F6FDB794E8A29FD7AC0C0D6E0714339CE258FB17AE8535221E346
310
4A10F29A0BE5EEECEFC5675926A89F49EB14E5711894F6586DB5754EB4D5DA9C6437EBA57DB97A24F8B8A8DB295FFD73266CF57E82694DF5166DDF93573AFE9C9C5EB05F8FEF8E89E0A8917B0B3724DB7BEBB53252581EFC3E38166BA131A3A5B42FE2AD00A769BBFA4458D2DE7822F8C4F63D0B8E21B285AE13325F3410A4
310
35C648C9D91FDEB109E73CEDA7BC796961AF79175E1A3CE4C5E8B0D009B0C9E29EFD98BC8E97554E3D8D838424E270F7685226E5AC268E021EDE3522D583E8F20C0BDE2959EF5BBFEEDAB32FE9A3ED0E39F211A86AA9DEBFC68182EDED132AB8BB794442D2D7EA9F4D8BFF52BC4D55BB165124EE90A42D101E67BBBB292FFB
310
4F66DE5BF2300E44546757DA7CEF8932BFC9F92A0707953491A55C5A5ACEDABD9FA1AEA01BAC3DC5A24E22E7C47213493996EFBC369D086ED9397C9BA6C7F9855C7BD5E15BFC8C53DB3D2A4C5901A57ACD2FBDF4D1676E95338B2C2BCE65FDA4C64F5FEFDC7D9CA5AA1FCF11E193F2FDABF0F4916BF13FB916A224380E6462
310
A9815F2300DC49CC4DF8D055CEF76462F4B7A7ACA7365C2707891370BC1D0AA6203C44CCAB47084FEC057F27FFCD57F89B8B9852459798A675C66BD7CE572CAF71FF7E6D7ECF7BF62CAB7B3F1107DCD04DC55A3F9961700286141C94A4F771FEB2BCDA2DDEE0CB0BAE402FF1DB0100F8E475DFFFC074DDB4498AB7D186A765
310
4DDB1CB680D703D47CEB4E72F8CB13D86A4AA68116E26387B93FD6738779B34FEDB8E517EDF2BAF28D9BE93A1D3A164320E07D42E514725C29515FF361754213EDE06B079A2E99EB1CA82A02019EADEEB87B9AF005BD04BBCECB14AACD6B24EFBE482194A97DD32400685FF1FEF1544D1B14EFB1E7F08E6D2CD2AF52DE757F
310
35F5E62332EE88EA26417AD5C3E0E319D68F25414E6D672BD4522B278C57D18F0113921C71D96527E091F00CEB15AE23D24667369BD3CEFA10C7549D930890BA4366F4EBC55F01F746109F98ABCDD5A3EE06619C6AD78AB33E48E4C9BD21BF7478B385EC05C4F8987E2C1BFA0A60EBEDAA0AE0B015C2720ECE180FB6F2DEFB
310
EB822D96338C9B63822183BBF52FB664A7AE57003AABCE512BF77E7E31BDA2E739AC4C131657DDFE5225E900FB56CC01CDE808FA4A9C9DA16AC679656BB64796283D89812B8F91136AE18EE5EBBAF47A73BE3C153EB5D4CD491B4BFB4FE690A4CF9ABA08C0D8AA64220C438C96EA6CA80B58FE5761E697B3A292EB9FBDA502
310
FA863E49FE694ADDFFF9D62C520BDD1A22014147A0903A05B9B729F54272EF83931FEEC057BFF8C8055C279EAC5C0011804828734024F6CFA319C9CC6867C727184465CD9BB7ED386AFFD96B294A85E3802FAE47244602D8273615952B98C4F23F7EAE4463D9D638EEE374A20959E0FE519C4CFB0FBFE5DD80C2AA3F9DB961
310
D1BDE57E67C9BB47B77FDD74EE3094F5DBBE3EBC1FBDB7393F5116263009E2EFE1AF9A221B2AE234C902BF70E9F280ED23E73908361565964333A3F01D0B006AF32FB21AA1316744B489D5A198E85299241735BE559675130955C902A8ED761FC0DBE337A9F91919AF5CE32AF902ADF9AB2615E00E8A94586BA1A90839B618
310
32FF1BFB76D2EFADE6DB1BA04CCAD3DA649E7E2A0219F592E22F2AD54847EEA8E42271011E9074F8F3DD9FBA6CDF88FFC9FC7E811AD1CA8F4557CE4AFC7BBEDCF0114A48689F20A584520C74DA8127124B767E2FB91A6B186246727BE63C9445BAE02088D58B8EFDC0F1072407CD9B89A13F6303B4A928F593AD489B58E686
310
9325790ADC406036C591729FE14021F94B7796BB11848D463536A092A26F077F94639F7CEEE2A724C66EC885F4A24F8B8A0AC321F8FD149BA529460FAA34E4663C02D41FDF80BCA222D42F0ABFF8490F4FA74C673807C2051D8E467B47B616072860069A9A303ABA9B319D58404461401B0A0F9BE5E1E151C14BC33B32ABE0
310
3DDE91708DFAEB15E7C0D593C86BB7D7EC17BE56E57975F077BFD5525F3A1A361D584A75E08CF29FC7B44B2B3085014F3A5A14517377C3F6B8F37E59514C3B12F8AACDEDDA4DFC49BE5710101534CD6FB6DE15B50F11A09472AABA727F0C49D9CB906B158030065F48EB3625E010CEC1D511D0053474B11E6A4F01C0D6EF1B
310
ED3A944FDEC70E0DDCDC756C86545910E0DAE3BE3AA9A404574C2995CD5CAF9549226BC94B4F4F0F5F9086F418F6B32346464610D8BC7391D3C3A3CCF04CFC1FB2A3A3170E369511868F14EEA4E5E438CC73DB1F3248AA94B6B2FF33B222FF3D1E7BF146CAD229770158063BCE4F5391964DF62F7E52A7BE0EEA829C9E13C4
310
C147D6F93FE59E111DAB5E4594D6F3CD1AD375EE039930EFE5AF2BB2D41C83C7DABD8C659BAFBE8FAB392CA634F3D15C1D945DB4588D2B0824A4EC928AAC565557CA2F0DAA588CA5BE30B3A8004F7BF005E96CBF891D7F18112A3619FDF530DC8AA64954258E1811789B5189B49B4EB53F5F89F7D37523894F3EB57B373763
310
C91E502F52CC99EB7BDDF933FC324C4FFC2561DFFA7339FAFDD0A4BFBE6D3A8FF9ED1FC49898139864602458968913181918F719CCF5A68B2EE9C1FF050E34E63107003B8120FA982C21B30A874E4F5E4B38D5A8290C4B8D9BE48A0BE31EA995BDC37AC6DE90BA17D259DEF53605D55922FEB1855D915B659FBEB350EE0DFB
310
2F9F766E1C84CC8964B75D08667445EAB966015F63A18A9E0A325C1B3DC628C0D3CB60F767FA93CC65F25458BD23C3B312716E5F40E5858AC06EBA9AB14F95DB99147B832069201541D09A0D856E12C629CF32683760EE855537D1901988D5EBC156676C7DD51D7207CF3267AF1D76C2AD867315E44618015313A98B19941C
310
696FED3461CAA9B5415F918556D7802EDACEFD6B2E45853A9735DFC9DBF7E440F9319F8B6805A973BCCDC76C069A9144E51F187EDCC12FC31B5DEAAF0A76137199B106EC84ADA6B6EE697D4E6A96E007417F4E880E8B1E89B4BCE9D81EF611E2ED8F0C1A6C25F620FAFAAB656A7C42D464880E8AFAB0E0FC8EA38CA9A8AEEA
310
EE3E4648BA4680270A89743CDD3E6C6CBF34B7B640EFA285ABC7EA0A1E28F3CC963D114A80123EE66D0AF7D5380EB41909B605AB4765B709B808590458157E69BA1378FEC4B48CAF6A730E3BE3C5EF2DD1A5EAF94B1DDE50CEB55DDFD7EE9A16747FA4B223359FB1FCC69E1194892BABB93A1D5C4E807AC0EA2E30180811E7
310
7A2291F6E7F7FAA5E0F60215BC6024E48DE436C511F0628B8CA189982D4D83CCA17D305A7E923C37941CFDFDCD93ACAF735EF5F0E61BBD3E6C41A59B242790D3A3BAC7064DCD89AA2E37214EC839820949D5CAA31E240D2948E48F690298974A96BA9A8432BC90F5071D6537C9666EA4564796B7AFFFA548077BEEA75F6308
310
3435074BA182F3699557397F71548383FDA8CA34D99B981E72835ECDA5DDDC151315173D05A21F651AAF8524E88209E2E7A737ED1045800CE3390050BCFB8BE588DF111617874C62575039CA588EEFDEFEFE319B739DE2EDC147092A262611E159650E787917885EF08F1F51B8F2D8A71D60B58B190FEF9541A1BE94BC19FE
310
A50784DA1419FE4B0FB51B8D36B5FF8E1286FD8AF42B91E59A5F1CC4D60174E764045FD8C57B18209B217F89A62252BD20BE0E63E12B8E8F029FE19E0E8D0870F58721A557082250D5424F7909369376E41666C0EE77CD87CB283F661D5FB6D0DA023CB67320A20DC7BE661E9E1BFE5463085C557DA1FF9BE835733766C3D1
310
39F2CF9E2208873AD0EB4814DE9E6BF2CAF81614D4D43906ED1C05A3265CABBFE192770FC2F64F940CB6B17B5F166F133C9AEEAD2641807C3E69515171DD74C4A85311513D6EC9530B3B601B6BA3EBFF3B5C3D2F7D69765141E345F75433953D013ADDF8F6AA7DC3F4A7563FE5C7D367937E2900D7EAD0F9FC9A4A1A9B5BDF
310
1FEF08532660C01C5D6DE22199AA774383E306DAB87E301ABB7D213887F9869D4942D0D71E94B27EDF216A318BD488D45DF84529EF575AF3C3938C0AAA0215B01994153E2054A0B894DA5C784980633AAD48576957CF4AEAEAFADC7C587368551C73DBE1E57C58AC713303A8BFC258BD04B51724459FF9E24C03A81E0E0679
310
CEB9B348C0DC998FEB9C6D6EFA77D247CC8F92D3848599ED89A23218D0636465AD1CEEB7DC140D7426F83491C4E8E8281C2FB35240918FFECE880CA2A42D70E8B20B34DF5221C7DB0CF90ECCB9C745B37A47E9B716FF7A97B7A252C1F3814DC7B1E1A7F72B8751D524EF7CAE45B0C73B3BE7D08ED39781B380DDFC9AA4A474
310
9C9493DB5BAD07A6EA6C092FBD0E85DB004DF06B8C9D3089C5320187E4CE1846158C7EA7DDAE8AD9AFFF21AA3A1026BB06A259845E8232DEE62811A4DA9CEAB3A4887320B76E2AE5615EAB7BDF738CBDD01F1E64064BC13D9EC53576751CA8CACD58B3CEB0E6CA585BD089B2A59B9FC101403387AADBDBE70586B93D64BF3A
310
D4453EF9C3B6A93817E8346991798601344F79A83C51F3D50F7BF2683A3605F51A72449489E0EE6169C749C60B1035651103AEE24D24E51A759C840DD3FC6504DA6FE107510E447B43461C79D22970B75DE5E1BD3007D1AFC619A4A4A69B5626AF5E9B8374E20677F77E2F8E73DF868E8BEC7EBA7B6A75EEF7205E1AB9486C
310
B642741D6E03FF13FCCEDB1C4AC129886268B01CDF4B124AF797CF784F3C6DEC97A17D4B558070A0F1C04DA4FF9BDBF34159AEFE958479824B3F58EBD1E19088A2AFDE501B6F2052368A3FD0E650A179EFAB1561E1D27527077136E652676C3670F42DCB3352F48F6BC86D2C3B0051727E41A0A4DC6CE2BE9D47F5CAA2935A
310
3C0539AF080665997194ABECD723B08129CC5B6B21D2E7D54CD4D12610E7E9FB8306771A89576C7A982002775ED44F3F744CF21EEBB27A631671D921938AAEE3EB0D19CD1E083727F607823E817BF599DCED5394E37EEBC2E88782E638920CA641EF74D4CDFCDEF06F4278ECB18E31E7E9876F2D783C8BF429C75395F57E98
310
C2B495A3DA077EB3AC3C158608B6B57FE3EA48484D9A480096FCEE0DE880950E7E5A5714131C5C41AAA29FD19AE81AC145FA1B9E85C7169A5AB837B213493DF7E9AA4B5FBF9CDEB36EBD21EF1181B7CF7366AB2A951D01E37AF4EB835D1BE8C117CFBE7625D2EBCDB0B20C5A4B45CED0BCDE3EE8DA9DA78C2E21DEAAFFD119
310
7E463C33CC6A80FB785669B856EFF7A8CCCA2841B5A5369173320B1170C368B2748D81062EA0296E5E2D95D7667A4A46D98A6FF475C76AAB0A8C8D45E226FAFC9FE0133EA9F60111F99CA81ACE03A1D14C89E8B0D69079C91464FA1D99E651D0EAF606F345C42A8A1AA9BA391031582B96D5B4176A77AADB01F12FD298A75D
310
EEBB2C82F0B8650E880722F8DDD90C56A7A058E5FDEF1AC93545BA27367C76F5D8F9690CB6F8DAE141EDD7971F0FB548A2AE435F224D6E5954CA155512F7332029D5A1230854B79F258EC5FFDB09F5F6343A8EB193229B7F7E79B3E48F8E183860B38C8269D1B53738FF1E0BACF6AADA6D4869E9DE708E79B5DADCC09B1BC7
310
6F649731CFAF59A83FD8BAE4C749D66FA87A3810D4D62FFE826FA400C0F325D2BC0F3CA35F5847B82A2ACC7961745C823E4D863D54460AF792CE6F79B5C7A33B25C3AEA6CDE15A919B6367D781E9D44F61BF828672594A3E1D9EDD6DF179A81F27EAC05B936575D73E05C209DDD2115CFB705DF9BBF3C911589B3640735E9E
310
618FC9C36A7326C82B2205E244C55D56FDB9D5DC93CE958D4BF8174D2B3DA54CB3C09F2C2A6DFF73D23B2197355761AD421EC581284A7EF8DE2CE3497C0C804D49B41DFD6A7360844E5BEFFB495CFCDB97A4595911CDBA623274CE852B5E278AF0BEB1770E9D37CD977B2766A7DED0E94B840E1E95E8C77DE5CB6354AF7871
310
427C28ADBEEF7BA0A28E19DE9ACD75F379FE373EAE6DDDAE3834692F9C2B03B4FCA8FCA9ABE8EEEBEBB725B88A7C90941E850682CA04061A7DF0CE82ED49BFAFFD42C309818FAE14755CAAE78B0F73243ECCCAD7DF58FCB9CDFAE7A4D3E6671A613639130D056C8383C8F4FCF4808C331E544DD26E4755D09EA05253B3049A
310
1E32587CC25D72E073E2CD96D04A71BBCB0038FEC3F53D254199C3CDC67CD66640269431860225392B2CB3ECD0B4498AAE78BA1994246AE1EE78F2EDFB79F6C6CB6B5E279C4D373FBC21CB2698C9ACBBEB6A4BB6B39E16AB0E421CCBFC7654D81ED86022F9BB522146F9F4772E2D0E4FA70120C95A85A417BF5078B232F475
310
4363EB1750B2AC2148EB46B1EA72AD9B4D23ADCBC589D70106C3EC2ABEEED84DFE28E718C6C83502C28E9FDD3B09DA0A6F6F7B72B706A31C9E2A331EE70DA56A083D2177BFD63C55B11D8D949FAFCF90B23A1E24B9B5018B9A17E99F2890EC302F330FE7936E2C23F0D237EC8916F5166AB84B62A21BB0B950146962D754F9
310
2CC2C8877BED8FC7B7B25726DD19545392570B3A2C66B58F027BEF412E552D12A588C4A3CC5C3193FCB3485EFFF700D0B9EEC077754A33DC1FB9E25AF814628F91DDFECB667D3F7690803F38D13F8AE39353523BB08FC6760144AFA2CE28236F65EDBB3D5F59A57D612B99E3D7E5F8A851666BF9B5A6658EFC96EEB37A378A
310
BB0EB3FDDF1303AF32C41BD1C8560745D7BD81066B0D6313359CF488563D3BA3F8E2185D1FAA3EBA1397C9D0E3DD232180A4DCADB6AF25DB3AC3CC26589C8239E66E81547BC7E2F328F9884764CA37EB5DBE390DFC03A5246B456A7C3684C4377D0EEF9A350680FA9A077E8B2957B489E09AB1AD41316944C2254B5984830F
310
691C93CAA767EECF976FA5647538830B5E63236A6F0365C1E0F3E327F24FE35EDDBD7360B0F7374837409F7A6311BECC12B7026D4FA1AE204FA3F5FE904B1F420C7A9044AE58E403E7C4848E7DA25DC9EDAC79DD756FAA26B9EA83ACE8A214A2612A22AFA19DAE7DBAC5F8CDE1292A485F98DAC731A29FE01A3966E96BCB9F
310
B5A4C8830E1B9AF0C54B87FBE221A097036E5D28D1F869F810C06A9BB0AC0612F69AEBAF893C6E7AD59460208BAB3A6B09CA4F6BDDAB8CF0D1F84B72487498395A70DCD754796E271099A567A55CF242BBED64696378BB6CF25EF0FCDB589F3A82F1116D010A9AB9FA4358809EE0C973A2B4229BAA876A70B03AB49CBA7FBE
310
71DB1832FFD32F9BF2C8E98075CACAFB36921235D0F552B6A67E94E094097A5D7DF681B40623DA535ADA7A9AD8E9A62407D7C9A5AE51D62A17A83A23728DE86BB56115804D3F2675F2C6B87541A0FC497BF0CA86420F558C9859EBE9FAD62747E323E3AADC03FDCDDFE7407B09DA90B44E3185723C5381EAEF589765E2F7A0
310
99BA46695BAD60CEF3491B8A171F5F56444F7CE9455312C3498C74173AEA0214EC029833B34B650CBB5A5508D5091665309642791708ECF27CF11DB3D797D6CFE474453BD4BFADB768094B2147814D81C7CBAF8228DCAF5564B5891F5EF6A860EB2E323CB82AB868D8EA048880D63B0DE5341F1B3D53297B928A11E15F25E5
310
148990F710747C3509ED14909C552EBE3973246FCE55D00564D8310BC3EBC5085D08D806799B77D6C57FDF5E55837F9E934F09C03C729271B64F12D0A9F9E938107CAF7BF1EC8CF1BB9B42363D33070F4CACB425E605DDB0A34A12BB936DE286B9887A4E2E558F0886498BFF49C311D96C277CF6A9FC0D75AD0ECC5226D7E0
310
E3572012E56D7FDE4410CEC7A6D0F997F225A2055B8B92E3956E875AE4993CB3D4C9063AF98FD45E1BAB165640A43439A2C9181A7C355B297C0A0CCFFAE19B6FA3C2BA238A885FBC98B8F6DAF4B94B97304878DF4D8BFF6A4AEDF79E90ED4E68F00CD7299F4E0D83E35601AF0CBEF18C1E870E74758FA91F5131075004DB3C
310
FCF09AE1DABC11957FD9808C92E8A678CE9DBE40DDA0E0D1D505AAFBCBA208232BFB6FB3704E8985E61ADE53DE74152F5C7DE74B1DEDCD37DC3E8FB30D7EBA8B9EFFC3606BF90B8D438279CB7709FC7C00D327F41817EEA71CD9E49FE9C8C9A81C70915D9F0F15958EC5AA4C3BBFAF46986B90F188BDB24B89DE3C6F29EC3E
310
6F66D84856EE96A35E657CA41B41EFD8DBFA16AD6E91439EA92B40B21C053249F51AE50EB0B24C770FFAF40DF12C8436366819C48E36547D4E7B72FE2BBF10828583057814A668BDF183F6B2E58DFB151103E56303E63D00F39C27C4661605DB644D19175D02E3F0241E8FC3458D17AAAADB117CE9EEA690D0DB01E634878C
310
04C2C9310B69FCAB831151E3AD293BEF6E46B0ABCECB50F5939B39C613D41E81FAE8D34CAE3C4566B761D37185FE864AC32FCB71AEF39DAA5BAB88609BB980CD2F07A8F941653B529567726E2B2A58D079DD57E1E5E31426CF184A04D7B03B985F276D47406AF276FE32E3328BA866EB1FD39BEF57863A317634AA5FE46740
310
9B3873F5069EF0D71AF00AD189D17BA1974ECDB2D623E9E14086386A6AAB5807825C37B015BFE892AFD154920EC437EB945D958E18622E1E0FE2FA06557CE4BB9BBD05A2D40E774DA2B65473791E314B7D6C886820B2FCFE4AA272B3B8B15E7344A145E8AF919B5454D89D36D413E87211186BF6F645E5EC94DCCE8E1C7990
310
22E4EC9BC86D7A0F2AFB1FC4B2CE48F84B3F49ECE65BAD24CADCC07EFF39AB06BE9E6B27A059938EA7208838455383DDBCFCD967DDE4650EF92A14FF933C975DB20BD7FEEBC4487576485963D757D16340D9599FEB362F775F38CA4185A86F74B629C81B133644A3B18FD056E997E0734F9BE26D11C0AAFC669E2AC9FC41D2
310
81F8B2E1C35AE27BCE05F3DA295488096688719D974DF1B5D182DB7792288697F8763CFB43562C1CDEE11C4AABD5C22B6E33F6F389CFC3477C5919DC0D533F8A7A1846B7ADB60ABDC26C43D0CFC8910B7C15EE22675BD02702ED39DB77A87A192CA7A543E6205B979B9F5A6B512A3CA799E198B2D5797C0AF8D1D872CA455D
310
4D431A7879D4DD76110B5FF7F4176B54477A9EB5E4A5D11214FDA585F0382751D8E2582BA5D2075053298FEB8F1537304E32CB22C2E2B693DC0A760B1DFCA751BDC445AFDCBB12820ED85F6D5298933C7EF1211E9E057684056CDA3FEF3BB6052355E162DF27C59E965A8DDB7F9437EB72CDDA3A090DE65A5B2F50326247B7
310
EC67B73ACC7047FC9B353D6EE990F772207C6EC52B39DC2F3C0754821DAB559F7C1809C7D0DD5B0499D0442E0A6E391B3D5DB46D11E731E6794EC77523FBDAA242ED67F9FA1FB684255671F63C9BCFE6E7E896D51001A6113EF2298BA494E0B0980D1FA5B9D60796554C02256B1E0345FB7C6186B6A19D2DCA270416262845
310
FA4F42DB5D9B0A0B6F07FCA2E56C242522E001E0CEB734AF310FC8BFB57E38E03AACE93B3326A2197891E68452B26A6307FDABFEE0223D3C03C3C73D2D5BC054C8311F12004CAE488E5C29287F8156A2CAA4AD0D7BE6B97264E4139F437CE73ADF52E5134C52B819777C18B323A5924E4F67AFD13B1CDC3A61793A79FAF5C0
310
CEB718E441071E797C6DCCB9EFCF7E4A1E9F3DF3C2F9C9E8294E9586868788C972857FB0556D7A26941A7EEB9B580AD78EC40B85DC906B4120A563CA3B87797ED612D3B035962BB75F6515A393F4CB057F564CDF54F2E5A024514E6A1F901DB80C7E70B1FC05E356A7E72FABF4775B3E3FB8F70A2A8E7B6A94542BB3041579
310
78CCC999E707A29CC795E67A59CC546A5D47B368954CA7B6E75EC9E1F6FC73CE3B4F71F8CB1A6B15923D61EAAEB14626AAA9D04A26EB9C66CD1BE86CA31A5D8703DE04CD1EBCE4F5CCB62F93909AD11E55799A781A956ED27D3E738F4538CB04ADABC7DAEF20BC35BA6A90BCC1DC61BA05F20D8832FFB9BC9B15E2DB838A0A
310
FBB7E0C82A562127E0446894F427794C3037186F622BF24DE1B00AA10A23BFA47B2A180D6DA5AD6F7326FEB8C100C2D7142EB2A0B2A9D1008A09BA343D70E054AB69E2A7EDB783CBD92537FAF4A44D1296AC2792729104B3276C276C951D0CF3CF3F1E6B017720A7B8505A5FF9589365979678C36F1BAF759EAF57C60F1FF5
310
FE9DCF5F8E764FF25A2D06CF25117A8FED51884C13B2B750DB0E4F5E3D64124FCF11F0AD8F1CC3B3DA4B38ED22BF1CB2585EE6BFEBBA63FBFD44F9537B9B37BDD6B358720F98A8125AED4349CCFEB0E135F19E208A04CA7E2B10711185D72E381F448036EF57C9F874E54A971CA37A639E986AC0226DC5AA00D5B14FEA9192
310
234B3DE617814FC221C92F33F1D392F297731B567FD98FD91D989379AF567A65B8ADF177591DB90FBEA99BF4ED11B16E50A0AB1DBF1156D034BBE04D69D08F939D8E92BF525A1DDAFF80ECBC95D8F45D3FDD289FD23F7D8B452F8EBB34EC082DEEE68E18EDDF072060FAD2AB1504DD4879BF67099FC58F6E9DEFBF645D1633
310
4A3E9A127C6F1AF6132CF287E433B43A0EE93812B4AA0B194E03EE3FF91EF9C6ED0074A2F6EB18A96A7C9890B1FCDA1F2095E944DB911ED54C60DF16FB74C8CE9BDC7C54C4F14078CF73C2FFF1F1BBCCD7CF64F71407EA1683DBC410D226627F66E509060D5C0AFD611DE681D509DB8DD12FB1265B03C6F5C55FF4C30BD941
310
87FF692B4F152982502F193098A789526A038AB529A52BC0DC4FB6285CBAC10A8B8DB75DCD9BDABBB221E27D1F8DA9F5EE5926A1C8AA9BA9BC09239C6A7F12914EA3B59EFF7AAEC3FFCCE56F1C5C2980AD072793527565E774F4631DB178CEEC691B1F367BEA0CF2907E1D6B854D527065979DDEF002D8B2ACEA7CE21AE297
310
737EDE1D45B31233B73FEA35BCFDD0B09721FDBAF6432681F2FD10C3E9EFB246FD6E854B344ACC9D8A0EEF876A7314B49B6A499FC650B099D650DBFEC7638ADFD245E2B7839DA5AC5F7D5623FC0ECEEC8653FC9B2BDD1AD4D00A566FBA7186DD3C9CD26512551637498CADB950FEC71ADB9A5524285DE328B8EC7EC75D2345
310
AEC6A27C42AF6D9B92155315C80DBFCABBB7DA0FAE425C4FB896B15C9BFAC4FE67DF5A23D30C93DA4D8F36FB15D100050DA6062E22AEC5F4DAC4F6FEEF97AE05DE63C6D38F9E068A20BC5E3B6BCD75320C5090924E7F93640A7735B1A43451C2D91EE62C6238B797349E59890AF3A520DF4A87095F3ABEC2E61F0593416CE4
310
6CDCBE0E00E2523FCCD04408588B5B6C9DB6459C786CE378770B54F51DA3A5E1DF2A3349BEAAC234A6CF8993B598B3B25B4B113E353A4D750FA7534749430F3EBF2512E7EA3FD43C6AB9A1F765A58463B306721A15D224FAFE8C6F5E3432D57EE697DA0DD5A9D4866A8BCCAAA9DFF1F06047851408FEC060471D0E3EB86BFA
310
F46E4B5E60311DC3E3CEA147C75CF971BE74689507154FF2D2E92F15CDB2B9182B11459FD8ACAC5A85F174BC94A7F4EE4C4F5CAFA7C02E37BF0BC77B7DCD0C047BC316F562A01A441AFA7931CC84A28CB9F4AA367EB515778F29BFE61195FA671F4352E5E46E3A64773F1F76EE5EB36D7BCE9BCEAD837A4D77F8DB8C92AEEF
310
6711920D7C7D0F76B0FD0EB7AB83724CD35BCA7D36DDDF5FBB7FF6F04A91F3E2BB3B8F1A43CD659639507FF6331C5F697BCC782AE57D757A27D97F1AB9E0AEDB43F92F1B2AACDF5FEC8ADBAF9F814E2027003BA2F9E144B1938A7A04050AE5D953B82C45619165C813A10E76DD6906B3C16438064D14CDA713AEC420034613
310
E1AC7241904A49FBF87409AFB1FCB9B72FE7933A87D8FBEDACECE4EDCF6A4FE9FB94D5DEB74FAB7CFEAE17EE965DF980DCCA2D04134994F9A2E94D2265DA4FE6AA7B7AC15FACAC2B5ABBCD7DFF542C5314FDAB2E1B9D8B65220B8E2B638BE008E8DCA22678C820C5053664D15E89F2D735B51A84955E81A443545E9FF787BE
310
0FA700A76D136C27DA179A7C6E8939E01BE756E19CB292798063D8B97F44E8A27BCF3A614FEB8BE974A718E86F7EC99B53CA35FA24F61F2B07266684623A3D4CF073E511F3A10A8FDAFAF0078C577F4DF9D339FE7862E5FA47CF4344209E5BF76D783B1B48E152AD281B15FCB934DCDA49CEC5706B1EE8B460F435324A5CAD
310
154725E21AB8044B75A557A79F6C807B9340AA3D92503E866F4274412926C8C504E4D5EF8C0E68DD0B028781A6B4054F11CF18941F101C57CCC796773ABC8DED9CD91FE5788806C05E548895354AEAC96546D55B0E94A59F148D061F42AA398D822CDECA4CDE79E13469BDCC44FDC990F366BA5978C15F97ED80CBFD73B0CD
310
9B8B83A4F6845BDFBFAF034019473FB9A63BD55D3A4A7284757071574029A4D016DCCBE95DD679EF3C4880BF169422F8C89B68A988D2B13793CAED4F74DE7486C72DC94DF46B8E93D8E02EFCB1FF9B3BA10C8AE7F653DF94F4AF466CDDCEF5776687F7C4C14B63E4EED1719DC2EC482D7DBCC7AE518CDE3D5FF86D39000EC3
310
673C0044E1D308BF05F74D1B5F033A7D1BE7F74BC55BBE3E4A20F920946CA0271EB17BD2B80E5660ACB8A29A79F5E4BBA49D4D945B6EEF4A7EFEAA65E5555BBB57A7E15D2F83C69F30BBB978D2B39F1F26FC097424D39BB33CA3D87ABF64E307938B685BAD44F71556A30B7E712CA4FE600613C3E554B69ADE949A7CFE214D
310
F1FFF05CB82151EC6FC31950239F94CF7AD39DC473F6EA356E5EC2C4EFA04383CEFE985A127484366FBEE3C0EC4FEA363E4F6632AE781392FD45D67B63FB8DF70E82734F431FD3443172A0E30A83D60982D55FA6A2CF86DBA8382502ACC6CDEF3B907982EED1160E14863FA242F9757347E1544275CCDCF71ECD5F8621CBEA
310
326B8BA884AD7F825781923E66971F04010D574C541D8427A438A37EEF8AF88240EED7362C953F5A81DE2D56109CDE2524EA0F5D2F87308C0C47BD97AD605878AB8589E17CA83930CB5E0DCCD75853D68B1AB136594926DE426C367428E9334AFAFF90ECE221BB5DC9E5BB53D2CDEF954EAA9CD814F0E5725F1965DD458E5F
310
8487683AD86B9D0076BE3EE91EB1CECC5331A67A3F79D8B27587C12EC2A6A70474749F27B4C0BBAFB94B34189E88DC18964BE4121B9137FD516C7755356E50D6714E31ACD222621EBBCD1CFF81D87479056A9DA0E0B8EA19D24CF937DA89F78E8650CCBDC110AAB6C4E46DCBFD0446BA9E2060E81F314AC2031E88135E5476
310
AC0160EF5C0DD2EEF1B8B5CB2D198BE9A554A9093B5F7D7E4B5407DDFCA1D9C152FD97F55BFFFDFE802954DFEC8995B983E28AC92F1971E28F531DC407A1280EB125F64A72E617EFB27DFBCEDCDA2D6F2BDADA36873EE46B9BE1782998C63DA7182BC383FB6FD15DA472B175D7E8B4FC88F38D6E07FEAA3FA3CBB8F6B449EC
310
F14D2175E5C5CCA3A42ABF24CA6C9395AF74535F4DDB38CB84F56614B0FD32D7E19CA5CF988DB4449C40E23DF2B16772594554579094450F56F253CD25EA7F77366FB1CFE79696C428BB64D5A41E986189427E5E4D7E2DAE3D5BB4972B3DC44EAABDDDD63A2264ECFA5C786EB0EE1FDC5BE34FA0F08376869FD1E61EA06CAE
310
15191135445EE8F0394161C3266A596AA035572BB0C8876180D8B9C77D307DF9DCDF7365ABDA6F3A2366436457A4DFC1F259666569A9E4A79C817BDD5610E5200FCE894A358EC72858D50EF67545DA81C6FACE3D457BAF70367E1E6BDD9A952FB4F56247F58F523B97E640246051A72F79BE42FFA0B3187F63097F91C48B86
310
8586F714B0EBD5A00A8412C1236E1298F60C72BE6C96B82B404CADAA304AE9F303176B14BA53FBC2D5E86377E35542019E24D97B96A49B2C0E5006E7795954DEAF5DA58958839043C6C70BD3B1B33B6DC5C31316D8A6923F142E26F6711A2258AF977DDF1F970ECC4F1F2B434B96D81BEB6E89BF3BBB3C7C8CC80505070723
310
D6D7D7D3C8CA27CA164A26024FED94B12A86031867241DA53D929636DA600F050BC40CE48B8BA03D69224720DEE2ED2127390BDF5E6EA64527BBD4C4C63FA76BB801FEEC0E61218EC98A8A86CD8313781617877E66692839B9468CF4DB8E50A73986E558E309C0D6F676F921BE02F1185454DC75B111572FF9D27D85EA14C0
310
5AD7271225B391C4275659CA4A43759D0BA44639BE4C30A84DB7F67A41399FB95CBF923B1B1672ABC807C1590557FB18D811983FA97F5E609516D62281D38B1281F68FC75528C35E4CD7DF0F7DBB5E5DD69C414EBEA2F4A5B241B996BA77AE6C772E367408C633EA3E438B68563EA8BE7667F3A4C4FDEEA52ABD78A2820F44
310
3B7914A15F180018D231E64519C56A12F6CA7C8DAE18F06F6B769DBF92329EF6A5D18FBCE600F36BD8E8198DE5CDAA96181F3A756EBA5501CEE58F497EA4F418A2B82565B9BCC611713C0B708CCA1F398B78C5F7D03B3437CC18F13061F55C7BEDADD5ACB1DB0E36D3CE47FF6EA1A563A57E9649EA5D14D1A50EAA45746338
310
1C073777EF1600607BAF6428A7DDC079D47A204EF1E1F1F0589FB054D45E02CE623B3823C317C601E589E22B1E88B448524B86A82828E32345EC18AE17214B42F8C41C6D428016D9BA31DDCB47572561E5A402E5BA4FCE55F78AF7268524AA04130F3A20BA5D1E9F9948EA48FC8F5314FDB35E21898198060034ACE5E3E2BB
310
CA34092518F275190AF65F45867FF0900AA4B81F25427414C372BF51DC29AA855C5428EE1EEDD6B849AD60F6E73475C2D2523F8A2772C840A478DED18A8C5C91B085F255DC4F54EA7AA8947354FD17ECF8FB3B4A0DE7B483CAF3A1165EE05BBA413E5C1FEF3DE1D6B8F2F3F3251C17D9FCAB48A9AAF63AC773A0E413BBC46A
310
9ADF84A566FC920E4D8C52C9769EE3301CADEEEDD92B312E02E2A7E35B7F1E7D203FE5A7D75578B06E99D0E46FFADB8FDA17ED8880390DA29094202D6F645F76F6F96409CDA05495A96E84B04A00D1A6C6C81D7F3DE9376E828CCF144EE50E364ACCE7237EA0BFB5607ED1AC3CFE73794E5B61739D14DF1743441B1AC98F00
310
ECEDE9E7301FA29755FBEFA68C91EF2B314CF510537EF1ABFC9A762496280B546F5EDAAF8A5B387D469FC9A878A92828C88608453ACEC6094DCA54111E7AD5B2663DFE2DD151B7F123B9F4FEF8EE36AB125FD7AD52A59B1B765B3E3F73E3F73DEA93875004D2AFFE3CDE9493B87A9904DD052028949041A91DC0E1BA47BA71
310
4343FD5B25E0A6A09503AFC17C790058A836A324FE31D7893512E28230332F153181C1E018E1124EBE1BA262AA428A518237D1EA7275E48C5C561BD19ED6912EDD8367DA0F31E40EEAE9683DA9257525AEA7B632B97119E17145A90231768A4F3B9120FF32E8319B015E3CBE26F1A754177D8185345817C096B0CE443A955D
310
13AC15E1FB5DEEA0239EC32A3C92241A237B0B02FFCB4F93CF2B02570C8D192E2F2A68CEEB42F12E6F8CEEFF46C251E22B4341C56FB08CCE550E7A9D6F4D6564B9EA52A83D5BF2C6E03FA19D2775E15A8A7ACF30A13C259EE7F5EF2AC3BA354F1500E1A07FC63FB4686E2F12EC69719F9ECF5FE3F35598DF2CE944008CE78F
310
0911BA5BE5D0A34E0098FF038669C26030BA9B300303039852A8F6F496341737CA7E0D2E3AAA36DE0A70AA7D9CA0D54D9AD84B18A44C9E625475E1C97B93BEBB38DCE7D227E67A2D00F531436136355F243D1FC0D712C5765754FA22FCFFAE97919161F46D6E61ACB37D83777B385889770B50765B127768443A5C4D3A4E35
310
A3151111F146B7CA116F918A049F1C272F2CD7976C69A0068773451659A97E0F4A08FE604C3FF6CE7385DB19F4D3ABC8A0D80DA8A42096AC377DB49382B36E270B6FA7570188B4B7D1DDDDA82ACA487CCA5D38BD3BD039ADBAFA4ACFF27809239B722081E2EB9F145320553D183F28471C388BC8814E5045676767AB58A8E7
310
2D1CED2CA731379515D2E533E4CF0B39DFC625F97AC4836831A4DE330E87A8126FA17EBE583D614E71E22A8DBF2825599743E0640037303E8E1B1E8EA4E1ABFA4F62907B5E4E0E5DCFDAB417C36C6848A2B8D15F1E505434C0707E16B1CFC2A1C36A42BBF55734F8F4301DDC2A5110CEE8C0747F69519265012A2174BF4E95
310
5ECD4FDE095A3ABC70536B7AD0B9D7892F81287D667C108703C9B66A221E9A0929D030008F77FF6F5D2108EF5706FC87A3069B976F7C9FC3239D13D283CDEA83597461079FEEE049B0F392889898B7D87D31F8D60ED7B56B91823A8E4EDDB36C6172ECEE42BD42B12CD67994FA0F0DFAE9389356F4CD4425A4B8AA55CBF7EC
310
D585C6A2C2316791E43D5C06841ADBB226A87FD61515FFBB0167B74E56BD7F3E90A57A97FEDCBDF483A0D6699A8C0849CAEB4947FAA90D8E332D9DEBD9F4738C37DA0CAF9CF3DAA68BCB67C420459C7A64498D6E848E5CADE92BB6901F607AA331104A67F7CD650EE169B1DAE94D2C31C2F993632259B6957E246EFE4C5481
310
107B07118607700040E5812A2A2A38DA0076875258C753F60E0F2662C748EDD5F3F3686B8FC3BD6FE631ECCAA1E8B1C1E565AD117E54893E79F4672E32F9E46B2A183DFDCF3EECB4D4D077DBEA0DA254D256045109670050129E9B9B1A9E4A11344D61497A992778095151510C4BB7EF2009B63AA4360635312E4CF668B7E0
310
D3D85A8688E2BD83B569439892ADB63461930D428E0DE42E4AC57CE48DA5CC1449530D8BD3D6A0F08DF20C8E8F570F2CFFFCEA286E30969B4654D498A58D9DA782E19FE3F002181838925592C4A1EF0B332D88B61A92C644547BED490D3A42CFFAB70E36D961F694F6307F72FF15A1C79D5B1B5CEFD353D9E2B52566DEC8F8
310
F09CB3E8359C0F68EBBB7898243E34E12A015B2685AB303C04D3A9E00671FF3DFF0A184E4A2ABEB2B666AF5B3A209C73D8EF29DCDB069C9F391EEE9DD0F74C7BCDE16F8F02E3B8816122BBEB50665775B600549D8BB33A54A6BF940C028118BC6878C79958D6784F9DEAA6E26748386FFAF8D0D0101E2847B6563F5D8DC1D7
310
8F787BE00E2C941AE12148D4A81599FE8F68D4DA5CDED75530ADE138240300EE13B0FC13A1687FED6774662C05A2B7DFB186732F0D7A93545D8B0A6390AE5054D9CB582DA846D7A061B3358B45E2B52DDE63E114397EDB7E09233A579155D795BE76102CF277F4DF8B188C4F2879BEAE3C08347124BF9ED23B128259FE107D
310
31E34A652F090B30B39E0D9AF917B76A2806135621A8A60681F16AF216514BBD02711585B5B1AE823F4B2D0369EA5B6BCB863072727FFC871CA6C9AB79A814D989057E9470A3D238BC87CBB4A0EA49AFE2B86F22E499793CAA9047080450166BDC357524561E258C77CB697F1ABB32562CF87C3B7AA12F911EF19FB3E5C022
310
22E887D08202A60A17151F5E053A86B437771088B4FEE14D652C43E8D939995D34545E12E2FF93D4E366EAD25F10CB7DED141563C3D0C447AF06078A91135FD4B9611583CB4BF3BD167F2399CEAB0E0100F8FFC305F00F1711717173138B4B48C83022295DE657EFEDD97F238ECA80F528AFB4F8D67AD4E2594B9A3AA86D74
310
87EFC313BA95745C186F0CDD84CC12DC9CB0424B42203D351FD9C0A3AF10CC7F388E0329279087386421F194F4A29464C1DEF7EF8BE515E4A199DCD5B909342598D8FE6A231F71336248D5CEC5454455C7BE383B3BC7B260FED27F703FDC39A170F3827239102F59D4DEE7FEF82EAA1A5E4BA94DCC4CC44E7E2EDE20F24244
310
E4454369D2E87C3F823F193FD4FD27E1C23984B01898D15ABC20711A8A558054951A6AE280096BA36CBA439603B7B0B4C45F248C14B2383B4B5CD8ECECE4FF859AD4A6CA2326D020EF090F4041D28DB66E5256B56232CC52829DE8060BAE6BBF37D4B7469B822454FE93210A3E8D15E69FFCF01123222611C51C4FD0A041A0
310
CFA2471CF6BE38D2B20FA4C3525B5B8B586759475CF80ADFE67A284AC24651E52B8E683D24C2622642F27E7C3C22783BCF63648BC398BD6CD0D9C97E7E7E3EACB6126DB7A6C1FD9F1031302EE67ED96F22B77C7CA0239BB324207559B105E4693EB26EC46182A92C9C0DBD24F29B31C5C5AC1F84300E0E17CEEAC15F5736FA
310
4A98971E2F1423BFCD68D4BBD5F86E74B40A369F39507C88FCDB35D2DD8DEBEA4AF999E23CF2816D204200DF6E611781B9884C1AC8888B4DE397320472959434323A5A36B22A8E1F721A270DF3BD65E4A31C11FF048AFB0D8B7B6881423793963A23CFCE935FC189ED36FAE35C46DA3574C979E4394BE52084F3081837BE03
310
3396D2EBD80F1F691B273F660D2B32FA27A33B1DE4ADA5F0FA4651511102DFA410DDA86E065272CA314D5249DF91B06BB92807B28EFD54F08F7B525252782CD276DD02E6B0319B13DF87B1F6361AD6B28FC0D711CF445429B9E5A433CD493051C49A9E03DDB1B147D880253514A5DED88009018620EE229101C041950E2D8A
310
A8E1F5F5438E0C0C0C60EEDEE9E3E0C051948C69F84BB7B2A48A1F3C8EB9E6864687F4F4F6F6E2FA87608ADAF9C5E117B7C1A737E710769DA1D15ECE6A84502AA855398712D5FB51BE92E4EF824969CE18278798AC303C2C7980DD2500ADF8FB1E6D6C2FAAFF9987178923334A244758BAA01A9A1B70FA5097D01E1CC2A58D
310
AD0EC94CE6430AA9B0C10D75E3C6BAC670EFBADEE1607739CE0FC18A2587E3EC3058562014C64219C69BC269082D5C2F4A659278D585755912176D78A1B641719C2A394CED495A1AC5D583FD2F5EDD93308EA7EAE8A6DD396598BDBD3D4CFED62D18A5BDFDE0DD5C80D1A89BA62697B131AE7CE9A6594138582F1B37D68F17
310
49AC7CB67A70695D48A4A056AC1FBD4E82358CEAE38F54B95A9016F9000F9879C0D9D131768635CA798895F27D6F1614F11F2838A83611AA51C9A3DDB539D42979C29F10465655C17BEC3E2760B80DCBF609198C7B171A531905F3EC218D696025975E986C6B4C666666787271F202805577DD5A3EF0CAFAF91B62DC4B2DB4
310
217A7606282F31D8DDBC290593BAA93EA6353AFA9939B877978481E15CFC9F2755CDC00C538F63A4BA3E80AE009B73CA0185687D339A507D165B74290D6EE46D5C58148F020C3668ABE9EF2F7549170DC80DB41FFC1D678FF19AEB10C7133832B104B80F691B3138F97A92D26E551F1F110400D45AC71A9B9AC41A1A1B1DAE
310
ED0B0810638EFFB511D46B121C6FEA0F38CD00E03CFFEB9713FE1F9C263E4DDEC160D0497FA9A132BA608584057FB15380825DE6C7FC3C667EE947D488A09898D8E939C4953BF4EC9836344D2CC6B2971B2A21A572B06096F4982D2CC7232D46E8EA69DC83722E267754D777F97F96D5DA74E1E75178084D0E70F12AD33E5F
310
71EF2AFA599B2BEBF60A5BE475F444F240CBFE8143C334E7ED9150FEEFEF7EB020C4DBED388DD1D6A167A76F3CBF119B578AE8CFA7736ACAFA4440A1C47185638A0D2F3EB5BDDEFDA958FB13CE4AA4923D5BF840392D45544329525749734866684BF7F8D9D54D892E19BCA9F829A0F8BFCBEEA6CFDFC61D74EA1A645ED7A1
310
FF241739F15694BD835B66FEC5677E40FE69BD3F91AE402F036537218A401CB0828604AD189E575015C6F3F6BBC8AC79CF6C70653847254B31551EFCBEB5978B9DB85D58D0FA41A9DFE9C624834AA04949D24B5AE6D299E072D152D12097920F14AA92C31C3B97E28B6C2E6E9C23D63043ECBBC0A60FDF5BD0C33C127EA8A3
310
308B8B6AFFEB28B4455BF6E7AF4FC6222728357EB8E46E85053E6A8843AB23295BF838ABDA94658FEF3F832F147046B4ACD6F7D48E8FCC9618582961C898D1C7A253C91BFECBDA6BA18A1FCF70755DCCEE2222F41B76D23CA98D0CB3D95F0CF66D57FFF65E2A90F5DF40FC3187621E981BD0BC1D992787212688976B94A8F0
310
C6EF646624B570B78E068826F87CE27041A95C9A4871FF65CC17FCB1639629AD6A9517000D63AC231F3D741CB8430777E7ECF80CE7A3F73C0F162F7E56AA71F4DA80A33CD6ACEE78E2C11FAC03DAFCE929B106F8F6B3ED2DC71FF994BD9CEF4E9A94896EF1B6E2B7B4978168BCF0847A3D2A4F1B0500B926E634B174548E9F
310
BAD27153FB5FC36799B1E6C7C38A94E1F9E996796D7B485E635D5287A2AE76FBD11A341DB3F8F810385BB7296391973DC6C37C452A9305AEBBE0CDB6C566DB59FE60C8E94B1FD090354BF51439FFD1B48D725228FFA88C84F686F547107A7A235665A4593B7C34D748C1AC8D56DD5DA861EEFBADDECBBD65117E65851F9035
310
1AEB65F0EFCFF4BCFEF24CB7A5879699FAC437A7AF9099186CF006BB923A59E37D7A36A29FD8D2CBB914A5E9D0A8FD212FBF796AE9A67958FF1D5D8B85F78F96219D4714EB919929241B6C018AAE0C02069F8D919961EC5DDFBFB7573E3AC8E08BFB7C8534BE6DE045B3CD63DBD71F7638BA2309CAE398EA3A7D8F98BBBC7A
310
EB367EFA5CFA27A9F8F2F52FE878058E6209C026453F8E7E8A237DFC389E9590F6059B397CFD65183BBF936E86896612A5B5FEE49DAC8455D026218AFEBEC12B3523A45B57B82C9C97E02ACFA1184DB18E48CF615DBF39C3CC6F0B4AE6BBEEA2E39D944E290302FA3DE33FA7E40296E2EF7BF1CD855BBECFAD0FD622BEE974
310
6FC4FDFDE545AE6E3BC234CADF83A0FB76DFB145BF3828AE3436368AC24989454F8FF70A177672C711CAA1A76107218CF948CA01F873520E7A2B118EBB161ABAD432932029628B6761590C98AB590C8C8C79798CE9F715BA696E839E9131A4BB68BE923F1747FBFF165331FFDD4D05997ACD168F12CA75348DAC04C7F509FE
310
83898A8B421181AF492861CE81E4A2DD0A30850CFA95E05F097FF70F9E777310D584A75BA7018922E271DAB1D785671157685B7D383D3E074DDB4F1E44EF04B07BAAC75A062077C54B9752C738C9D804D402E02851F3F89605AF189738C18C021D2139EAF72513824E10DDD3047BACC8521ED7E98B257D1166903B1B08FA6F
310
918FD7E162913FEC7D0EF4787E29C35FBA8C6E2C9C20E9AB30AE42CA2A01A090E7D010C1B5BF9CEE2A304BF3A987FB40D836979B79E18D70F257DA61E808472DD85B82761825779D6B90CAEB0F23360C6F80A7D7D77545E95B3DFF0CF96A827F9B5BCECD2C9698718417EF80FEEDEE938AFF55859D0D540B7FE09435583A6F
310
04874A0C7E8CF234DF4879722000167F5872CEC6BF3EF7E5A8CC8121E6A359227C8A29C95212F9F735BC72A887D56B8F309FC525BFB4FD767AAEC4AEFF249CFBBD2DE1AB9969A6155C7D8DABC307E47324C1F916C7BCFF40ABA5644E9FFB9238D19ADADA49D9610F01ABBA57E4DFCBDCCBB2B93C8953206C91DE01B0E2651A
310
6D6C31721915B31F7B7CBCE55466F6D70402788FA91D73BE4ADCBA99A35F17D6B83383704917D6833F0FA3CD45C926ADB8BC17999A4A0AFBCE2541F7B8CF4C2F5FBA611B3E626D64407CB32C122DFF4EF8674D6EDBB86C8F7C6A16D50FA685E2CCA34F8F7D1D8265BB0042E9D7F1F666F7BE5FAA5184DF58E12122A42EF02F
310
461B3F369AC746F96528AD208512AB56844CF75B97F352DF7995024FB02855385854F3798670D01CAC771AC3E1889EC25F61A20C1F8CAB46898817F9C47E2CDA1F286BF2F358298709FE567C91133E2638C8B53975E753EA8BFD3578B5F7186B7BF084EBA3F77BAC3132A5779902EC22AF2D2E79F42D324E083386DAEE9810
310
D1B44A5DAA54513C7A71E52A4AB9257D975B621308FE4D2141CC3DCFE946C154A3C1DFCCA7629EC69ACFA831634ADDA93C0388D2A9A2DDAFCF957C6995BCE7FBB6DC4EBAE79E63EB08E9A25F52F67076F7093CA545CA3053B5BF576DEAD4E0017143C5F759F32B2D6F145B52B67B48909B7C7FCA6586EE385A2189C16932CB
310
6DDFD9152AE317C430492A578ED27B72D85D40C7C93C097939E1B50F4D67F05334FE9DC362C30B7FF561B95259138ECFD9274C8D695C31B14D4EAA9F3D7FA8DDF652F8C5DEFA23284C799B7D94416DEE81E05A866302DC70192A5368EA65E1CED8BF107A1E2D3119A71E85DC1A7B0C1E93274CE04DD0F2ABC8AC7C987FDB00
310
2B6F81757B43502EF7A0D92E416494FAEEA4C9C090CD9557AA4D532F4996A272B94355C5A0E4974EEA9627476F30809B94D8D8D860062E02204643BEC7D0438AF800FC7E2B26955D595421E83C69E1A07E0E3122285835F014AD538188CF9737CE76D464A353FA55A001AB2526B84E985083693BC76FE211CA1D000679C889
310
E3C009832C87E1AC2EDD05C302557422DF0800E316FCAC86978A371F025A6C7DAA9F333E7BD160403A1A06EA75AA9888FF01504B03041400060808002741E54E51464CB48900000043010000360000006662782F35434436463545362D433241432D344341412D423537322D3138454630413242424331422F646972656374
310
6F72792E786D6C9D8F310EC2300C45AF127987122606C71DD918B841D4B851A43646695A717C52A85029031293A5A76FBF6FACEF7DA7264E43906840EF0FA03836E242F406C6DCEE4EA06AC22492573150D1F66C60C640E8938CB705396EEDD86DE9B5042FE27813D640EA63BB001C722AF6E55CB61E4863F58284D5D3F53D
310
D715CE1C3985E63FD7F1B7EBDD617E9F1E504B03041400060808002741E54E8B0E314647070000551C0000340000006662782F35434436463545362D433241432D344341412D423537322D3138454630413242424331422F6F626A656374732E786D6CDD595B6FE23814FE2B56F665F72109099796116504A11DA1D9CE5483
310
66B56F9109867A9B9B9CA485FDF57BECD8214E03A47391464BA5121CE7F89CEFDC4F26EFF751889E09CB6812DF188ED5331089836443E3DD8D51E45BF3DA40EFA768C29224AFED33508C237263F065633AD9B1A448E5D2866C71113657EFE67FA32C2031315010E22CBB31B2E09144D8C2459E6C48F6646D708EADDD766F39
310
56B95127BB63387D6C1C956246E21C5885F518A8480E1CFD2788644F2736DFA06DEB77DBE69ED9660BC17546699CE5380E5E71D538CE3DC155E3B8BE3358DCBAC3B1391C0CFAE660E43AE6FC6EBE309DAB7ECF1B79DE78763B36D074B24E92B052404AE20D68F1604C9D89CDEF54E24B14DAF80E9238268144B36DC38648BA
310
94644D4C34601D215A4D21A5ACB5857E47E14F6CEB048AC69286B6124E7DD7AD3759FF0320645DAC9465845B799633D0B5C4BEF487DEC42E5735BDD00C4538278CE2108574CD300305C1D652411A19EE2D9C14E298092D2A7A755EC1B02FFB521B97DB220CB9FF1A53E1693EF823C933C119FD97B023F7F5D3802790B6A071
310
7E2D85CD0F2990184F6CB158DEEBBBF2660924DA867807D60262F24D7DB78197C763C172614C3FDEADF72B1E1FDA0F4F5992129673CB13CE2CFD4E69B0665A607C1D402971D5757744E50B40FF0990AF784113D01CA3FBC17EA0646738CEB6098B403BA887CC1EFCEB217EF9EA6A62570F4F11D262E5294CC16D7F10A69A18
310
DAD93548A7936730FA84F5A570AB008760D3F734E67E0E8682C2049620DE6FD77B63BA84600A8BF0140E417AF89BD8FC12C1574907E24D43436DE1B783A294C334FDECA8AB0F60338C0695AA34194FE13BFC21F8CE16AB8FAB826D7140EEA5632FC896C6348764DACE9006BAE6F25F979F8447CE0F7FE243DD07B55D019CB3
310
4B78E068D1CB4AEA0509C5002B3C0F97AA112BF714DC3D0C714C922293EB6D812A48C284F9EB835FFA70EB597F2923280F9316D01ACC20BB078CA61C14632AD5554542EB88530626869934C15DA9567F5D44A98FA3A48879AC7D6D8B4D3E20D0705304AA829AB26CE5B68AEC866EB74506D1AB95A4A701291D5A112E4D7C00
310
81AC8D5F46B60C43164D629F4212066F693D413BA002EF3CCF1909B73E0DC322F2B7348444E247383D41BFA304F5D4F5440E2F09DBB412D42D4B39A5B2210EB8045681A4D25519F4A54E1979A6BCCE14094DA5036D872C448DE9E044BEE0A9A20550658CC2CCAFE6B371DFF35C73717B373607B773C71C2FAE87A6E75C79A3
310
51EFAA3F1C2E9A7CAA70554F78A04A5EE768FE973F16D13AC634841B5C6CBC49DFBD17E9F3C686D8680FBDC5E86E783B323D77E699036F3633E7C32BD774AE6FEF7A33773EF79CB9CD4896142C2099EDDA3D5F99641AEF4E71A5B87B1D44A1AEB99CED94BE9AC2FC7F83E8876652D094F8AB06D12A76B554845D83287FB419
310
4271F0C473941F40D9D7EA3E8D20DAE4A32DCEBD312EF7AC7E4F7C1C67ECF6C6EEF57838EC18F6C449DF1DE9DA6408A0F52C723F497140F3F694DA40A623CB6FCA2E56DF1996D8A8FFAE8B00AFCEAB1553E7339364CAA711DE117F8B7963D1124A2F49DC9AF576619265342699680C5F158C0D9A3D0BEA2F3D4BB7982DCDFC
310
88E4F85B2C56741A0D2F80681EFAD0C2E67C8870B18EA85C40362DA728F2861952BD90FFE067384AC3B239BE8481E32A08545BD466A19C697EC433D8A78F73BFB72162D671897AC5BEAA285AB5D6A43EFE66F227E05195D04F84471DD1BDD8B286CE987FAE210C8D864E7F7455A9E2125AEAB09C377F6101ED6A70F05F08DD
310
3D762A4EBB69A556E69585784E22E87D715EB04E1E3B8268A26C4B09242343C3256A27BDB1A0144D9F6AFBE030D1F59D2A896BC740ED4A63188E7512E49514AD462C742106817CDEF506CF56D85CA4FADD11F3A757D975F78BC4C4E8320E5061972158C61FAD0E6FADD4B51A2A7BC17900A17425BECD3978C4866C8ECD9C46
310
AEADAC5735EDA58A7BC9436A04635ECC23ED3DBF08BF605035B4DC992D0B3DBB5C5FF2D466C144FBC887C6B44EEBF38755830AAC747EFA8163445E1A14E4AAC73BE833A4BE2E8F8382060529D1D7E599C77F892E4429B0367B83117296841426F96483762481FC0DA38A0E1D0A8B4826F23218AF0C52EA354287A79FCB416C
310
8ED7A17A3A78C430CD0E65FF56043049859C7963C875F41BCC4EF9F8524CB4AC2768DD640C3350C1E88D01169B53E8D0AC35CCC0C4C451506FCC38C1B171BCE319BF7CAAFA7D7C8CA30351E92857B5A70B2E5232CD99A0144EC5CB05A8FBCA1BD3C9B78BAED8413887CB759157C21C178ED24810D45B84523818153E4978F7
310
50529C97CBB1C41E0D924EE3FCB37650523573CC7662265FC37BB678B0F9387DF919A561B1E3EA3CD7316B944CDEA9874539B99A8061483153CCAB48EF9DFDC012782F15A13B0A46807EDF5F8FFEB0BD248A92B85CB267F2ED165A3DC2BBAA8DADE684D0FAF79CB12D2607F25D80BFC619B1F0267B8205502DA37CA05A42AC
310
1940154D6B06A034C275018F69FB970B24ABA3DA54A51E76393CE245000247E22F80B8DBD437D4A696E00BC095B879BC500B139BC1E47CFA1F504B03041400060808002741E54E39E340CDE1000000550100003C0000006662782F35434436463545362D433241432D344341412D423537322D313845463041324242433142
310
2F7265736F75726365732F322F636E782E786D6C4D90DD6A032110855F65117AB9EA064293E09A97C8556F82D18995A8B3F853DAB78FA6167A35C3391FC39923CEDFC14F5F90B2C3B89285723241D4685CB42BA9E53E1FC874962221967F1899A20AB0922E13296CC2BA0DC9C05D55DF55EFE26388FC6A214272FABA454B26
310
ED55CE2BC9FA1382A2AA1634901FD4A8A2E8421364AC49433B515C8071422750050C913BBE1C67FE3EF3FD851F4EFC785AF61F8275528A1BA21FBC8B05126E6F3BAEB1ADB125E28275408A9ADCA0FA1BCDF88B475B3CC19A2D452EA97530B0F2B335CC056581BD905F570AD69F6CE3D5409BBD10F904504B03041400060808
310
002741E54EFF15A4A45D000000800000003A0000006662782F35434436463545362D433241432D344341412D423537322D3138454630413242424331422F7265736F75726365732F636E782E786D6C4D8B3B0E80201005AF42B6F75B59F0390B113044D83508C6E30BC6C26AF226F3B8BA6360974DA7271430F523308B2B19
310
8F9B80925DB700539227A2FCCB80A18E5640D320F996A81C9F32D6E9129A0D1EF74FCE750E6D57BC7165FBCA07504B03041400060808002741E54EC5BFFEF94201000056050000300000006662782F35434436463545362D433241432D344341412D423537322D3138454630413242424331422F636E782E786D6CCD94C16A
310
032110865F65117ADCD50D8426C135D0439FA087D29BEB4EB636AE2E3A96E6EDABE9266929A13D04929B8C9FF0FF33BFC3D71F8329DEC107ED6C43EA8A9102AC729DB67D43226ECA0529D6827BE7F01B460A2B0768482E13C17BEFE238953AD8C86872D568BB9D8A12D1EB36220452282343684850AF30C84A46741D846DD5
310
4994555D79082E7A05E93DEA01A6F7CA8344E88898B17A59B2FB92CD9FD862C596AB7AFEC26926056F9D3313AF2D8277E3DD8C29978E36C9619C6640F0E8F544650F449CB455ADB69CA67BC143D26BFB89C3DD98B971345A494C8DA24E216099209003A75FB0E0343BFEE1FBF1E1F9A4219D3AED41A1F3BBABB5A13ED786A3
310
B42A25E27F5DD8837F9977ED5BB27CBDB99F353C09BB98DD4372438AEEEF24A43C49DB9B5BFC00476997CF7F5A2CA8D52D9A3E28BB9067BA5F8169F079238A4F504B03041400060808002741E54E9F83ECAF7E000000A30000000B0000006662782F636E782E786D6C4D8C410EC2201405AF42FE1E2D446A174003D8DEA3B1
310
B4215230588CC7174C17AE5E327933BCFF6C1EBD6D7AB91804905303C8867B9C5D5805E47DC11DA05EF214E3FE770314A6CD0AA818245F53CCCF03CD7699B2AFD4BBF0382033B77664438B0D55065F8C5258B32BC5A41BC64651AD0DD1C53857A5CCAF57B6E6E517504B03041400060808002741E54EA6D797065F00000082
310
00000007000000636E782E786D6C4DCB3B0E80201045D1AD90E9FD7516806B51190811670C8A61F982B1B0BAC9C97B72CA7B1037C6D3332918DA1E04D2CAC69353902EDB8C20262D23F3F59B81A079470595414B17391D1F19B4730A5583A7ED43BBE4025D9592775E5ADFFA01504B03041400060808002741E54EECFD112D
310
A800000026010000130000005B436F6E74656E745F54797065735D2E786D6C7D4F4B0EC22010BD0A61DF525D18634ABB506FE00510A79458060253536F2FD89D5197F3FED3F68B9BD80362B21E25DFD40D6780DADF2C1AC9671AAA3D677DD75E9E0112CB5A4C928F44E12044D22338956A1F003333F8E814E5331A1194BE2B
310
0362DB343BA13D122055543278D79E6050F344ECBC6478EDCD76CE8EABAE5449AE4298AC56946789C28AAFBEABC53F3EAF09A84A1441B91F0101CD4780756578C173A578FFDDBD00504B03041400060808002741E54E3DEE336E64000000790000001B0000006175746F6465736B2D64657369676E2D7061636B6167652E78
310
6D6C35CBC10E83200C00D05F21DCA56CA76D41FC96062B120735B69A7DBE268BB7777961F8D5AF396893C2ADB70FE7ADA196782C2DF776D7A97B5933C430F15651E5469C55D70F80A4992A3ADC954792C525AE70A1E4D6AD9816CC044FEFDF01FE3FDE907802504B03041400060808002741E54E4812E3CBF30000008E0100
310
003D0000006662782F35434436463545362D433241432D344341412D423537322D3138454630413242424331422F7265736F75726365732F322F636F72652E786D6C8550CB6E833010FC15B47783212540641C9108BEA0A7DE2CDB2156828DFCA8FAF9B50395DA534FBB9A9D99DD1D72FE5A9ED9A7B44E19DD439963C8A4E6
310
46283DF710FC0DB5909D29B1C6F85F34C8345B640F09064A666BC2BA43DC682F7542B51172079973D243C69FB1E9C1F1BB5C58CE828F0CF7C857C61F6C9679996F3C4A425062972A11DDD44D490BB4ADAB7118DB233A8E6587DE0E784297EBF582A6B1EB6A3C4C753334A448624ABC5A7EB6732B9997026885A30C3708D7EF
310
B83DE1EE54D61FA4484C4A9CB7F1E77D69FA2ED249B1A17FDCC22AFE770B4AFB43B5BB6D0A07B48CC7BD069414299D585ED1C59A92A4DF504B03041400060808002741E54E99BED61FF9000000960100003B0000006662782F35434436463545362D433241432D344341412D423537322D3138454630413242424331422F72
310
65736F75726365732F636F72652E786D6C8550CB6E833010FC15B477C0901220328E48045FD0536F96D9102BC1467E54FDFCDA814AEDA9A75DCDCECCEE0E3D7F2DCFE4138D955A755064041254424F52CD1D78774B1B48CE8C1AADDD2F1A248A2FD8418481D1D968BFEE90D0CAA18AA8D213EE20B7161D24E2199A0EACB8E3
310
C233EE5D60D847B672F1E0336645B6F118F55E4EBB544EC14DDE241A604D550EFDD01CD3E350B4E9DB818CE9E57ABDA4E3D0B615E9C7AAEE6B9A4731A34E2E3FDB8541EE700256922023754AAA77D29C487B2AAA0F9A4726A3D699F0F3BE347E07CCA0D5DE08B434DFA67F5CFD3AFDEFEAA572877277DD141658118E7C0D18
310
CD634AA1BC220C3526CABE01504B03041400060808002741E54E80B93301F3000000B1010000310000006662782F35434436463545362D433241432D344341412D423537322D3138454630413242424331422F636F72652E786D6C8D50CB6EC32010FC156BEFD8E0D689136122DB4DBEA0A7DE10101725068B47D5CF2FC4AE
310
D4DE725A343BC3CC0E3D7DCFF7E24B39AFADE98094180A658495DA4C1DC470452D1427469DB5E10F0D0AC367D5418681D1C9D9B86C90B02628935163A5DA40EEBD0A50887B7A74E0C5A79A79C963480C7F2B172E6E7C522529571EA341CFBF52E1140F4A02AB313920BC47B879C7ED111F8EA4F9A05566321AA3969B9596C9
310
5D5FB572C09AF16D7769CE3B34D6FD885EC7BE4743B3AF1169CF17DCD7C33092815659CCA80F2EDDBC7D92AF7B56BE0AFF658E8B7C22B336E1A5DE0C57850746529EC782D12A1798C6A3DD3473D9EC07504B03041400060808002741E54E284F86F754010000DD0200000C0000006662782F636F72652E786D6C8D52CB6E83
310
3010FC15E43B60484820328E92887C414FBD39C6A156C046C646F9FC2E2FD11C9A5648C69ADD999D1D991C9F4DEDF5C27452AB1C4501469E505C9752553972F6EEA7C83B5262B4B63FDA90A758237234C08892CA68D7CE10D7CA0A35A04A97620659D7098B3C5EC325471DFF120D0B98B3D0D13D8296F107AB441005531F25
310
CEC972A6CA12D4E45D0A83689AC4C5A94877FEAE88327FBBC157FF7CB99CFD6B9165093E5D93FD694FC2814C8995CD329D1BC1AC28118D31D0F0DEC7C9074E0F383B44C92709874E4A3A6B60E779E8B01DA2F7DB938413FEA2E7DAF26F3D2795DDC4B3DEC4E8108DC0DE58A0241CF281DF18DE6B863018F2B3EC562F2B3C00
310
EA05B7DA6CA1526AB7967A563B01D2D81B3F124E55501E057ED389DFE8BCD780A098AAC01AB370BD393B4C7FF5D40AE3F7F6E9296D1A56AFE6268BEBB90E7A5969A1735D6BF31FF6B2EA1266383C4CFA0D504B03041400060808002741E54E54D0B1A607010000B201000008000000636F72652E786D6C8D505D6F832014FD
310
2BE4BEA36867D506696CA3BF604F7B63421DA9821168B67F3FA82ED9DEF674C9F9B8E770E9F9739ED043AE5619DD40961040520F46283D36E0DD0D5780CE8CAEC6B85F32409ACFB2810803A3E36AFCB24383D14EEA886A23E40E726BA503344CE1D1801D3EE4CC13EE5D50D87BB2F0E1CE479964C9A663D4A9F9C73AAC923B
310
2980E524AB312931295E497522F5292BDE681A958C7AAFC41EA5444857372557605591776D571DF1B10BDE9703E9F1E57ABDE0BEABEB82B47D51B6254DA39951EBD6F0E77D49E8E990E58F984BD38D62F4DD986917845202193D7D0123348DC49FD27E11FF28ADB43BE4FBC2CD618165A1D09308C1F182613CCF1B66BC36FB
310
06504B010214001400060808002741E54E0000000000000000000000003700000000000000000000000000000000006662782F35434436463545362D433241432D344341412D423537322D3138454630413242424331422F617474726962757465732E62696E504B010214001400060808002741E54E000000000000000000
310
0000003500000000000000000000000000550000006662782F35434436463545362D433241432D344341412D423537322D3138454630413242424331422F76657274696365732E62696E504B010214001400060808002741E54EF270F13306000000040000003600000000000000000000000000A80000006662782F354344
310
36463545362D433241432D344341412D423537322D3138454630413242424331422F747269616E676C65732E62696E504B010214001400060808002741E54E88E57597CD3F0000904100004200000000000000000000000000020100006662782F35434436463545362D433241432D344341412D423537322D313845463041
310
3242424331422F7265736F75726365732F322F305F67656E657269632E706E67504B010214001400060808002741E54E51464CB4890000004301000036000000000000000000000000002F4100006662782F35434436463545362D433241432D344341412D423537322D3138454630413242424331422F6469726563746F72
310
792E786D6C504B010214001400060808002741E54E8B0E314647070000551C000034000000000000000000000000000C4200006662782F35434436463545362D433241432D344341412D423537322D3138454630413242424331422F6F626A656374732E786D6C504B010214001400060808002741E54E39E340CDE1000000
310
550100003C00000000000000000000000000A54900006662782F35434436463545362D433241432D344341412D423537322D3138454630413242424331422F7265736F75726365732F322F636E782E786D6C504B010214001400060808002741E54EFF15A4A45D000000800000003A00000000000000000000000000E04A00
310
006662782F35434436463545362D433241432D344341412D423537322D3138454630413242424331422F7265736F75726365732F636E782E786D6C504B010214001400060808002741E54EC5BFFEF942010000560500003000000000000000000000000000954B00006662782F35434436463545362D433241432D34434141
310
2D423537322D3138454630413242424331422F636E782E786D6C504B010214001400060808002741E54E9F83ECAF7E000000A30000000B00000000000000000000000000254D00006662782F636E782E786D6C504B010214001400060808002741E54EA6D797065F000000820000000700000000000000000000000000CC4D
310
0000636E782E786D6C504B010214001400060808002741E54EECFD112DA8000000260100001300000000000000000000000000504E00005B436F6E74656E745F54797065735D2E786D6C504B010214001400060808002741E54E3DEE336E64000000790000001B00000000000000000000000000294F00006175746F646573
310
6B2D64657369676E2D7061636B6167652E786D6C504B010214001400060808002741E54E4812E3CBF30000008E0100003D00000000000000000000000000C64F00006662782F35434436463545362D433241432D344341412D423537322D3138454630413242424331422F7265736F75726365732F322F636F72652E786D6C
310
504B010214001400060808002741E54E99BED61FF9000000960100003B00000000000000000000000000145100006662782F35434436463545362D433241432D344341412D423537322D3138454630413242424331422F7265736F75726365732F636F72652E786D6C504B010214001400060808002741E54E80B93301F300
310
0000B10100003100000000000000000000000000665200006662782F35434436463545362D433241432D344341412D423537322D3138454630413242424331422F636F72652E786D6C504B010214001400060808002741E54E284F86F754010000DD0200000C00000000000000000000000000A85300006662782F636F7265
310
2E786D6C504B010214001400060808002741E54E54D0B1A607010000B2010000080000000000000000000000000026550000636F72652E786D6C504B050600000000120012002D060000535600000000
  0
XRECORD
  5
17
102
{ACAD_REACTORS
330
12
102
}
330
12
100
AcDbXrecord
280
     1
270
     1
271
     1
  0
XRECORD
  5
16
102
{ACAD_REACTORS
330
12
102
}
330
12
100
AcDbXrecord
280
     1
270
     1
271
     1
  0
XRECORD
  5
18
102
{ACAD_REACTORS
330
12
102
}
330
12
100
AcDbXrecord
280
     1
270
     1
271
     1
  0
XRECORD
  5
15
102
{ACAD_REACTORS
330
12
102
}
330
12
100
AcDbXrecord
280
     1
270
     1
271
     1
  0
XRECORD
  5
24
102
{ACAD_REACTORS
330
22
102
}
330
22
100
AcDbXrecord
280
     1
270
     1
271
     1
  0
XRECORD
  5
23
102
{ACAD_REACTORS
330
22
102
}
330
22
100
AcDbXrecord
280
     1
270
     1
271
     1
  0
XRECORD
  5
27
102
{ACAD_REACTORS
330
22
102
}
330
22
100
AcDbXrecord
280
     1
270
     1
271
     1
  0
XRECORD
  5
26
102
{ACAD_REACTORS
330
22
102
}
330
22
100
AcDbXrecord
280
     1
270
     1
271
     1
  0
XRECORD
  5
28
102
{ACAD_REACTORS
330
22
102
}
330
22
100
AcDbXrecord
280
     1
270
     1
271
     1
  0
XRECORD
  5
25
102
{ACAD_REACTORS
330
22
102
}
330
22
100
AcDbXrecord
280
     1
270
     1
271
     1
  0
XRECORD
  5
747
102
{ACAD_REACTORS
330
746
102
}
330
746
100
AcDbXrecord
280
     1
102
ACAD_ROUNDTRIP_2012_MLEADER_STYLE
298
     1
  0
XRECORD
  5
749
102
{ACAD_REACTORS
330
748
102
}
330
748
100
AcDbXrecord
280
     1
102
DISPLAYNAME
  1
Imperial24
102
FLAGS
 90
        0
  0
CELLSTYLEMAP
  5
6E2
102
{ACAD_REACTORS
330
6E1
102
}
330
6E1
100
AcDbCellStyleMap
 90
        3
300
CELLSTYLE
  1
TABLEFORMAT_BEGIN
 90
        5
170
     1
 91
        0
 92
    32768
 62
   257
 93
        1
300
CONTENTFORMAT
  1
CONTENTFORMAT_BEGIN
 90
        0
 91
        0
 92
      512
 93
        0
300

 40
0.0
140
1.0
 94
        5
 62
     0
340
55
144
0.25
309
CONTENTFORMAT_END
171
     0
 94
        0
309
TABLEFORMAT_END
  1
CELLSTYLE_BEGIN
 90
        1
 91
        1
300
_TITLE
309
CELLSTYLE_END
300
CELLSTYLE
  1
TABLEFORMAT_BEGIN
 90
        5
170
     1
 91
        0
 92
        0
 62
   257
 93
        1
300
CONTENTFORMAT
  1
CONTENTFORMAT_BEGIN
 90
        0
 91
        0
 92
      512
 93
        0
300

 40
0.0
140
1.0
 94
        5
 62
     0
340
55
144
0.18
309
CONTENTFORMAT_END
171
     0
 94
        0
309
TABLEFORMAT_END
  1
CELLSTYLE_BEGIN
 90
        2
 91
        1
300
_HEADER
309
CELLSTYLE_END
300
CELLSTYLE
  1
TABLEFORMAT_BEGIN
 90
        5
170
     1
 91
        0
 92
        0
 62
   257
 93
        1
300
CONTENTFORMAT
  1
CONTENTFORMAT_BEGIN
 90
        0
 91
        0
 92
      512
 93
        0
300

 40
0.0
140
1.0
 94
        2
 62
     0
340
55
144
0.18
309
CONTENTFORMAT_END
171
     0
 94
        0
309
TABLEFORMAT_END
  1
CELLSTYLE_BEGIN
 90
        3
 91
        2
300
_DATA
309
CELLSTYLE_END
  0
XRECORD
  5
721
102
{ACAD_REACTORS
330
720
102
}
330
720
100
AcDbXrecord
280
     1
102
RTVSPost2010Prop28
280
     1
102
RTVSPost2010PropOp28
 70
     1
102
RTVSPost2010Prop29
280
     1
102
RTVSPost2010PropOp29
 70
     1
102
RTVSPost2010Prop30
280
     0
102
RTVSPost2010PropOp30
 70
     1
102
RTVSPost2010Prop31
280
     0
102
RTVSPost2010PropOp31
 70
     1
102
RTVSPost2010Prop32
280
     0
102
RTVSPost2010PropOp32
 70
     1
102
RTVSPost2010Prop33
280
     0
102
RTVSPost2010PropOp33
 70
     1
102
RTVSPost2010Prop34
280
     0
102
RTVSPost2010PropOp34
 70
     1
102
RTVSPost2010Prop35
280
     0
102
RTVSPost2010PropOp35
 70
     1
102
RTVSPost2010Prop36
280
     0
102
RTVSPost2010PropOp36
 70
     1
102
RTVSPost2010Prop37
 90
       50
102
RTVSPost2010PropOp37
 70
     1
102
RTVSPost2010Prop38
140
0.0
102
RTVSPost2010PropOp38
 70
     1
102
RTVSPost2010Prop39
140
1.0
102
RTVSPost2010PropOp39
 70
     1
102
RTVSPost2010Prop40
 90
        0
102
RTVSPost2010PropOp40
 70
     1
102
RTVSPost2010Prop41ColorIndex
 90
       18
102
RTVSPost2010Prop41ColorRGB
 90
        0
102
RTVSPost2010PropOp41
 70
     1
102
RTVSPost2010Prop42
 90
       50
102
RTVSPost2010PropOp42
 70
     1
102
RTVSPost2010Prop43
 90
        3
102
RTVSPost2010PropOp43
 70
     1
102
RTVSPost2010Prop44ColorIndex
 90
        5
102
RTVSPost2010Prop44ColorRGB
 90
      255
102
RTVSPost2010PropOp44
 70
     1
102
RTVSPost2010Prop45
280
     0
102
RTVSPost2010PropOp45
 70
     1
102
RTVSPost2010Prop46
 90
       50
102
RTVSPost2010PropOp46
 70
     1
102
RTVSPost2010Prop47
 90
       50
102
RTVSPost2010PropOp47
 70
     1
102
RTVSPost2010Prop48
 90
       50
102
RTVSPost2010PropOp48
 70
     1
102
RTVSPost2010Prop49
280
     0
102
RTVSPost2010PropOp49
 70
     1
102
RTVSPost2010Prop50
 90
       50
102
RTVSPost2010PropOp50
 70
     1
102
RTVSPost2010Prop51ColorIndex
 90
      256
102
RTVSPost2010Prop51ColorRGB
 90
-16777216
102
RTVSPost2010PropOp51
 70
     0
102
RTVSPost2010Prop52
140
1.0
102
RTVSPost2010PropOp52
 70
     0
102
RTVSPost2010Prop53
 90
        2
102
RTVSPost2010PropOp53
 70
     1
102
RTVSPost2010Prop54
  1
strokes_ogs.tif
102
RTVSPost2010PropOp54
 70
     1
102
RTVSPost2010Prop55
280
     0
102
RTVSPost2010PropOp55
 70
     1
102
RTVSPost2010Prop56
140
1.0
102
RTVSPost2010PropOp56
 70
     1
102
RTVSPost2010Prop57
140
1.0
102
RTVSPost2010PropOp57
 70
     1
  0
XRECORD
  5
71F
102
{ACAD_REACTORS
330
71E
102
}
330
71E
100
AcDbXrecord
280
     1
102
RTVSPost2010Prop28
280
     0
102
RTVSPost2010PropOp28
 70
     1
102
RTVSPost2010Prop29
280
     1
102
RTVSPost2010PropOp29
 70
     1
102
RTVSPost2010Prop30
280
     1
102
RTVSPost2010PropOp30
 70
     1
102
RTVSPost2010Prop31
280
     0
102
RTVSPost2010PropOp31
 70
     1
102
RTVSPost2010Prop32
280
     0
102
RTVSPost2010PropOp32
 70
     1
102
RTVSPost2010Prop33
280
     0
102
RTVSPost2010PropOp33
 70
     1
102
RTVSPost2010Prop34
280
     0
102
RTVSPost2010PropOp34
 70
     1
102
RTVSPost2010Prop35
280
     0
102
RTVSPost2010PropOp35
 70
     1
102
RTVSPost2010Prop36
280
     0
102
RTVSPost2010PropOp36
 70
     1
102
RTVSPost2010Prop37
 90
       50
102
RTVSPost2010PropOp37
 70
     1
102
RTVSPost2010Prop38
140
0.0
102
RTVSPost2010PropOp38
 70
     1
102
RTVSPost2010Prop39
140
1.0
102
RTVSPost2010PropOp39
 70
     1
102
RTVSPost2010Prop40
 90
        0
102
RTVSPost2010PropOp40
 70
     1
102
RTVSPost2010Prop41ColorIndex
 90
       18
102
RTVSPost2010Prop41ColorRGB
 90
        0
102
RTVSPost2010PropOp41
 70
     1
102
RTVSPost2010Prop42
 90
       50
102
RTVSPost2010PropOp42
 70
     1
102
RTVSPost2010Prop43
 90
        3
102
RTVSPost2010PropOp43
 70
     1
102
RTVSPost2010Prop44ColorIndex
 90
        5
102
RTVSPost2010Prop44ColorRGB
 90
      255
102
RTVSPost2010PropOp44
 70
     1
102
RTVSPost2010Prop45
280
     0
102
RTVSPost2010PropOp45
 70
     1
102
RTVSPost2010Prop46
 90
       50
102
RTVSPost2010PropOp46
 70
     1
102
RTVSPost2010Prop47
 90
       50
102
RTVSPost2010PropOp47
 70
     1
102
RTVSPost2010Prop48
 90
       50
102
RTVSPost2010PropOp48
 70
     1
102
RTVSPost2010Prop49
280
     0
102
RTVSPost2010PropOp49
 70
     1
102
RTVSPost2010Prop50
 90
       50
102
RTVSPost2010PropOp50
 70
     1
102
RTVSPost2010Prop51ColorIndex
 90
      256
102
RTVSPost2010Prop51ColorRGB
 90
-16777216
102
RTVSPost2010PropOp51
 70
     0
102
RTVSPost2010Prop52
140
1.0
102
RTVSPost2010PropOp52
 70
     0
102
RTVSPost2010Prop53
 90
        2
102
RTVSPost2010PropOp53
 70
     1
102
RTVSPost2010Prop54
  1
strokes_ogs.tif
102
RTVSPost2010PropOp54
 70
     1
102
RTVSPost2010Prop55
280
     0
102
RTVSPost2010PropOp55
 70
     1
102
RTVSPost2010Prop56
140
1.0
102
RTVSPost2010PropOp56
 70
     1
102
RTVSPost2010Prop57
140
1.0
102
RTVSPost2010PropOp57
 70
     1
  0
XRECORD
  5
72D
102
{ACAD_REACTORS
330
72C
102
}
330
72C
100
AcDbXrecord
280
     1
102
RTVSPost2010Prop28
280
     0
102
RTVSPost2010PropOp28
 70
     1
102
RTVSPost2010Prop29
280
     1
102
RTVSPost2010PropOp29
 70
     1
102
RTVSPost2010Prop30
280
     1
102
RTVSPost2010PropOp30
 70
     1
102
RTVSPost2010Prop31
280
     0
102
RTVSPost2010PropOp31
 70
     1
102
RTVSPost2010Prop32
280
     0
102
RTVSPost2010PropOp32
 70
     1
102
RTVSPost2010Prop33
280
     0
102
RTVSPost2010PropOp33
 70
     1
102
RTVSPost2010Prop34
280
     0
102
RTVSPost2010PropOp34
 70
     1
102
RTVSPost2010Prop35
280
     0
102
RTVSPost2010PropOp35
 70
     1
102
RTVSPost2010Prop36
280
     0
102
RTVSPost2010PropOp36
 70
     1
102
RTVSPost2010Prop37
 90
       50
102
RTVSPost2010PropOp37
 70
     1
102
RTVSPost2010Prop38
140
0.0
102
RTVSPost2010PropOp38
 70
     1
102
RTVSPost2010Prop39
140
1.0
102
RTVSPost2010PropOp39
 70
     1
102
RTVSPost2010Prop40
 90
        0
102
RTVSPost2010PropOp40
 70
     1
102
RTVSPost2010Prop41ColorIndex
 90
       18
102
RTVSPost2010Prop41ColorRGB
 90
        0
102
RTVSPost2010PropOp41
 70
     1
102
RTVSPost2010Prop42
 90
       50
102
RTVSPost2010PropOp42
 70
     1
102
RTVSPost2010Prop43
 90
        3
102
RTVSPost2010PropOp43
 70
     1
102
RTVSPost2010Prop44ColorIndex
 90
        5
102
RTVSPost2010Prop44ColorRGB
 90
      255
102
RTVSPost2010PropOp44
 70
     1
102
RTVSPost2010Prop45
280
     0
102
RTVSPost2010PropOp45
 70
     1
102
RTVSPost2010Prop46
 90
       50
102
RTVSPost2010PropOp46
 70
     1
102
RTVSPost2010Prop47
 90
       50
102
RTVSPost2010PropOp47
 70
     1
102
RTVSPost2010Prop48
 90
       50
102
RTVSPost2010PropOp48
 70
     1
102
RTVSPost2010Prop49
280
     0
102
RTVSPost2010PropOp49
 70
     1
102
RTVSPost2010Prop50
 90
       50
102
RTVSPost2010PropOp50
 70
     1
102
RTVSPost2010Prop51ColorIndex
 90
      256
102
RTVSPost2010Prop51ColorRGB
 90
-16777216
102
RTVSPost2010PropOp51
 70
     0
102
RTVSPost2010Prop52
140
1.0
102
RTVSPost2010PropOp52
 70
     0
102
RTVSPost2010Prop53
 90
        2
102
RTVSPost2010PropOp53
 70
     1
102
RTVSPost2010Prop54
  1
strokes_ogs.tif
102
RTVSPost2010PropOp54
 70
     1
102
RTVSPost2010Prop55
280
     0
102
RTVSPost2010PropOp55
 70
     1
102
RTVSPost2010Prop56
140
1.0
102
RTVSPost2010PropOp56
 70
     1
102
RTVSPost2010Prop57
140
1.0
102
RTVSPost2010PropOp57
 70
     1
  0
XRECORD
  5
735
102
{ACAD_REACTORS
330
734
102
}
330
734
100
AcDbXrecord
280
     1
102
RTVSPost2010Prop28
280
     0
102
RTVSPost2010PropOp28
 70
     1
102
RTVSPost2010Prop29
280
     1
102
RTVSPost2010PropOp29
 70
     1
102
RTVSPost2010Prop30
280
     1
102
RTVSPost2010PropOp30
 70
     1
102
RTVSPost2010Prop31
280
     0
102
RTVSPost2010PropOp31
 70
     1
102
RTVSPost2010Prop32
280
     0
102
RTVSPost2010PropOp32
 70
     1
102
RTVSPost2010Prop33
280
     0
102
RTVSPost2010PropOp33
 70
     1
102
RTVSPost2010Prop34
280
     0
102
RTVSPost2010PropOp34
 70
     1
102
RTVSPost2010Prop35
280
     0
102
RTVSPost2010PropOp35
 70
     1
102
RTVSPost2010Prop36
280
     0
102
RTVSPost2010PropOp36
 70
     1
102
RTVSPost2010Prop37
 90
       50
102
RTVSPost2010PropOp37
 70
     1
102
RTVSPost2010Prop38
140
0.0
102
RTVSPost2010PropOp38
 70
     1
102
RTVSPost2010Prop39
140
1.0
102
RTVSPost2010PropOp39
 70
     1
102
RTVSPost2010Prop40
 90
        0
102
RTVSPost2010PropOp40
 70
     1
102
RTVSPost2010Prop41ColorIndex
 90
       18
102
RTVSPost2010Prop41ColorRGB
 90
        0
102
RTVSPost2010PropOp41
 70
     1
102
RTVSPost2010Prop42
 90
       50
102
RTVSPost2010PropOp42
 70
     1
102
RTVSPost2010Prop43
 90
        3
102
RTVSPost2010PropOp43
 70
     1
102
RTVSPost2010Prop44ColorIndex
 90
        5
102
RTVSPost2010Prop44ColorRGB
 90
      255
102
RTVSPost2010PropOp44
 70
     1
102
RTVSPost2010Prop45
280
     0
102
RTVSPost2010PropOp45
 70
     1
102
RTVSPost2010Prop46
 90
       50
102
RTVSPost2010PropOp46
 70
     1
102
RTVSPost2010Prop47
 90
       50
102
RTVSPost2010PropOp47
 70
     1
102
RTVSPost2010Prop48
 90
       50
102
RTVSPost2010PropOp48
 70
     1
102
RTVSPost2010Prop49
280
     0
102
RTVSPost2010PropOp49
 70
     1
102
RTVSPost2010Prop50
 90
       50
102
RTVSPost2010PropOp50
 70
     1
102
RTVSPost2010Prop51ColorIndex
 90
      256
102
RTVSPost2010Prop51ColorRGB
 90
-16777216
102
RTVSPost2010PropOp51
 70
     0
102
RTVSPost2010Prop52
140
1.0
102
RTVSPost2010PropOp52
 70
     0
102
RTVSPost2010Prop53
 90
        2
102
RTVSPost2010PropOp53
 70
     1
102
RTVSPost2010Prop54
  1
strokes_ogs.tif
102
RTVSPost2010PropOp54
 70
     1
102
RTVSPost2010Prop55
280
     0
102
RTVSPost2010PropOp55
 70
     1
102
RTVSPost2010Prop56
140
1.0
102
RTVSPost2010PropOp56
 70
     1
102
RTVSPost2010Prop57
140
1.0
102
RTVSPost2010PropOp57
 70
     1
  0
XRECORD
  5
727
102
{ACAD_REACTORS
330
726
102
}
330
726
100
AcDbXrecord
280
     1
102
RTVSPost2010Prop28
280
     0
102
RTVSPost2010PropOp28
 70
     1
102
RTVSPost2010Prop29
280
     1
102
RTVSPost2010PropOp29
 70
     1
102
RTVSPost2010Prop30
280
     1
102
RTVSPost2010PropOp30
 70
     1
102
RTVSPost2010Prop31
280
     0
102
RTVSPost2010PropOp31
 70
     1
102
RTVSPost2010Prop32
280
     0
102
RTVSPost2010PropOp32
 70
     1
102
RTVSPost2010Prop33
280
     0
102
RTVSPost2010PropOp33
 70
     1
102
RTVSPost2010Prop34
280
     0
102
RTVSPost2010PropOp34
 70
     1
102
RTVSPost2010Prop35
280
     0
102
RTVSPost2010PropOp35
 70
     1
102
RTVSPost2010Prop36
280
     0
102
RTVSPost2010PropOp36
 70
     1
102
RTVSPost2010Prop37
 90
       50
102
RTVSPost2010PropOp37
 70
     1
102
RTVSPost2010Prop38
140
0.0
102
RTVSPost2010PropOp38
 70
     1
102
RTVSPost2010Prop39
140
1.0
102
RTVSPost2010PropOp39
 70
     1
102
RTVSPost2010Prop40
 90
        0
102
RTVSPost2010PropOp40
 70
     1
102
RTVSPost2010Prop41ColorIndex
 90
       18
102
RTVSPost2010Prop41ColorRGB
 90
        0
102
RTVSPost2010PropOp41
 70
     1
102
RTVSPost2010Prop42
 90
       50
102
RTVSPost2010PropOp42
 70
     1
102
RTVSPost2010Prop43
 90
        3
102
RTVSPost2010PropOp43
 70
     1
102
RTVSPost2010Prop44ColorIndex
 90
        5
102
RTVSPost2010Prop44ColorRGB
 90
      255
102
RTVSPost2010PropOp44
 70
     1
102
RTVSPost2010Prop45
280
     0
102
RTVSPost2010PropOp45
 70
     1
102
RTVSPost2010Prop46
 90
       50
102
RTVSPost2010PropOp46
 70
     1
102
RTVSPost2010Prop47
 90
       50
102
RTVSPost2010PropOp47
 70
     1
102
RTVSPost2010Prop48
 90
       50
102
RTVSPost2010PropOp48
 70
     1
102
RTVSPost2010Prop49
280
     0
102
RTVSPost2010PropOp49
 70
     1
102
RTVSPost2010Prop50
 90
       50
102
RTVSPost2010PropOp50
 70
     1
102
RTVSPost2010Prop51ColorIndex
 90
      256
102
RTVSPost2010Prop51ColorRGB
 90
-16777216
102
RTVSPost2010PropOp51
 70
     0
102
RTVSPost2010Prop52
140
1.0
102
RTVSPost2010PropOp52
 70
     0
102
RTVSPost2010Prop53
 90
        2
102
RTVSPost2010PropOp53
 70
     1
102
RTVSPost2010Prop54
  1
strokes_ogs.tif
102
RTVSPost2010PropOp54
 70
     1
102
RTVSPost2010Prop55
280
     0
102
RTVSPost2010PropOp55
 70
     1
102
RTVSPost2010Prop56
140
1.0
102
RTVSPost2010PropOp56
 70
     1
102
RTVSPost2010Prop57
140
1.0
102
RTVSPost2010PropOp57
 70
     1
  0
XRECORD
  5
72B
102
{ACAD_REACTORS
330
72A
102
}
330
72A
100
AcDbXrecord
280
     1
102
RTVSPost2010Prop28
280
     0
102
RTVSPost2010PropOp28
 70
     1
102
RTVSPost2010Prop29
280
     1
102
RTVSPost2010PropOp29
 70
     1
102
RTVSPost2010Prop30
280
     1
102
RTVSPost2010PropOp30
 70
     1
102
RTVSPost2010Prop31
280
     0
102
RTVSPost2010PropOp31
 70
     1
102
RTVSPost2010Prop32
280
     0
102
RTVSPost2010PropOp32
 70
     1
102
RTVSPost2010Prop33
280
     0
102
RTVSPost2010PropOp33
 70
     1
102
RTVSPost2010Prop34
280
     0
102
RTVSPost2010PropOp34
 70
     1
102
RTVSPost2010Prop35
280
     0
102
RTVSPost2010PropOp35
 70
     1
102
RTVSPost2010Prop36
280
     0
102
RTVSPost2010PropOp36
 70
     1
102
RTVSPost2010Prop37
 90
       50
102
RTVSPost2010PropOp37
 70
     1
102
RTVSPost2010Prop38
140
0.0
102
RTVSPost2010PropOp38
 70
     1
102
RTVSPost2010Prop39
140
1.0
102
RTVSPost2010PropOp39
 70
     1
102
RTVSPost2010Prop40
 90
        0
102
RTVSPost2010PropOp40
 70
     1
102
RTVSPost2010Prop41ColorIndex
 90
       18
102
RTVSPost2010Prop41ColorRGB
 90
        0
102
RTVSPost2010PropOp41
 70
     1
102
RTVSPost2010Prop42
 90
       50
102
RTVSPost2010PropOp42
 70
     1
102
RTVSPost2010Prop43
 90
        3
102
RTVSPost2010PropOp43
 70
     1
102
RTVSPost2010Prop44ColorIndex
 90
        5
102
RTVSPost2010Prop44ColorRGB
 90
      255
102
RTVSPost2010PropOp44
 70
     1
102
RTVSPost2010Prop45
280
     0
102
RTVSPost2010PropOp45
 70
     1
102
RTVSPost2010Prop46
 90
       50
102
RTVSPost2010PropOp46
 70
     1
102
RTVSPost2010Prop47
 90
       50
102
RTVSPost2010PropOp47
 70
     1
102
RTVSPost2010Prop48
 90
       50
102
RTVSPost2010PropOp48
 70
     1
102
RTVSPost2010Prop49
280
     0
102
RTVSPost2010PropOp49
 70
     1
102
RTVSPost2010Prop50
 90
       50
102
RTVSPost2010PropOp50
 70
     1
102
RTVSPost2010Prop51ColorIndex
 90
      256
102
RTVSPost2010Prop51ColorRGB
 90
-16777216
102
RTVSPost2010PropOp51
 70
     0
102
RTVSPost2010Prop52
140
1.0
102
RTVSPost2010PropOp52
 70
     0
102
RTVSPost2010Prop53
 90
        2
102
RTVSPost2010PropOp53
 70
     1
102
RTVSPost2010Prop54
  1
strokes_ogs.tif
102
RTVSPost2010PropOp54
 70
     1
102
RTVSPost2010Prop55
280
     0
102
RTVSPost2010PropOp55
 70
     1
102
RTVSPost2010Prop56
140
1.0
102
RTVSPost2010PropOp56
 70
     1
102
RTVSPost2010Prop57
140
1.0
102
RTVSPost2010PropOp57
 70
     1
  0
XRECORD
  5
745
102
{ACAD_REACTORS
330
744
102
}
330
744
100
AcDbXrecord
280
     1
102
RTVSPost2010Prop28
280
     0
102
RTVSPost2010PropOp28
 70
     0
102
RTVSPost2010Prop29
280
     1
102
RTVSPost2010PropOp29
 70
     0
102
RTVSPost2010Prop30
280
     1
102
RTVSPost2010PropOp30
 70
     0
102
RTVSPost2010Prop31
280
     0
102
RTVSPost2010PropOp31
 70
     0
102
RTVSPost2010Prop32
280
     0
102
RTVSPost2010PropOp32
 70
     0
102
RTVSPost2010Prop33
280
     0
102
RTVSPost2010PropOp33
 70
     0
102
RTVSPost2010Prop34
280
     0
102
RTVSPost2010PropOp34
 70
     0
102
RTVSPost2010Prop35
280
     0
102
RTVSPost2010PropOp35
 70
     0
102
RTVSPost2010Prop36
280
     0
102
RTVSPost2010PropOp36
 70
     0
102
RTVSPost2010Prop37
 90
       50
102
RTVSPost2010PropOp37
 70
     0
102
RTVSPost2010Prop38
140
0.0
102
RTVSPost2010PropOp38
 70
     0
102
RTVSPost2010Prop39
140
1.0
102
RTVSPost2010PropOp39
 70
     0
102
RTVSPost2010Prop40
 90
        0
102
RTVSPost2010PropOp40
 70
     0
102
RTVSPost2010Prop41ColorIndex
 90
       18
102
RTVSPost2010Prop41ColorRGB
 90
        0
102
RTVSPost2010PropOp41
 70
     0
102
RTVSPost2010Prop42
 90
       50
102
RTVSPost2010PropOp42
 70
     0
102
RTVSPost2010Prop43
 90
        3
102
RTVSPost2010PropOp43
 70
     0
102
RTVSPost2010Prop44ColorIndex
 90
        5
102
RTVSPost2010Prop44ColorRGB
 90
      255
102
RTVSPost2010PropOp44
 70
     0
102
RTVSPost2010Prop45
280
     0
102
RTVSPost2010PropOp45
 70
     0
102
RTVSPost2010Prop46
 90
       50
102
RTVSPost2010PropOp46
 70
     0
102
RTVSPost2010Prop47
 90
       50
102
RTVSPost2010PropOp47
 70
     0
102
RTVSPost2010Prop48
 90
       50
102
RTVSPost2010PropOp48
 70
     0
102
RTVSPost2010Prop49
280
     0
102
RTVSPost2010PropOp49
 70
     0
102
RTVSPost2010Prop50
 90
       50
102
RTVSPost2010PropOp50
 70
     0
102
RTVSPost2010Prop51ColorIndex
 90
      256
102
RTVSPost2010Prop51ColorRGB
 90
-16777216
102
RTVSPost2010PropOp51
 70
     0
102
RTVSPost2010Prop52
140
1.0
102
RTVSPost2010PropOp52
 70
     0
102
RTVSPost2010Prop53
 90
        2
102
RTVSPost2010PropOp53
 70
     0
102
RTVSPost2010Prop54
  1
strokes_ogs.tif
102
RTVSPost2010PropOp54
 70
     0
102
RTVSPost2010Prop55
280
     0
102
RTVSPost2010PropOp55
 70
     0
102
RTVSPost2010Prop56
140
1.0
102
RTVSPost2010PropOp56
 70
     0
102
RTVSPost2010Prop57
140
1.0
102
RTVSPost2010PropOp57
 70
     0
  0
XRECORD
  5
733
102
{ACAD_REACTORS
330
732
102
}
330
732
100
AcDbXrecord
280
     1
102
RTVSPost2010Prop28
280
     0
102
RTVSPost2010PropOp28
 70
     1
102
RTVSPost2010Prop29
280
     1
102
RTVSPost2010PropOp29
 70
     1
102
RTVSPost2010Prop30
280
     1
102
RTVSPost2010PropOp30
 70
     1
102
RTVSPost2010Prop31
280
     0
102
RTVSPost2010PropOp31
 70
     1
102
RTVSPost2010Prop32
280
     0
102
RTVSPost2010PropOp32
 70
     1
102
RTVSPost2010Prop33
280
     0
102
RTVSPost2010PropOp33
 70
     1
102
RTVSPost2010Prop34
280
     0
102
RTVSPost2010PropOp34
 70
     1
102
RTVSPost2010Prop35
280
     0
102
RTVSPost2010PropOp35
 70
     1
102
RTVSPost2010Prop36
280
     0
102
RTVSPost2010PropOp36
 70
     1
102
RTVSPost2010Prop37
 90
       50
102
RTVSPost2010PropOp37
 70
     1
102
RTVSPost2010Prop38
140
0.0
102
RTVSPost2010PropOp38
 70
     1
102
RTVSPost2010Prop39
140
1.0
102
RTVSPost2010PropOp39
 70
     1
102
RTVSPost2010Prop40
 90
        0
102
RTVSPost2010PropOp40
 70
     1
102
RTVSPost2010Prop41ColorIndex
 90
       18
102
RTVSPost2010Prop41ColorRGB
 90
        0
102
RTVSPost2010PropOp41
 70
     1
102
RTVSPost2010Prop42
 90
       50
102
RTVSPost2010PropOp42
 70
     1
102
RTVSPost2010Prop43
 90
        3
102
RTVSPost2010PropOp43
 70
     1
102
RTVSPost2010Prop44ColorIndex
 90
        5
102
RTVSPost2010Prop44ColorRGB
 90
      255
102
RTVSPost2010PropOp44
 70
     1
102
RTVSPost2010Prop45
280
     0
102
RTVSPost2010PropOp45
 70
     1
102
RTVSPost2010Prop46
 90
       50
102
RTVSPost2010PropOp46
 70
     1
102
RTVSPost2010Prop47
 90
       50
102
RTVSPost2010PropOp47
 70
     1
102
RTVSPost2010Prop48
 90
       50
102
RTVSPost2010PropOp48
 70
     1
102
RTVSPost2010Prop49
280
     0
102
RTVSPost2010PropOp49
 70
     1
102
RTVSPost2010Prop50
 90
       50
102
RTVSPost2010PropOp50
 70
     1
102
RTVSPost2010Prop51ColorIndex
 90
      256
102
RTVSPost2010Prop51ColorRGB
 90
-16777216
102
RTVSPost2010PropOp51
 70
     0
102
RTVSPost2010Prop52
140
1.0
102
RTVSPost2010PropOp52
 70
     0
102
RTVSPost2010Prop53
 90
        2
102
RTVSPost2010PropOp53
 70
     1
102
RTVSPost2010Prop54
  1
strokes_ogs.tif
102
RTVSPost2010PropOp54
 70
     1
102
RTVSPost2010Prop55
280
     0
102
RTVSPost2010PropOp55
 70
     1
102
RTVSPost2010Prop56
140
1.0
102
RTVSPost2010PropOp56
 70
     1
102
RTVSPost2010Prop57
140
1.0
102
RTVSPost2010PropOp57
 70
     1
  0
XRECORD
  5
717
102
{ACAD_REACTORS
330
716
102
}
330
716
100
AcDbXrecord
280
     1
102
RTVSPost2010Prop28
280
     0
102
RTVSPost2010PropOp28
 70
     1
102
RTVSPost2010Prop29
280
     1
102
RTVSPost2010PropOp29
 70
     1
102
RTVSPost2010Prop30
280
     1
102
RTVSPost2010PropOp30
 70
     1
102
RTVSPost2010Prop31
280
     0
102
RTVSPost2010PropOp31
 70
     1
102
RTVSPost2010Prop32
280
     0
102
RTVSPost2010PropOp32
 70
     1
102
RTVSPost2010Prop33
280
     0
102
RTVSPost2010PropOp33
 70
     1
102
RTVSPost2010Prop34
280
     0
102
RTVSPost2010PropOp34
 70
     1
102
RTVSPost2010Prop35
280
     0
102
RTVSPost2010PropOp35
 70
     1
102
RTVSPost2010Prop36
280
     0
102
RTVSPost2010PropOp36
 70
     1
102
RTVSPost2010Prop37
 90
       50
102
RTVSPost2010PropOp37
 70
     1
102
RTVSPost2010Prop38
140
0.0
102
RTVSPost2010PropOp38
 70
     1
102
RTVSPost2010Prop39
140
1.0
102
RTVSPost2010PropOp39
 70
     1
102
RTVSPost2010Prop40
 90
        0
102
RTVSPost2010PropOp40
 70
     1
102
RTVSPost2010Prop41ColorIndex
 90
       18
102
RTVSPost2010Prop41ColorRGB
 90
        0
102
RTVSPost2010PropOp41
 70
     1
102
RTVSPost2010Prop42
 90
       50
102
RTVSPost2010PropOp42
 70
     1
102
RTVSPost2010Prop43
 90
        3
102
RTVSPost2010PropOp43
 70
     1
102
RTVSPost2010Prop44ColorIndex
 90
        5
102
RTVSPost2010Prop44ColorRGB
 90
      255
102
RTVSPost2010PropOp44
 70
     1
102
RTVSPost2010Prop45
280
     0
102
RTVSPost2010PropOp45
 70
     1
102
RTVSPost2010Prop46
 90
       50
102
RTVSPost2010PropOp46
 70
     1
102
RTVSPost2010Prop47
 90
       50
102
RTVSPost2010PropOp47
 70
     1
102
RTVSPost2010Prop48
 90
       50
102
RTVSPost2010PropOp48
 70
     1
102
RTVSPost2010Prop49
280
     0
102
RTVSPost2010PropOp49
 70
     1
102
RTVSPost2010Prop50
 90
       50
102
RTVSPost2010PropOp50
 70
     1
102
RTVSPost2010Prop51ColorIndex
 90
      256
102
RTVSPost2010Prop51ColorRGB
 90
-16777216
102
RTVSPost2010PropOp51
 70
     0
102
RTVSPost2010Prop52
140
1.0
102
RTVSPost2010PropOp52
 70
     0
102
RTVSPost2010Prop53
 90
        2
102
RTVSPost2010PropOp53
 70
     1
102
RTVSPost2010Prop54
  1
strokes_ogs.tif
102
RTVSPost2010PropOp54
 70
     1
102
RTVSPost2010Prop55
280
     0
102
RTVSPost2010PropOp55
 70
     1
102
RTVSPost2010Prop56
140
1.0
102
RTVSPost2010PropOp56
 70
     1
102
RTVSPost2010Prop57
140
1.0
102
RTVSPost2010PropOp57
 70
     1
  0
XRECORD
  5
719
102
{ACAD_REACTORS
330
718
102
}
330
718
100
AcDbXrecord
280
     1
102
RTVSPost2010Prop28
280
     0
102
RTVSPost2010PropOp28
 70
     1
102
RTVSPost2010Prop29
280
     1
102
RTVSPost2010PropOp29
 70
     1
102
RTVSPost2010Prop30
280
     1
102
RTVSPost2010PropOp30
 70
     1
102
RTVSPost2010Prop31
280
     0
102
RTVSPost2010PropOp31
 70
     1
102
RTVSPost2010Prop32
280
     0
102
RTVSPost2010PropOp32
 70
     1
102
RTVSPost2010Prop33
280
     0
102
RTVSPost2010PropOp33
 70
     1
102
RTVSPost2010Prop34
280
     0
102
RTVSPost2010PropOp34
 70
     1
102
RTVSPost2010Prop35
280
     0
102
RTVSPost2010PropOp35
 70
     1
102
RTVSPost2010Prop36
280
     0
102
RTVSPost2010PropOp36
 70
     1
102
RTVSPost2010Prop37
 90
       50
102
RTVSPost2010PropOp37
 70
     1
102
RTVSPost2010Prop38
140
0.0
102
RTVSPost2010PropOp38
 70
     1
102
RTVSPost2010Prop39
140
1.0
102
RTVSPost2010PropOp39
 70
     1
102
RTVSPost2010Prop40
 90
        0
102
RTVSPost2010PropOp40
 70
     1
102
RTVSPost2010Prop41ColorIndex
 90
       18
102
RTVSPost2010Prop41ColorRGB
 90
        0
102
RTVSPost2010PropOp41
 70
     1
102
RTVSPost2010Prop42
 90
       50
102
RTVSPost2010PropOp42
 70
     1
102
RTVSPost2010Prop43
 90
        3
102
RTVSPost2010PropOp43
 70
     1
102
RTVSPost2010Prop44ColorIndex
 90
        5
102
RTVSPost2010Prop44ColorRGB
 90
      255
102
RTVSPost2010PropOp44
 70
     1
102
RTVSPost2010Prop45
280
     0
102
RTVSPost2010PropOp45
 70
     1
102
RTVSPost2010Prop46
 90
       50
102
RTVSPost2010PropOp46
 70
     1
102
RTVSPost2010Prop47
 90
       50
102
RTVSPost2010PropOp47
 70
     1
102
RTVSPost2010Prop48
 90
       50
102
RTVSPost2010PropOp48
 70
     1
102
RTVSPost2010Prop49
280
     0
102
RTVSPost2010PropOp49
 70
     1
102
RTVSPost2010Prop50
 90
       50
102
RTVSPost2010PropOp50
 70
     1
102
RTVSPost2010Prop51ColorIndex
 90
      256
102
RTVSPost2010Prop51ColorRGB
 90
-16777216
102
RTVSPost2010PropOp51
 70
     0
102
RTVSPost2010Prop52
140
1.0
102
RTVSPost2010PropOp52
 70
     0
102
RTVSPost2010Prop53
 90
        2
102
RTVSPost2010PropOp53
 70
     1
102
RTVSPost2010Prop54
  1
strokes_ogs.tif
102
RTVSPost2010PropOp54
 70
     1
102
RTVSPost2010Prop55
280
     0
102
RTVSPost2010PropOp55
 70
     1
102
RTVSPost2010Prop56
140
1.0
102
RTVSPost2010PropOp56
 70
     1
102
RTVSPost2010Prop57
140
1.0
102
RTVSPost2010PropOp57
 70
     1
  0
XRECORD
  5
71B
102
{ACAD_REACTORS
330
71A
102
}
330
71A
100
AcDbXrecord
280
     1
102
RTVSPost2010Prop28
280
     0
102
RTVSPost2010PropOp28
 70
     1
102
RTVSPost2010Prop29
280
     1
102
RTVSPost2010PropOp29
 70
     1
102
RTVSPost2010Prop30
280
     1
102
RTVSPost2010PropOp30
 70
     1
102
RTVSPost2010Prop31
280
     0
102
RTVSPost2010PropOp31
 70
     1
102
RTVSPost2010Prop32
280
     0
102
RTVSPost2010PropOp32
 70
     1
102
RTVSPost2010Prop33
280
     0
102
RTVSPost2010PropOp33
 70
     1
102
RTVSPost2010Prop34
280
     0
102
RTVSPost2010PropOp34
 70
     1
102
RTVSPost2010Prop35
280
     0
102
RTVSPost2010PropOp35
 70
     1
102
RTVSPost2010Prop36
280
     0
102
RTVSPost2010PropOp36
 70
     1
102
RTVSPost2010Prop37
 90
       50
102
RTVSPost2010PropOp37
 70
     1
102
RTVSPost2010Prop38
140
0.0
102
RTVSPost2010PropOp38
 70
     1
102
RTVSPost2010Prop39
140
1.0
102
RTVSPost2010PropOp39
 70
     1
102
RTVSPost2010Prop40
 90
        0
102
RTVSPost2010PropOp40
 70
     1
102
RTVSPost2010Prop41ColorIndex
 90
       18
102
RTVSPost2010Prop41ColorRGB
 90
        0
102
RTVSPost2010PropOp41
 70
     1
102
RTVSPost2010Prop42
 90
       50
102
RTVSPost2010PropOp42
 70
     1
102
RTVSPost2010Prop43
 90
        3
102
RTVSPost2010PropOp43
 70
     1
102
RTVSPost2010Prop44ColorIndex
 90
        5
102
RTVSPost2010Prop44ColorRGB
 90
      255
102
RTVSPost2010PropOp44
 70
     1
102
RTVSPost2010Prop45
280
     0
102
RTVSPost2010PropOp45
 70
     1
102
RTVSPost2010Prop46
 90
       50
102
RTVSPost2010PropOp46
 70
     1
102
RTVSPost2010Prop47
 90
       50
102
RTVSPost2010PropOp47
 70
     1
102
RTVSPost2010Prop48
 90
       50
102
RTVSPost2010PropOp48
 70
     1
102
RTVSPost2010Prop49
280
     0
102
RTVSPost2010PropOp49
 70
     1
102
RTVSPost2010Prop50
 90
       50
102
RTVSPost2010PropOp50
 70
     1
102
RTVSPost2010Prop51ColorIndex
 90
      256
102
RTVSPost2010Prop51ColorRGB
 90
-16777216
102
RTVSPost2010PropOp51
 70
     0
102
RTVSPost2010Prop52
140
1.0
102
RTVSPost2010PropOp52
 70
     0
102
RTVSPost2010Prop53
 90
        2
102
RTVSPost2010PropOp53
 70
     1
102
RTVSPost2010Prop54
  1
strokes_ogs.tif
102
RTVSPost2010PropOp54
 70
     1
102
RTVSPost2010Prop55
280
     0
102
RTVSPost2010PropOp55
 70
     1
102
RTVSPost2010Prop56
140
1.0
102
RTVSPost2010PropOp56
 70
     1
102
RTVSPost2010Prop57
140
1.0
102
RTVSPost2010PropOp57
 70
     1
  0
XRECORD
  5
71D
102
{ACAD_REACTORS
330
71C
102
}
330
71C
100
AcDbXrecord
280
     1
102
RTVSPost2010Prop28
280
     0
102
RTVSPost2010PropOp28
 70
     1
102
RTVSPost2010Prop29
280
     1
102
RTVSPost2010PropOp29
 70
     1
102
RTVSPost2010Prop30
280
     1
102
RTVSPost2010PropOp30
 70
     1
102
RTVSPost2010Prop31
280
     0
102
RTVSPost2010PropOp31
 70
     1
102
RTVSPost2010Prop32
280
     0
102
RTVSPost2010PropOp32
 70
     1
102
RTVSPost2010Prop33
280
     0
102
RTVSPost2010PropOp33
 70
     1
102
RTVSPost2010Prop34
280
     0
102
RTVSPost2010PropOp34
 70
     1
102
RTVSPost2010Prop35
280
     0
102
RTVSPost2010PropOp35
 70
     1
102
RTVSPost2010Prop36
280
     0
102
RTVSPost2010PropOp36
 70
     1
102
RTVSPost2010Prop37
 90
       50
102
RTVSPost2010PropOp37
 70
     1
102
RTVSPost2010Prop38
140
0.0
102
RTVSPost2010PropOp38
 70
     1
102
RTVSPost2010Prop39
140
1.0
102
RTVSPost2010PropOp39
 70
     1
102
RTVSPost2010Prop40
 90
        0
102
RTVSPost2010PropOp40
 70
     1
102
RTVSPost2010Prop41ColorIndex
 90
       18
102
RTVSPost2010Prop41ColorRGB
 90
        0
102
RTVSPost2010PropOp41
 70
     1
102
RTVSPost2010Prop42
 90
       50
102
RTVSPost2010PropOp42
 70
     1
102
RTVSPost2010Prop43
 90
        3
102
RTVSPost2010PropOp43
 70
     1
102
RTVSPost2010Prop44ColorIndex
 90
        5
102
RTVSPost2010Prop44ColorRGB
 90
      255
102
RTVSPost2010PropOp44
 70
     1
102
RTVSPost2010Prop45
280
     0
102
RTVSPost2010PropOp45
 70
     1
102
RTVSPost2010Prop46
 90
       50
102
RTVSPost2010PropOp46
 70
     1
102
RTVSPost2010Prop47
 90
       50
102
RTVSPost2010PropOp47
 70
     1
102
RTVSPost2010Prop48
 90
       50
102
RTVSPost2010PropOp48
 70
     1
102
RTVSPost2010Prop49
280
     0
102
RTVSPost2010PropOp49
 70
     1
102
RTVSPost2010Prop50
 90
       50
102
RTVSPost2010PropOp50
 70
     1
102
RTVSPost2010Prop51ColorIndex
 90
      256
102
RTVSPost2010Prop51ColorRGB
 90
-16777216
102
RTVSPost2010PropOp51
 70
     0
102
RTVSPost2010Prop52
140
1.0
102
RTVSPost2010PropOp52
 70
     0
102
RTVSPost2010Prop53
 90
        2
102
RTVSPost2010PropOp53
 70
     1
102
RTVSPost2010Prop54
  1
strokes_ogs.tif
102
RTVSPost2010PropOp54
 70
     1
102
RTVSPost2010Prop55
280
     0
102
RTVSPost2010PropOp55
 70
     1
102
RTVSPost2010Prop56
140
1.0
102
RTVSPost2010PropOp56
 70
     1
102
RTVSPost2010Prop57
140
1.0
102
RTVSPost2010PropOp57
 70
     1
  0
XRECORD
  5
725
102
{ACAD_REACTORS
330
724
102
}
330
724
100
AcDbXrecord
280
     1
102
RTVSPost2010Prop28
280
     0
102
RTVSPost2010PropOp28
 70
     1
102
RTVSPost2010Prop29
280
     1
102
RTVSPost2010PropOp29
 70
     1
102
RTVSPost2010Prop30
280
     1
102
RTVSPost2010PropOp30
 70
     1
102
RTVSPost2010Prop31
280
     0
102
RTVSPost2010PropOp31
 70
     1
102
RTVSPost2010Prop32
280
     0
102
RTVSPost2010PropOp32
 70
     1
102
RTVSPost2010Prop33
280
     0
102
RTVSPost2010PropOp33
 70
     1
102
RTVSPost2010Prop34
280
     0
102
RTVSPost2010PropOp34
 70
     1
102
RTVSPost2010Prop35
280
     0
102
RTVSPost2010PropOp35
 70
     1
102
RTVSPost2010Prop36
280
     0
102
RTVSPost2010PropOp36
 70
     1
102
RTVSPost2010Prop37
 90
       50
102
RTVSPost2010PropOp37
 70
     1
102
RTVSPost2010Prop38
140
0.0
102
RTVSPost2010PropOp38
 70
     1
102
RTVSPost2010Prop39
140
1.0
102
RTVSPost2010PropOp39
 70
     1
102
RTVSPost2010Prop40
 90
        0
102
RTVSPost2010PropOp40
 70
     1
102
RTVSPost2010Prop41ColorIndex
 90
       18
102
RTVSPost2010Prop41ColorRGB
 90
        0
102
RTVSPost2010PropOp41
 70
     1
102
RTVSPost2010Prop42
 90
       50
102
RTVSPost2010PropOp42
 70
     1
102
RTVSPost2010Prop43
 90
        3
102
RTVSPost2010PropOp43
 70
     1
102
RTVSPost2010Prop44ColorIndex
 90
        5
102
RTVSPost2010Prop44ColorRGB
 90
      255
102
RTVSPost2010PropOp44
 70
     1
102
RTVSPost2010Prop45
280
     0
102
RTVSPost2010PropOp45
 70
     1
102
RTVSPost2010Prop46
 90
       50
102
RTVSPost2010PropOp46
 70
     1
102
RTVSPost2010Prop47
 90
       50
102
RTVSPost2010PropOp47
 70
     1
102
RTVSPost2010Prop48
 90
       50
102
RTVSPost2010PropOp48
 70
     1
102
RTVSPost2010Prop49
280
     0
102
RTVSPost2010PropOp49
 70
     1
102
RTVSPost2010Prop50
 90
       50
102
RTVSPost2010PropOp50
 70
     1
102
RTVSPost2010Prop51ColorIndex
 90
      256
102
RTVSPost2010Prop51ColorRGB
 90
-16777216
102
RTVSPost2010PropOp51
 70
     0
102
RTVSPost2010Prop52
140
1.0
102
RTVSPost2010PropOp52
 70
     0
102
RTVSPost2010Prop53
 90
        2
102
RTVSPost2010PropOp53
 70
     1
102
RTVSPost2010Prop54
  1
strokes_ogs.tif
102
RTVSPost2010PropOp54
 70
     1
102
RTVSPost2010Prop55
280
     0
102
RTVSPost2010PropOp55
 70
     1
102
RTVSPost2010Prop56
140
1.0
102
RTVSPost2010PropOp56
 70
     1
102
RTVSPost2010Prop57
140
1.0
102
RTVSPost2010PropOp57
 70
     1
  0
XRECORD
  5
741
102
{ACAD_REACTORS
330
740
102
}
330
740
100
AcDbXrecord
280
     1
102
RTVSPost2010Prop28
280
     0
102
RTVSPost2010PropOp28
 70
     0
102
RTVSPost2010Prop29
280
     1
102
RTVSPost2010PropOp29
 70
     0
102
RTVSPost2010Prop30
280
     1
102
RTVSPost2010PropOp30
 70
     0
102
RTVSPost2010Prop31
280
     0
102
RTVSPost2010PropOp31
 70
     0
102
RTVSPost2010Prop32
280
     0
102
RTVSPost2010PropOp32
 70
     0
102
RTVSPost2010Prop33
280
     0
102
RTVSPost2010PropOp33
 70
     0
102
RTVSPost2010Prop34
280
     0
102
RTVSPost2010PropOp34
 70
     0
102
RTVSPost2010Prop35
280
     0
102
RTVSPost2010PropOp35
 70
     0
102
RTVSPost2010Prop36
280
     0
102
RTVSPost2010PropOp36
 70
     0
102
RTVSPost2010Prop37
 90
       50
102
RTVSPost2010PropOp37
 70
     0
102
RTVSPost2010Prop38
140
0.0
102
RTVSPost2010PropOp38
 70
     0
102
RTVSPost2010Prop39
140
1.0
102
RTVSPost2010PropOp39
 70
     0
102
RTVSPost2010Prop40
 90
        0
102
RTVSPost2010PropOp40
 70
     0
102
RTVSPost2010Prop41ColorIndex
 90
       18
102
RTVSPost2010Prop41ColorRGB
 90
        0
102
RTVSPost2010PropOp41
 70
     0
102
RTVSPost2010Prop42
 90
       50
102
RTVSPost2010PropOp42
 70
     0
102
RTVSPost2010Prop43
 90
        3
102
RTVSPost2010PropOp43
 70
     0
102
RTVSPost2010Prop44ColorIndex
 90
        5
102
RTVSPost2010Prop44ColorRGB
 90
      255
102
RTVSPost2010PropOp44
 70
     0
102
RTVSPost2010Prop45
280
     0
102
RTVSPost2010PropOp45
 70
     0
102
RTVSPost2010Prop46
 90
       50
102
RTVSPost2010PropOp46
 70
     0
102
RTVSPost2010Prop47
 90
       50
102
RTVSPost2010PropOp47
 70
     0
102
RTVSPost2010Prop48
 90
       50
102
RTVSPost2010PropOp48
 70
     0
102
RTVSPost2010Prop49
280
     0
102
RTVSPost2010PropOp49
 70
     0
102
RTVSPost2010Prop50
 90
       50
102
RTVSPost2010PropOp50
 70
     0
102
RTVSPost2010Prop51ColorIndex
 90
      256
102
RTVSPost2010Prop51ColorRGB
 90
-16777216
102
RTVSPost2010PropOp51
 70
     0
102
RTVSPost2010Prop52
140
1.0
102
RTVSPost2010PropOp52
 70
     0
102
RTVSPost2010Prop53
 90
        2
102
RTVSPost2010PropOp53
 70
     0
102
RTVSPost2010Prop54
  1
strokes_ogs.tif
102
RTVSPost2010PropOp54
 70
     0
102
RTVSPost2010Prop55
280
     0
102
RTVSPost2010PropOp55
 70
     0
102
RTVSPost2010Prop56
140
1.0
102
RTVSPost2010PropOp56
 70
     0
102
RTVSPost2010Prop57
140
1.0
102
RTVSPost2010PropOp57
 70
     0
  0
XRECORD
  5
731
102
{ACAD_REACTORS
330
730
102
}
330
730
100
AcDbXrecord
280
     1
102
RTVSPost2010Prop28
280
     0
102
RTVSPost2010PropOp28
 70
     1
102
RTVSPost2010Prop29
280
     1
102
RTVSPost2010PropOp29
 70
     1
102
RTVSPost2010Prop30
280
     1
102
RTVSPost2010PropOp30
 70
     1
102
RTVSPost2010Prop31
280
     0
102
RTVSPost2010PropOp31
 70
     1
102
RTVSPost2010Prop32
280
     0
102
RTVSPost2010PropOp32
 70
     1
102
RTVSPost2010Prop33
280
     0
102
RTVSPost2010PropOp33
 70
     1
102
RTVSPost2010Prop34
280
     0
102
RTVSPost2010PropOp34
 70
     1
102
RTVSPost2010Prop35
280
     0
102
RTVSPost2010PropOp35
 70
     1
102
RTVSPost2010Prop36
280
     0
102
RTVSPost2010PropOp36
 70
     1
102
RTVSPost2010Prop37
 90
       50
102
RTVSPost2010PropOp37
 70
     1
102
RTVSPost2010Prop38
140
0.0
102
RTVSPost2010PropOp38
 70
     1
102
RTVSPost2010Prop39
140
1.0
102
RTVSPost2010PropOp39
 70
     1
102
RTVSPost2010Prop40
 90
        0
102
RTVSPost2010PropOp40
 70
     1
102
RTVSPost2010Prop41ColorIndex
 90
       18
102
RTVSPost2010Prop41ColorRGB
 90
        0
102
RTVSPost2010PropOp41
 70
     1
102
RTVSPost2010Prop42
 90
       50
102
RTVSPost2010PropOp42
 70
     1
102
RTVSPost2010Prop43
 90
        3
102
RTVSPost2010PropOp43
 70
     1
102
RTVSPost2010Prop44ColorIndex
 90
        5
102
RTVSPost2010Prop44ColorRGB
 90
      255
102
RTVSPost2010PropOp44
 70
     1
102
RTVSPost2010Prop45
280
     0
102
RTVSPost2010PropOp45
 70
     1
102
RTVSPost2010Prop46
 90
       50
102
RTVSPost2010PropOp46
 70
     1
102
RTVSPost2010Prop47
 90
       50
102
RTVSPost2010PropOp47
 70
     1
102
RTVSPost2010Prop48
 90
       50
102
RTVSPost2010PropOp48
 70
     1
102
RTVSPost2010Prop49
280
     0
102
RTVSPost2010PropOp49
 70
     1
102
RTVSPost2010Prop50
 90
       50
102
RTVSPost2010PropOp50
 70
     1
102
RTVSPost2010Prop51ColorIndex
 90
      256
102
RTVSPost2010Prop51ColorRGB
 90
-16777216
102
RTVSPost2010PropOp51
 70
     0
102
RTVSPost2010Prop52
140
1.0
102
RTVSPost2010PropOp52
 70
     0
102
RTVSPost2010Prop53
 90
        2
102
RTVSPost2010PropOp53
 70
     1
102
RTVSPost2010Prop54
  1
strokes_ogs.tif
102
RTVSPost2010PropOp54
 70
     1
102
RTVSPost2010Prop55
280
     0
102
RTVSPost2010PropOp55
 70
     1
102
RTVSPost2010Prop56
140
1.0
102
RTVSPost2010PropOp56
 70
     1
102
RTVSPost2010Prop57
140
1.0
102
RTVSPost2010PropOp57
 70
     1
  0
XRECORD
  5
743
102
{ACAD_REACTORS
330
742
102
}
330
742
100
AcDbXrecord
280
     1
102
RTVSPost2010Prop28
280
     0
102
RTVSPost2010PropOp28
 70
     0
102
RTVSPost2010Prop29
280
     1
102
RTVSPost2010PropOp29
 70
     0
102
RTVSPost2010Prop30
280
     1
102
RTVSPost2010PropOp30
 70
     0
102
RTVSPost2010Prop31
280
     0
102
RTVSPost2010PropOp31
 70
     0
102
RTVSPost2010Prop32
280
     0
102
RTVSPost2010PropOp32
 70
     0
102
RTVSPost2010Prop33
280
     0
102
RTVSPost2010PropOp33
 70
     0
102
RTVSPost2010Prop34
280
     0
102
RTVSPost2010PropOp34
 70
     0
102
RTVSPost2010Prop35
280
     0
102
RTVSPost2010PropOp35
 70
     0
102
RTVSPost2010Prop36
280
     0
102
RTVSPost2010PropOp36
 70
     0
102
RTVSPost2010Prop37
 90
       50
102
RTVSPost2010PropOp37
 70
     0
102
RTVSPost2010Prop38
140
0.0
102
RTVSPost2010PropOp38
 70
     0
102
RTVSPost2010Prop39
140
1.0
102
RTVSPost2010PropOp39
 70
     0
102
RTVSPost2010Prop40
 90
        0
102
RTVSPost2010PropOp40
 70
     0
102
RTVSPost2010Prop41ColorIndex
 90
       18
102
RTVSPost2010Prop41ColorRGB
 90
        0
102
RTVSPost2010PropOp41
 70
     0
102
RTVSPost2010Prop42
 90
       50
102
RTVSPost2010PropOp42
 70
     0
102
RTVSPost2010Prop43
 90
        3
102
RTVSPost2010PropOp43
 70
     0
102
RTVSPost2010Prop44ColorIndex
 90
        5
102
RTVSPost2010Prop44ColorRGB
 90
      255
102
RTVSPost2010PropOp44
 70
     0
102
RTVSPost2010Prop45
280
     0
102
RTVSPost2010PropOp45
 70
     0
102
RTVSPost2010Prop46
 90
       50
102
RTVSPost2010PropOp46
 70
     0
102
RTVSPost2010Prop47
 90
       50
102
RTVSPost2010PropOp47
 70
     0
102
RTVSPost2010Prop48
 90
       50
102
RTVSPost2010PropOp48
 70
     0
102
RTVSPost2010Prop49
280
     0
102
RTVSPost2010PropOp49
 70
     0
102
RTVSPost2010Prop50
 90
       50
102
RTVSPost2010PropOp50
 70
     0
102
RTVSPost2010Prop51ColorIndex
 90
      256
102
RTVSPost2010Prop51ColorRGB
 90
-16777216
102
RTVSPost2010PropOp51
 70
     0
102
RTVSPost2010Prop52
140
1.0
102
RTVSPost2010PropOp52
 70
     0
102
RTVSPost2010Prop53
 90
        2
102
RTVSPost2010PropOp53
 70
     0
102
RTVSPost2010Prop54
  1
strokes_ogs.tif
102
RTVSPost2010PropOp54
 70
     0
102
RTVSPost2010Prop55
280
     0
102
RTVSPost2010PropOp55
 70
     0
102
RTVSPost2010Prop56
140
1.0
102
RTVSPost2010PropOp56
 70
     0
102
RTVSPost2010Prop57
140
1.0
102
RTVSPost2010PropOp57
 70
     0
  0
XRECORD
  5
729
102
{ACAD_REACTORS
330
728
102
}
330
728
100
AcDbXrecord
280
     1
102
RTVSPost2010Prop28
280
     0
102
RTVSPost2010PropOp28
 70
     1
102
RTVSPost2010Prop29
280
     1
102
RTVSPost2010PropOp29
 70
     1
102
RTVSPost2010Prop30
280
     1
102
RTVSPost2010PropOp30
 70
     1
102
RTVSPost2010Prop31
280
     0
102
RTVSPost2010PropOp31
 70
     1
102
RTVSPost2010Prop32
280
     0
102
RTVSPost2010PropOp32
 70
     1
102
RTVSPost2010Prop33
280
     0
102
RTVSPost2010PropOp33
 70
     1
102
RTVSPost2010Prop34
280
     0
102
RTVSPost2010PropOp34
 70
     1
102
RTVSPost2010Prop35
280
     0
102
RTVSPost2010PropOp35
 70
     1
102
RTVSPost2010Prop36
280
     0
102
RTVSPost2010PropOp36
 70
     1
102
RTVSPost2010Prop37
 90
       50
102
RTVSPost2010PropOp37
 70
     1
102
RTVSPost2010Prop38
140
0.0
102
RTVSPost2010PropOp38
 70
     1
102
RTVSPost2010Prop39
140
1.0
102
RTVSPost2010PropOp39
 70
     1
102
RTVSPost2010Prop40
 90
        0
102
RTVSPost2010PropOp40
 70
     1
102
RTVSPost2010Prop41ColorIndex
 90
       18
102
RTVSPost2010Prop41ColorRGB
 90
        0
102
RTVSPost2010PropOp41
 70
     1
102
RTVSPost2010Prop42
 90
       50
102
RTVSPost2010PropOp42
 70
     1
102
RTVSPost2010Prop43
 90
        3
102
RTVSPost2010PropOp43
 70
     1
102
RTVSPost2010Prop44ColorIndex
 90
        5
102
RTVSPost2010Prop44ColorRGB
 90
      255
102
RTVSPost2010PropOp44
 70
     1
102
RTVSPost2010Prop45
280
     0
102
RTVSPost2010PropOp45
 70
     1
102
RTVSPost2010Prop46
 90
       50
102
RTVSPost2010PropOp46
 70
     1
102
RTVSPost2010Prop47
 90
       50
102
RTVSPost2010PropOp47
 70
     1
102
RTVSPost2010Prop48
 90
       50
102
RTVSPost2010PropOp48
 70
     1
102
RTVSPost2010Prop49
280
     0
102
RTVSPost2010PropOp49
 70
     1
102
RTVSPost2010Prop50
 90
       50
102
RTVSPost2010PropOp50
 70
     1
102
RTVSPost2010Prop51ColorIndex
 90
      256
102
RTVSPost2010Prop51ColorRGB
 90
-16777216
102
RTVSPost2010PropOp51
 70
     0
102
RTVSPost2010Prop52
140
1.0
102
RTVSPost2010PropOp52
 70
     0
102
RTVSPost2010Prop53
 90
        2
102
RTVSPost2010PropOp53
 70
     1
102
RTVSPost2010Prop54
  1
strokes_ogs.tif
102
RTVSPost2010PropOp54
 70
     1
102
RTVSPost2010Prop55
280
     0
102
RTVSPost2010PropOp55
 70
     1
102
RTVSPost2010Prop56
140
1.0
102
RTVSPost2010PropOp56
 70
     1
102
RTVSPost2010Prop57
140
1.0
102
RTVSPost2010PropOp57
 70
     1
  0
XRECORD
  5
73F
102
{ACAD_REACTORS
330
73E
102
}
330
73E
100
AcDbXrecord
280
     1
102
RTVSPost2010Prop28
280
     0
102
RTVSPost2010PropOp28
 70
     1
102
RTVSPost2010Prop29
280
     1
102
RTVSPost2010PropOp29
 70
     1
102
RTVSPost2010Prop30
280
     1
102
RTVSPost2010PropOp30
 70
     1
102
RTVSPost2010Prop31
280
     0
102
RTVSPost2010PropOp31
 70
     1
102
RTVSPost2010Prop32
280
     0
102
RTVSPost2010PropOp32
 70
     1
102
RTVSPost2010Prop33
280
     0
102
RTVSPost2010PropOp33
 70
     1
102
RTVSPost2010Prop34
280
     0
102
RTVSPost2010PropOp34
 70
     1
102
RTVSPost2010Prop35
280
     0
102
RTVSPost2010PropOp35
 70
     1
102
RTVSPost2010Prop36
280
     0
102
RTVSPost2010PropOp36
 70
     1
102
RTVSPost2010Prop37
 90
       50
102
RTVSPost2010PropOp37
 70
     1
102
RTVSPost2010Prop38
140
0.0
102
RTVSPost2010PropOp38
 70
     1
102
RTVSPost2010Prop39
140
1.0
102
RTVSPost2010PropOp39
 70
     1
102
RTVSPost2010Prop40
 90
        0
102
RTVSPost2010PropOp40
 70
     1
102
RTVSPost2010Prop41ColorIndex
 90
       18
102
RTVSPost2010Prop41ColorRGB
 90
        0
102
RTVSPost2010PropOp41
 70
     1
102
RTVSPost2010Prop42
 90
       50
102
RTVSPost2010PropOp42
 70
     1
102
RTVSPost2010Prop43
 90
        3
102
RTVSPost2010PropOp43
 70
     1
102
RTVSPost2010Prop44ColorIndex
 90
        5
102
RTVSPost2010Prop44ColorRGB
 90
      255
102
RTVSPost2010PropOp44
 70
     1
102
RTVSPost2010Prop45
280
     0
102
RTVSPost2010PropOp45
 70
     1
102
RTVSPost2010Prop46
 90
       50
102
RTVSPost2010PropOp46
 70
     1
102
RTVSPost2010Prop47
 90
       50
102
RTVSPost2010PropOp47
 70
     1
102
RTVSPost2010Prop48
 90
       50
102
RTVSPost2010PropOp48
 70
     1
102
RTVSPost2010Prop49
280
     0
102
RTVSPost2010PropOp49
 70
     1
102
RTVSPost2010Prop50
 90
       50
102
RTVSPost2010PropOp50
 70
     1
102
RTVSPost2010Prop51ColorIndex
 90
      256
102
RTVSPost2010Prop51ColorRGB
 90
-16777216
102
RTVSPost2010PropOp51
 70
     0
102
RTVSPost2010Prop52
140
1.0
102
RTVSPost2010PropOp52
 70
     0
102
RTVSPost2010Prop53
 90
        2
102
RTVSPost2010PropOp53
 70
     1
102
RTVSPost2010Prop54
  1
strokes_ogs.tif
102
RTVSPost2010PropOp54
 70
     1
102
RTVSPost2010Prop55
280
     0
102
RTVSPost2010PropOp55
 70
     1
102
RTVSPost2010Prop56
140
1.0
102
RTVSPost2010PropOp56
 70
     1
102
RTVSPost2010Prop57
140
1.0
102
RTVSPost2010PropOp57
 70
     1
  0
XRECORD
  5
73D
102
{ACAD_REACTORS
330
73C
102
}
330
73C
100
AcDbXrecord
280
     1
102
RTVSPost2010Prop28
280
     0
102
RTVSPost2010PropOp28
 70
     1
102
RTVSPost2010Prop29
280
     1
102
RTVSPost2010PropOp29
 70
     1
102
RTVSPost2010Prop30
280
     1
102
RTVSPost2010PropOp30
 70
     1
102
RTVSPost2010Prop31
280
     0
102
RTVSPost2010PropOp31
 70
     1
102
RTVSPost2010Prop32
280
     0
102
RTVSPost2010PropOp32
 70
     1
102
RTVSPost2010Prop33
280
     0
102
RTVSPost2010PropOp33
 70
     1
102
RTVSPost2010Prop34
280
     0
102
RTVSPost2010PropOp34
 70
     1
102
RTVSPost2010Prop35
280
     0
102
RTVSPost2010PropOp35
 70
     1
102
RTVSPost2010Prop36
280
     0
102
RTVSPost2010PropOp36
 70
     1
102
RTVSPost2010Prop37
 90
       50
102
RTVSPost2010PropOp37
 70
     1
102
RTVSPost2010Prop38
140
0.0
102
RTVSPost2010PropOp38
 70
     1
102
RTVSPost2010Prop39
140
1.0
102
RTVSPost2010PropOp39
 70
     1
102
RTVSPost2010Prop40
 90
        0
102
RTVSPost2010PropOp40
 70
     1
102
RTVSPost2010Prop41ColorIndex
 90
       18
102
RTVSPost2010Prop41ColorRGB
 90
        0
102
RTVSPost2010PropOp41
 70
     1
102
RTVSPost2010Prop42
 90
       50
102
RTVSPost2010PropOp42
 70
     1
102
RTVSPost2010Prop43
 90
        3
102
RTVSPost2010PropOp43
 70
     1
102
RTVSPost2010Prop44ColorIndex
 90
        5
102
RTVSPost2010Prop44ColorRGB
 90
      255
102
RTVSPost2010PropOp44
 70
     1
102
RTVSPost2010Prop45
280
     0
102
RTVSPost2010PropOp45
 70
     1
102
RTVSPost2010Prop46
 90
       50
102
RTVSPost2010PropOp46
 70
     1
102
RTVSPost2010Prop47
 90
       50
102
RTVSPost2010PropOp47
 70
     1
102
RTVSPost2010Prop48
 90
       50
102
RTVSPost2010PropOp48
 70
     1
102
RTVSPost2010Prop49
280
     0
102
RTVSPost2010PropOp49
 70
     1
102
RTVSPost2010Prop50
 90
       50
102
RTVSPost2010PropOp50
 70
     1
102
RTVSPost2010Prop51ColorIndex
 90
      256
102
RTVSPost2010Prop51ColorRGB
 90
-16777216
102
RTVSPost2010PropOp51
 70
     0
102
RTVSPost2010Prop52
140
1.0
102
RTVSPost2010PropOp52
 70
     0
102
RTVSPost2010Prop53
 90
        2
102
RTVSPost2010PropOp53
 70
     1
102
RTVSPost2010Prop54
  1
strokes_ogs.tif
102
RTVSPost2010PropOp54
 70
     1
102
RTVSPost2010Prop55
280
     0
102
RTVSPost2010PropOp55
 70
     1
102
RTVSPost2010Prop56
140
1.0
102
RTVSPost2010PropOp56
 70
     1
102
RTVSPost2010Prop57
140
1.0
102
RTVSPost2010PropOp57
 70
     1
  0
XRECORD
  5
737
102
{ACAD_REACTORS
330
736
102
}
330
736
100
AcDbXrecord
280
     1
102
RTVSPost2010Prop28
280
     0
102
RTVSPost2010PropOp28
 70
     1
102
RTVSPost2010Prop29
280
     1
102
RTVSPost2010PropOp29
 70
     1
102
RTVSPost2010Prop30
280
     1
102
RTVSPost2010PropOp30
 70
     1
102
RTVSPost2010Prop31
280
     0
102
RTVSPost2010PropOp31
 70
     1
102
RTVSPost2010Prop32
280
     0
102
RTVSPost2010PropOp32
 70
     1
102
RTVSPost2010Prop33
280
     0
102
RTVSPost2010PropOp33
 70
     1
102
RTVSPost2010Prop34
280
     0
102
RTVSPost2010PropOp34
 70
     1
102
RTVSPost2010Prop35
280
     0
102
RTVSPost2010PropOp35
 70
     1
102
RTVSPost2010Prop36
280
     0
102
RTVSPost2010PropOp36
 70
     1
102
RTVSPost2010Prop37
 90
       50
102
RTVSPost2010PropOp37
 70
     1
102
RTVSPost2010Prop38
140
0.0
102
RTVSPost2010PropOp38
 70
     1
102
RTVSPost2010Prop39
140
1.0
102
RTVSPost2010PropOp39
 70
     1
102
RTVSPost2010Prop40
 90
        0
102
RTVSPost2010PropOp40
 70
     1
102
RTVSPost2010Prop41ColorIndex
 90
       18
102
RTVSPost2010Prop41ColorRGB
 90
        0
102
RTVSPost2010PropOp41
 70
     1
102
RTVSPost2010Prop42
 90
       50
102
RTVSPost2010PropOp42
 70
     1
102
RTVSPost2010Prop43
 90
        3
102
RTVSPost2010PropOp43
 70
     1
102
RTVSPost2010Prop44ColorIndex
 90
        5
102
RTVSPost2010Prop44ColorRGB
 90
      255
102
RTVSPost2010PropOp44
 70
     1
102
RTVSPost2010Prop45
280
     0
102
RTVSPost2010PropOp45
 70
     1
102
RTVSPost2010Prop46
 90
       50
102
RTVSPost2010PropOp46
 70
     1
102
RTVSPost2010Prop47
 90
       50
102
RTVSPost2010PropOp47
 70
     1
102
RTVSPost2010Prop48
 90
       50
102
RTVSPost2010PropOp48
 70
     1
102
RTVSPost2010Prop49
280
     0
102
RTVSPost2010PropOp49
 70
     1
102
RTVSPost2010Prop50
 90
       50
102
RTVSPost2010PropOp50
 70
     1
102
RTVSPost2010Prop51ColorIndex
 90
      256
102
RTVSPost2010Prop51ColorRGB
 90
-16777216
102
RTVSPost2010PropOp51
 70
     0
102
RTVSPost2010Prop52
140
1.0
102
RTVSPost2010PropOp52
 70
     0
102
RTVSPost2010Prop53
 90
        2
102
RTVSPost2010PropOp53
 70
     1
102
RTVSPost2010Prop54
  1
strokes_ogs.tif
102
RTVSPost2010PropOp54
 70
     1
102
RTVSPost2010Prop55
280
     0
102
RTVSPost2010PropOp55
 70
     1
102
RTVSPost2010Prop56
140
1.0
102
RTVSPost2010PropOp56
 70
     1
102
RTVSPost2010Prop57
140
1.0
102
RTVSPost2010PropOp57
 70
     1
  0
XRECORD
  5
739
102
{ACAD_REACTORS
330
738
102
}
330
738
100
AcDbXrecord
280
     1
102
RTVSPost2010Prop28
280
     0
102
RTVSPost2010PropOp28
 70
     1
102
RTVSPost2010Prop29
280
     1
102
RTVSPost2010PropOp29
 70
     1
102
RTVSPost2010Prop30
280
     1
102
RTVSPost2010PropOp30
 70
     1
102
RTVSPost2010Prop31
280
     0
102
RTVSPost2010PropOp31
 70
     1
102
RTVSPost2010Prop32
280
     0
102
RTVSPost2010PropOp32
 70
     1
102
RTVSPost2010Prop33
280
     0
102
RTVSPost2010PropOp33
 70
     1
102
RTVSPost2010Prop34
280
     0
102
RTVSPost2010PropOp34
 70
     1
102
RTVSPost2010Prop35
280
     0
102
RTVSPost2010PropOp35
 70
     1
102
RTVSPost2010Prop36
280
     0
102
RTVSPost2010PropOp36
 70
     1
102
RTVSPost2010Prop37
 90
       50
102
RTVSPost2010PropOp37
 70
     1
102
RTVSPost2010Prop38
140
0.0
102
RTVSPost2010PropOp38
 70
     1
102
RTVSPost2010Prop39
140
1.0
102
RTVSPost2010PropOp39
 70
     1
102
RTVSPost2010Prop40
 90
        0
102
RTVSPost2010PropOp40
 70
     1
102
RTVSPost2010Prop41ColorIndex
 90
       18
102
RTVSPost2010Prop41ColorRGB
 90
        0
102
RTVSPost2010PropOp41
 70
     1
102
RTVSPost2010Prop42
 90
       50
102
RTVSPost2010PropOp42
 70
     1
102
RTVSPost2010Prop43
 90
        3
102
RTVSPost2010PropOp43
 70
     1
102
RTVSPost2010Prop44ColorIndex
 90
        5
102
RTVSPost2010Prop44ColorRGB
 90
      255
102
RTVSPost2010PropOp44
 70
     1
102
RTVSPost2010Prop45
280
     0
102
RTVSPost2010PropOp45
 70
     1
102
RTVSPost2010Prop46
 90
       50
102
RTVSPost2010PropOp46
 70
     1
102
RTVSPost2010Prop47
 90
       50
102
RTVSPost2010PropOp47
 70
     1
102
RTVSPost2010Prop48
 90
       50
102
RTVSPost2010PropOp48
 70
     1
102
RTVSPost2010Prop49
280
     0
102
RTVSPost2010PropOp49
 70
     1
102
RTVSPost2010Prop50
 90
       50
102
RTVSPost2010PropOp50
 70
     1
102
RTVSPost2010Prop51ColorIndex
 90
      256
102
RTVSPost2010Prop51ColorRGB
 90
-16777216
102
RTVSPost2010PropOp51
 70
     0
102
RTVSPost2010Prop52
140
1.0
102
RTVSPost2010PropOp52
 70
     0
102
RTVSPost2010Prop53
 90
        2
102
RTVSPost2010PropOp53
 70
     1
102
RTVSPost2010Prop54
  1
strokes_ogs.tif
102
RTVSPost2010PropOp54
 70
     1
102
RTVSPost2010Prop55
280
     0
102
RTVSPost2010PropOp55
 70
     1
102
RTVSPost2010Prop56
140
1.0
102
RTVSPost2010PropOp56
 70
     1
102
RTVSPost2010Prop57
140
1.0
102
RTVSPost2010PropOp57
 70
     1
  0
XRECORD
  5
72F
102
{ACAD_REACTORS
330
72E
102
}
330
72E
100
AcDbXrecord
280
     1
102
RTVSPost2010Prop28
280
     0
102
RTVSPost2010PropOp28
 70
     1
102
RTVSPost2010Prop29
280
     1
102
RTVSPost2010PropOp29
 70
     1
102
RTVSPost2010Prop30
280
     1
102
RTVSPost2010PropOp30
 70
     1
102
RTVSPost2010Prop31
280
     0
102
RTVSPost2010PropOp31
 70
     1
102
RTVSPost2010Prop32
280
     0
102
RTVSPost2010PropOp32
 70
     1
102
RTVSPost2010Prop33
280
     0
102
RTVSPost2010PropOp33
 70
     1
102
RTVSPost2010Prop34
280
     0
102
RTVSPost2010PropOp34
 70
     1
102
RTVSPost2010Prop35
280
     0
102
RTVSPost2010PropOp35
 70
     1
102
RTVSPost2010Prop36
280
     0
102
RTVSPost2010PropOp36
 70
     1
102
RTVSPost2010Prop37
 90
       50
102
RTVSPost2010PropOp37
 70
     1
102
RTVSPost2010Prop38
140
0.0
102
RTVSPost2010PropOp38
 70
     1
102
RTVSPost2010Prop39
140
1.0
102
RTVSPost2010PropOp39
 70
     1
102
RTVSPost2010Prop40
 90
        0
102
RTVSPost2010PropOp40
 70
     1
102
RTVSPost2010Prop41ColorIndex
 90
       18
102
RTVSPost2010Prop41ColorRGB
 90
        0
102
RTVSPost2010PropOp41
 70
     1
102
RTVSPost2010Prop42
 90
       50
102
RTVSPost2010PropOp42
 70
     1
102
RTVSPost2010Prop43
 90
        3
102
RTVSPost2010PropOp43
 70
     1
102
RTVSPost2010Prop44ColorIndex
 90
        5
102
RTVSPost2010Prop44ColorRGB
 90
      255
102
RTVSPost2010PropOp44
 70
     1
102
RTVSPost2010Prop45
280
     0
102
RTVSPost2010PropOp45
 70
     1
102
RTVSPost2010Prop46
 90
       50
102
RTVSPost2010PropOp46
 70
     1
102
RTVSPost2010Prop47
 90
       50
102
RTVSPost2010PropOp47
 70
     1
102
RTVSPost2010Prop48
 90
       50
102
RTVSPost2010PropOp48
 70
     1
102
RTVSPost2010Prop49
280
     0
102
RTVSPost2010PropOp49
 70
     1
102
RTVSPost2010Prop50
 90
       50
102
RTVSPost2010PropOp50
 70
     1
102
RTVSPost2010Prop51ColorIndex
 90
      256
102
RTVSPost2010Prop51ColorRGB
 90
-16777216
102
RTVSPost2010PropOp51
 70
     0
102
RTVSPost2010Prop52
140
1.0
102
RTVSPost2010PropOp52
 70
     0
102
RTVSPost2010Prop53
 90
        2
102
RTVSPost2010PropOp53
 70
     1
102
RTVSPost2010Prop54
  1
strokes_ogs.tif
102
RTVSPost2010PropOp54
 70
     1
102
RTVSPost2010Prop55
280
     0
102
RTVSPost2010PropOp55
 70
     1
102
RTVSPost2010Prop56
140
1.0
102
RTVSPost2010PropOp56
 70
     1
102
RTVSPost2010Prop57
140
1.0
102
RTVSPost2010PropOp57
 70
     1
  0
XRECORD
  5
723
102
{ACAD_REACTORS
330
722
102
}
330
722
100
AcDbXrecord
280
     1
102
RTVSPost2010Prop28
280
     0
102
RTVSPost2010PropOp28
 70
     1
102
RTVSPost2010Prop29
280
     1
102
RTVSPost2010PropOp29
 70
     1
102
RTVSPost2010Prop30
280
     1
102
RTVSPost2010PropOp30
 70
     1
102
RTVSPost2010Prop31
280
     0
102
RTVSPost2010PropOp31
 70
     1
102
RTVSPost2010Prop32
280
     0
102
RTVSPost2010PropOp32
 70
     1
102
RTVSPost2010Prop33
280
     0
102
RTVSPost2010PropOp33
 70
     1
102
RTVSPost2010Prop34
280
     0
102
RTVSPost2010PropOp34
 70
     1
102
RTVSPost2010Prop35
280
     0
102
RTVSPost2010PropOp35
 70
     1
102
RTVSPost2010Prop36
280
     0
102
RTVSPost2010PropOp36
 70
     1
102
RTVSPost2010Prop37
 90
       50
102
RTVSPost2010PropOp37
 70
     1
102
RTVSPost2010Prop38
140
0.0
102
RTVSPost2010PropOp38
 70
     1
102
RTVSPost2010Prop39
140
1.0
102
RTVSPost2010PropOp39
 70
     1
102
RTVSPost2010Prop40
 90
        0
102
RTVSPost2010PropOp40
 70
     1
102
RTVSPost2010Prop41ColorIndex
 90
       18
102
RTVSPost2010Prop41ColorRGB
 90
        0
102
RTVSPost2010PropOp41
 70
     1
102
RTVSPost2010Prop42
 90
       50
102
RTVSPost2010PropOp42
 70
     1
102
RTVSPost2010Prop43
 90
        3
102
RTVSPost2010PropOp43
 70
     1
102
RTVSPost2010Prop44ColorIndex
 90
        5
102
RTVSPost2010Prop44ColorRGB
 90
      255
102
RTVSPost2010PropOp44
 70
     1
102
RTVSPost2010Prop45
280
     0
102
RTVSPost2010PropOp45
 70
     1
102
RTVSPost2010Prop46
 90
       50
102
RTVSPost2010PropOp46
 70
     1
102
RTVSPost2010Prop47
 90
       50
102
RTVSPost2010PropOp47
 70
     1
102
RTVSPost2010Prop48
 90
       50
102
RTVSPost2010PropOp48
 70
     1
102
RTVSPost2010Prop49
280
     0
102
RTVSPost2010PropOp49
 70
     1
102
RTVSPost2010Prop50
 90
       50
102
RTVSPost2010PropOp50
 70
     1
102
RTVSPost2010Prop51ColorIndex
 90
      256
102
RTVSPost2010Prop51ColorRGB
 90
-16777216
102
RTVSPost2010PropOp51
 70
     0
102
RTVSPost2010Prop52
140
1.0
102
RTVSPost2010PropOp52
 70
     0
102
RTVSPost2010Prop53
 90
        2
102
RTVSPost2010PropOp53
 70
     1
102
RTVSPost2010Prop54
  1
strokes_ogs.tif
102
RTVSPost2010PropOp54
 70
     1
102
RTVSPost2010Prop55
280
     0
102
RTVSPost2010PropOp55
 70
     1
102
RTVSPost2010Prop56
140
1.0
102
RTVSPost2010PropOp56
 70
     1
102
RTVSPost2010Prop57
140
1.0
102
RTVSPost2010PropOp57
 70
     1
  0
XRECORD
  5
73B
102
{ACAD_REACTORS
330
73A
102
}
330
73A
100
AcDbXrecord
280
     1
102
RTVSPost2010Prop28
280
     0
102
RTVSPost2010PropOp28
 70
     1
102
RTVSPost2010Prop29
280
     1
102
RTVSPost2010PropOp29
 70
     1
102
RTVSPost2010Prop30
280
     1
102
RTVSPost2010PropOp30
 70
     1
102
RTVSPost2010Prop31
280
     0
102
RTVSPost2010PropOp31
 70
     1
102
RTVSPost2010Prop32
280
     0
102
RTVSPost2010PropOp32
 70
     1
102
RTVSPost2010Prop33
280
     0
102
RTVSPost2010PropOp33
 70
     1
102
RTVSPost2010Prop34
280
     0
102
RTVSPost2010PropOp34
 70
     1
102
RTVSPost2010Prop35
280
     0
102
RTVSPost2010PropOp35
 70
     1
102
RTVSPost2010Prop36
280
     0
102
RTVSPost2010PropOp36
 70
     1
102
RTVSPost2010Prop37
 90
       50
102
RTVSPost2010PropOp37
 70
     1
102
RTVSPost2010Prop38
140
0.0
102
RTVSPost2010PropOp38
 70
     1
102
RTVSPost2010Prop39
140
1.0
102
RTVSPost2010PropOp39
 70
     1
102
RTVSPost2010Prop40
 90
        0
102
RTVSPost2010PropOp40
 70
     1
102
RTVSPost2010Prop41ColorIndex
 90
       18
102
RTVSPost2010Prop41ColorRGB
 90
        0
102
RTVSPost2010PropOp41
 70
     1
102
RTVSPost2010Prop42
 90
       50
102
RTVSPost2010PropOp42
 70
     1
102
RTVSPost2010Prop43
 90
        3
102
RTVSPost2010PropOp43
 70
     1
102
RTVSPost2010Prop44ColorIndex
 90
        5
102
RTVSPost2010Prop44ColorRGB
 90
      255
102
RTVSPost2010PropOp44
 70
     1
102
RTVSPost2010Prop45
280
     0
102
RTVSPost2010PropOp45
 70
     1
102
RTVSPost2010Prop46
 90
       50
102
RTVSPost2010PropOp46
 70
     1
102
RTVSPost2010Prop47
 90
       50
102
RTVSPost2010PropOp47
 70
     1
102
RTVSPost2010Prop48
 90
       50
102
RTVSPost2010PropOp48
 70
     1
102
RTVSPost2010Prop49
280
     0
102
RTVSPost2010PropOp49
 70
     1
102
RTVSPost2010Prop50
 90
       50
102
RTVSPost2010PropOp50
 70
     1
102
RTVSPost2010Prop51ColorIndex
 90
      256
102
RTVSPost2010Prop51ColorRGB
 90
-16777216
102
RTVSPost2010PropOp51
 70
     0
102
RTVSPost2010Prop52
140
1.0
102
RTVSPost2010PropOp52
 70
     0
102
RTVSPost2010Prop53
 90
        2
102
RTVSPost2010PropOp53
 70
     1
102
RTVSPost2010Prop54
  1
strokes_ogs.tif
102
RTVSPost2010PropOp54
 70
     1
102
RTVSPost2010Prop55
280
     0
102
RTVSPost2010PropOp55
 70
     1
102
RTVSPost2010Prop56
140
1.0
102
RTVSPost2010PropOp56
 70
     1
102
RTVSPost2010Prop57
140
1.0
102
RTVSPost2010PropOp57
 70
     1
  0
ENDSEC
  0
EOF
