  0
SECTION
  2
HEADER
  9
$ACADVER
  1
AC1027
  9
$ACADMAINTVER
 70
   125
  9
$DWGCODEPAGE
  3
ANSI_1252
  9
$AUTHOR
  1
Bernd Scheit
  9
$CUSTOMPROPERTYTAG
  1
Manager
  9
$CUSTOMPROPERTY
  1

  9
$CUSTOMPROPERTYTAG
  1
Firma
  9
$CUSTOMPROPERTY
  1

  9
$CUSTOMPROPERTYTAG
  1
Kategorie
  9
$CUSTOMPROPERTY
  1

  9
$CUSTOMPROPERTYTAG
  1
Part Number
  9
$CUSTOMPROPERTY
  1
Montagehalterung_STAR_Heavy_Duty_C_Form_1fach_G1_4i_Edelstahl_109664_Rev_d
  9
$CUSTOMPROPERTYTAG
  1
Description
  9
$CUSTOMPROPERTY
  1

  9
$CUSTOMPROPERTYTAG
  1
Projekt
  9
$CUSTOMPROPERTY
  1

  9
$CUSTOMPROPERTYTAG
  1
Designer
  9
$CUSTOMPROPERTY
  1
Bernd Scheit
  9
$CUSTOMPROPERTYTAG
  1
Engineer
  9
$CUSTOMPROPERTY
  1

  9
$CUSTOMPROPERTYTAG
  1
Bevollmächtigter
  9
$CUSTOMPROPERTY
  1

  9
$CUSTOMPROPERTYTAG
  1
Kostenstelle
  9
$CUSTOMPROPERTY
  1

  9
$CUSTOMPROPERTYTAG
  1
Kosten
  9
$CUSTOMPROPERTY
  1

  9
$CUSTOMPROPERTYTAG
  1
Zulieferer
  9
$CUSTOMPROPERTY
  1

  9
$CUSTOMPROPERTYTAG
  1
Benutzerstatus
  9
$CUSTOMPROPERTY
  1

  9
$CUSTOMPROPERTYTAG
  1
Konstruktionsstatus
  9
$CUSTOMPROPERTY
  1
InBearbeitung
  9
$CUSTOMPROPERTYTAG
  1
Kontrolliert von
  9
$CUSTOMPROPERTY
  1

  9
$CUSTOMPROPERTYTAG
  1
Konstruktion genehmigt von
  9
$CUSTOMPROPERTY
  1

  9
$CUSTOMPROPERTYTAG
  1
Fertigung genehmigt von
  9
$CUSTOMPROPERTY
  1

  9
$CUSTOMPROPERTYTAG
  1
Erstellungsdatum
  9
$CUSTOMPROPERTY
  1
02/25/2015
  9
$CUSTOMPROPERTYTAG
  1
Bestandsnummer
  9
$CUSTOMPROPERTY
  1

  9
$REQUIREDVERSIONS
160
                 0
  9
$INSBASE
 10
0.0
 20
0.0
 30
0.0
  9
$EXTMIN
 10
0.0
 20
0.0
 30
0.0
  9
$EXTMAX
 10
297.0
 20
210.0
 30
0.0
  9
$LIMMIN
 10
0.0
 20
0.0
  9
$LIMMAX
 10
297.0
 20
210.0
  9
$ORTHOMODE
 70
     0
  9
$REGENMODE
 70
     1
  9
$FILLMODE
 70
     1
  9
$QTEXTMODE
 70
     0
  9
$MIRRTEXT
 70
     0
  9
$LTSCALE
 40
1.0
  9
$ATTMODE
 70
     1
  9
$TEXTSIZE
 40
0.2
  9
$TRACEWID
 40
0.05
  9
$TEXTSTYLE
  7
Standard
  9
$CLAYER
  8
0
  9
$CELTYPE
  6
ByLayer
  9
$CECOLOR
 62
   256
  9
$CELTSCALE
 40
1.0
  9
$DISPSILH
 70
     0
  9
$DIMSCALE
 40
1.0
  9
$DIMASZ
 40
1.799999999999999
  9
$DIMEXO
 40
0.0625
  9
$DIMDLI
 40
0.38
  9
$DIMRND
 40
0.0
  9
$DIMDLE
 40
0.0
  9
$DIMEXE
 40
0.18
  9
$DIMTP
 40
0.0
  9
$DIMTM
 40
0.0
  9
$DIMTXT
 40
0.25
  9
$DIMCEN
 40
0.09
  9
$DIMTSZ
 40
0.0
  9
$DIMTOL
 70
     0
  9
$DIMLIM
 70
     0
  9
$DIMTIH
 70
     1
  9
$DIMTOH
 70
     1
  9
$DIMSE1
 70
     0
  9
$DIMSE2
 70
     0
  9
$DIMTAD
 70
     0
  9
$DIMZIN
 70
     0
  9
$DIMBLK
  1

  9
$DIMASO
 70
     1
  9
$DIMSHO
 70
     1
  9
$DIMPOST
  1

  9
$DIMAPOST
  1

  9
$DIMALT
 70
     0
  9
$DIMALTD
 70
     2
  9
$DIMALTF
 40
25.4
  9
$DIMLFAC
 40
1.0
  9
$DIMTOFL
 70
     0
  9
$DIMTVP
 40
0.0
  9
$DIMTIX
 70
     0
  9
$DIMSOXD
 70
     0
  9
$DIMSAH
 70
     0
  9
$DIMBLK1
  1

  9
$DIMBLK2
  1

  9
$DIMSTYLE
  2
Standard
  9
$DIMCLRD
 70
     0
  9
$DIMCLRE
 70
     0
  9
$DIMCLRT
 70
     0
  9
$DIMTFAC
 40
1.0
  9
$DIMGAP
 40
0.09
  9
$DIMJUST
 70
     0
  9
$DIMSD1
 70
     0
  9
$DIMSD2
 70
     0
  9
$DIMTOLJ
 70
     1
  9
$DIMTZIN
 70
     0
  9
$DIMALTZ
 70
     0
  9
$DIMALTTZ
 70
     0
  9
$DIMUPT
 70
     0
  9
$DIMDEC
 70
     4
  9
$DIMTDEC
 70
     4
  9
$DIMALTU
 70
     2
  9
$DIMALTTD
 70
     2
  9
$DIMTXSTY
  7
Standard
  9
$DIMAUNIT
 70
     0
  9
$DIMADEC
 70
     0
  9
$DIMALTRND
 40
0.0
  9
$DIMAZIN
 70
     0
  9
$DIMDSEP
 70
    46
  9
$DIMATFIT
 70
     3
  9
$DIMFRAC
 70
     0
  9
$DIMLDRBLK
  1

  9
$DIMLUNIT
 70
     2
  9
$DIMLWD
 70
    -2
  9
$DIMLWE
 70
    -2
  9
$DIMTMOVE
 70
     0
  9
$DIMFXL
 40
1.0
  9
$DIMFXLON
 70
     0
  9
$DIMJOGANG
 40
0.7853981633974483
  9
$DIMTFILL
 70
     0
  9
$DIMTFILLCLR
 70
     0
  9
$DIMARCSYM
 70
     0
  9
$DIMLTYPE
  6

  9
$DIMLTEX1
  6

  9
$DIMLTEX2
  6

  9
$DIMTXTDIRECTION
 70
     0
  9
$LUNITS
 70
     2
  9
$LUPREC
 70
     4
  9
$SKETCHINC
 40
0.1
  9
$FILLETRAD
 40
0.0
  9
$AUNITS
 70
     0
  9
$AUPREC
 70
     0
  9
$MENU
  1
.
  9
$ELEVATION
 40
0.0
  9
$PELEVATION
 40
0.0
  9
$THICKNESS
 40
0.0
  9
$LIMCHECK
 70
     0
  9
$CHAMFERA
 40
0.0
  9
$CHAMFERB
 40
0.0
  9
$CHAMFERC
 40
0.0
  9
$CHAMFERD
 40
0.0
  9
$SKPOLY
 70
     0
  9
$TDCREATE
 40
2457581.459826389
  9
$TDUCREATE
 40
2457581.376493056
  9
$TDUPDATE
 40
2457581.459826389
  9
$TDUUPDATE
 40
2457581.376493056
  9
$TDINDWG
 40
0.0000231481
  9
$TDUSRTIMER
 40
0.0000231481
  9
$USRTIMER
 70
     1
  9
$ANGBASE
 50
0.0
  9
$ANGDIR
 70
     0
  9
$PDMODE
 70
     0
  9
$PDSIZE
 40
0.0
  9
$PLINEWID
 40
0.0
  9
$SPLFRAME
 70
     0
  9
$SPLINETYPE
 70
     6
  9
$SPLINESEGS
 70
     8
  9
$HANDSEED
  5
11CB
  9
$SURFTAB1
 70
     6
  9
$SURFTAB2
 70
     6
  9
$SURFTYPE
 70
     6
  9
$SURFU
 70
     6
  9
$SURFV
 70
     6
  9
$UCSBASE
  2

  9
$UCSNAME
  2

  9
$UCSORG
 10
0.0
 20
0.0
 30
0.0
  9
$UCSXDIR
 10
1.0
 20
0.0
 30
0.0
  9
$UCSYDIR
 10
0.0
 20
1.0
 30
0.0
  9
$UCSORTHOREF
  2

  9
$UCSORTHOVIEW
 70
     0
  9
$UCSORGTOP
 10
0.0
 20
0.0
 30
0.0
  9
$UCSORGBOTTOM
 10
0.0
 20
0.0
 30
0.0
  9
$UCSORGLEFT
 10
0.0
 20
0.0
 30
0.0
  9
$UCSORGRIGHT
 10
0.0
 20
0.0
 30
0.0
  9
$UCSORGFRONT
 10
0.0
 20
0.0
 30
0.0
  9
$UCSORGBACK
 10
0.0
 20
0.0
 30
0.0
  9
$PUCSBASE
  2

  9
$PUCSNAME
  2

  9
$PUCSORG
 10
0.0
 20
0.0
 30
0.0
  9
$PUCSXDIR
 10
1.0
 20
0.0
 30
0.0
  9
$PUCSYDIR
 10
0.0
 20
1.0
 30
0.0
  9
$PUCSORTHOREF
  2

  9
$PUCSORTHOVIEW
 70
     0
  9
$PUCSORGTOP
 10
0.0
 20
0.0
 30
0.0
  9
$PUCSORGBOTTOM
 10
0.0
 20
0.0
 30
0.0
  9
$PUCSORGLEFT
 10
0.0
 20
0.0
 30
0.0
  9
$PUCSORGRIGHT
 10
0.0
 20
0.0
 30
0.0
  9
$PUCSORGFRONT
 10
0.0
 20
0.0
 30
0.0
  9
$PUCSORGBACK
 10
0.0
 20
0.0
 30
0.0
  9
$USERI1
 70
     0
  9
$USERI2
 70
     0
  9
$USERI3
 70
     0
  9
$USERI4
 70
     0
  9
$USERI5
 70
     0
  9
$USERR1
 40
0.0
  9
$USERR2
 40
0.0
  9
$USERR3
 40
0.0
  9
$USERR4
 40
0.0
  9
$USERR5
 40
0.0
  9
$WORLDVIEW
 70
     1
  9
$SHADEDGE
 70
     3
  9
$SHADEDIF
 70
    70
  9
$TILEMODE
 70
     1
  9
$MAXACTVP
 70
    64
  9
$PINSBASE
 10
0.0
 20
0.0
 30
0.0
  9
$PLIMCHECK
 70
     0
  9
$PEXTMIN
 10
0.0
 20
0.0
 30
0.0
  9
$PEXTMAX
 10
297.0
 20
210.0
 30
0.0
  9
$PLIMMIN
 10
0.0
 20
0.0
  9
$PLIMMAX
 10
297.0
 20
210.0
  9
$UNITMODE
 70
     0
  9
$VISRETAIN
 70
     1
  9
$PLINEGEN
 70
     0
  9
$PSLTSCALE
 70
     1
  9
$TREEDEPTH
 70
  3020
  9
$CMLSTYLE
  2
Standard
  9
$CMLJUST
 70
     0
  9
$CMLSCALE
 40
1.0
  9
$PROXYGRAPHICS
 70
     1
  9
$MEASUREMENT
 70
     1
  9
$CELWEIGHT
370
    -1
  9
$ENDCAPS
280
     0
  9
$JOINSTYLE
280
     0
  9
$LWDISPLAY
290
     0
  9
$INSUNITS
 70
     4
  9
$HYPERLINKBASE
  1

  9
$STYLESHEET
  1

  9
$XEDIT
290
     1
  9
$CEPSNTYPE
380
     0
  9
$PSTYLEMODE
290
     1
  9
$FINGERPRINTGUID
  2
{3213FEAA-76F9-CB4C-9610-44C342B5A33D}
  9
$VERSIONGUID
  2
{E81085D0-D204-5D4C-9051-605BA1E55B14}
  9
$EXTNAMES
290
     1
  9
$PSVPSCALE
 40
0.0
  9
$OLESTARTUP
290
     0
  9
$SORTENTS
280
   127
  9
$INDEXCTL
280
     0
  9
$HIDETEXT
280
     1
  9
$XCLIPFRAME
280
     2
  9
$HALOGAP
280
     0
  9
$OBSCOLOR
 70
   257
  9
$OBSLTYPE
280
     0
  9
$INTERSECTIONDISPLAY
280
     0
  9
$INTERSECTIONCOLOR
 70
   257
  9
$DIMASSOC
280
     1
  9
$PROJECTNAME
  1

  9
$CAMERADISPLAY
290
     0
  9
$LENSLENGTH
 40
50.0
  9
$CAMERAHEIGHT
 40
0.0
  9
$STEPSPERSEC
 40
2.0
  9
$STEPSIZE
 40
6.0
  9
$3DDWFPREC
 40
2.0
  9
$PSOLWIDTH
 40
0.25
  9
$PSOLHEIGHT
 40
4.0
  9
$LOFTANG1
 40
1.570796326794896
  9
$LOFTANG2
 40
1.570796326794896
  9
$LOFTMAG1
 40
0.0
  9
$LOFTMAG2
 40
0.0
  9
$LOFTPARAM
 70
     7
  9
$LOFTNORMALS
280
     1
  9
$LATITUDE
 40
37.795
  9
$LONGITUDE
 40
-122.394
  9
$NORTHDIRECTION
 40
0.0
  9
$TIMEZONE
 70
 -8000
  9
$LIGHTGLYPHDISPLAY
280
     1
  9
$TILEMODELIGHTSYNCH
280
     1
  9
$CMATERIAL
347
11
  9
$SOLIDHIST
280
     0
  9
$SHOWHIST
280
     1
  9
$DWFFRAME
280
     2
  9
$DGNFRAME
280
     0
  9
$REALWORLDSCALE
290
     1
  9
$INTERFERECOLOR
 62
     1
  9
$INTERFEREOBJVS
345
33
  9
$INTERFEREVPVS
346
30
  9
$CSHADOW
280
     0
  9
$SHADOWPLANELOCATION
 40
0.0
  0
ENDSEC
  0
SECTION
  2
CLASSES
  0
CLASS
  1
ACDBDICTIONARYWDFLT
  2
AcDbDictionaryWithDefault
  3
ObjectDBX Classes
 90
        0
 91
        1
280
     0
281
     0
  0
CLASS
  1
MATERIAL
  2
AcDbMaterial
  3
ObjectDBX Classes
 90
     1153
 91
        3
280
     0
281
     0
  0
CLASS
  1
VISUALSTYLE
  2
AcDbVisualStyle
  3
ObjectDBX Classes
 90
     4095
 91
       24
280
     0
281
     0
  0
CLASS
  1
SCALE
  2
AcDbScale
  3
ObjectDBX Classes
 90
     1153
 91
       17
280
     0
281
     0
  0
CLASS
  1
TABLESTYLE
  2
AcDbTableStyle
  3
ObjectDBX Classes
 90
     4095
 91
        1
280
     0
281
     0
  0
CLASS
  1
MLEADERSTYLE
  2
AcDbMLeaderStyle
  3
ACDB_MLEADERSTYLE_CLASS
 90
     4095
 91
        1
280
     0
281
     0
  0
CLASS
  1
ACDBSECTIONVIEWSTYLE
  2
AcDbSectionViewStyle
  3
ObjectDBX Classes
 90
     1025
 91
        1
280
     0
281
     0
  0
CLASS
  1
ACDBDETAILVIEWSTYLE
  2
AcDbDetailViewStyle
  3
ObjectDBX Classes
 90
     1025
 91
        1
280
     0
281
     0
  0
CLASS
  1
DICTIONARYVAR
  2
AcDbDictionaryVar
  3
ObjectDBX Classes
 90
        0
 91
        5
280
     0
281
     0
  0
CLASS
  1
CELLSTYLEMAP
  2
AcDbCellStyleMap
  3
ObjectDBX Classes
 90
     1152
 91
        1
280
     0
281
     0
  0
ENDSEC
  0
SECTION
  2
TABLES
  0
TABLE
  2
VPORT
  5
8
330
0
100
AcDbSymbolTable
 70
     1
1001
ACAD
1000
DbSaveVer
1071
        5
  0
VPORT
  5
57
330
8
100
AcDbSymbolTableRecord
100
AcDbViewportTableRecord
  2
*Active
 70
     0
 10
0.0
 20
0.0
 11
1.0
 21
1.0
 12
148.5
 22
105.0
 13
0.0
 23
0.0
 14
1.0
 24
1.0
 15
0.0
 25
0.0
 16
0.0
 26
0.0
 36
1.0
 17
0.0
 27
0.0
 37
0.0
 40
210.0
 41
1.414285714285714
 42
50.0
 43
0.0
 44
0.0
 50
0.0
 51
0.0
 71
     0
 72
   100
 73
     1
 74
     1
 75
     0
 76
     0
 77
     0
 78
     0
281
     0
 65
     1
110
0.0
120
0.0
130
0.0
111
1.0
121
0.0
131
0.0
112
0.0
122
1.0
132
0.0
 79
     0
146
0.0
 60
     3
 61
     5
292
     1
282
     1
141
0.0
142
0.0
 63
   250
421
  3355443
  0
ENDTAB
  0
TABLE
  2
LTYPE
  5
5
330
0
100
AcDbSymbolTable
 70
    59
  0
LTYPE
  5
5B
330
5
100
AcDbSymbolTableRecord
100
AcDbLinetypeTableRecord
  2
ByBlock
 70
     0
  3

 72
    65
 73
     0
 40
0.0
  0
LTYPE
  5
5C
330
5
100
AcDbSymbolTableRecord
100
AcDbLinetypeTableRecord
  2
ByLayer
 70
     0
  3

 72
    65
 73
     0
 40
0.0
  0
LTYPE
  5
5D
330
5
100
AcDbSymbolTableRecord
100
AcDbLinetypeTableRecord
  2
Continuous
 70
     0
  3
Solid line
 72
    65
 73
     0
 40
0.0
  0
LTYPE
  5
78
330
5
100
AcDbSymbolTableRecord
100
AcDbLinetypeTableRecord
  2
Section_View_Lines
 70
     0
  3
Section View Lines
 72
    65
 73
     4
 40
0.8406
 49
0.6614
 74
     0
 49
-0.0827
 74
     0
 49
0.0138
 74
     0
 49
-0.0827
 74
     0
  0
LTYPE
  5
79
330
5
100
AcDbSymbolTableRecord
100
AcDbLinetypeTableRecord
  2
CHAIN
 70
     0
  3
Chain ____ _ ____ _ ____ _ ____ _ ____ _ ____
 72
    65
 73
     4
 40
0.3543
 49
0.2362
 74
     0
 49
-0.0295
 74
     0
 49
0.0591
 74
     0
 49
-0.0295
 74
     0
  0
LTYPE
  5
7A
330
5
100
AcDbSymbolTableRecord
100
AcDbLinetypeTableRecord
  2
DASH_DOT
 70
     0
  3
Dash dot _._._._._._._._._._._._._._._.
 72
    65
 73
     4
 40
0.37
 49
0.24
 74
     0
 49
-0.06
 74
     0
 49
0.01
 74
     0
 49
-0.06
 74
     0
  0
LTYPE
  5
7B
330
5
100
AcDbSymbolTableRecord
100
AcDbLinetypeTableRecord
  2
DASH_DOUBLE_DOT
 70
     0
  3
Dash Double Dot __ __ . __ __ . __ __ . __ _
 72
    65
 73
     6
 40
0.4398
 49
0.24
 74
     0
 49
-0.06
 74
     0
 49
0.0098
 74
     0
 49
-0.06
 74
     0
 49
0.01
 74
     0
 49
-0.06
 74
     0
  0
LTYPE
  5
7C
330
5
100
AcDbSymbolTableRecord
100
AcDbLinetypeTableRecord
  2
DASH_TRIPLE_DOT
 70
     0
  3
Dash Triple-Dot _ . . . _ . . . _ . . . _
 72
    65
 73
     8
 40
0.51
 49
0.24
 74
     0
 49
-0.06
 74
     0
 49
0.01
 74
     0
 49
-0.06
 74
     0
 49
0.01
 74
     0
 49
-0.06
 74
     0
 49
0.01
 74
     0
 49
-0.06
 74
     0
  0
LTYPE
  5
7D
330
5
100
AcDbSymbolTableRecord
100
AcDbLinetypeTableRecord
  2
DASHED
 70
     0
  3
Dashed __ __ __ __ __ __ __ __ __ __ __ __ __ _
 72
    65
 73
     2
 40
0.2067
 49
0.1654
 74
     0
 49
-0.0413
 74
     0
  0
LTYPE
  5
7E
330
5
100
AcDbSymbolTableRecord
100
AcDbLinetypeTableRecord
  2
DASHED_SPACE
 70
     0
  3
Dashed Space _._._._._._._._._._._._._._._.
 72
    65
 73
     2
 40
0.2067
 49
0.1654
 74
     0
 49
-0.0413
 74
     0
  0
LTYPE
  5
7F
330
5
100
AcDbSymbolTableRecord
100
AcDbLinetypeTableRecord
  2
DOTTED
 70
     0
  3
Dotted . . . . . . . . . . . . . . . . . . . . 
 72
    65
 73
     2
 40
0.0482
 49
0.0069
 74
     0
 49
-0.0413
 74
     0
  0
LTYPE
  5
80
330
5
100
AcDbSymbolTableRecord
100
AcDbLinetypeTableRecord
  2
DOUBLE_DASH_CHAIN
 70
     0
  3
Double Dash Chain ___ _ _ ___ _ _ ___ _ _ ___ _
 72
    65
 73
     6
 40
1.240299999999999
 49
0.6614
 74
     0
 49
-0.0827
 74
     0
 49
0.1654
 74
     0
 49
-0.0827
 74
     0
 49
0.1654
 74
     0
 49
-0.0827
 74
     0
  0
LTYPE
  5
81
330
5
100
AcDbSymbolTableRecord
100
AcDbLinetypeTableRecord
  2
DOUBLE_DASH_DOT
 70
     0
  3
Double Dash Dot __ __ . __ __ . __ __ . __ _
 72
    65
 73
     6
 40
0.67
 49
0.24
 74
     0
 49
-0.06
 74
     0
 49
0.24
 74
     0
 49
-0.06
 74
     0
 49
0.01
 74
     0
 49
-0.06
 74
     0
  0
LTYPE
  5
82
330
5
100
AcDbSymbolTableRecord
100
AcDbLinetypeTableRecord
  2
DOUBLE_DASH_DOUBLE_DOT
 70
     0
  3
Double-dash double-dot _ _ . . _ _ . . _
 72
    65
 73
     8
 40
0.7400000000000001
 49
0.24
 74
     0
 49
-0.06
 74
     0
 49
0.24
 74
     0
 49
-0.06
 74
     0
 49
0.01
 74
     0
 49
-0.06
 74
     0
 49
0.01
 74
     0
 49
-0.06
 74
     0
  0
LTYPE
  5
83
330
5
100
AcDbSymbolTableRecord
100
AcDbLinetypeTableRecord
  2
DOUBLE_DASH_TRIPLE_DOT
 70
     0
  3
Double Dash Triple Dot __ __ . . . __ __ . . .
 72
    65
 73
    10
 40
0.8100000000000001
 49
0.24
 74
     0
 49
-0.06
 74
     0
 49
0.24
 74
     0
 49
-0.06
 74
     0
 49
0.01
 74
     0
 49
-0.06
 74
     0
 49
0.01
 74
     0
 49
-0.06
 74
     0
 49
0.01
 74
     0
 49
-0.06
 74
     0
  0
LTYPE
  5
84
330
5
100
AcDbSymbolTableRecord
100
AcDbLinetypeTableRecord
  2
LONG_DASH_DOTTED
 70
     0
  3
Long-Dash Dot ____ . ____ . ____ . ____ . _
 72
    65
 73
     4
 40
0.3001
 49
0.2362
 74
     0
 49
-0.0295
 74
     0
 49
0.0049
 74
     0
 49
-0.0295
 74
     0
  0
LTYPE
  5
85
330
5
100
AcDbSymbolTableRecord
100
AcDbLinetypeTableRecord
  2
LONG_DASH_DOUBLE_DOT
 70
     0
  3
Long Dash Double Dot ____ . . ____ . . ____ . .
 72
    65
 73
     6
 40
0.3345
 49
0.2362
 74
     0
 49
-0.0295
 74
     0
 49
0.0049
 74
     0
 49
-0.0295
 74
     0
 49
0.0049
 74
     0
 49
-0.0295
 74
     0
  0
LTYPE
  5
86
330
5
100
AcDbSymbolTableRecord
100
AcDbLinetypeTableRecord
  2
LONG_DASH_TRIPLE_DOT
 70
     0
  3
Long Dash Triple Dot ____ ... ____ ... ____
 72
    65
 73
     8
 40
0.75
 49
0.48
 74
     0
 49
-0.06
 74
     0
 49
0.01
 74
     0
 49
-0.06
 74
     0
 49
0.01
 74
     0
 49
-0.06
 74
     0
 49
0.01
 74
     0
 49
-0.06
 74
     0
  0
LTYPE
  5
87
330
5
100
AcDbSymbolTableRecord
100
AcDbLinetypeTableRecord
  2
BORDER
 70
     0
  3
Border __ __ . __ __ . __ __ . __ __ . __ __ .
 72
    65
 73
     6
 40
44.45
 49
12.7
 74
     0
 49
-6.349999999999999
 74
     0
 49
12.7
 74
     0
 49
-6.349999999999999
 74
     0
 49
0.0
 74
     0
 49
-6.349999999999999
 74
     0
  0
LTYPE
  5
88
330
5
100
AcDbSymbolTableRecord
100
AcDbLinetypeTableRecord
  2
BORDER2
 70
     0
  3
Border (.5x) __.__.__.__.__.__.__.__.__.__.__.
 72
    65
 73
     6
 40
22.225
 49
6.349999999999999
 74
     0
 49
-3.174999999999999
 74
     0
 49
6.349999999999999
 74
     0
 49
-3.174999999999999
 74
     0
 49
0.0
 74
     0
 49
-3.174999999999999
 74
     0
  0
LTYPE
  5
89
330
5
100
AcDbSymbolTableRecord
100
AcDbLinetypeTableRecord
  2
BORDERX2
 70
     0
  3
Border (2x) ____  ____  .  ____  ____  .  ___
 72
    65
 73
     6
 40
88.9
 49
25.4
 74
     0
 49
-12.7
 74
     0
 49
25.4
 74
     0
 49
-12.7
 74
     0
 49
0.0
 74
     0
 49
-12.7
 74
     0
  0
LTYPE
  5
8A
330
5
100
AcDbSymbolTableRecord
100
AcDbLinetypeTableRecord
  2
CENTER
 70
     0
  3
Center ____ _ ____ _ ____ _ ____ _ ____ _ ____
 72
    65
 73
     4
 40
50.8
 49
31.75
 74
     0
 49
-6.349999999999999
 74
     0
 49
6.349999999999999
 74
     0
 49
-6.349999999999999
 74
     0
  0
LTYPE
  5
8B
330
5
100
AcDbSymbolTableRecord
100
AcDbLinetypeTableRecord
  2
CENTER2
 70
     0
  3
Center (.5x) ___ _ ___ _ ___ _ ___ _ ___ _ ___
 72
    65
 73
     4
 40
28.575
 49
19.05
 74
     0
 49
-3.174999999999999
 74
     0
 49
3.174999999999999
 74
     0
 49
-3.174999999999999
 74
     0
  0
LTYPE
  5
8C
330
5
100
AcDbSymbolTableRecord
100
AcDbLinetypeTableRecord
  2
CENTERX2
 70
     0
  3
Center (2x) ________  __  ________  __  _____
 72
    65
 73
     4
 40
101.6
 49
63.5
 74
     0
 49
-12.7
 74
     0
 49
12.7
 74
     0
 49
-12.7
 74
     0
  0
LTYPE
  5
8D
330
5
100
AcDbSymbolTableRecord
100
AcDbLinetypeTableRecord
  2
DASHDOT2
 70
     0
  3
Dash dot (.5x) _._._._._._._._._._._._._._._.
 72
    65
 73
     4
 40
12.7
 49
6.349999999999999
 74
     0
 49
-3.174999999999999
 74
     0
 49
0.0
 74
     0
 49
-3.174999999999999
 74
     0
  0
LTYPE
  5
8E
330
5
100
AcDbSymbolTableRecord
100
AcDbLinetypeTableRecord
  2
DASHDOTX2
 70
     0
  3
Dash dot (2x) ____  .  ____  .  ____  .  ___
 72
    65
 73
     4
 40
50.8
 49
25.4
 74
     0
 49
-12.7
 74
     0
 49
0.0
 74
     0
 49
-12.7
 74
     0
  0
LTYPE
  5
8F
330
5
100
AcDbSymbolTableRecord
100
AcDbLinetypeTableRecord
  2
DASHED2
 70
     0
  3
Dashed (.5x) _ _ _ _ _ _ _ _ _ _ _ _ _ _ _ _ _
 72
    65
 73
     2
 40
9.524999999999998
 49
6.349999999999999
 74
     0
 49
-3.174999999999999
 74
     0
  0
LTYPE
  5
90
330
5
100
AcDbSymbolTableRecord
100
AcDbLinetypeTableRecord
  2
DASHEDX2
 70
     0
  3
Dashed (2x) ____  ____  ____  ____  ____  ___
 72
    65
 73
     2
 40
38.1
 49
25.4
 74
     0
 49
-12.7
 74
     0
  0
LTYPE
  5
91
330
5
100
AcDbSymbolTableRecord
100
AcDbLinetypeTableRecord
  2
DIVIDE
 70
     0
  3
Divide ____ . . ____ . . ____ . . ____ . . ____
 72
    65
 73
     6
 40
31.75
 49
12.7
 74
     0
 49
-6.349999999999999
 74
     0
 49
0.0
 74
     0
 49
-6.349999999999999
 74
     0
 49
0.0
 74
     0
 49
-6.349999999999999
 74
     0
  0
LTYPE
  5
92
330
5
100
AcDbSymbolTableRecord
100
AcDbLinetypeTableRecord
  2
DIVIDE2
 70
     0
  3
Divide (.5x) __..__..__..__..__..__..__..__.._
 72
    65
 73
     6
 40
15.875
 49
6.349999999999999
 74
     0
 49
-3.174999999999999
 74
     0
 49
0.0
 74
     0
 49
-3.174999999999999
 74
     0
 49
0.0
 74
     0
 49
-3.174999999999999
 74
     0
  0
LTYPE
  5
93
330
5
100
AcDbSymbolTableRecord
100
AcDbLinetypeTableRecord
  2
DIVIDEX2
 70
     0
  3
Divide (2x) ________  .  .  ________  .  .  _
 72
    65
 73
     6
 40
63.49999999999999
 49
25.4
 74
     0
 49
-12.7
 74
     0
 49
0.0
 74
     0
 49
-12.7
 74
     0
 49
0.0
 74
     0
 49
-12.7
 74
     0
  0
LTYPE
  5
94
330
5
100
AcDbSymbolTableRecord
100
AcDbLinetypeTableRecord
  2
DOT
 70
     0
  3
Dot . . . . . . . . . . . . . . . . . . . . . .
 72
    65
 73
     2
 40
6.349999999999999
 49
0.0
 74
     0
 49
-6.349999999999999
 74
     0
  0
LTYPE
  5
95
330
5
100
AcDbSymbolTableRecord
100
AcDbLinetypeTableRecord
  2
DOT2
 70
     0
  3
Dot (.5x) .....................................
 72
    65
 73
     2
 40
3.174999999999999
 49
0.0
 74
     0
 49
-3.174999999999999
 74
     0
  0
LTYPE
  5
96
330
5
100
AcDbSymbolTableRecord
100
AcDbLinetypeTableRecord
  2
DOTX2
 70
     0
  3
Dot (2x) .  .  .  .  .  .  .  .  .  .  .  .  . 
 72
    65
 73
     2
 40
12.7
 49
0.0
 74
     0
 49
-12.7
 74
     0
  0
LTYPE
  5
97
330
5
100
AcDbSymbolTableRecord
100
AcDbLinetypeTableRecord
  2
HIDDEN
 70
     0
  3
Hidden __ __ __ __ __ __ __ __ __ __ __ __ __ _
 72
    65
 73
     2
 40
9.524999999999998
 49
6.349999999999999
 74
     0
 49
-3.174999999999999
 74
     0
  0
LTYPE
  5
98
330
5
100
AcDbSymbolTableRecord
100
AcDbLinetypeTableRecord
  2
HIDDEN2
 70
     0
  3
Hidden (.5x) _ _ _ _ _ _ _ _ _ _ _ _ _ _ _ _ _
 72
    65
 73
     2
 40
4.762499999999999
 49
3.174999999999999
 74
     0
 49
-1.587499999999999
 74
     0
  0
LTYPE
  5
99
330
5
100
AcDbSymbolTableRecord
100
AcDbLinetypeTableRecord
  2
HIDDENX2
 70
     0
  3
Hidden (2x) ____ ____ ____ ____ ____ ____ ____
 72
    65
 73
     2
 40
19.05
 49
12.7
 74
     0
 49
-6.349999999999999
 74
     0
  0
LTYPE
  5
9A
330
5
100
AcDbSymbolTableRecord
100
AcDbLinetypeTableRecord
  2
PHANTOM
 70
     0
  3
Phantom ______  __  __  ______  __  __  ______
 72
    65
 73
     6
 40
63.5
 49
31.75
 74
     0
 49
-6.349999999999999
 74
     0
 49
6.349999999999999
 74
     0
 49
-6.349999999999999
 74
     0
 49
6.349999999999999
 74
     0
 49
-6.349999999999999
 74
     0
  0
LTYPE
  5
9B
330
5
100
AcDbSymbolTableRecord
100
AcDbLinetypeTableRecord
  2
PHANTOM2
 70
     0
  3
Phantom (.5x) ___ _ _ ___ _ _ ___ _ _ ___ _ _
 72
    65
 73
     6
 40
31.75
 49
15.875
 74
     0
 49
-3.174999999999999
 74
     0
 49
3.174999999999999
 74
     0
 49
-3.174999999999999
 74
     0
 49
3.174999999999999
 74
     0
 49
-3.174999999999999
 74
     0
  0
LTYPE
  5
9C
330
5
100
AcDbSymbolTableRecord
100
AcDbLinetypeTableRecord
  2
PHANTOMX2
 70
     0
  3
Phantom (2x) ____________    ____    ____   _
 72
    65
 73
     6
 40
127.0
 49
63.5
 74
     0
 49
-12.7
 74
     0
 49
12.7
 74
     0
 49
-12.7
 74
     0
 49
12.7
 74
     0
 49
-12.7
 74
     0
  0
LTYPE
  5
9D
330
5
100
AcDbSymbolTableRecord
100
AcDbLinetypeTableRecord
  2
ACAD_ISO02W100
 70
     0
  3
ISO dash __ __ __ __ __ __ __ __ __ __ __ __ __
 72
    65
 73
     2
 40
15.0
 49
12.0
 74
     0
 49
-3.0
 74
     0
  0
LTYPE
  5
9E
330
5
100
AcDbSymbolTableRecord
100
AcDbLinetypeTableRecord
  2
ACAD_ISO03W100
 70
     0
  3
ISO dash space __    __    __    __    __    __
 72
    65
 73
     2
 40
30.0
 49
12.0
 74
     0
 49
-18.0
 74
     0
  0
LTYPE
  5
9F
330
5
100
AcDbSymbolTableRecord
100
AcDbLinetypeTableRecord
  2
ACAD_ISO04W100
 70
     0
  3
ISO long-dash dot ____ . ____ . ____ . ____ . _
 72
    65
 73
     4
 40
30.0
 49
24.0
 74
     0
 49
-3.0
 74
     0
 49
0.0
 74
     0
 49
-3.0
 74
     0
  0
LTYPE
  5
A0
330
5
100
AcDbSymbolTableRecord
100
AcDbLinetypeTableRecord
  2
ACAD_ISO05W100
 70
     0
  3
ISO long-dash double-dot ____ .. ____ .. ____ .
 72
    65
 73
     6
 40
33.0
 49
24.0
 74
     0
 49
-3.0
 74
     0
 49
0.0
 74
     0
 49
-3.0
 74
     0
 49
0.0
 74
     0
 49
-3.0
 74
     0
  0
LTYPE
  5
A1
330
5
100
AcDbSymbolTableRecord
100
AcDbLinetypeTableRecord
  2
ACAD_ISO06W100
 70
     0
  3
ISO long-dash triple-dot ____ ... ____ ... ____
 72
    65
 73
     8
 40
36.0
 49
24.0
 74
     0
 49
-3.0
 74
     0
 49
0.0
 74
     0
 49
-3.0
 74
     0
 49
0.0
 74
     0
 49
-3.0
 74
     0
 49
0.0
 74
     0
 49
-3.0
 74
     0
  0
LTYPE
  5
A2
330
5
100
AcDbSymbolTableRecord
100
AcDbLinetypeTableRecord
  2
ACAD_ISO07W100
 70
     0
  3
ISO dot . . . . . . . . . . . . . . . . . . . .
 72
    65
 73
     2
 40
3.0
 49
0.0
 74
     0
 49
-3.0
 74
     0
  0
LTYPE
  5
A3
330
5
100
AcDbSymbolTableRecord
100
AcDbLinetypeTableRecord
  2
ACAD_ISO08W100
 70
     0
  3
ISO long-dash short-dash ____ __ ____ __ ____ _
 72
    65
 73
     4
 40
36.0
 49
24.0
 74
     0
 49
-3.0
 74
     0
 49
6.0
 74
     0
 49
-3.0
 74
     0
  0
LTYPE
  5
A4
330
5
100
AcDbSymbolTableRecord
100
AcDbLinetypeTableRecord
  2
ACAD_ISO09W100
 70
     0
  3
ISO long-dash double-short-dash ____ __ __ ____
 72
    65
 73
     6
 40
45.0
 49
24.0
 74
     0
 49
-3.0
 74
     0
 49
6.0
 74
     0
 49
-3.0
 74
     0
 49
6.0
 74
     0
 49
-3.0
 74
     0
  0
LTYPE
  5
A5
330
5
100
AcDbSymbolTableRecord
100
AcDbLinetypeTableRecord
  2
ACAD_ISO10W100
 70
     0
  3
ISO dash dot __ . __ . __ . __ . __ . __ . __ .
 72
    65
 73
     4
 40
18.0
 49
12.0
 74
     0
 49
-3.0
 74
     0
 49
0.0
 74
     0
 49
-3.0
 74
     0
  0
LTYPE
  5
A6
330
5
100
AcDbSymbolTableRecord
100
AcDbLinetypeTableRecord
  2
ACAD_ISO11W100
 70
     0
  3
ISO double-dash dot __ __ . __ __ . __ __ . __ 
 72
    65
 73
     6
 40
33.0
 49
12.0
 74
     0
 49
-3.0
 74
     0
 49
12.0
 74
     0
 49
-3.0
 74
     0
 49
0.0
 74
     0
 49
-3.0
 74
     0
  0
LTYPE
  5
A7
330
5
100
AcDbSymbolTableRecord
100
AcDbLinetypeTableRecord
  2
ACAD_ISO12W100
 70
     0
  3
ISO dash double-dot __ . . __ . . __ . . __ . .
 72
    65
 73
     6
 40
21.0
 49
12.0
 74
     0
 49
-3.0
 74
     0
 49
0.0
 74
     0
 49
-3.0
 74
     0
 49
0.0
 74
     0
 49
-3.0
 74
     0
  0
LTYPE
  5
A8
330
5
100
AcDbSymbolTableRecord
100
AcDbLinetypeTableRecord
  2
ACAD_ISO13W100
 70
     0
  3
ISO double-dash double-dot __ __ . . __ __ . . 
 72
    65
 73
     8
 40
36.0
 49
12.0
 74
     0
 49
-3.0
 74
     0
 49
12.0
 74
     0
 49
-3.0
 74
     0
 49
0.0
 74
     0
 49
-3.0
 74
     0
 49
0.0
 74
     0
 49
-3.0
 74
     0
  0
LTYPE
  5
A9
330
5
100
AcDbSymbolTableRecord
100
AcDbLinetypeTableRecord
  2
ACAD_ISO14W100
 70
     0
  3
ISO dash triple-dot __ . . . __ . . . __ . . . 
 72
    65
 73
     8
 40
24.0
 49
12.0
 74
     0
 49
-3.0
 74
     0
 49
0.0
 74
     0
 49
-3.0
 74
     0
 49
0.0
 74
     0
 49
-3.0
 74
     0
 49
0.0
 74
     0
 49
-3.0
 74
     0
  0
LTYPE
  5
AA
330
5
100
AcDbSymbolTableRecord
100
AcDbLinetypeTableRecord
  2
ACAD_ISO15W100
 70
     0
  3
ISO double-dash triple-dot __ __ . . . __ __ . 
 72
    65
 73
    10
 40
39.0
 49
12.0
 74
     0
 49
-3.0
 74
     0
 49
12.0
 74
     0
 49
-3.0
 74
     0
 49
0.0
 74
     0
 49
-3.0
 74
     0
 49
0.0
 74
     0
 49
-3.0
 74
     0
 49
0.0
 74
     0
 49
-3.0
 74
     0
  0
LTYPE
  5
AD
330
5
100
AcDbSymbolTableRecord
100
AcDbLinetypeTableRecord
  2
FENCELINE1
 70
     0
  3
Fenceline circle ----0-----0----0-----0----0---
 72
    65
 73
     4
 40
36.83
 49
6.349999999999999
 74
     0
 49
-2.54
 74
     4
 75
   133
340
AC
 46
2.54
 50
0.0
 44
-2.54
 45
0.0
 49
-2.54
 74
     0
 49
25.4
 74
     0
  0
LTYPE
  5
AE
330
5
100
AcDbSymbolTableRecord
100
AcDbLinetypeTableRecord
  2
FENCELINE2
 70
     0
  3
Fenceline square ----[]-----[]----[]-----[]----
 72
    65
 73
     4
 40
36.83
 49
6.349999999999999
 74
     0
 49
-2.54
 74
     4
 75
   132
340
AC
 46
2.54
 50
0.0
 44
-2.54
 45
0.0
 49
-2.54
 74
     0
 49
25.4
 74
     0
  0
LTYPE
  5
AF
330
5
100
AcDbSymbolTableRecord
100
AcDbLinetypeTableRecord
  2
TRACKS
 70
     0
  3
Tracks -|-|-|-|-|-|-|-|-|-|-|-|-|-|-|-|-|-|-|-|
 72
    65
 73
     2
 40
7.62
 49
3.81
 74
     4
 75
   130
340
AC
 46
6.349999999999999
 50
0.0
 44
0.0
 45
0.0
 49
3.81
 74
     0
  0
LTYPE
  5
B0
330
5
100
AcDbSymbolTableRecord
100
AcDbLinetypeTableRecord
  2
BATTING
 70
     0
  3
Batting SSSSSSSSSSSSSSSSSSSSSSSSSSSSSSSSSSSSSSS
 72
    65
 73
     4
 40
10.16254
 49
0.00254
 74
     0
 49
-2.54
 74
     4
 75
   134
340
AC
 46
2.54
 50
0.0
 44
-2.54
 45
0.0
 49
-5.08
 74
     4
 75
   134
340
AC
 46
2.54
 50
180.0
 44
2.54
 45
0.0
 49
-2.54
 74
     0
  0
LTYPE
  5
B1
330
5
100
AcDbSymbolTableRecord
100
AcDbLinetypeTableRecord
  2
HOT_WATER_SUPPLY
 70
     0
  3
Hot water supply ---- HW ---- HW ---- HW ----
 72
    65
 73
     3
 40
22.86
 49
12.7
 74
     0
 49
-5.08
 74
     2
 75
     0
340
55
 46
2.54
 50
0.0
 44
-2.54
 45
-1.27
  9
HW
 49
-5.08
 74
     0
  0
LTYPE
  5
B2
330
5
100
AcDbSymbolTableRecord
100
AcDbLinetypeTableRecord
  2
GAS_LINE
 70
     0
  3
Gas line ----GAS----GAS----GAS----GAS----GAS---
 72
    65
 73
     3
 40
24.13
 49
12.7
 74
     0
 49
-5.08
 74
     2
 75
     0
340
55
 46
2.54
 50
0.0
 44
-2.54
 45
-1.27
  9
GAS
 49
-6.349999999999999
 74
     0
  0
LTYPE
  5
B3
330
5
100
AcDbSymbolTableRecord
100
AcDbLinetypeTableRecord
  2
ZIGZAG
 70
     0
  3
Zig zag /\/\/\/\/\/\/\/\/\/\/\/\/\/\/\/\/\/\/\/
 72
    65
 73
     4
 40
20.32254
 49
0.00254
 74
     0
 49
-5.08
 74
     4
 75
   131
340
AC
 46
5.08
 50
0.0
 44
-5.08
 45
0.0
 49
-10.16
 74
     4
 75
   131
340
AC
 46
5.08
 50
180.0
 44
5.08
 45
0.0
 49
-5.08
 74
     0
  0
ENDTAB
  0
TABLE
  2
LAYER
  5
2
330
0
100
AcDbSymbolTable
 70
    27
  0
LAYER
  5
54
330
2
100
AcDbSymbolTableRecord
100
AcDbLayerTableRecord
  2
0
 70
     0
 62
     7
  6
Continuous
370
    -3
390
F
347
21
348
0
  0
LAYER
  5
B8
330
2
100
AcDbSymbolTableRecord
100
AcDbLayerTableRecord
  2
Bemaßung (ISO)
 70
     0
 62
     7
  6
Continuous
370
    25
390
F
347
21
348
0
  0
LAYER
  5
BD
330
2
100
AcDbSymbolTableRecord
100
AcDbLayerTableRecord
  2
Mittellinie (ISO)
 70
     0
 62
     7
  6
Continuous
370
    25
390
F
347
21
348
0
  0
LAYER
  5
BE
330
2
100
AcDbSymbolTableRecord
100
AcDbLayerTableRecord
  2
Mittelpunktmarkierung (ISO)
 70
     0
 62
     7
  6
Continuous
370
    25
390
F
347
21
348
0
  0
LAYER
  5
C0
330
2
100
AcDbSymbolTableRecord
100
AcDbLayerTableRecord
  2
Rahmen (ISO)
 70
     0
 62
     7
  6
Continuous
370
    70
390
F
347
21
348
0
  0
LAYER
  5
C3
330
2
100
AcDbSymbolTableRecord
100
AcDbLayerTableRecord
  2
Schnittlinie (ISO)
 70
     0
 62
     7
  6
CHAIN
370
    70
390
F
347
21
348
0
  0
LAYER
  5
C4
330
2
100
AcDbSymbolTableRecord
100
AcDbLayerTableRecord
  2
Schraffur (ISO)
 70
     0
 62
     7
  6
Continuous
370
    18
390
F
347
21
348
0
  0
LAYER
  5
C5
330
2
100
AcDbSymbolTableRecord
100
AcDbLayerTableRecord
  2
Sichtbar (ISO)
 70
     0
 62
     7
  6
Continuous
370
    50
390
F
347
21
348
0
  0
LAYER
  5
C6
330
2
100
AcDbSymbolTableRecord
100
AcDbLayerTableRecord
  2
Sichtbar schmal (ISO)
 70
     0
 62
     7
  6
Continuous
370
    35
390
F
347
21
348
0
  0
LAYER
  5
C7
330
2
100
AcDbSymbolTableRecord
100
AcDbLayerTableRecord
  2
Skizziergeometrie (ISO)
 70
     0
 62
     7
  6
Continuous
370
    25
390
F
347
21
348
0
  0
LAYER
  5
C8
330
2
100
AcDbSymbolTableRecord
100
AcDbLayerTableRecord
  2
Symbol (ISO)
 70
     0
 62
     7
  6
Continuous
370
    25
390
F
347
21
348
0
  0
LAYER
  5
C9
330
2
100
AcDbSymbolTableRecord
100
AcDbLayerTableRecord
  2
Titel (ISO)
 70
     0
 62
     7
  6
Continuous
370
    50
390
F
347
21
348
0
  0
LAYER
  5
2E6
330
2
100
AcDbSymbolTableRecord
100
AcDbLayerTableRecord
  2
Defpoints
 70
     0
 62
     7
  6
Continuous
290
     0
370
    -3
390
F
347
21
348
0
  0
ENDTAB
  0
TABLE
  2
STYLE
  5
3
330
0
100
AcDbSymbolTable
 70
     6
  0
STYLE
  5
55
330
3
100
AcDbSymbolTableRecord
100
AcDbTextStyleTableRecord
  2
Standard
 70
     0
 40
0.0
 41
1.0
 50
0.0
 71
     0
 42
0.2
  3
arial.ttf
  4

1001
ACAD
1000
Arial
1071
      256
  0
STYLE
  5
5A
330
3
100
AcDbSymbolTableRecord
100
AcDbTextStyleTableRecord
  2
Annotative
 70
     0
 40
0.0
 41
1.0
 50
0.0
 71
     0
 42
0.2
  3
txt
  4

1001
AcadAnnotative
1000
AnnotativeData
1002
{
1070
     1
1070
     1
1002
}
  0
STYLE
  5
AC
330
3
100
AcDbSymbolTableRecord
100
AcDbTextStyleTableRecord
  2

 70
     1
 40
0.0
 41
1.0
 50
0.0
 71
     0
 42
0.2
  3
ltypeshp.shx
  4

  0
STYLE
  5
CD
330
3
100
AcDbSymbolTableRecord
100
AcDbTextStyleTableRecord
  2
Bezeichnungstext (DIN)
 70
     0
 40
0.0
 41
1.0
 50
0.0
 71
     0
 42
0.2
  3
arial.ttf
  4

1001
ACAD
1000
Arial
1071
      256
  0
STYLE
  5
CE
330
3
100
AcDbSymbolTableRecord
100
AcDbTextStyleTableRecord
  2
Notiztext (DIN)
 70
     0
 40
0.0
 41
1.0
 50
0.0
 71
     0
 42
0.2
  3
arial.ttf
  4

1001
ACAD
1000
Arial
1071
      256
  0
STYLE
  5
190
330
3
100
AcDbSymbolTableRecord
100
AcDbTextStyleTableRecord
  2
Textstil54
 70
     0
 40
0.0
 41
1.0
 50
0.0
 71
     0
 42
0.2
  3

  4

1001
ACAD
1000
Arial
1071
 33554688
  0
ENDTAB
  0
TABLE
  2
VIEW
  5
6
330
0
100
AcDbSymbolTable
 70
     0
  0
ENDTAB
  0
TABLE
  2
UCS
  5
7
330
0
100
AcDbSymbolTable
 70
     0
  0
ENDTAB
  0
TABLE
  2
APPID
  5
9
330
0
100
AcDbSymbolTable
 70
     3
  0
APPID
  5
56
330
9
100
AcDbSymbolTableRecord
100
AcDbRegAppTableRecord
  2
ACAD
 70
     0
  0
APPID
  5
5E
330
9
100
AcDbSymbolTableRecord
100
AcDbRegAppTableRecord
  2
AcadAnnotative
 70
     0
  0
APPID
  5
194
330
9
100
AcDbSymbolTableRecord
100
AcDbRegAppTableRecord
  2
AcadAnnoPO
 70
     0
  0
ENDTAB
  0
TABLE
  2
DIMSTYLE
  5
A
330
0
100
AcDbSymbolTable
 70
    11
100
AcDbDimStyleTable
 71
     2
340
D3
340
58
  0
DIMSTYLE
105
58
330
A
100
AcDbSymbolTableRecord
100
AcDbDimStyleTableRecord
  2
Standard
 70
     0
340
55
  0
DIMSTYLE
105
59
330
A
100
AcDbSymbolTableRecord
100
AcDbDimStyleTableRecord
  2
Annotative
 70
     0
340
55
1001
AcadAnnotative
1000
AnnotativeData
1002
{
1070
     1
1070
     1
1002
}
  0
DIMSTYLE
105
CF
330
A
100
AcDbSymbolTableRecord
100
AcDbDimStyleTableRecord
  2
Standard - Methode 2a (DIN)
 70
     0
 41
2.5
 42
0.8
 43
5.999999999999999
 44
3.174999999999999
 45
0.00000001
 46
10.0
 77
     1
 78
     8
 79
     2
140
2.5
143
0.03937
146
1.399999976158142
147
0.8
170
     1
171
     3
172
     1
176
   256
177
   256
178
   256
179
     2
271
     2
272
     2
274
     3
278
    44
284
     8
286
     8
340
CE
371
    -1
372
    -1
  0
DIMSTYLE
105
D0
330
A
100
AcDbSymbolTableRecord
100
AcDbDimStyleTableRecord
  2
Standard - Methode 2a (DIN)$7
 70
     0
 41
2.5
 42
0.8
 43
5.999999999999999
 44
3.174999999999999
 45
0.00000001
 46
10.0
 77
     1
 78
     8
 79
     2
140
2.5
143
0.03937
146
1.399999976158142
147
0.8
170
     1
171
     3
172
     1
176
   256
177
   256
178
   256
179
     2
271
     2
272
     2
274
     3
278
    44
284
     8
286
     8
340
CE
371
    -1
372
    -1
  0
DIMSTYLE
105
D1
330
A
100
AcDbSymbolTableRecord
100
AcDbDimStyleTableRecord
  2
Standard - Methode 2b (DIN)
 70
     0
 41
2.5
 42
0.0
 43
5.999999999999999
 44
3.174999999999999
 45
0.00000001
 46
10.0
 77
     1
 78
     8
 79
     2
140
2.5
143
0.03937
146
1.399999976158142
147
0.8
171
     3
172
     1
176
   256
177
   256
178
   256
271
     2
272
     2
274
     3
278
    44
284
     8
286
     8
340
CE
371
    -1
372
    -1
  0
DIMSTYLE
105
D2
330
A
100
AcDbSymbolTableRecord
100
AcDbDimStyleTableRecord
  2
Standard - Methode 2b (DIN)$7
 70
     0
 41
2.5
 42
0.0
 43
5.999999999999999
 44
3.174999999999999
 45
0.00000001
 46
10.0
 77
     1
 78
     8
 79
     2
140
2.5
143
0.03937
146
1.399999976158142
147
0.8
171
     3
172
     1
176
   256
177
   256
178
   256
271
     2
272
     2
274
     3
278
    44
284
     8
286
     8
340
CE
371
    -1
372
    -1
  0
DIMSTYLE
105
D3
102
{ACAD_REACTORS
330
2E5
330
3C5
330
4A4
330
595
330
682
330
761
330
847
330
934
330
A13
330
AF2
330
BFB
330
CDA
330
DC7
330
EAD
330
F9F
330
108C
102
}
330
A
100
AcDbSymbolTableRecord
100
AcDbDimStyleTableRecord
  2
Standard (DIN)
 70
     0
 41
2.5
 42
0.0
 43
6.999999999999999
 44
2.0
 45
0.00000001
 46
10.0
 73
     0
 74
     0
 77
     1
 78
     8
 79
     2
140
2.5
143
0.03937
146
0.6000000238418579
147
0.4
171
     3
172
     1
176
   256
177
   256
178
   256
271
     2
272
     2
274
     3
284
     8
285
     8
340
CE
371
    -1
372
    -1
  0
DIMSTYLE
105
D4
330
A
100
AcDbSymbolTableRecord
100
AcDbDimStyleTableRecord
  2
Standard (DIN)$7
 70
     0
 41
2.5
 42
0.0
 43
6.999999999999999
 44
2.0
 45
0.00000001
 46
10.0
 73
     0
 74
     0
 77
     1
 78
     8
 79
     2
140
2.5
143
0.03937
146
0.6000000238418579
147
0.4
171
     3
172
     1
176
   256
177
   256
178
   256
271
     2
272
     2
274
     3
284
     8
285
     8
340
CE
371
    -1
372
    -1
  0
DIMSTYLE
105
D5
330
A
100
AcDbSymbolTableRecord
100
AcDbDimStyleTableRecord
  2
Alternativ (ISO)
 70
     0
 41
2.5
340
55
  0
DIMSTYLE
105
E1
330
A
100
AcDbSymbolTableRecord
100
AcDbDimStyleTableRecord
  2
Bezug (ISO)
 70
     0
 41
2.5
340
55
  0
DIMSTYLE
105
F0
330
A
100
AcDbSymbolTableRecord
100
AcDbDimStyleTableRecord
  2
Groß (ISO)
 70
     0
 41
5.0
340
55
  0
ENDTAB
  0
TABLE
  2
BLOCK_RECORD
  5
1
330
0
100
AcDbSymbolTable
 70
    22
  0
BLOCK_RECORD
  5
70
330
1
100
AcDbSymbolTableRecord
100
AcDbBlockTableRecord
  2
*Model_Space
340
73
 70
     0
280
     1
281
     0
  0
BLOCK_RECORD
  5
6C
330
1
100
AcDbSymbolTableRecord
100
AcDbBlockTableRecord
  2
*Paper_Space
340
6F
 70
     0
280
     1
281
     0
  0
BLOCK_RECORD
  5
74
330
1
100
AcDbSymbolTableRecord
100
AcDbBlockTableRecord
  2
*Paper_Space0
340
77
 70
     0
280
     1
281
     0
  0
BLOCK_RECORD
  5
D6
330
1
100
AcDbSymbolTableRecord
100
AcDbBlockTableRecord
  2
DatumFilled45
340
0
 70
     0
280
     1
281
     0
  0
BLOCK_RECORD
  5
E2
330
1
100
AcDbSymbolTableRecord
100
AcDbBlockTableRecord
  2
Filled-1
340
0
 70
     0
280
     1
281
     0
  0
BLOCK_RECORD
  5
F1
330
1
100
AcDbSymbolTableRecord
100
AcDbBlockTableRecord
  2
Ränder Standardrahmen
340
0
102
{BLKREFS
331
117
102
}
 70
     0
280
     1
281
     0
  0
BLOCK_RECORD
  5
118
330
1
100
AcDbSymbolTableRecord
100
AcDbBlockTableRecord
  2
Schriftfelder perma CI-Pool
340
0
102
{BLKREFS
331
19D
102
}
 70
     0
280
     1
281
     0
  0
BLOCK_RECORD
  5
245
330
1
100
AcDbSymbolTableRecord
100
AcDbBlockTableRecord
  2
2DTransSchnitt0
340
0
102
{BLKREFS
331
265
102
}
 70
     0
280
     1
281
     0
  0
BLOCK_RECORD
  5
2E7
330
1
100
AcDbSymbolTableRecord
100
AcDbBlockTableRecord
  2
*D6
340
0
 70
     0
280
     1
281
     0
  0
BLOCK_RECORD
  5
3C6
330
1
100
AcDbSymbolTableRecord
100
AcDbBlockTableRecord
  2
*D7
340
0
 70
     0
280
     1
281
     0
  0
BLOCK_RECORD
  5
4A5
330
1
100
AcDbSymbolTableRecord
100
AcDbBlockTableRecord
  2
*D8
340
0
 70
     0
280
     1
281
     0
  0
BLOCK_RECORD
  5
596
330
1
100
AcDbSymbolTableRecord
100
AcDbBlockTableRecord
  2
*D9
340
0
 70
     0
280
     1
281
     0
  0
BLOCK_RECORD
  5
683
330
1
100
AcDbSymbolTableRecord
100
AcDbBlockTableRecord
  2
*D10
340
0
 70
     0
280
     1
281
     0
  0
BLOCK_RECORD
  5
762
330
1
100
AcDbSymbolTableRecord
100
AcDbBlockTableRecord
  2
*D11
340
0
 70
     0
280
     1
281
     0
  0
BLOCK_RECORD
  5
848
330
1
100
AcDbSymbolTableRecord
100
AcDbBlockTableRecord
  2
*D12
340
0
 70
     0
280
     1
281
     0
  0
BLOCK_RECORD
  5
935
330
1
100
AcDbSymbolTableRecord
100
AcDbBlockTableRecord
  2
*D13
340
0
 70
     0
280
     1
281
     0
  0
BLOCK_RECORD
  5
A14
330
1
100
AcDbSymbolTableRecord
100
AcDbBlockTableRecord
  2
*D14
340
0
 70
     0
280
     1
281
     0
  0
BLOCK_RECORD
  5
AF3
330
1
100
AcDbSymbolTableRecord
100
AcDbBlockTableRecord
  2
*D15
340
0
 70
     0
280
     1
281
     0
  0
BLOCK_RECORD
  5
BFC
330
1
100
AcDbSymbolTableRecord
100
AcDbBlockTableRecord
  2
*D16
340
0
 70
     0
280
     1
281
     0
  0
BLOCK_RECORD
  5
CDB
330
1
100
AcDbSymbolTableRecord
100
AcDbBlockTableRecord
  2
*D17
340
0
 70
     0
280
     1
281
     0
  0
BLOCK_RECORD
  5
DC8
330
1
100
AcDbSymbolTableRecord
100
AcDbBlockTableRecord
  2
*D18
340
0
 70
     0
280
     1
281
     0
  0
BLOCK_RECORD
  5
EAE
330
1
100
AcDbSymbolTableRecord
100
AcDbBlockTableRecord
  2
*D19
340
0
 70
     0
280
     1
281
     0
  0
BLOCK_RECORD
  5
FA0
330
1
100
AcDbSymbolTableRecord
100
AcDbBlockTableRecord
  2
*D20
340
0
 70
     0
280
     1
281
     0
  0
BLOCK_RECORD
  5
108D
330
1
100
AcDbSymbolTableRecord
100
AcDbBlockTableRecord
  2
*D21
340
0
 70
     0
280
     1
281
     0
  0
ENDTAB
  0
ENDSEC
  0
SECTION
  2
BLOCKS
  0
BLOCK
  5
71
330
70
100
AcDbEntity
  8
0
100
AcDbBlockBegin
  2
*Model_Space
 70
     0
 10
0.0
 20
0.0
 30
0.0
  3
*Model_Space
  1

  0
ENDBLK
  5
72
330
70
100
AcDbEntity
  8
0
100
AcDbBlockEnd
  0
BLOCK
  5
6D
330
6C
100
AcDbEntity
 67
     1
  8
0
100
AcDbBlockBegin
  2
*Paper_Space
 70
     0
 10
0.0
 20
0.0
 30
0.0
  3
*Paper_Space
  1

  0
ENDBLK
  5
6E
330
6C
100
AcDbEntity
 67
     1
  8
0
100
AcDbBlockEnd
  0
BLOCK
  5
75
330
74
100
AcDbEntity
 67
     1
  8
0
100
AcDbBlockBegin
  2
*Paper_Space0
 70
     0
 10
0.0
 20
0.0
 30
0.0
  3
*Paper_Space0
  1

  0
ENDBLK
  5
76
330
74
100
AcDbEntity
 67
     1
  8
0
100
AcDbBlockEnd
  0
BLOCK
  5
D7
330
D6
100
AcDbEntity
  8
0
100
AcDbBlockBegin
  2
DatumFilled45
 70
     0
 10
0.0
 20
0.0
 30
0.0
  3
DatumFilled45
  1

  0
POLYLINE
  5
D9
330
D6
100
AcDbEntity
  8
0
 62
     0
100
AcDb2dPolyline
 66
     1
 10
0.0
 20
0.0
 30
0.0
 70
   128
  0
VERTEX
  5
DA
330
D9
100
AcDbEntity
  8
0
 62
     0
100
AcDbVertex
100
AcDb2dVertex
 10
0.0
 20
1.0
 30
0.0
  0
VERTEX
  5
DB
330
D9
100
AcDbEntity
  8
0
 62
     0
100
AcDbVertex
100
AcDb2dVertex
 10
0.0
 20
-1.0
 30
0.0
  0
VERTEX
  5
DD
330
D9
100
AcDbEntity
  8
0
 62
     0
100
AcDbVertex
100
AcDb2dVertex
 10
-1.0
 20
0.0
 30
0.0
  0
VERTEX
  5
DE
330
D9
100
AcDbEntity
  8
0
 62
     0
100
AcDbVertex
100
AcDb2dVertex
 10
0.0
 20
1.0
 30
0.0
  0
SEQEND
  5
DC
330
D9
100
AcDbEntity
  8
0
 62
     0
  0
SOLID
  5
E0
330
D6
100
AcDbEntity
  8
0
 62
     0
100
AcDbTrace
 10
0.0
 20
1.0
 30
0.0
 11
0.0
 21
-1.0
 31
0.0
 12
-1.0
 22
0.0
 32
0.0
 13
0.0
 23
1.0
 33
0.0
  0
ENDBLK
  5
D8
330
D6
100
AcDbEntity
  8
0
100
AcDbBlockEnd
  0
BLOCK
  5
E3
330
E2
100
AcDbEntity
  8
0
100
AcDbBlockBegin
  2
Filled-1
 70
     0
 10
0.0
 20
0.0
 30
0.0
  3
Filled-1
  1

  0
LINE
  5
E5
330
E2
100
AcDbEntity
  8
0
 62
     0
100
AcDbLine
 10
-1.0
 20
0.0
 30
0.0
 11
0.0
 21
0.0
 31
0.0
  0
POLYLINE
  5
E6
330
E2
100
AcDbEntity
  8
0
 62
     0
100
AcDb2dPolyline
 66
     1
 10
0.0
 20
0.0
 30
0.0
 70
   128
  0
VERTEX
  5
E7
330
E6
100
AcDbEntity
  8
0
 62
     0
100
AcDbVertex
100
AcDb2dVertex
 10
-1.0
 20
-0.1
 30
0.0
  0
VERTEX
  5
E8
330
E6
100
AcDbEntity
  8
0
 62
     0
100
AcDbVertex
100
AcDb2dVertex
 10
0.0
 20
0.0
 30
0.0
  0
VERTEX
  5
EA
330
E6
100
AcDbEntity
  8
0
 62
     0
100
AcDbVertex
100
AcDb2dVertex
 10
-1.0
 20
0.1
 30
0.0
  0
VERTEX
  5
EB
330
E6
100
AcDbEntity
  8
0
 62
     0
100
AcDbVertex
100
AcDb2dVertex
 10
-1.0
 20
-0.1
 30
0.0
  0
SEQEND
  5
E9
330
E6
100
AcDbEntity
  8
0
 62
     0
  0
SOLID
  5
EC
330
E2
100
AcDbEntity
  8
0
 62
     0
100
AcDbTrace
 10
-1.0
 20
-0.1
 30
0.0
 11
0.0
 21
0.0
 31
0.0
 12
-1.0
 22
0.1
 32
0.0
 13
-1.0
 23
-0.1
 33
0.0
  0
LINE
  5
ED
330
E2
100
AcDbEntity
  8
0
 62
     0
100
AcDbLine
 10
-1.0
 20
-0.1
 30
0.0
 11
0.0
 21
0.0
 31
0.0
  0
LINE
  5
EE
330
E2
100
AcDbEntity
  8
0
 62
     0
100
AcDbLine
 10
0.0
 20
0.0
 30
0.0
 11
-1.0
 21
0.1
 31
0.0
  0
LINE
  5
EF
330
E2
100
AcDbEntity
  8
0
 62
     0
100
AcDbLine
 10
-1.0
 20
0.1
 30
0.0
 11
-1.0
 21
-0.1
 31
0.0
  0
ENDBLK
  5
E4
330
E2
100
AcDbEntity
  8
0
100
AcDbBlockEnd
  0
BLOCK
  5
F2
330
F1
100
AcDbEntity
  8
0
100
AcDbBlockBegin
  2
Ränder Standardrahmen
 70
     0
 10
0.0
 20
0.0
 30
0.0
  3
Ränder Standardrahmen
  1

  0
POLYLINE
  5
F4
330
F1
100
AcDbEntity
  8
Rahmen (ISO)
100
AcDb2dPolyline
 66
     1
 10
0.0
 20
0.0
 30
0.0
 70
   128
  0
VERTEX
  5
F5
330
F4
100
AcDbEntity
  8
Rahmen (ISO)
100
AcDbVertex
100
AcDb2dVertex
 10
10.0
 20
10.0
 30
0.0
  0
VERTEX
  5
F6
330
F4
100
AcDbEntity
  8
Rahmen (ISO)
100
AcDbVertex
100
AcDb2dVertex
 10
10.0
 20
200.0
 30
0.0
  0
VERTEX
  5
F8
330
F4
100
AcDbEntity
  8
Rahmen (ISO)
100
AcDbVertex
100
AcDb2dVertex
 10
287.0000076293946
 20
200.0
 30
0.0
  0
VERTEX
  5
F9
330
F4
100
AcDbEntity
  8
Rahmen (ISO)
100
AcDbVertex
100
AcDb2dVertex
 10
287.0000076293946
 20
10.0
 30
0.0
  0
VERTEX
  5
FA
330
F4
100
AcDbEntity
  8
Rahmen (ISO)
100
AcDbVertex
100
AcDb2dVertex
 10
10.0
 20
10.0
 30
0.0
  0
SEQEND
  5
F7
330
F4
100
AcDbEntity
  8
Rahmen (ISO)
  0
POLYLINE
  5
FB
330
F1
100
AcDbEntity
  8
Rahmen (ISO)
100
AcDb2dPolyline
 66
     1
 10
0.0
 20
0.0
 30
0.0
 70
   128
  0
VERTEX
  5
FC
330
FB
100
AcDbEntity
  8
Rahmen (ISO)
100
AcDbVertex
100
AcDb2dVertex
 10
148.5000038146973
 20
0.0
 30
0.0
  0
VERTEX
  5
FD
330
FB
100
AcDbEntity
  8
Rahmen (ISO)
100
AcDbVertex
100
AcDb2dVertex
 10
148.5000038146973
 20
10.0
 30
0.0
  0
VERTEX
  5
FF
330
FB
100
AcDbEntity
  8
Rahmen (ISO)
100
AcDbVertex
100
AcDb2dVertex
 10
145.6132507324219
 20
5.0
 30
0.0
  0
VERTEX
  5
100
330
FB
100
AcDbEntity
  8
Rahmen (ISO)
100
AcDbVertex
100
AcDb2dVertex
 10
151.3867473602295
 20
5.0
 30
0.0
  0
VERTEX
  5
101
330
FB
100
AcDbEntity
  8
Rahmen (ISO)
100
AcDbVertex
100
AcDb2dVertex
 10
148.5000038146973
 20
10.0
 30
0.0
  0
SEQEND
  5
FE
330
FB
100
AcDbEntity
  8
Rahmen (ISO)
  0
POLYLINE
  5
102
330
F1
100
AcDbEntity
  8
Rahmen (ISO)
100
AcDb2dPolyline
 66
     1
 10
0.0
 20
0.0
 30
0.0
 70
   128
  0
VERTEX
  5
103
330
102
100
AcDbEntity
  8
Rahmen (ISO)
100
AcDbVertex
100
AcDb2dVertex
 10
148.5000038146973
 20
210.0
 30
0.0
  0
VERTEX
  5
104
330
102
100
AcDbEntity
  8
Rahmen (ISO)
100
AcDbVertex
100
AcDb2dVertex
 10
148.5000038146973
 20
200.0
 30
0.0
  0
VERTEX
  5
106
330
102
100
AcDbEntity
  8
Rahmen (ISO)
100
AcDbVertex
100
AcDb2dVertex
 10
145.6132507324219
 20
205.0
 30
0.0
  0
VERTEX
  5
107
330
102
100
AcDbEntity
  8
Rahmen (ISO)
100
AcDbVertex
100
AcDb2dVertex
 10
151.3867473602295
 20
205.0
 30
0.0
  0
VERTEX
  5
108
330
102
100
AcDbEntity
  8
Rahmen (ISO)
100
AcDbVertex
100
AcDb2dVertex
 10
148.5000038146973
 20
200.0
 30
0.0
  0
SEQEND
  5
105
330
102
100
AcDbEntity
  8
Rahmen (ISO)
  0
POLYLINE
  5
109
330
F1
100
AcDbEntity
  8
Rahmen (ISO)
100
AcDb2dPolyline
 66
     1
 10
0.0
 20
0.0
 30
0.0
 70
   128
  0
VERTEX
  5
10A
330
109
100
AcDbEntity
  8
Rahmen (ISO)
100
AcDbVertex
100
AcDb2dVertex
 10
0.0
 20
105.0
 30
0.0
  0
VERTEX
  5
10B
330
109
100
AcDbEntity
  8
Rahmen (ISO)
100
AcDbVertex
100
AcDb2dVertex
 10
10.0
 20
105.0
 30
0.0
  0
VERTEX
  5
10D
330
109
100
AcDbEntity
  8
Rahmen (ISO)
100
AcDbVertex
100
AcDb2dVertex
 10
5.0
 20
107.8867530822754
 30
0.0
  0
VERTEX
  5
10E
330
109
100
AcDbEntity
  8
Rahmen (ISO)
100
AcDbVertex
100
AcDb2dVertex
 10
5.0
 20
102.1132469177246
 30
0.0
  0
VERTEX
  5
10F
330
109
100
AcDbEntity
  8
Rahmen (ISO)
100
AcDbVertex
100
AcDb2dVertex
 10
10.0
 20
105.0
 30
0.0
  0
SEQEND
  5
10C
330
109
100
AcDbEntity
  8
Rahmen (ISO)
  0
POLYLINE
  5
110
330
F1
100
AcDbEntity
  8
Rahmen (ISO)
100
AcDb2dPolyline
 66
     1
 10
0.0
 20
0.0
 30
0.0
 70
   128
  0
VERTEX
  5
111
330
110
100
AcDbEntity
  8
Rahmen (ISO)
100
AcDbVertex
100
AcDb2dVertex
 10
297.0000076293946
 20
105.0
 30
0.0
  0
VERTEX
  5
112
330
110
100
AcDbEntity
  8
Rahmen (ISO)
100
AcDbVertex
100
AcDb2dVertex
 10
287.0000076293946
 20
105.0
 30
0.0
  0
VERTEX
  5
114
330
110
100
AcDbEntity
  8
Rahmen (ISO)
100
AcDbVertex
100
AcDb2dVertex
 10
292.0000076293945
 20
107.8867530822754
 30
0.0
  0
VERTEX
  5
115
330
110
100
AcDbEntity
  8
Rahmen (ISO)
100
AcDbVertex
100
AcDb2dVertex
 10
292.0000076293945
 20
102.1132469177246
 30
0.0
  0
VERTEX
  5
116
330
110
100
AcDbEntity
  8
Rahmen (ISO)
100
AcDbVertex
100
AcDb2dVertex
 10
287.0000076293946
 20
105.0
 30
0.0
  0
SEQEND
  5
113
330
110
100
AcDbEntity
  8
Rahmen (ISO)
  0
ENDBLK
  5
F3
330
F1
100
AcDbEntity
  8
0
100
AcDbBlockEnd
  0
BLOCK
  5
119
330
118
100
AcDbEntity
  8
0
100
AcDbBlockBegin
  2
Schriftfelder perma CI-Pool
 70
     2
 10
0.0
 20
0.0
 30
0.0
  3
Schriftfelder perma CI-Pool
  1

  0
HATCH
  5
122
330
118
100
AcDbEntity
  8
Schraffur (ISO)
 62
   242
420
 13640771
100
AcDbHatch
 10
0.0
 20
0.0
 30
0.0
210
0.0
220
0.0
230
1.0
  2
SOLID
 70
     1
 71
     0
 91
        2
 92
        0
 93
        1
 72
     2
 10
292.1655214773733
 20
118.936538419629
 40
1.446945337620578
 50
0.0
 51
360.0
 73
     1
 97
        0
 92
        1
 93
        6
 72
     1
 10
290.4774185834826
 20
121.34811398233
 11
290.4774185834826
 21
120.6587478477342
 72
     2
 10
292.1655214773733
 20
118.936538419629
 40
2.411575562700964
 50
225.5729959991942
 51
489.2964802391872
 73
     0
 72
     1
 10
290.6381902876627
 20
117.0702704507795
 11
290.6381902876627
 21
114.5957024067673
 72
     1
 10
290.6381902876627
 20
114.5957024067673
 11
289.5127883584022
 21
114.5957024067673
 72
     1
 10
289.5127883584022
 20
114.5957024067673
 11
289.5127883584022
 21
121.34811398233
 72
     1
 10
289.5127883584022
 20
121.34811398233
 11
290.4774185834826
 21
121.34811398233
 97
        0
 75
     0
 76
     1
 98
        1
 10
0.0
 20
0.0
450
        0
451
        0
460
0.0
461
0.0
452
        0
462
0.0
453
        0
470

  0
HATCH
  5
12A
330
118
100
AcDbEntity
  8
Schraffur (ISO)
 62
   242
420
 13640771
100
AcDbHatch
 10
0.0
 20
0.0
 30
0.0
210
0.0
220
0.0
230
1.0
  2
SOLID
 70
     1
 71
     0
 91
        1
 92
        1
 93
        7
 72
     2
 10
300.8873864291418
 20
120.9461847218798
 40
0.4019292604501608
 50
90.0
 51
180.0
 73
     1
 72
     1
 10
300.4854571686916
 20
120.9461847218798
 11
300.4854571686916
 21
116.524962856928
 72
     1
 10
300.4854571686916
 20
116.524962856928
 11
301.450087393772
 21
116.524962856928
 72
     1
 10
301.450087393772
 20
116.524962856928
 11
301.450087393772
 21
120.3834837572496
 72
     1
 10
301.450087393772
 20
120.3834837572496
 11
303.1381902876627
 21
120.3834837572496
 72
     1
 10
303.1381902876627
 20
120.3834837572496
 11
303.1381902876627
 21
121.34811398233
 72
     1
 10
303.1381902876627
 20
121.34811398233
 11
300.8873864291418
 21
121.34811398233
 97
        0
 75
     0
 76
     1
 98
        1
 10
0.0
 20
0.0
450
        0
451
        0
460
0.0
461
0.0
452
        0
462
0.0
453
        0
470

  0
HATCH
  5
139
330
118
100
AcDbEntity
  8
Schraffur (ISO)
 62
   242
420
 13640771
100
AcDbHatch
 10
0.0
 20
0.0
 30
0.0
210
0.0
220
0.0
230
1.0
  2
SOLID
 70
     1
 71
     0
 91
        1
 92
        1
 93
       14
 72
     2
 10
308.1623060432897
 20
120.9461847218798
 40
0.4019292604501608
 50
0.0
 51
90.0
 73
     1
 72
     1
 10
308.1623060432897
 20
121.34811398233
 11
303.821470030428
 21
121.34811398233
 72
     2
 10
303.821470030428
 20
120.9461847218798
 40
0.4019292604501608
 50
90.0
 51
180.0
 73
     1
 72
     1
 10
303.4195407699778
 20
120.9461847218798
 11
303.4195407699778
 21
116.524962856928
 72
     1
 10
303.4195407699778
 20
116.524962856928
 11
304.3841709950582
 21
116.524962856928
 72
     1
 10
304.3841709950582
 20
116.524962856928
 11
304.3841709950582
 21
120.3834837572496
 72
     1
 10
304.3841709950582
 20
120.3834837572496
 11
305.4291870722286
 21
120.3834837572496
 72
     1
 10
305.4291870722286
 20
120.3834837572496
 11
305.4291870722286
 21
116.524962856928
 72
     1
 10
305.4291870722286
 20
116.524962856928
 11
306.554589001489
 21
116.524962856928
 72
     1
 10
306.554589001489
 20
116.524962856928
 11
306.554589001489
 21
120.3834837572496
 72
     1
 10
306.554589001489
 20
120.3834837572496
 11
307.5996050786595
 21
120.3834837572496
 72
     1
 10
307.5996050786595
 20
120.3834837572496
 11
307.5996050786595
 21
116.524962856928
 72
     1
 10
307.5996050786595
 20
116.524962856928
 11
308.5642353037398
 21
116.524962856928
 72
     1
 10
308.5642353037398
 20
116.524962856928
 11
308.5642353037398
 21
120.9461847218798
 97
        0
 75
     0
 76
     1
 98
        1
 10
0.0
 20
0.0
450
        0
451
        0
460
0.0
461
0.0
452
        0
462
0.0
453
        0
470

  0
HATCH
  5
141
330
118
100
AcDbEntity
  8
Schraffur (ISO)
 62
   242
420
 13640771
100
AcDbHatch
 10
0.0
 20
0.0
 30
0.0
210
0.0
220
0.0
230
1.0
  2
SOLID
 70
     1
 71
     0
 91
        2
 92
        0
 93
        1
 72
     2
 10
311.7796693873412
 20
118.936538419629
 40
1.446945337620578
 50
0.0
 51
360.0
 73
     1
 97
        0
 92
        1
 93
        6
 72
     2
 10
311.7796693873412
 20
118.936538419629
 40
2.411575562700964
 50
42.83342806606797
 51
317.1665719339312
 73
     1
 72
     1
 10
313.5481581333219
 20
117.2969823059335
 11
313.5481581333219
 21
116.524962856928
 72
     1
 10
313.5481581333219
 20
116.524962856928
 11
314.5127883584022
 21
116.524962856928
 72
     1
 10
314.5127883584022
 20
116.524962856928
 11
314.5127883584022
 21
121.34811398233
 72
     1
 10
314.5127883584022
 20
121.34811398233
 11
313.5481581333219
 21
121.34811398233
 72
     1
 10
313.5481581333219
 20
121.34811398233
 11
313.5481581333219
 21
120.5760945333244
 97
        0
 75
     0
 76
     1
 98
        1
 10
0.0
 20
0.0
450
        0
451
        0
460
0.0
461
0.0
452
        0
462
0.0
453
        0
470

  0
HATCH
  5
146
330
118
100
AcDbEntity
  8
Schraffur (ISO)
 62
   242
420
 13640771
100
AcDbHatch
 10
0.0
 20
0.0
 30
0.0
210
0.0
220
0.0
230
1.0
  2
SOLID
 70
     1
 71
     0
 91
        1
 92
        1
 93
        4
 72
     1
 10
291.361662956473
 20
114.5957024067673
 11
314.5127883584022
 21
114.5957024067673
 72
     1
 10
314.5127883584022
 20
114.5957024067673
 11
314.5127883584022
 21
115.5603326318476
 72
     1
 10
314.5127883584022
 20
115.5603326318476
 11
291.361662956473
 21
115.5603326318476
 72
     1
 10
291.361662956473
 20
115.5603326318476
 11
291.361662956473
 21
114.5957024067673
 97
        0
 75
     0
 76
     1
 98
        1
 10
0.0
 20
0.0
450
        0
451
        0
460
0.0
461
0.0
452
        0
462
0.0
453
        0
470

  0
HATCH
  5
14D
330
118
100
AcDbEntity
  8
Schraffur (ISO)
 62
   242
420
 13640771
100
AcDbHatch
 10
0.0
 20
0.0
 30
0.0
210
0.0
220
0.0
230
1.0
  2
SOLID
 70
     1
 71
     0
 91
        2
 92
        0
 93
        2
 72
     2
 10
297.4655214773733
 20
118.936538419629
 40
1.446945337620578
 50
19.471220634491
 51
160.528779365509
 73
     1
 72
     1
 10
296.1013283303897
 20
119.4188535321692
 11
298.8297146243571
 21
119.4188535321692
 97
        0
 92
        1
 93
        4
 72
     2
 10
297.4655214773733
 20
118.936538419629
 40
2.411575562700964
 50
348.4630409671848
 51
697.8233318603407
 73
     1
 72
     1
 10
299.6986992222124
 20
118.0262561257379
 11
298.5902600938928
 21
118.0262561257379
 72
     2
 10
297.4655214773733
 20
118.936538419629
 40
1.446945337620578
 50
38.98421089227273
 51
160.5287793655103
 73
     0
 72
     1
 10
296.1013283303897
 20
118.4542233070888
 11
299.8283733192863
 21
118.4542233070888
 97
        0
 75
     0
 76
     1
 98
        1
 10
0.0
 20
0.0
450
        0
451
        0
460
0.0
461
0.0
452
        0
462
0.0
453
        0
470

  0
LINE
  5
14E
330
118
100
AcDbEntity
  8
Titel (ISO)
100
AcDbLine
 10
137.5127883584022
 20
105.8481139823299
 30
0.0
 11
327.5127883584023
 21
105.84811398233
 31
0.0
  0
LINE
  5
14F
330
118
100
AcDbEntity
  8
Titel (ISO)
100
AcDbLine
 10
327.5127883584023
 20
105.84811398233
 30
0.0
 11
327.5127883584023
 21
123.34811398233
 31
0.0
  0
LINE
  5
150
330
118
100
AcDbEntity
  8
Titel (ISO)
100
AcDbLine
 10
327.5127883584023
 20
123.34811398233
 30
0.0
 11
137.5127883584022
 21
123.3481139823298
 31
0.0
  0
LINE
  5
151
330
118
100
AcDbEntity
  8
Titel (ISO)
100
AcDbLine
 10
137.5127883584022
 20
123.3481139823298
 30
0.0
 11
137.5127883584022
 21
105.8481139823299
 31
0.0
  0
LINE
  5
152
330
118
100
AcDbEntity
  8
Skizziergeometrie (ISO)
 62
   242
420
 13640771
370
     9
100
AcDbLine
 10
290.4774185834826
 20
121.34811398233
 30
0.0
 11
289.5127883584022
 21
121.34811398233
 31
0.0
  0
LINE
  5
153
330
118
100
AcDbEntity
  8
Skizziergeometrie (ISO)
 62
   242
420
 13640771
370
     9
100
AcDbLine
 10
290.4774185834826
 20
120.6587478477342
 30
0.0
 11
290.4774185834826
 21
121.34811398233
 31
0.0
  0
LINE
  5
154
330
118
100
AcDbEntity
  8
Skizziergeometrie (ISO)
 62
   242
420
 13640771
370
     9
100
AcDbLine
 10
289.5127883584022
 20
121.34811398233
 30
0.0
 11
289.5127883584022
 21
114.5957024067673
 31
0.0
  0
CIRCLE
  5
155
330
118
100
AcDbEntity
  8
Skizziergeometrie (ISO)
 62
   242
420
 13640771
370
     9
100
AcDbCircle
 10
292.1655214773733
 20
118.936538419629
 30
0.0
 40
1.446945337620578
  0
LINE
  5
156
330
118
100
AcDbEntity
  8
Skizziergeometrie (ISO)
 62
   242
420
 13640771
370
     9
100
AcDbLine
 10
289.5127883584022
 20
114.5957024067673
 30
0.0
 11
290.6381902876627
 21
114.5957024067673
 31
0.0
  0
LINE
  5
157
330
118
100
AcDbEntity
  8
Skizziergeometrie (ISO)
 62
   242
420
 13640771
370
     9
100
AcDbLine
 10
290.6381902876627
 20
114.5957024067673
 30
0.0
 11
290.6381902876627
 21
117.0702704507795
 31
0.0
  0
ARC
  5
158
330
118
100
AcDbEntity
  8
Skizziergeometrie (ISO)
 62
   242
420
 13640771
370
     9
100
AcDbCircle
 10
292.1655214773733
 20
118.936538419629
 30
0.0
 40
2.411575562700964
100
AcDbArc
 50
230.7035197608128
 51
134.4270040008057
  0
LINE
  5
159
330
118
100
AcDbEntity
  8
Skizziergeometrie (ISO)
 62
   242
420
 13640771
370
     9
100
AcDbLine
 10
291.361662956473
 20
115.5603326318476
 30
0.0
 11
291.361662956473
 21
114.5957024067673
 31
0.0
  0
ARC
  5
15A
330
118
100
AcDbEntity
  8
Skizziergeometrie (ISO)
 62
   242
420
 13640771
370
     9
100
AcDbCircle
 10
300.8873864291418
 20
120.9461847218798
 30
0.0
 40
0.4019292604501608
100
AcDbArc
 50
90.0
 51
180.0
  0
LINE
  5
15B
330
118
100
AcDbEntity
  8
Skizziergeometrie (ISO)
 62
   242
420
 13640771
370
     9
100
AcDbLine
 10
301.450087393772
 20
120.3834837572496
 30
0.0
 11
301.450087393772
 21
116.524962856928
 31
0.0
  0
LINE
  5
15C
330
118
100
AcDbEntity
  8
Skizziergeometrie (ISO)
 62
   242
420
 13640771
370
     9
100
AcDbLine
 10
300.4854571686916
 20
116.524962856928
 30
0.0
 11
300.4854571686916
 21
120.9461847218798
 31
0.0
  0
LINE
  5
15D
330
118
100
AcDbEntity
  8
Skizziergeometrie (ISO)
 62
   242
420
 13640771
370
     9
100
AcDbLine
 10
301.450087393772
 20
116.524962856928
 30
0.0
 11
300.4854571686916
 21
116.524962856928
 31
0.0
  0
LINE
  5
15E
330
118
100
AcDbEntity
  8
Skizziergeometrie (ISO)
 62
   242
420
 13640771
370
     9
100
AcDbLine
 10
313.5481581333219
 20
120.5760945333244
 30
0.0
 11
313.5481581333219
 21
121.34811398233
 31
0.0
  0
LINE
  5
15F
330
118
100
AcDbEntity
  8
Skizziergeometrie (ISO)
 62
   242
420
 13640771
370
     9
100
AcDbLine
 10
314.5127883584022
 20
121.34811398233
 30
0.0
 11
314.5127883584022
 21
116.524962856928
 31
0.0
  0
LINE
  5
160
330
118
100
AcDbEntity
  8
Skizziergeometrie (ISO)
 62
   242
420
 13640771
370
     9
100
AcDbLine
 10
314.5127883584022
 20
116.524962856928
 30
0.0
 11
313.5481581333219
 21
116.524962856928
 31
0.0
  0
CIRCLE
  5
161
330
118
100
AcDbEntity
  8
Skizziergeometrie (ISO)
 62
   242
420
 13640771
370
     9
100
AcDbCircle
 10
311.7796693873412
 20
118.936538419629
 30
0.0
 40
1.446945337620578
  0
ARC
  5
162
330
118
100
AcDbEntity
  8
Skizziergeometrie (ISO)
 62
   242
420
 13640771
370
     9
100
AcDbCircle
 10
308.1623060432897
 20
120.9461847218798
 30
0.0
 40
0.4019292604501608
100
AcDbArc
 50
0.0
 51
90.0
  0
LINE
  5
163
330
118
100
AcDbEntity
  8
Skizziergeometrie (ISO)
 62
   242
420
 13640771
370
     9
100
AcDbLine
 10
308.5642353037398
 20
120.9461847218798
 30
0.0
 11
308.5642353037398
 21
116.524962856928
 31
0.0
  0
LINE
  5
164
330
118
100
AcDbEntity
  8
Skizziergeometrie (ISO)
 62
   242
420
 13640771
370
     9
100
AcDbLine
 10
307.5996050786595
 20
120.3834837572496
 30
0.0
 11
307.5996050786595
 21
116.524962856928
 31
0.0
  0
LINE
  5
165
330
118
100
AcDbEntity
  8
Skizziergeometrie (ISO)
 62
   242
420
 13640771
370
     9
100
AcDbLine
 10
306.554589001489
 20
120.3834837572496
 30
0.0
 11
307.5996050786595
 21
120.3834837572496
 31
0.0
  0
LINE
  5
166
330
118
100
AcDbEntity
  8
Skizziergeometrie (ISO)
 62
   242
420
 13640771
370
     9
100
AcDbLine
 10
306.554589001489
 20
120.3834837572496
 30
0.0
 11
306.554589001489
 21
116.524962856928
 31
0.0
  0
LINE
  5
167
330
118
100
AcDbEntity
  8
Skizziergeometrie (ISO)
 62
   242
420
 13640771
370
     9
100
AcDbLine
 10
313.5481581333219
 20
116.524962856928
 30
0.0
 11
313.5481581333219
 21
117.2969823059335
 31
0.0
  0
LINE
  5
168
330
118
100
AcDbEntity
  8
Skizziergeometrie (ISO)
 62
   242
420
 13640771
370
     9
100
AcDbLine
 10
303.4195407699778
 20
120.9461847218798
 30
0.0
 11
303.4195407699778
 21
116.524962856928
 31
0.0
  0
LINE
  5
169
330
118
100
AcDbEntity
  8
Skizziergeometrie (ISO)
 62
   242
420
 13640771
370
     9
100
AcDbLine
 10
303.4195407699778
 20
116.524962856928
 30
0.0
 11
304.3841709950582
 21
116.524962856928
 31
0.0
  0
LINE
  5
16A
330
118
100
AcDbEntity
  8
Skizziergeometrie (ISO)
 62
   242
420
 13640771
370
     9
100
AcDbLine
 10
304.3841709950582
 20
116.524962856928
 30
0.0
 11
304.3841709950582
 21
120.3834837572496
 31
0.0
  0
LINE
  5
16B
330
118
100
AcDbEntity
  8
Skizziergeometrie (ISO)
 62
   242
420
 13640771
370
     9
100
AcDbLine
 10
305.4291870722286
 20
116.524962856928
 30
0.0
 11
305.4291870722286
 21
120.3834837572496
 31
0.0
  0
LINE
  5
16C
330
118
100
AcDbEntity
  8
Skizziergeometrie (ISO)
 62
   242
420
 13640771
370
     9
100
AcDbLine
 10
303.821470030428
 20
121.34811398233
 30
0.0
 11
308.1623060432897
 21
121.34811398233
 31
0.0
  0
LINE
  5
16D
330
118
100
AcDbEntity
  8
Skizziergeometrie (ISO)
 62
   242
420
 13640771
370
     9
100
AcDbLine
 10
305.4291870722286
 20
116.524962856928
 30
0.0
 11
306.554589001489
 21
116.524962856928
 31
0.0
  0
ARC
  5
16E
330
118
100
AcDbEntity
  8
Skizziergeometrie (ISO)
 62
   242
420
 13640771
370
     9
100
AcDbCircle
 10
303.821470030428
 20
120.9461847218798
 30
0.0
 40
0.4019292604501608
100
AcDbArc
 50
90.0
 51
180.0
  0
LINE
  5
16F
330
118
100
AcDbEntity
  8
Skizziergeometrie (ISO)
 62
   242
420
 13640771
370
     9
100
AcDbLine
 10
303.1381902876627
 20
120.3834837572496
 30
0.0
 11
301.450087393772
 21
120.3834837572496
 31
0.0
  0
LINE
  5
170
330
118
100
AcDbEntity
  8
Skizziergeometrie (ISO)
 62
   242
420
 13640771
370
     9
100
AcDbLine
 10
303.1381902876627
 20
121.34811398233
 30
0.0
 11
303.1381902876627
 21
120.3834837572496
 31
0.0
  0
LINE
  5
171
330
118
100
AcDbEntity
  8
Skizziergeometrie (ISO)
 62
   242
420
 13640771
370
     9
100
AcDbLine
 10
300.8873864291418
 20
121.34811398233
 30
0.0
 11
303.1381902876627
 21
121.34811398233
 31
0.0
  0
ARC
  5
172
330
118
100
AcDbEntity
  8
Skizziergeometrie (ISO)
 62
   242
420
 13640771
370
     9
100
AcDbCircle
 10
311.7796693873412
 20
118.936538419629
 30
0.0
 40
2.411575562700964
100
AcDbArc
 50
42.83342806606797
 51
317.166571933932
  0
LINE
  5
173
330
118
100
AcDbEntity
  8
Skizziergeometrie (ISO)
 62
   242
420
 13640771
370
     9
100
AcDbLine
 10
314.5127883584022
 20
115.5603326318476
 30
0.0
 11
314.5127883584022
 21
114.5957024067673
 31
0.0
  0
LINE
  5
174
330
118
100
AcDbEntity
  8
Skizziergeometrie (ISO)
 62
   242
420
 13640771
370
     9
100
AcDbLine
 10
313.5481581333219
 20
121.34811398233
 30
0.0
 11
314.5127883584022
 21
121.34811398233
 31
0.0
  0
LINE
  5
175
330
118
100
AcDbEntity
  8
Skizziergeometrie (ISO)
 62
   242
420
 13640771
370
     9
100
AcDbLine
 10
307.5996050786595
 20
116.524962856928
 30
0.0
 11
308.5642353037398
 21
116.524962856928
 31
0.0
  0
LINE
  5
176
330
118
100
AcDbEntity
  8
Skizziergeometrie (ISO)
 62
   242
420
 13640771
370
     9
100
AcDbLine
 10
304.3841709950582
 20
120.3834837572496
 30
0.0
 11
305.4291870722286
 21
120.3834837572496
 31
0.0
  0
LINE
  5
177
330
118
100
AcDbEntity
  8
Skizziergeometrie (ISO)
 62
   242
420
 13640771
370
     9
100
AcDbLine
 10
291.361662956473
 20
115.5603326318476
 30
0.0
 11
314.5127883584022
 21
115.5603326318476
 31
0.0
  0
LINE
  5
178
330
118
100
AcDbEntity
  8
Skizziergeometrie (ISO)
 62
   242
420
 13640771
370
     9
100
AcDbLine
 10
291.361662956473
 20
114.5957024067673
 30
0.0
 11
314.5127883584022
 21
114.5957024067673
 31
0.0
  0
LINE
  5
179
330
118
100
AcDbEntity
  8
Skizziergeometrie (ISO)
 62
   242
420
 13640771
370
     9
100
AcDbLine
 10
298.5902600938929
 20
118.0262561257379
 30
0.0
 11
299.6986992222124
 21
118.0262561257379
 31
0.0
  0
LINE
  5
17A
330
118
100
AcDbEntity
  8
Skizziergeometrie (ISO)
 62
   242
420
 13640771
370
     9
100
AcDbLine
 10
296.1013283303897
 20
119.4188535321692
 30
0.0
 11
298.829714624357
 21
119.4188535321692
 31
0.0
  0
ARC
  5
17B
330
118
100
AcDbEntity
  8
Skizziergeometrie (ISO)
 62
   242
420
 13640771
370
     9
100
AcDbCircle
 10
297.4655214773733
 20
118.936538419629
 30
0.0
 40
1.446945337620578
100
AcDbArc
 50
19.471220634491
 51
160.528779365509
  0
LINE
  5
17C
330
118
100
AcDbEntity
  8
Skizziergeometrie (ISO)
 62
   242
420
 13640771
370
     9
100
AcDbLine
 10
296.1013283303897
 20
118.4542233070888
 30
0.0
 11
299.8283733192863
 21
118.4542233070888
 31
0.0
  0
ARC
  5
17D
330
118
100
AcDbEntity
  8
Skizziergeometrie (ISO)
 62
   242
420
 13640771
370
     9
100
AcDbCircle
 10
297.4655214773733
 20
118.936538419629
 30
0.0
 40
1.446945337620578
100
AcDbArc
 50
199.4712206344896
 51
321.0157891077264
  0
ARC
  5
17E
330
118
100
AcDbEntity
  8
Skizziergeometrie (ISO)
 62
   242
420
 13640771
370
     9
100
AcDbCircle
 10
297.4655214773733
 20
118.936538419629
 30
0.0
 40
2.411575562700964
100
AcDbArc
 50
348.4630409671848
 51
337.8233318603407
  0
LINE
  5
17F
330
118
100
AcDbEntity
  8
Titel (ISO)
100
AcDbLine
 10
137.5127883584022
 20
118.3382056155221
 30
0.0
 11
137.5127883584022
 21
105.8481139823299
 31
0.0
  0
LINE
  5
180
330
118
100
AcDbEntity
  8
Titel (ISO)
100
AcDbLine
 10
217.1992765159977
 20
123.3481139823299
 30
0.0
 11
235.3992765159975
 21
123.3481139823299
 31
0.0
  0
LINE
  5
181
330
118
100
AcDbEntity
  8
Titel (ISO)
100
AcDbLine
 10
152.5127883584022
 20
123.3481139823298
 30
0.0
 11
152.5127883584022
 21
105.8481139823299
 31
0.0
  0
LINE
  5
182
330
118
100
AcDbEntity
  8
Titel (ISO)
100
AcDbLine
 10
177.5127883584022
 20
123.3481139823298
 30
0.0
 11
177.5127883584022
 21
105.8481139823299
 31
0.0
  0
LINE
  5
183
330
118
100
AcDbEntity
  8
Titel (ISO)
100
AcDbLine
 10
287.5127883584022
 20
123.34811398233
 30
0.0
 11
287.5127883584022
 21
105.84811398233
 31
0.0
  0
LINE
  5
184
330
118
100
AcDbEntity
  8
Titel (ISO)
100
AcDbLine
 10
137.5127883584022
 20
114.5981139823299
 30
0.0
 11
177.5127883584022
 21
114.5981139823299
 31
0.0
  0
LINE
  5
185
330
118
100
AcDbEntity
  8
Titel (ISO)
100
AcDbLine
 10
204.5127883584022
 20
123.3481139823299
 30
0.0
 11
204.5127883584022
 21
105.8481139823299
 31
0.0
  0
LINE
  5
186
330
118
100
AcDbEntity
  8
Titel (ISO)
100
AcDbLine
 10
177.5127883584022
 20
114.5981139823299
 30
0.0
 11
204.5127883584022
 21
114.5981139823299
 31
0.0
  0
MTEXT
  5
187
330
118
100
AcDbEntity
  8
Titel (ISO)
100
AcDbMText
 10
138.5127883584022
 20
122.3481139823299
 30
0.0
 40
2.000000029802322
 41
8.499999999999978
 46
0.0
 71
     1
 72
     1
  1
\fArial|b1|i0;\H2.0000;Scale:
  7
Notiztext (DIN)
 73
     1
 44
1.0
  0
MTEXT
  5
189
330
118
100
AcDbEntity
  8
Titel (ISO)
100
AcDbMText
 10
138.5127883584022
 20
113.5981139823299
 30
0.0
 40
2.000000029802322
 41
6.521341204643249
 46
0.0
 71
     1
 72
     1
  1
\fArial|b1|i0;\H2.0000;Size:
  7
Notiztext (DIN)
 73
     1
 44
1.0
  0
MTEXT
  5
18A
330
118
100
AcDbEntity
  8
Titel (ISO)
100
AcDbMText
 10
153.5127883584022
 20
122.3481139823299
 30
0.0
 40
2.000000029802322
 41
7.000000000000081
 46
0.0
 71
     1
 72
     1
  1
\fArial|b1|i0;\H2.0000;Date:
  7
Notiztext (DIN)
 73
     1
 44
1.0
  0
MTEXT
  5
18B
330
118
100
AcDbEntity
  8
Titel (ISO)
100
AcDbMText
 10
153.5127883584022
 20
113.5981139823299
 30
0.0
 40
2.000000029802322
 41
23.13109874725342
 46
0.0
 71
     1
 72
     1
  1
\fArial|b1|i0;\H2.0000;Revision / drawn:
  7
Notiztext (DIN)
 73
     1
 44
1.0
  0
MTEXT
  5
18C
330
118
100
AcDbEntity
  8
Titel (ISO)
100
AcDbMText
 10
205.5127883584022
 20
122.34811398233
 30
0.0
 40
2.000000029802322
 41
16.30000000000002
 46
0.0
 71
     1
 72
     1
  1
\fArial|b1|i0;\H2.0000;Description:
  7
Notiztext (DIN)
 73
     1
 44
1.0
  0
MTEXT
  5
18D
330
118
100
AcDbEntity
  8
Titel (ISO)
100
AcDbMText
 10
178.5127883584022
 20
121.3321078699984
 30
0.0
 40
2.000000029802322
 41
11.48627996444702
 46
0.0
 71
     4
 72
     1
  1
\fArial|b1|i0;\H2.0000;Material:
  7
Notiztext (DIN)
 73
     1
 44
1.0
  0
MTEXT
  5
18E
330
118
100
AcDbEntity
  8
Titel (ISO)
100
AcDbMText
 10
178.5127883584022
 20
112.5821078699984
 30
0.0
 40
2.000000029802322
 41
15.0
 46
0.0
 71
     4
 72
     1
  1
\fArial|b1|i0;\H2.0000;Part No.
  7
Notiztext (DIN)
 73
     1
 44
1.0
  0
MTEXT
  5
18F
102
{ACAD_XDICTIONARY
360
11A4
102
}
330
118
100
AcDbEntity
  8
Titel (ISO)
100
AcDbMText
 10
289.5127883584022
 20
112.6664066478115
 30
0.0
 40
2.5
 41
36.99999999999996
 46
0.0
 71
     1
 72
     1
  1
{\fArial|b1|i0|c0|p34;\H0.4x;perma-tec \fArial|b0|i0|c0|p34;\H0.7x;GmbH & Co. KG\P\H1.42857x;Hammelburger Str.21                       Tel. : +49 9704 609-0\P97717 EUERDORF / GERMANY     Fax : +49 9704 609-50}
  7
Notiztext (DIN)
 73
     1
 44
0.7263241410255433
  0
ATTDEF
  5
191
102
{ACAD_XDICTIONARY
360
11A6
102
}
330
118
100
AcDbEntity
  8
Titel (ISO)
100
AcDbText
 10
138.2690980053698
 20
116.5692940589243
 30
0.0
 40
2.5
  1
1:1 (1:2)
  7
Textstil54
100
AcDbAttributeDefinition
280
     0
  3
Maßstab
  2
Maßstab_001
 70
     0
280
     0
  0
ATTDEF
  5
195
102
{ACAD_XDICTIONARY
360
11A9
102
}
330
118
100
AcDbEntity
  8
Titel (ISO)
100
AcDbText
 10
155.7619356471653
 20
116.2393145208508
 30
0.0
 40
2.5
  1
06.06.2016
  7
Textstil54
100
AcDbAttributeDefinition
280
     0
  3
Datum
  2
Datum_001
 70
     0
280
     0
  0
MTEXT
  5
196
330
118
100
AcDbEntity
  8
Titel (ISO)
100
AcDbMText
 10
205.5127883584022
 20
116.2462846889597
 30
0.0
 40
2.5
 41
81.00000000000001
 46
0.0
 71
     4
 72
     1
  1
Mounting bracket STAR Heavy Duty C-section 1-point G1/4 female (stainless steel)
  7
Textstil54
 73
     1
 44
0.3300000131130218
  0
ATTDEF
  5
198
102
{ACAD_XDICTIONARY
360
11AC
102
}
330
118
100
AcDbEntity
  8
Titel (ISO)
100
AcDbText
 10
142.8205987139913
 20
107.4679980132233
 30
0.0
 40
2.5
  1
A4
  7
Textstil54
100
AcDbAttributeDefinition
280
     0
  3
Blattgröße
  2
Blattgröße_001
 70
     0
280
     0
  0
ATTDEF
  5
199
102
{ACAD_XDICTIONARY
360
11AF
102
}
330
118
100
AcDbEntity
  8
Titel (ISO)
100
AcDbText
 10
178.4309329691127
 20
116.2435778223763
 30
0.0
 40
2.5
  1
stainless steel
  7
Textstil54
100
AcDbAttributeDefinition
280
     0
  3
Material
  2
Material_001
 70
     0
280
     0
  0
ATTDEF
  5
19A
102
{ACAD_XDICTIONARY
360
11B2
102
}
330
118
100
AcDbEntity
  8
Titel (ISO)
100
AcDbText
 10
178.23652641955
 20
107.4828895911079
 30
0.0
 40
2.5
  1
109664
  7
Textstil54
100
AcDbAttributeDefinition
280
     0
  3
Artikelnummer
  2
Artikelnummer_001
 70
     0
280
     0
  0
MTEXT
  5
19B
330
118
100
AcDbEntity
  8
Titel (ISO)
100
AcDbMText
 10
205.5127883584022
 20
109.4462846889598
 30
0.0
 40
2.5
 41
80.99999999999994
 46
0.0
 71
     4
 72
     1
  1
Montagehalterung STAR Heavy Duty C-Form 1-fach G1/4i (Edelstahl) 
  7
Textstil54
 73
     1
 44
0.3300000131130218
  0
ATTDEF
  5
19C
102
{ACAD_XDICTIONARY
360
11B5
102
}
330
118
100
AcDbEntity
  8
Titel (ISO)
100
AcDbText
 10
159.667460905733
 20
107.4714488453784
 30
0.0
 40
2.5
  1
D / cst
  7
Textstil54
100
AcDbAttributeDefinition
280
     0
  3
Revision/Gezeichnet
  2
Revision/Gezeichnet_001
 70
     0
280
     0
  0
ENDBLK
  5
11A
330
118
100
AcDbEntity
  8
0
100
AcDbBlockEnd
  0
BLOCK
  5
246
330
245
100
AcDbEntity
  8
0
100
AcDbBlockBegin
  2
2DTransSchnitt0
 70
     0
 10
0.0
 20
0.0
 30
0.0
  3
2DTransSchnitt0
  1

  0
LINE
  5
248
330
245
100
AcDbEntity
  8
Schnittlinie (ISO)
  6
CHAIN
 48
44.54549026489257
100
AcDbLine
 10
73.46621770287524
 20
192.1334650701723
 30
0.0
 11
73.46621770287526
 21
24.12632394807861
 31
0.0
  0
LINE
  5
249
330
245
100
AcDbEntity
  8
Schnittlinie (ISO)
  6
Continuous
370
   140
100
AcDbLine
 10
73.46621770287524
 20
192.1334650701723
 30
0.0
 11
73.46621770287524
 21
181.9509976954365
 31
0.0
  0
LINE
  5
24A
330
245
100
AcDbEntity
  8
Schnittlinie (ISO)
  6
Continuous
370
   140
100
AcDbLine
 10
73.46621770287526
 20
34.30879132281439
 30
0.0
 11
73.46621770287526
 21
24.1263239480786
 31
0.0
  0
LINE
  5
24B
330
245
100
AcDbEntity
  8
Schnittlinie (ISO)
  6
Continuous
100
AcDbLine
 10
68.46621770287526
 20
187.0422313828044
 30
0.0
 11
73.46621770287526
 21
187.0422313828044
 31
0.0
  0
POLYLINE
  5
24C
330
245
100
AcDbEntity
  8
Schnittlinie (ISO)
  6
Continuous
100
AcDb2dPolyline
 66
     1
 10
0.0
 20
0.0
 30
0.0
 70
   128
  0
VERTEX
  5
24D
330
24C
100
AcDbEntity
  8
Schnittlinie (ISO)
  6
Continuous
100
AcDbVertex
100
AcDb2dVertex
 10
68.46621770287521
 20
186.0422320376667
 30
0.0
  0
VERTEX
  5
24E
330
24C
100
AcDbEntity
  8
Schnittlinie (ISO)
  6
Continuous
100
AcDbVertex
100
AcDb2dVertex
 10
73.46621770287526
 20
187.0422310839924
 30
0.0
  0
VERTEX
  5
250
330
24C
100
AcDbEntity
  8
Schnittlinie (ISO)
  6
Continuous
100
AcDbVertex
100
AcDb2dVertex
 10
68.46621770287521
 20
188.0422301303181
 30
0.0
  0
VERTEX
  5
251
330
24C
100
AcDbEntity
  8
Schnittlinie (ISO)
  6
Continuous
100
AcDbVertex
100
AcDb2dVertex
 10
68.46621770287521
 20
186.0422320376667
 30
0.0
  0
SEQEND
  5
24F
330
24C
100
AcDbEntity
  8
Schnittlinie (ISO)
  6
Continuous
  0
SOLID
  5
252
330
245
100
AcDbEntity
  8
Schnittlinie (ISO)
100
AcDbTrace
 10
68.46621770287521
 20
186.0422320376667
 30
0.0
 11
73.46621770287526
 21
187.0422310839924
 31
0.0
 12
68.46621770287521
 22
188.0422301303181
 32
0.0
 13
68.46621770287521
 23
186.0422320376667
 33
0.0
  0
LINE
  5
253
330
245
100
AcDbEntity
  8
Schnittlinie (ISO)
  6
Continuous
100
AcDbLine
 10
68.46621770287526
 20
186.0422313828044
 30
0.0
 11
73.46621770287526
 21
187.0422313828044
 31
0.0
  0
LINE
  5
254
330
245
100
AcDbEntity
  8
Schnittlinie (ISO)
  6
Continuous
100
AcDbLine
 10
73.46621770287526
 20
187.0422313828044
 30
0.0
 11
68.46621770287526
 21
188.0422313828044
 31
0.0
  0
LINE
  5
255
330
245
100
AcDbEntity
  8
Schnittlinie (ISO)
  6
Continuous
100
AcDbLine
 10
68.46621770287526
 20
188.0422313828044
 30
0.0
 11
68.46621770287526
 21
186.0422313828044
 31
0.0
  0
LINE
  5
256
330
245
100
AcDbEntity
  8
Schnittlinie (ISO)
  6
Continuous
100
AcDbLine
 10
62.24478016308608
 20
187.0422313828044
 30
0.0
 11
68.46621770287526
 21
187.0422313828044
 31
0.0
  0
LINE
  5
257
330
245
100
AcDbEntity
  8
Schnittlinie (ISO)
  6
Continuous
100
AcDbLine
 10
68.46621770287526
 20
29.21755763544651
 30
0.0
 11
73.46621770287526
 21
29.21755763544651
 31
0.0
  0
POLYLINE
  5
258
330
245
100
AcDbEntity
  8
Schnittlinie (ISO)
  6
Continuous
100
AcDb2dPolyline
 66
     1
 10
0.0
 20
0.0
 30
0.0
 70
   128
  0
VERTEX
  5
259
330
258
100
AcDbEntity
  8
Schnittlinie (ISO)
  6
Continuous
100
AcDbVertex
100
AcDb2dVertex
 10
68.46621770287521
 20
28.21755838501778
 30
0.0
  0
VERTEX
  5
25A
330
258
100
AcDbEntity
  8
Schnittlinie (ISO)
  6
Continuous
100
AcDbVertex
100
AcDb2dVertex
 10
73.46621770287526
 20
29.21756219971504
 30
0.0
  0
VERTEX
  5
25C
330
258
100
AcDbEntity
  8
Schnittlinie (ISO)
  6
Continuous
100
AcDbVertex
100
AcDb2dVertex
 10
68.46621770287521
 20
30.21755647766914
 30
0.0
  0
VERTEX
  5
25D
330
258
100
AcDbEntity
  8
Schnittlinie (ISO)
  6
Continuous
100
AcDbVertex
100
AcDb2dVertex
 10
68.46621770287521
 20
28.21755838501778
 30
0.0
  0
SEQEND
  5
25B
330
258
100
AcDbEntity
  8
Schnittlinie (ISO)
  6
Continuous
  0
SOLID
  5
25E
330
245
100
AcDbEntity
  8
Schnittlinie (ISO)
100
AcDbTrace
 10
68.46621770287521
 20
28.21755838501778
 30
0.0
 11
73.46621770287526
 21
29.21756219971504
 31
0.0
 12
68.46621770287521
 22
30.21755647766914
 32
0.0
 13
68.46621770287521
 23
28.21755838501778
 33
0.0
  0
LINE
  5
25F
330
245
100
AcDbEntity
  8
Schnittlinie (ISO)
  6
Continuous
100
AcDbLine
 10
68.46621770287526
 20
28.21755763544651
 30
0.0
 11
73.46621770287526
 21
29.21755763544651
 31
0.0
  0
LINE
  5
260
330
245
100
AcDbEntity
  8
Schnittlinie (ISO)
  6
Continuous
100
AcDbLine
 10
73.46621770287526
 20
29.21755763544651
 30
0.0
 11
68.46621770287526
 21
30.2175576354465
 31
0.0
  0
LINE
  5
261
330
245
100
AcDbEntity
  8
Schnittlinie (ISO)
  6
Continuous
100
AcDbLine
 10
68.46621770287526
 20
30.2175576354465
 30
0.0
 11
68.46621770287526
 21
28.21755763544651
 31
0.0
  0
LINE
  5
262
330
245
100
AcDbEntity
  8
Schnittlinie (ISO)
  6
Continuous
100
AcDbLine
 10
62.24478016308608
 20
29.21755763544651
 30
0.0
 11
68.46621770287526
 21
29.21755763544651
 31
0.0
  0
MTEXT
  5
263
330
245
100
AcDbEntity
  8
Schnittlinie (ISO)
100
AcDbMText
 10
55.04394609542988
 20
184.4172315020137
 30
0.0
 40
5.24999976158142
 41
0.0
 46
0.0
 71
     7
 72
     1
  1
A
  7
Bezeichnungstext (DIN)
 73
     1
 44
1.0
  0
MTEXT
  5
264
330
245
100
AcDbEntity
  8
Schnittlinie (ISO)
100
AcDbMText
 10
55.04394609542988
 20
26.5925577546558
 30
0.0
 40
5.24999976158142
 41
0.0
 46
0.0
 71
     7
 72
     1
  1
A
  7
Bezeichnungstext (DIN)
 73
     1
 44
1.0
  0
ENDBLK
  5
247
330
245
100
AcDbEntity
  8
0
100
AcDbBlockEnd
  0
BLOCK
  5
2E8
330
2E7
100
AcDbEntity
  8
0
100
AcDbBlockBegin
  2
*D6
 70
     1
 10
0.0
 20
0.0
 30
0.0
  3
*D6
  1

  0
LINE
  5
3BC
330
2E7
100
AcDbEntity
  8
Bemaßung (ISO)
440
 16777216
100
AcDbLine
 10
23.46621770287517
 20
181.7120579631498
 30
0.0
 11
23.46621770287517
 21
195.9533526845766
 31
0.0
  0
LINE
  5
3BD
330
2E7
100
AcDbEntity
  8
Bemaßung (ISO)
440
 16777216
100
AcDbLine
 10
123.4662177028752
 20
181.71205796315
 30
0.0
 11
123.4662177028752
 21
195.9533526845766
 31
0.0
  0
LINE
  5
3BE
330
2E7
100
AcDbEntity
  8
Bemaßung (ISO)
440
 16777216
100
AcDbLine
 10
25.96621770287517
 20
193.9533526845766
 30
0.0
 11
120.9662177028753
 21
193.9533526845766
 31
0.0
  0
SOLID
  5
3BF
330
2E7
100
AcDbEntity
  8
Bemaßung (ISO)
440
 16777216
100
AcDbTrace
 10
25.96621770287517
 20
194.3700193512433
 30
0.0
 11
25.96621770287517
 21
193.53668601791
 31
0.0
 12
23.46621770287517
 22
193.9533526845766
 32
0.0
 13
23.46621770287517
 23
193.9533526845766
 33
0.0
  0
SOLID
  5
3C0
330
2E7
100
AcDbEntity
  8
Bemaßung (ISO)
440
 16777216
100
AcDbTrace
 10
120.9662177028753
 20
194.3700193512433
 30
0.0
 11
120.9662177028753
 21
193.53668601791
 31
0.0
 12
123.4662177028752
 22
193.9533526845766
 32
0.0
 13
123.4662177028752
 23
193.9533526845766
 33
0.0
  0
MTEXT
  5
3C1
330
2E7
100
AcDbEntity
  8
Bemaßung (ISO)
440
 16777216
100
AcDbMText
 10
70.82638139828697
 20
196.9062176380447
 30
0.0
 40
2.5
 41
0.0
 46
0.0
 71
     1
 72
     1
  1
\A1;100
  7
Notiztext (DIN)
 73
     1
 44
1.0
  0
POINT
  5
3C2
330
2E7
100
AcDbEntity
  8
Defpoints
 62
     0
440
 16777216
100
AcDbPoint
 10
23.46621770287517
 20
181.7120579631498
 30
0.0
  0
POINT
  5
3C3
330
2E7
100
AcDbEntity
  8
Defpoints
 62
     0
440
 16777216
100
AcDbPoint
 10
123.4662177028752
 20
181.71205796315
 30
0.0
  0
POINT
  5
3C4
330
2E7
100
AcDbEntity
  8
Defpoints
 62
     0
440
 16777216
100
AcDbPoint
 10
123.4662177028752
 20
193.9533526845766
 30
0.0
  0
ENDBLK
  5
2E9
330
2E7
100
AcDbEntity
  8
0
100
AcDbBlockEnd
  0
BLOCK
  5
3C7
330
3C6
100
AcDbEntity
  8
0
100
AcDbBlockBegin
  2
*D7
 70
     1
 10
0.0
 20
0.0
 30
0.0
  3
*D7
  1

  0
LINE
  5
49B
330
3C6
100
AcDbEntity
  8
Bemaßung (ISO)
440
 16777216
100
AcDbLine
 10
42.46621770287505
 20
140.4978981290267
 30
0.0
 11
42.46621770287505
 21
159.4978981290267
 31
0.0
  0
LINE
  5
49C
330
3C6
100
AcDbEntity
  8
Bemaßung (ISO)
440
 16777216
100
AcDbLine
 10
104.466217702875
 20
140.4978981290267
 30
0.0
 11
104.466217702875
 21
159.4978981290267
 31
0.0
  0
LINE
  5
49D
330
3C6
100
AcDbEntity
  8
Bemaßung (ISO)
440
 16777216
100
AcDbLine
 10
44.96621770287505
 20
157.4978981290267
 30
0.0
 11
101.966217702875
 21
157.4978981290267
 31
0.0
  0
SOLID
  5
49E
330
3C6
100
AcDbEntity
  8
Bemaßung (ISO)
440
 16777216
100
AcDbTrace
 10
44.96621770287505
 20
157.9145647956934
 30
0.0
 11
44.96621770287505
 21
157.0812314623601
 31
0.0
 12
42.46621770287505
 22
157.4978981290267
 32
0.0
 13
42.46621770287505
 23
157.4978981290267
 33
0.0
  0
SOLID
  5
49F
330
3C6
100
AcDbEntity
  8
Bemaßung (ISO)
440
 16777216
100
AcDbTrace
 10
101.966217702875
 20
157.9145647956934
 30
0.0
 11
101.966217702875
 21
157.0812314623601
 31
0.0
 12
104.466217702875
 22
157.4978981290267
 32
0.0
 13
104.466217702875
 23
157.4978981290267
 33
0.0
  0
MTEXT
  5
4A0
330
3C6
100
AcDbEntity
  8
Bemaßung (ISO)
440
 16777216
100
AcDbMText
 10
65.10992884980992
 20
160.4507630824948
 30
0.0
 40
2.5
 41
0.0
 46
0.0
 71
     1
 72
     1
  1
\A1;62
  7
Notiztext (DIN)
 73
     1
 44
1.0
  0
POINT
  5
4A1
330
3C6
100
AcDbEntity
  8
Defpoints
 62
     0
440
 16777216
100
AcDbPoint
 10
42.46621770287505
 20
140.4978981290267
 30
0.0
  0
POINT
  5
4A2
330
3C6
100
AcDbEntity
  8
Defpoints
 62
     0
440
 16777216
100
AcDbPoint
 10
104.466217702875
 20
140.4978981290267
 30
0.0
  0
POINT
  5
4A3
330
3C6
100
AcDbEntity
  8
Defpoints
 62
     0
440
 16777216
100
AcDbPoint
 10
104.466217702875
 20
157.4978981290267
 30
0.0
  0
ENDBLK
  5
3C8
330
3C6
100
AcDbEntity
  8
0
100
AcDbBlockEnd
  0
BLOCK
  5
4A6
330
4A5
100
AcDbEntity
  8
0
100
AcDbBlockBegin
  2
*D8
 70
     1
 10
0.0
 20
0.0
 30
0.0
  3
*D8
  1

  0
LINE
  5
58D
330
4A5
100
AcDbEntity
  8
Bemaßung (ISO)
440
 16777216
100
AcDbLine
 10
91.27667187228224
 20
143.4978981290269
 30
0.0
 11
91.27667187228224
 21
137.4978981290266
 31
0.0
  0
LINE
  5
58E
330
4A5
100
AcDbEntity
  8
Bemaßung (ISO)
440
 16777216
100
AcDbLine
 10
91.27667187228224
 20
134.9978981290266
 30
0.0
 11
91.27667187228224
 21
127.2641621609586
 31
0.0
  0
SOLID
  5
58F
330
4A5
100
AcDbEntity
  8
Bemaßung (ISO)
440
 16777216
100
AcDbTrace
 10
90.86000520561556
 20
143.4978981290269
 30
0.0
 11
91.6933385389489
 21
143.4978981290269
 31
0.0
 12
91.27667187228224
 22
145.9978981290269
 32
0.0
 13
91.27667187228224
 23
145.9978981290269
 33
0.0
  0
SOLID
  5
590
330
4A5
100
AcDbEntity
  8
Bemaßung (ISO)
440
 16777216
100
AcDbTrace
 10
90.86000520561556
 20
137.4978981290266
 30
0.0
 11
91.6933385389489
 21
137.4978981290266
 31
0.0
 12
91.27667187228224
 22
134.9978981290266
 32
0.0
 13
91.27667187228224
 23
134.9978981290266
 33
0.0
  0
MTEXT
  5
591
330
4A5
100
AcDbEntity
  8
Bemaßung (ISO)
440
 16777216
100
AcDbMText
 10
88.36643993406914
 20
127.6641621609585
 30
0.0
 40
2.5
 41
0.0
 46
0.0
 71
     1
 72
     1
  1
\A1;11
  7
Notiztext (DIN)
 11
0.0000000000000001
 21
1.0
 31
0.0
 73
     1
 44
1.0
  0
POINT
  5
592
330
4A5
100
AcDbEntity
  8
Defpoints
 62
     0
440
 16777216
100
AcDbPoint
 10
90.71156129831333
 20
134.9978981290266
 30
0.0
  0
POINT
  5
593
330
4A5
100
AcDbEntity
  8
Defpoints
 62
     0
440
 16777216
100
AcDbPoint
 10
90.71156129831337
 20
145.9978981290269
 30
0.0
  0
POINT
  5
594
330
4A5
100
AcDbEntity
  8
Defpoints
 62
     0
440
 16777216
100
AcDbPoint
 10
91.27667187228224
 20
145.9978981290269
 30
0.0
  0
ENDBLK
  5
4A7
330
4A5
100
AcDbEntity
  8
0
100
AcDbBlockEnd
  0
BLOCK
  5
597
330
596
100
AcDbEntity
  8
0
100
AcDbBlockBegin
  2
*D9
 70
     1
 10
0.0
 20
0.0
 30
0.0
  3
*D9
  1

  0
LINE
  5
679
330
596
100
AcDbEntity
  8
Bemaßung (ISO)
440
 16777216
100
AcDbLine
 10
98.96621770287508
 20
111.0978981290267
 30
0.0
 11
98.96621770287508
 21
123.0978981290267
 31
0.0
  0
LINE
  5
67A
330
596
100
AcDbEntity
  8
Bemaßung (ISO)
440
 16777216
100
AcDbLine
 10
109.966217702875
 20
111.0978981290267
 30
0.0
 11
109.966217702875
 21
123.0978981290267
 31
0.0
  0
LINE
  5
67B
330
596
100
AcDbEntity
  8
Bemaßung (ISO)
440
 16777216
100
AcDbLine
 10
101.466217702875
 20
121.0978981290267
 30
0.0
 11
107.466217702875
 21
121.0978981290267
 31
0.0
  0
SOLID
  5
67C
330
596
100
AcDbEntity
  8
Bemaßung (ISO)
440
 16777216
100
AcDbTrace
 10
101.466217702875
 20
121.5145647956934
 30
0.0
 11
101.466217702875
 21
120.68123146236
 31
0.0
 12
98.96621770287508
 22
121.0978981290267
 32
0.0
 13
98.96621770287508
 23
121.0978981290267
 33
0.0
  0
SOLID
  5
67D
330
596
100
AcDbEntity
  8
Bemaßung (ISO)
440
 16777216
100
AcDbTrace
 10
107.466217702875
 20
121.5145647956934
 30
0.0
 11
107.466217702875
 21
120.68123146236
 31
0.0
 12
109.966217702875
 22
121.0978981290267
 32
0.0
 13
109.966217702875
 23
121.0978981290267
 33
0.0
  0
MTEXT
  5
67E
330
596
100
AcDbEntity
  8
Bemaßung (ISO)
440
 16777216
100
AcDbMText
 10
101.5717198688372
 20
124.1769204502141
 30
0.0
 40
2.5
 41
0.0
 46
0.0
 71
     1
 72
     1
  1
\A1;\fArial|b0|i0;\H2.4873;Ø11
  7
Notiztext (DIN)
 73
     1
 44
1.0
  0
POINT
  5
67F
330
596
100
AcDbEntity
  8
Defpoints
 62
     0
440
 16777216
100
AcDbPoint
 10
98.96621770287508
 20
111.0978981290267
 30
0.0
  0
POINT
  5
680
330
596
100
AcDbEntity
  8
Defpoints
 62
     0
440
 16777216
100
AcDbPoint
 10
109.966217702875
 20
111.0978981290267
 30
0.0
  0
POINT
  5
681
330
596
100
AcDbEntity
  8
Defpoints
 62
     0
440
 16777216
100
AcDbPoint
 10
109.966217702875
 20
121.0978981290267
 30
0.0
  0
ENDBLK
  5
598
330
596
100
AcDbEntity
  8
0
100
AcDbBlockEnd
  0
BLOCK
  5
684
330
683
100
AcDbEntity
  8
0
100
AcDbBlockBegin
  2
*D10
 70
     1
 10
0.0
 20
0.0
 30
0.0
  3
*D10
  1

  0
LINE
  5
758
330
683
100
AcDbEntity
  8
Bemaßung (ISO)
440
 16777216
100
AcDbLine
 10
42.46621770287505
 20
111.0978981290267
 30
0.0
 11
42.46621770287505
 21
99.09789812902674
 31
0.0
  0
LINE
  5
759
330
683
100
AcDbEntity
  8
Bemaßung (ISO)
440
 16777216
100
AcDbLine
 10
104.466217702875
 20
111.0978981290267
 30
0.0
 11
104.466217702875
 21
99.09789812902674
 31
0.0
  0
LINE
  5
75A
330
683
100
AcDbEntity
  8
Bemaßung (ISO)
440
 16777216
100
AcDbLine
 10
44.96621770287505
 20
101.0978981290267
 30
0.0
 11
101.966217702875
 21
101.0978981290267
 31
0.0
  0
SOLID
  5
75B
330
683
100
AcDbEntity
  8
Bemaßung (ISO)
440
 16777216
100
AcDbTrace
 10
44.96621770287505
 20
101.5145647956934
 30
0.0
 11
44.96621770287505
 21
100.68123146236
 31
0.0
 12
42.46621770287505
 22
101.0978981290267
 32
0.0
 13
42.46621770287505
 23
101.0978981290267
 33
0.0
  0
SOLID
  5
75C
330
683
100
AcDbEntity
  8
Bemaßung (ISO)
440
 16777216
100
AcDbTrace
 10
101.966217702875
 20
101.5145647956934
 30
0.0
 11
101.966217702875
 21
100.68123146236
 31
0.0
 12
104.466217702875
 22
101.0978981290267
 32
0.0
 13
104.466217702875
 23
101.0978981290267
 33
0.0
  0
MTEXT
  5
75D
330
683
100
AcDbEntity
  8
Bemaßung (ISO)
440
 16777216
100
AcDbMText
 10
65.297690427351
 20
104.0507630824948
 30
0.0
 40
2.5
 41
0.0
 46
0.0
 71
     1
 72
     1
  1
\A1;62
  7
Notiztext (DIN)
 73
     1
 44
1.0
  0
POINT
  5
75E
330
683
100
AcDbEntity
  8
Defpoints
 62
     0
440
 16777216
100
AcDbPoint
 10
42.46621770287505
 20
111.0978981290267
 30
0.0
  0
POINT
  5
75F
330
683
100
AcDbEntity
  8
Defpoints
 62
     0
440
 16777216
100
AcDbPoint
 10
104.466217702875
 20
111.0978981290267
 30
0.0
  0
POINT
  5
760
330
683
100
AcDbEntity
  8
Defpoints
 62
     0
440
 16777216
100
AcDbPoint
 10
104.466217702875
 20
101.0978981290267
 30
0.0
  0
ENDBLK
  5
685
330
683
100
AcDbEntity
  8
0
100
AcDbBlockEnd
  0
BLOCK
  5
763
330
762
100
AcDbEntity
  8
0
100
AcDbBlockBegin
  2
*D11
 70
     1
 10
0.0
 20
0.0
 30
0.0
  3
*D11
  1

  0
LINE
  5
83E
330
762
100
AcDbEntity
  8
Bemaßung (ISO)
440
 16777216
100
AcDbLine
 10
104.4662177028751
 20
111.0978981290268
 30
0.0
 11
129.4662177028764
 21
111.0978981290268
 31
0.0
  0
LINE
  5
83F
330
762
100
AcDbEntity
  8
Bemaßung (ISO)
440
 16777216
100
AcDbLine
 10
117.4662177028765
 20
52.49789809490374
 30
0.0
 11
129.4662177028765
 21
52.49789809490374
 31
0.0
  0
LINE
  5
840
330
762
100
AcDbEntity
  8
Bemaßung (ISO)
440
 16777216
100
AcDbLine
 10
127.4662177028764
 20
108.5978981290268
 30
0.0
 11
127.4662177028764
 21
54.99789809490374
 31
0.0
  0
SOLID
  5
841
330
762
100
AcDbEntity
  8
Bemaßung (ISO)
440
 16777216
100
AcDbTrace
 10
127.0495510362098
 20
108.5978981290268
 30
0.0
 11
127.8828843695431
 21
108.5978981290268
 31
0.0
 12
127.4662177028764
 22
111.0978981290268
 32
0.0
 13
127.4662177028764
 23
111.0978981290268
 33
0.0
  0
SOLID
  5
842
330
762
100
AcDbEntity
  8
Bemaßung (ISO)
440
 16777216
100
AcDbTrace
 10
127.0495510362098
 20
54.99789809490374
 30
0.0
 11
127.8828843695431
 21
54.99789809490374
 31
0.0
 12
127.4662177028764
 22
52.49789809490374
 32
0.0
 13
127.4662177028764
 23
52.49789809490374
 33
0.0
  0
MTEXT
  5
843
330
762
100
AcDbEntity
  8
Bemaßung (ISO)
440
 16777216
100
AcDbMText
 10
124.5133527494084
 20
78.55182033045119
 30
0.0
 40
2.5
 41
0.0
 46
0.0
 71
     1
 72
     1
  1
\A1;58.6
  7
Notiztext (DIN)
 11
0.0000000000000001
 21
1.0
 31
0.0
 73
     1
 44
1.0
  0
POINT
  5
844
330
762
100
AcDbEntity
  8
Defpoints
 62
     0
440
 16777216
100
AcDbPoint
 10
104.4662177028751
 20
111.0978981290268
 30
0.0
  0
POINT
  5
845
330
762
100
AcDbEntity
  8
Defpoints
 62
     0
440
 16777216
100
AcDbPoint
 10
117.4662177028765
 20
52.49789809490374
 30
0.0
  0
POINT
  5
846
330
762
100
AcDbEntity
  8
Defpoints
 62
     0
440
 16777216
100
AcDbPoint
 10
127.4662177028764
 20
52.49789809490374
 30
0.0
  0
ENDBLK
  5
764
330
762
100
AcDbEntity
  8
0
100
AcDbBlockEnd
  0
BLOCK
  5
849
330
848
100
AcDbEntity
  8
0
100
AcDbBlockBegin
  2
*D12
 70
     1
 10
0.0
 20
0.0
 30
0.0
  3
*D12
  1

  0
LINE
  5
92B
330
848
100
AcDbEntity
  8
Bemaßung (ISO)
440
 16777216
100
AcDbLine
 10
29.46621770287363
 20
52.49789809490374
 30
0.0
 11
17.46621770287362
 21
52.49789809490374
 31
0.0
  0
LINE
  5
92C
330
848
100
AcDbEntity
  8
Bemaßung (ISO)
440
 16777216
100
AcDbLine
 10
42.46621770287505
 20
78.49789812902681
 30
0.0
 11
17.46621770287361
 21
78.49789812902679
 31
0.0
  0
LINE
  5
92D
330
848
100
AcDbEntity
  8
Bemaßung (ISO)
440
 16777216
100
AcDbLine
 10
19.46621770287362
 20
54.99789809490374
 30
0.0
 11
19.46621770287361
 21
75.99789812902679
 31
0.0
  0
SOLID
  5
92E
330
848
100
AcDbEntity
  8
Bemaßung (ISO)
440
 16777216
100
AcDbTrace
 10
19.04955103620695
 20
54.99789809490374
 30
0.0
 11
19.88288436954029
 21
54.99789809490374
 31
0.0
 12
19.46621770287362
 22
52.49789809490374
 32
0.0
 13
19.46621770287362
 23
52.49789809490374
 33
0.0
  0
SOLID
  5
92F
330
848
100
AcDbEntity
  8
Bemaßung (ISO)
440
 16777216
100
AcDbTrace
 10
19.04955103620694
 20
75.99789812902679
 30
0.0
 11
19.88288436954028
 21
75.99789812902679
 31
0.0
 12
19.46621770287361
 22
78.49789812902679
 32
0.0
 13
19.46621770287361
 23
78.49789812902679
 33
0.0
  0
MTEXT
  5
930
330
848
100
AcDbEntity
  8
Bemaßung (ISO)
440
 16777216
100
AcDbMText
 10
16.51335274940554
 20
63.68684762393377
 30
0.0
 40
2.5
 41
0.0
 46
0.0
 71
     1
 72
     1
  1
\A1;26
  7
Notiztext (DIN)
 11
0.0000000000000001
 21
1.0
 31
0.0
 73
     1
 44
1.0
  0
POINT
  5
931
330
848
100
AcDbEntity
  8
Defpoints
 62
     0
440
 16777216
100
AcDbPoint
 10
29.46621770287363
 20
52.49789809490374
 30
0.0
  0
POINT
  5
932
330
848
100
AcDbEntity
  8
Defpoints
 62
     0
440
 16777216
100
AcDbPoint
 10
42.46621770287505
 20
78.49789812902681
 30
0.0
  0
POINT
  5
933
330
848
100
AcDbEntity
  8
Defpoints
 62
     0
440
 16777216
100
AcDbPoint
 10
19.46621770287361
 20
78.49789812902679
 30
0.0
  0
ENDBLK
  5
84A
330
848
100
AcDbEntity
  8
0
100
AcDbBlockEnd
  0
BLOCK
  5
936
330
935
100
AcDbEntity
  8
0
100
AcDbBlockBegin
  2
*D13
 70
     1
 10
0.0
 20
0.0
 30
0.0
  3
*D13
  1

  0
LINE
  5
A0A
330
935
100
AcDbEntity
  8
Bemaßung (ISO)
440
 16777216
100
AcDbLine
 10
42.46621770287505
 20
78.49789812902681
 30
0.0
 11
17.46621770287363
 21
78.49789812902679
 31
0.0
  0
LINE
  5
A0B
330
935
100
AcDbEntity
  8
Bemaßung (ISO)
440
 16777216
100
AcDbLine
 10
42.46621770287506
 20
140.4978981290268
 30
0.0
 11
17.46621770287361
 21
140.4978981290268
 31
0.0
  0
LINE
  5
A0C
330
935
100
AcDbEntity
  8
Bemaßung (ISO)
440
 16777216
100
AcDbLine
 10
19.46621770287363
 20
80.99789812902679
 30
0.0
 11
19.46621770287361
 21
137.9978981290268
 31
0.0
  0
SOLID
  5
A0D
330
935
100
AcDbEntity
  8
Bemaßung (ISO)
440
 16777216
100
AcDbTrace
 10
19.04955103620696
 20
80.99789812902679
 30
0.0
 11
19.88288436954029
 21
80.99789812902679
 31
0.0
 12
19.46621770287363
 22
78.49789812902679
 32
0.0
 13
19.46621770287363
 23
78.49789812902679
 33
0.0
  0
SOLID
  5
A0E
330
935
100
AcDbEntity
  8
Bemaßung (ISO)
440
 16777216
100
AcDbTrace
 10
19.04955103620694
 20
137.9978981290268
 30
0.0
 11
19.88288436954028
 21
137.9978981290268
 31
0.0
 12
19.46621770287361
 22
140.4978981290268
 32
0.0
 13
19.46621770287361
 23
140.4978981290268
 33
0.0
  0
MTEXT
  5
A0F
330
935
100
AcDbEntity
  8
Bemaßung (ISO)
440
 16777216
100
AcDbMText
 10
16.51335274940556
 20
107.7132801104534
 30
0.0
 40
2.5
 41
0.0
 46
0.0
 71
     1
 72
     1
  1
\A1;62
  7
Notiztext (DIN)
 11
0.0000000000000001
 21
1.0
 31
0.0
 73
     1
 44
1.0
  0
POINT
  5
A10
330
935
100
AcDbEntity
  8
Defpoints
 62
     0
440
 16777216
100
AcDbPoint
 10
42.46621770287505
 20
78.49789812902681
 30
0.0
  0
POINT
  5
A11
330
935
100
AcDbEntity
  8
Defpoints
 62
     0
440
 16777216
100
AcDbPoint
 10
42.46621770287506
 20
140.4978981290268
 30
0.0
  0
POINT
  5
A12
330
935
100
AcDbEntity
  8
Defpoints
 62
     0
440
 16777216
100
AcDbPoint
 10
19.46621770287361
 20
140.4978981290268
 30
0.0
  0
ENDBLK
  5
937
330
935
100
AcDbEntity
  8
0
100
AcDbBlockEnd
  0
BLOCK
  5
A15
330
A14
100
AcDbEntity
  8
0
100
AcDbBlockBegin
  2
*D14
 70
     1
 10
0.0
 20
0.0
 30
0.0
  3
*D14
  1

  0
LINE
  5
AE9
330
A14
100
AcDbEntity
  8
Bemaßung (ISO)
440
 16777216
100
AcDbLine
 10
162.0165973391734
 20
52.49789809490376
 30
0.0
 11
142.4054931087189
 21
52.49789809490375
 31
0.0
  0
LINE
  5
AEA
330
A14
100
AcDbEntity
  8
Bemaßung (ISO)
440
 16777216
100
AcDbLine
 10
162.0165973391733
 20
181.7120579631499
 30
0.0
 11
142.4054931087188
 21
181.7120579631499
 31
0.0
  0
LINE
  5
AEB
330
A14
100
AcDbEntity
  8
Bemaßung (ISO)
440
 16777216
100
AcDbLine
 10
144.4054931087189
 20
54.99789809490376
 30
0.0
 11
144.4054931087188
 21
179.2120579631499
 31
0.0
  0
SOLID
  5
AEC
330
A14
100
AcDbEntity
  8
Bemaßung (ISO)
440
 16777216
100
AcDbTrace
 10
143.9888264420522
 20
54.99789809490375
 30
0.0
 11
144.8221597753855
 21
54.99789809490376
 31
0.0
 12
144.4054931087189
 22
52.49789809490376
 32
0.0
 13
144.4054931087189
 23
52.49789809490376
 33
0.0
  0
SOLID
  5
AED
330
A14
100
AcDbEntity
  8
Bemaßung (ISO)
440
 16777216
100
AcDbTrace
 10
143.9888264420522
 20
179.2120579631499
 30
0.0
 11
144.8221597753855
 21
179.2120579631499
 31
0.0
 12
144.4054931087188
 22
181.7120579631499
 32
0.0
 13
144.4054931087188
 23
181.7120579631499
 33
0.0
  0
MTEXT
  5
AEE
330
A14
100
AcDbEntity
  8
Bemaßung (ISO)
440
 16777216
100
AcDbMText
 10
141.4526281552507
 20
113.0173245263795
 30
0.0
 40
2.5
 41
0.0
 46
0.0
 71
     1
 72
     1
  1
\A1;129.2
  7
Notiztext (DIN)
 11
0.0000000000000001
 21
1.0
 31
0.0
 73
     1
 44
1.0
  0
POINT
  5
AEF
330
A14
100
AcDbEntity
  8
Defpoints
 62
     0
440
 16777216
100
AcDbPoint
 10
162.0165973391734
 20
52.49789809490376
 30
0.0
  0
POINT
  5
AF0
330
A14
100
AcDbEntity
  8
Defpoints
 62
     0
440
 16777216
100
AcDbPoint
 10
162.0165973391733
 20
181.7120579631499
 30
0.0
  0
POINT
  5
AF1
330
A14
100
AcDbEntity
  8
Defpoints
 62
     0
440
 16777216
100
AcDbPoint
 10
144.4054931087188
 20
181.7120579631499
 30
0.0
  0
ENDBLK
  5
A16
330
A14
100
AcDbEntity
  8
0
100
AcDbBlockEnd
  0
BLOCK
  5
AF4
330
AF3
100
AcDbEntity
  8
0
100
AcDbBlockBegin
  2
*D15
 70
     1
 10
0.0
 20
0.0
 30
0.0
  3
*D15
  1

  0
LINE
  5
BF0
330
AF3
100
AcDbEntity
  8
Bemaßung (ISO)
440
 16777216
100
AcDbLine
 10
156.0165973391733
 20
175.7120579631499
 30
0.0
 11
156.0165973391733
 21
187.3833003578662
 31
0.0
  0
LINE
  5
BF1
330
AF3
100
AcDbEntity
  8
Bemaßung (ISO)
440
 16777216
100
AcDbLine
 10
159.0165973391733
 20
175.7120579631499
 30
0.0
 11
159.0165973391733
 21
187.3833003578662
 31
0.0
  0
LINE
  5
BF2
330
AF3
100
AcDbEntity
  8
Bemaßung (ISO)
440
 16777216
100
AcDbLine
 10
153.5165973391733
 20
185.3833003578662
 30
0.0
 11
151.0165973391733
 21
185.3833003578662
 31
0.0
  0
LINE
  5
BF3
330
AF3
100
AcDbEntity
  8
Bemaßung (ISO)
440
 16777216
100
AcDbLine
 10
161.5165973391733
 20
185.3833003578662
 30
0.0
 11
166.4537051249644
 21
185.3833003578662
 31
0.0
  0
LINE
  5
BF4
330
AF3
100
AcDbEntity
  8
Bemaßung (ISO)
440
 16777216
100
AcDbLine
 10
156.0165973391733
 20
185.3833003578662
 30
0.0
 11
159.0165973391733
 21
185.3833003578662
 31
0.0
  0
SOLID
  5
BF5
330
AF3
100
AcDbEntity
  8
Bemaßung (ISO)
440
 16777216
100
AcDbTrace
 10
153.5165973391733
 20
185.7999670245329
 30
0.0
 11
153.5165973391733
 21
184.9666336911996
 31
0.0
 12
156.0165973391733
 22
185.3833003578662
 32
0.0
 13
156.0165973391733
 23
185.3833003578662
 33
0.0
  0
SOLID
  5
BF6
330
AF3
100
AcDbEntity
  8
Bemaßung (ISO)
440
 16777216
100
AcDbTrace
 10
161.5165973391733
 20
185.7999670245329
 30
0.0
 11
161.5165973391733
 21
184.9666336911996
 31
0.0
 12
159.0165973391733
 22
185.3833003578662
 32
0.0
 13
159.0165973391733
 23
185.3833003578662
 33
0.0
  0
MTEXT
  5
BF7
330
AF3
100
AcDbEntity
  8
Bemaßung (ISO)
440
 16777216
100
AcDbMText
 10
164.4165973391733
 20
188.3378706319445
 30
0.0
 40
2.5
 41
0.0
 46
0.0
 71
     1
 72
     1
  1
\A1;3
  7
Notiztext (DIN)
 73
     1
 44
1.0
  0
POINT
  5
BF8
330
AF3
100
AcDbEntity
  8
Defpoints
 62
     0
440
 16777216
100
AcDbPoint
 10
156.0165973391733
 20
175.7120579631499
 30
0.0
  0
POINT
  5
BF9
330
AF3
100
AcDbEntity
  8
Defpoints
 62
     0
440
 16777216
100
AcDbPoint
 10
159.0165973391733
 20
175.7120579631499
 30
0.0
  0
POINT
  5
BFA
330
AF3
100
AcDbEntity
  8
Defpoints
 62
     0
440
 16777216
100
AcDbPoint
 10
159.0165973391733
 20
185.3833003578662
 30
0.0
  0
ENDBLK
  5
AF5
330
AF3
100
AcDbEntity
  8
0
100
AcDbBlockEnd
  0
BLOCK
  5
BFD
330
BFC
100
AcDbEntity
  8
0
100
AcDbBlockBegin
  2
*D16
 70
     1
 10
0.0
 20
0.0
 30
0.0
  3
*D16
  1

  0
LINE
  5
CD1
330
BFC
100
AcDbEntity
  8
Bemaßung (ISO)
440
 16777216
100
AcDbLine
 10
156.0165973391733
 20
175.7120579631499
 30
0.0
 11
156.0165973391733
 21
193.6690518072971
 31
0.0
  0
LINE
  5
CD2
330
BFC
100
AcDbEntity
  8
Bemaßung (ISO)
440
 16777216
100
AcDbLine
 10
268.6236772732963
 20
181.7120579631499
 30
0.0
 11
268.6236772732963
 21
193.6690518072971
 31
0.0
  0
LINE
  5
CD3
330
BFC
100
AcDbEntity
  8
Bemaßung (ISO)
440
 16777216
100
AcDbLine
 10
158.5165973391733
 20
191.6690518072971
 30
0.0
 11
266.1236772732963
 21
191.6690518072971
 31
0.0
  0
SOLID
  5
CD4
330
BFC
100
AcDbEntity
  8
Bemaßung (ISO)
440
 16777216
100
AcDbTrace
 10
158.5165973391733
 20
192.0857184739638
 30
0.0
 11
158.5165973391733
 21
191.2523851406304
 31
0.0
 12
156.0165973391733
 22
191.6690518072971
 32
0.0
 13
156.0165973391733
 23
191.6690518072971
 33
0.0
  0
SOLID
  5
CD5
330
BFC
100
AcDbEntity
  8
Bemaßung (ISO)
440
 16777216
100
AcDbTrace
 10
266.1236772732963
 20
192.0857184739638
 30
0.0
 11
266.1236772732963
 21
191.2523851406304
 31
0.0
 12
268.6236772732963
 22
191.6690518072971
 32
0.0
 13
268.6236772732963
 23
191.6690518072971
 33
0.0
  0
MTEXT
  5
CD6
330
BFC
100
AcDbEntity
  8
Bemaßung (ISO)
440
 16777216
100
AcDbMText
 10
208.2205465593161
 20
194.6219167607652
 30
0.0
 40
2.5
 41
0.0
 46
0.0
 71
     1
 72
     1
  1
\A1;112.6
  7
Notiztext (DIN)
 73
     1
 44
1.0
  0
POINT
  5
CD7
330
BFC
100
AcDbEntity
  8
Defpoints
 62
     0
440
 16777216
100
AcDbPoint
 10
156.0165973391733
 20
175.7120579631499
 30
0.0
  0
POINT
  5
CD8
330
BFC
100
AcDbEntity
  8
Defpoints
 62
     0
440
 16777216
100
AcDbPoint
 10
268.6236772732963
 20
181.7120579631499
 30
0.0
  0
POINT
  5
CD9
330
BFC
100
AcDbEntity
  8
Defpoints
 62
     0
440
 16777216
100
AcDbPoint
 10
268.6236772732963
 20
191.6690518072971
 30
0.0
  0
ENDBLK
  5
BFE
330
BFC
100
AcDbEntity
  8
0
100
AcDbBlockEnd
  0
BLOCK
  5
CDC
330
CDB
100
AcDbEntity
  8
0
100
AcDbBlockBegin
  2
*D17
 70
     1
 10
0.0
 20
0.0
 30
0.0
  3
*D17
  1

  0
LINE
  5
DBE
330
CDB
100
AcDbEntity
  8
Bemaßung (ISO)
440
 16777216
100
AcDbLine
 10
212.0451772732963
 20
66.15389809490372
 30
0.0
 11
212.0451772732963
 21
78.15389809490373
 31
0.0
  0
LINE
  5
DBF
330
CDB
100
AcDbEntity
  8
Bemaßung (ISO)
440
 16777216
100
AcDbLine
 10
225.2021772732963
 20
66.15389809490372
 30
0.0
 11
225.2021772732963
 21
78.15389809490373
 31
0.0
  0
LINE
  5
DC0
330
CDB
100
AcDbEntity
  8
Bemaßung (ISO)
440
 16777216
100
AcDbLine
 10
214.5451772732963
 20
76.15389809490372
 30
0.0
 11
222.7021772732963
 21
76.15389809490372
 31
0.0
  0
SOLID
  5
DC1
330
CDB
100
AcDbEntity
  8
Bemaßung (ISO)
440
 16777216
100
AcDbTrace
 10
214.5451772732963
 20
76.57056476157039
 30
0.0
 11
214.5451772732963
 21
75.73723142823705
 31
0.0
 12
212.0451772732963
 22
76.15389809490372
 32
0.0
 13
212.0451772732963
 23
76.15389809490372
 33
0.0
  0
SOLID
  5
DC2
330
CDB
100
AcDbEntity
  8
Bemaßung (ISO)
440
 16777216
100
AcDbTrace
 10
222.7021772732963
 20
76.57056476157039
 30
0.0
 11
222.7021772732963
 21
75.73723142823705
 31
0.0
 12
225.2021772732963
 22
76.15389809490372
 32
0.0
 13
225.2021772732963
 23
76.15389809490372
 33
0.0
  0
MTEXT
  5
DC3
330
CDB
100
AcDbEntity
  8
Bemaßung (ISO)
440
 16777216
100
AcDbMText
 10
214.4559182790504
 20
79.12603098845668
 30
0.0
 40
2.5
 41
0.0
 46
0.0
 71
     1
 72
     1
  1
\A1; \fArial|b0|i0;\H2.4873;G1/4
  7
Notiztext (DIN)
 73
     1
 44
1.0
  0
POINT
  5
DC4
330
CDB
100
AcDbEntity
  8
Defpoints
 62
     0
440
 16777216
100
AcDbPoint
 10
212.0451772732963
 20
66.15389809490372
 30
0.0
  0
POINT
  5
DC5
330
CDB
100
AcDbEntity
  8
Defpoints
 62
     0
440
 16777216
100
AcDbPoint
 10
225.2021772732963
 20
66.15389809490372
 30
0.0
  0
POINT
  5
DC6
330
CDB
100
AcDbEntity
  8
Defpoints
 62
     0
440
 16777216
100
AcDbPoint
 10
225.2021772732963
 20
76.15389809490372
 30
0.0
  0
ENDBLK
  5
CDD
330
CDB
100
AcDbEntity
  8
0
100
AcDbBlockEnd
  0
BLOCK
  5
DC9
330
DC8
100
AcDbEntity
  8
0
100
AcDbBlockBegin
  2
*D18
 70
     1
 10
0.0
 20
0.0
 30
0.0
  3
*D18
  1

  0
LINE
  5
EA4
330
DC8
100
AcDbEntity
  8
Bemaßung (ISO)
440
 16777216
100
AcDbLine
 10
156.0165973391733
 20
58.49789809490373
 30
0.0
 11
156.0165973391733
 21
35.34490663376538
 31
0.0
  0
LINE
  5
EA5
330
DC8
100
AcDbEntity
  8
Bemaßung (ISO)
440
 16777216
100
AcDbLine
 10
218.6236772732963
 20
42.69789809490373
 30
0.0
 11
218.6236772732963
 21
35.34490663376538
 31
0.0
  0
LINE
  5
EA6
330
DC8
100
AcDbEntity
  8
Bemaßung (ISO)
440
 16777216
100
AcDbLine
 10
158.5165973391733
 20
37.34490663376538
 30
0.0
 11
216.1236772732963
 21
37.34490663376538
 31
0.0
  0
SOLID
  5
EA7
330
DC8
100
AcDbEntity
  8
Bemaßung (ISO)
440
 16777216
100
AcDbTrace
 10
158.5165973391733
 20
37.76157330043204
 30
0.0
 11
158.5165973391733
 21
36.92823996709871
 31
0.0
 12
156.0165973391733
 22
37.34490663376538
 32
0.0
 13
156.0165973391733
 23
37.34490663376538
 33
0.0
  0
SOLID
  5
EA8
330
DC8
100
AcDbEntity
  8
Bemaßung (ISO)
440
 16777216
100
AcDbTrace
 10
216.1236772732963
 20
37.76157330043204
 30
0.0
 11
216.1236772732963
 21
36.92823996709871
 31
0.0
 12
218.6236772732963
 22
37.34490663376538
 32
0.0
 13
218.6236772732963
 23
37.34490663376538
 33
0.0
  0
MTEXT
  5
EA9
330
DC8
100
AcDbEntity
  8
Bemaßung (ISO)
440
 16777216
100
AcDbMText
 10
183.3365083608097
 20
40.29777158723346
 30
0.0
 40
2.5
 41
0.0
 46
0.0
 71
     1
 72
     1
  1
\A1;62.61
  7
Notiztext (DIN)
 73
     1
 44
1.0
  0
POINT
  5
EAA
330
DC8
100
AcDbEntity
  8
Defpoints
 62
     0
440
 16777216
100
AcDbPoint
 10
156.0165973391733
 20
58.49789809490373
 30
0.0
  0
POINT
  5
EAB
330
DC8
100
AcDbEntity
  8
Defpoints
 62
     0
440
 16777216
100
AcDbPoint
 10
218.6236772732963
 20
42.69789809490373
 30
0.0
  0
POINT
  5
EAC
330
DC8
100
AcDbEntity
  8
Defpoints
 62
     0
440
 16777216
100
AcDbPoint
 10
218.6236772732963
 20
37.34490663376538
 30
0.0
  0
ENDBLK
  5
DCA
330
DC8
100
AcDbEntity
  8
0
100
AcDbBlockEnd
  0
BLOCK
  5
EAF
330
EAE
100
AcDbEntity
  8
0
100
AcDbBlockBegin
  2
*D19
 70
     1
 10
0.0
 20
0.0
 30
0.0
  3
*D19
  1

  0
LINE
  5
F83
330
EAE
100
AcDbEntity
  8
Bemaßung (ISO)
440
 16777216
100
AcDbLine
 10
156.0165973391733
 20
58.49789809490373
 30
0.0
 11
156.0165973391733
 21
29.09364020968753
 31
0.0
  0
LINE
  5
F84
330
EAE
100
AcDbEntity
  8
Bemaßung (ISO)
440
 16777216
100
AcDbLine
 10
262.6236772732978
 20
52.49789809490373
 30
0.0
 11
262.6236772732978
 21
29.09364020968753
 31
0.0
  0
LINE
  5
F85
330
EAE
100
AcDbEntity
  8
Bemaßung (ISO)
440
 16777216
100
AcDbLine
 10
158.5165973391733
 20
31.09364020968753
 30
0.0
 11
260.1236772732978
 21
31.09364020968753
 31
0.0
  0
SOLID
  5
F86
330
EAE
100
AcDbEntity
  8
Bemaßung (ISO)
440
 16777216
100
AcDbTrace
 10
158.5165973391733
 20
31.5103068763542
 30
0.0
 11
158.5165973391733
 21
30.67697354302087
 31
0.0
 12
156.0165973391733
 22
31.09364020968753
 32
0.0
 13
156.0165973391733
 23
31.09364020968753
 33
0.0
  0
SOLID
  5
F87
330
EAE
100
AcDbEntity
  8
Bemaßung (ISO)
440
 16777216
100
AcDbTrace
 10
260.1236772732978
 20
31.5103068763542
 30
0.0
 11
260.1236772732978
 21
30.67697354302087
 31
0.0
 12
262.6236772732978
 22
31.09364020968753
 32
0.0
 13
262.6236772732978
 23
31.09364020968753
 33
0.0
  0
MTEXT
  5
F88
330
EAE
100
AcDbEntity
  8
Bemaßung (ISO)
440
 16777216
100
AcDbMText
 10
205.2205465593168
 20
34.04650516315562
 30
0.0
 40
2.5
 41
0.0
 46
0.0
 71
     1
 72
     1
  1
\A1;106.6
  7
Notiztext (DIN)
 73
     1
 44
1.0
  0
POINT
  5
F89
330
EAE
100
AcDbEntity
  8
Defpoints
 62
     0
440
 16777216
100
AcDbPoint
 10
156.0165973391733
 20
58.49789809490373
 30
0.0
  0
POINT
  5
F8A
330
EAE
100
AcDbEntity
  8
Defpoints
 62
     0
440
 16777216
100
AcDbPoint
 10
262.6236772732978
 20
52.49789809490373
 30
0.0
  0
POINT
  5
F8B
330
EAE
100
AcDbEntity
  8
Defpoints
 62
     0
440
 16777216
100
AcDbPoint
 10
262.6236772732978
 20
31.09364020968753
 30
0.0
  0
ENDBLK
  5
EB0
330
EAE
100
AcDbEntity
  8
0
100
AcDbBlockEnd
  0
BLOCK
  5
FA1
330
FA0
100
AcDbEntity
  8
0
100
AcDbBlockBegin
  2
*D20
 70
     1
 10
0.0
 20
0.0
 30
0.0
  3
*D20
  1

  0
LINE
  5
1083
330
FA0
100
AcDbEntity
  8
Bemaßung (ISO)
440
 16777216
100
AcDbLine
 10
225.5461772732965
 20
41.49789809490374
 30
0.0
 11
272.5461772732964
 21
41.49789809490376
 31
0.0
  0
LINE
  5
1084
330
FA0
100
AcDbEntity
  8
Bemaßung (ISO)
440
 16777216
100
AcDbLine
 10
225.5461772732965
 20
66.49789809490376
 30
0.0
 11
272.5461772732964
 21
66.49789809490376
 31
0.0
  0
LINE
  5
1085
330
FA0
100
AcDbEntity
  8
Bemaßung (ISO)
440
 16777216
100
AcDbLine
 10
270.5461772732964
 20
43.99789809490375
 30
0.0
 11
270.5461772732964
 21
63.99789809490376
 31
0.0
  0
SOLID
  5
1086
330
FA0
100
AcDbEntity
  8
Bemaßung (ISO)
440
 16777216
100
AcDbTrace
 10
270.1295106066297
 20
43.99789809490375
 30
0.0
 11
270.9628439399631
 21
43.99789809490375
 31
0.0
 12
270.5461772732964
 22
41.49789809490375
 32
0.0
 13
270.5461772732964
 23
41.49789809490375
 33
0.0
  0
SOLID
  5
1087
330
FA0
100
AcDbEntity
  8
Bemaßung (ISO)
440
 16777216
100
AcDbTrace
 10
270.1295106066297
 20
63.99789809490376
 30
0.0
 11
270.9628439399631
 21
63.99789809490376
 31
0.0
 12
270.5461772732964
 22
66.49789809490376
 32
0.0
 13
270.5461772732964
 23
66.49789809490376
 33
0.0
  0
MTEXT
  5
1088
330
FA0
100
AcDbEntity
  8
Bemaßung (ISO)
440
 16777216
100
AcDbMText
 10
267.5933123198283
 20
52.17661568321107
 30
0.0
 40
2.5
 41
0.0
 46
0.0
 71
     1
 72
     1
  1
\A1;25
  7
Notiztext (DIN)
 11
0.0000000000000001
 21
1.0
 31
0.0
 73
     1
 44
1.0
  0
POINT
  5
1089
330
FA0
100
AcDbEntity
  8
Defpoints
 62
     0
440
 16777216
100
AcDbPoint
 10
225.5461772732965
 20
41.49789809490374
 30
0.0
  0
POINT
  5
108A
330
FA0
100
AcDbEntity
  8
Defpoints
 62
     0
440
 16777216
100
AcDbPoint
 10
225.5461772732965
 20
66.49789809490376
 30
0.0
  0
POINT
  5
108B
330
FA0
100
AcDbEntity
  8
Defpoints
 62
     0
440
 16777216
100
AcDbPoint
 10
270.5461772732964
 20
66.49789809490376
 30
0.0
  0
ENDBLK
  5
FA2
330
FA0
100
AcDbEntity
  8
0
100
AcDbBlockEnd
  0
BLOCK
  5
108E
330
108D
100
AcDbEntity
  8
0
100
AcDbBlockBegin
  2
*D21
 70
     1
 10
0.0
 20
0.0
 30
0.0
  3
*D21
  1

  0
LINE
  5
118C
330
108D
100
AcDbEntity
  8
Bemaßung (ISO)
440
 16777216
100
AcDbLine
 10
268.6236772732964
 20
178.71205796315
 30
0.0
 11
280.6236772732962
 21
178.71205796315
 31
0.0
  0
LINE
  5
118D
330
108D
100
AcDbEntity
  8
Bemaßung (ISO)
440
 16777216
100
AcDbLine
 10
268.6236772732963
 20
181.71205796315
 30
0.0
 11
280.6236772732962
 21
181.71205796315
 31
0.0
  0
LINE
  5
118E
330
108D
100
AcDbEntity
  8
Bemaßung (ISO)
440
 16777216
100
AcDbLine
 10
278.6236772732962
 20
176.21205796315
 30
0.0
 11
278.6236772732962
 21
173.71205796315
 31
0.0
  0
LINE
  5
118F
330
108D
100
AcDbEntity
  8
Bemaßung (ISO)
440
 16777216
100
AcDbLine
 10
278.6236772732962
 20
184.21205796315
 30
0.0
 11
278.6236772732962
 21
186.71205796315
 31
0.0
  0
LINE
  5
1190
330
108D
100
AcDbEntity
  8
Bemaßung (ISO)
440
 16777216
100
AcDbLine
 10
278.6236772732962
 20
178.71205796315
 30
0.0
 11
278.6236772732962
 21
181.71205796315
 31
0.0
  0
SOLID
  5
1191
330
108D
100
AcDbEntity
  8
Bemaßung (ISO)
440
 16777216
100
AcDbTrace
 10
278.2070106066295
 20
176.21205796315
 30
0.0
 11
279.0403439399629
 21
176.21205796315
 31
0.0
 12
278.6236772732962
 22
178.71205796315
 32
0.0
 13
278.6236772732962
 23
178.71205796315
 33
0.0
  0
SOLID
  5
1192
330
108D
100
AcDbEntity
  8
Bemaßung (ISO)
440
 16777216
100
AcDbTrace
 10
278.2070106066295
 20
184.21205796315
 30
0.0
 11
279.0403439399629
 21
184.21205796315
 31
0.0
 12
278.6236772732962
 22
181.71205796315
 32
0.0
 13
278.6236772732962
 23
181.71205796315
 33
0.0
  0
MTEXT
  5
1193
330
108D
100
AcDbEntity
  8
Bemaßung (ISO)
440
 16777216
100
AcDbMText
 10
275.669106999218
 20
179.3935040702543
 30
0.0
 40
2.5
 41
0.0
 46
0.0
 71
     1
 72
     1
  1
\A1;3
  7
Notiztext (DIN)
 11
0.0000000000000001
 21
1.0
 31
0.0
 73
     1
 44
1.0
  0
POINT
  5
1194
330
108D
100
AcDbEntity
  8
Defpoints
 62
     0
440
 16777216
100
AcDbPoint
 10
268.6236772732964
 20
178.71205796315
 30
0.0
  0
POINT
  5
1195
330
108D
100
AcDbEntity
  8
Defpoints
 62
     0
440
 16777216
100
AcDbPoint
 10
268.6236772732963
 20
181.71205796315
 30
0.0
  0
POINT
  5
1196
330
108D
100
AcDbEntity
  8
Defpoints
 62
     0
440
 16777216
100
AcDbPoint
 10
278.6236772732962
 20
181.71205796315
 30
0.0
  0
ENDBLK
  5
108F
330
108D
100
AcDbEntity
  8
0
100
AcDbBlockEnd
  0
ENDSEC
  0
SECTION
  2
ENTITIES
  0
INSERT
  5
117
330
70
100
AcDbEntity
  8
0
100
AcDbBlockReference
  2
Ränder Standardrahmen
 10
0.0
 20
0.0
 30
0.0
  0
INSERT
  5
19D
330
70
100
AcDbEntity
  8
0
100
AcDbBlockReference
 66
     1
  2
Schriftfelder perma CI-Pool
 10
-40.51278835840225
 20
-95.84811398232993
 30
0.0
  0
ATTRIB
  5
19F
102
{ACAD_XDICTIONARY
360
11B8
102
}
330
19D
100
AcDbEntity
  8
Titel (ISO)
100
AcDbText
 10
97.75630964696757
 20
20.72118007659444
 30
0.0
 40
2.5
  1
1:1 (1:2)
  7
Textstil54
100
AcDbAttribute
280
     0
  2
Maßstab_001
 70
     0
280
     0
  0
ATTRIB
  5
1A0
102
{ACAD_XDICTIONARY
360
11BB
102
}
330
19D
100
AcDbEntity
  8
Titel (ISO)
100
AcDbText
 10
115.249147288763
 20
20.39120053852091
 30
0.0
 40
2.5
  1
06.06.2016
  7
Textstil54
100
AcDbAttribute
280
     0
  2
Datum_001
 70
     0
280
     0
  0
ATTRIB
  5
1A1
102
{ACAD_XDICTIONARY
360
11BE
102
}
330
19D
100
AcDbEntity
  8
Titel (ISO)
100
AcDbText
 10
102.307810355589
 20
11.61988403089339
 30
0.0
 40
2.5
  1
A4
  7
Textstil54
100
AcDbAttribute
280
     0
  2
Blattgröße_001
 70
     0
280
     0
  0
ATTRIB
  5
1A2
102
{ACAD_XDICTIONARY
360
11C1
102
}
330
19D
100
AcDbEntity
  8
Titel (ISO)
100
AcDbText
 10
137.9181446107104
 20
20.39546384004643
 30
0.0
 40
2.5
  1
stainless steel
  7
Textstil54
100
AcDbAttribute
280
     0
  2
Material_001
 70
     0
280
     0
  0
ATTRIB
  5
1A3
102
{ACAD_XDICTIONARY
360
11C4
102
}
330
19D
100
AcDbEntity
  8
Titel (ISO)
100
AcDbText
 10
137.7237380611477
 20
11.63477560877796
 30
0.0
 40
2.5
  1
109664
  7
Textstil54
100
AcDbAttribute
280
     0
  2
Artikelnummer_001
 70
     0
280
     0
  0
ATTRIB
  5
1A4
102
{ACAD_XDICTIONARY
360
11C7
102
}
330
19D
100
AcDbEntity
  8
Titel (ISO)
100
AcDbText
 10
119.1546725473308
 20
11.62333486304849
 30
0.0
 40
2.5
  1
D / cst
  7
Textstil54
100
AcDbAttribute
280
     0
  2
Revision/Gezeichnet_001
 70
     0
280
     0
  0
SEQEND
  5
19E
330
19D
100
AcDbEntity
  8
0
  0
CIRCLE
  5
1A5
330
70
100
AcDbEntity
  8
Sichtbar (ISO)
100
AcDbCircle
 10
42.46621770287505
 20
111.0978981290267
 30
0.0
 40
5.499999999999998
  0
CIRCLE
  5
1A6
330
70
100
AcDbEntity
  8
Sichtbar (ISO)
100
AcDbCircle
 10
104.466217702875
 20
111.0978981290267
 30
0.0
 40
5.5
  0
SPLINE
  5
1A7
330
70
100
AcDbEntity
  8
Sichtbar (ISO)
100
AcDbSpline
210
0.0
220
0.0
230
1.0
 70
     8
 71
     3
 72
     8
 73
     4
 74
     0
 42
0.000000001
 43
0.0000000001
 40
0.9546308109999978
 40
0.9546308109999978
 40
0.9546308109999978
 40
0.9546308109999978
 40
0.984288419856875
 40
0.984288419856875
 40
0.984288419856875
 40
0.984288419856875
 10
95.46621770287503
 20
58.19789809490372
 30
0.0
 10
95.46621770287503
 20
58.29626125566109
 30
0.0
 10
95.45888642985104
 20
58.39707365255708
 30
0.0
 10
95.44358969620354
 20
58.49789809490371
 30
0.0
  0
ARC
  5
1A8
330
70
100
AcDbEntity
  8
Sichtbar (ISO)
100
AcDbCircle
 10
93.46621770287502
 20
58.19789809490369
 30
0.0
 40
2.000000000000026
100
AcDbArc
 50
8.626926558679079
 51
89.99999999999948
  0
SPLINE
  5
1A9
330
70
100
AcDbEntity
  8
Sichtbar (ISO)
100
AcDbSpline
210
0.0
220
0.0
230
1.0
 70
     8
 71
     3
 72
     8
 73
     4
 74
     0
 42
0.000000001
 43
0.0000000001
 40
0.9104876265943856
 40
0.9104876265943856
 40
0.9104876265943856
 40
0.9104876265943856
 40
0.9401452354512624
 40
0.9401452354512624
 40
0.9401452354512624
 40
0.9401452354512624
 10
51.48884570954651
 20
58.49789809490371
 30
0.0
 10
51.473548975899
 20
58.39707365255708
 30
0.0
 10
51.46621770287502
 20
58.29626125566109
 30
0.0
 10
51.46621770287502
 20
58.19789809490372
 30
0.0
  0
ARC
  5
1AA
330
70
100
AcDbEntity
  8
Sichtbar (ISO)
100
AcDbCircle
 10
53.46621770287502
 20
58.19789809490372
 30
0.0
 40
1.999999999999995
100
AcDbArc
 50
90.0
 51
171.3730734413215
  0
LINE
  5
1AB
330
70
100
AcDbEntity
  8
Sichtbar (ISO)
100
AcDbLine
 10
82.96621770287504
 20
60.19789809490371
 30
0.0
 11
93.46621770287502
 21
60.19789809490371
 31
0.0
  0
LINE
  5
1AC
330
70
100
AcDbEntity
  8
Sichtbar (ISO)
100
AcDbLine
 10
53.46621770287502
 20
60.19789809490371
 30
0.0
 11
63.96621770287502
 21
60.19789809490371
 31
0.0
  0
LINE
  5
1AD
330
70
100
AcDbEntity
  8
Sichtbar (ISO)
100
AcDbLine
 10
51.46621770287504
 20
55.49789809490372
 30
0.0
 11
51.46621770287504
 21
58.19789809490372
 31
0.0
  0
LINE
  5
1AE
330
70
100
AcDbEntity
  8
Sichtbar (ISO)
100
AcDbLine
 10
95.46621770287501
 20
58.19789809490372
 30
0.0
 11
95.46621770287501
 21
55.4978980949037
 31
0.0
  0
LINE
  5
1AF
330
70
100
AcDbEntity
  8
Sichtbar (ISO)
100
AcDbLine
 10
117.4662177028786
 20
175.7120579631499
 30
0.0
 11
117.4662177028786
 21
58.49789809490371
 31
0.0
  0
LINE
  5
1B0
330
70
100
AcDbEntity
  8
Sichtbar (ISO)
100
AcDbLine
 10
29.46621770287507
 20
58.49789809490371
 30
0.0
 11
29.46621770287518
 21
175.7120579631498
 31
0.0
  0
ARC
  5
1B1
330
70
100
AcDbEntity
  8
Sichtbar (ISO)
100
AcDbCircle
 10
42.46621770287504
 20
78.49789812902677
 30
0.0
 40
5.500000000000655
100
AcDbArc
 50
90.0
 51
270.0
  0
LINE
  5
1B2
330
70
100
AcDbEntity
  8
Sichtbar (ISO)
100
AcDbLine
 10
42.46621770287504
 20
83.99789812902676
 30
0.0
 11
104.466217702875
 21
83.99789812902673
 31
0.0
  0
ARC
  5
1B3
330
70
100
AcDbEntity
  8
Sichtbar (ISO)
100
AcDbCircle
 10
104.466217702875
 20
78.49789812902674
 30
0.0
 40
5.500000000000655
100
AcDbArc
 50
270.0
 51
90.0
  0
LINE
  5
1B4
330
70
100
AcDbEntity
  8
Sichtbar (ISO)
100
AcDbLine
 10
104.466217702875
 20
72.99789812902677
 30
0.0
 11
42.46621770287504
 21
72.9978981290268
 31
0.0
  0
ARC
  5
1B5
330
70
100
AcDbEntity
  8
Sichtbar (ISO)
100
AcDbCircle
 10
42.46621770287506
 20
140.4978981290267
 30
0.0
 40
5.500000000000699
100
AcDbArc
 50
90.0
 51
270.0
  0
LINE
  5
1B6
330
70
100
AcDbEntity
  8
Sichtbar (ISO)
100
AcDbLine
 10
42.46621770287506
 20
145.9978981290275
 30
0.0
 11
104.466217702875
 21
145.9978981290267
 31
0.0
  0
ARC
  5
1B7
330
70
100
AcDbEntity
  8
Sichtbar (ISO)
100
AcDbCircle
 10
104.466217702875
 20
140.4978981290267
 30
0.0
 40
5.500000000000699
100
AcDbArc
 50
270.0
 51
90.0
  0
LINE
  5
1B8
330
70
100
AcDbEntity
  8
Sichtbar (ISO)
100
AcDbLine
 10
104.466217702875
 20
134.9978981290267
 30
0.0
 11
42.46621770287506
 21
134.997898129026
 31
0.0
  0
LINE
  5
1B9
330
70
100
AcDbEntity
  8
Sichtbar (ISO)
100
AcDbLine
 10
117.4662177028764
 20
52.49789809490372
 30
0.0
 11
29.46621770287361
 21
52.49789809490372
 31
0.0
  0
LINE
  5
1BA
330
70
100
AcDbEntity
  8
Sichtbar (ISO)
100
AcDbLine
 10
29.46621770287504
 20
52.49789809490372
 30
0.0
 11
29.46621770287504
 21
55.49789809490371
 31
0.0
  0
LINE
  5
1BB
330
70
100
AcDbEntity
  8
Sichtbar (ISO)
100
AcDbLine
 10
29.46621770287361
 20
55.49789809490371
 30
0.0
 11
117.4662177028764
 21
55.49789809490371
 31
0.0
  0
LINE
  5
1BC
330
70
100
AcDbEntity
  8
Sichtbar (ISO)
100
AcDbLine
 10
117.4662177028786
 20
52.49789809490372
 30
0.0
 11
117.4662177028786
 21
55.49789809490371
 31
0.0
  0
LINE
  5
1BD
330
70
100
AcDbEntity
  8
Sichtbar (ISO)
100
AcDbLine
 10
123.4662177028753
 20
178.7120579631499
 30
0.0
 11
23.46621770287518
 21
178.7120579631498
 31
0.0
  0
LINE
  5
1BE
330
70
100
AcDbEntity
  8
Sichtbar (ISO)
100
AcDbLine
 10
23.46621770287521
 20
181.7120579631498
 30
0.0
 11
123.4662177028752
 21
181.7120579631499
 31
0.0
  0
LINE
  5
1BF
330
70
100
AcDbEntity
  8
Sichtbar (ISO)
100
AcDbLine
 10
123.4662177028752
 20
181.71205796315
 30
0.0
 11
123.4662177028752
 21
178.7120579631499
 31
0.0
  0
LINE
  5
1C0
330
70
100
AcDbEntity
  8
Sichtbar (ISO)
100
AcDbLine
 10
23.46621770287517
 20
181.7120579631498
 30
0.0
 11
23.46621770287518
 21
178.7120579631498
 31
0.0
  0
LINE
  5
1C1
330
70
100
AcDbEntity
  8
Sichtbar (ISO)
100
AcDbLine
 10
117.4662177028786
 20
55.49789809490371
 30
0.0
 11
117.4662177028786
 21
58.49789809490371
 31
0.0
  0
LINE
  5
1C2
330
70
100
AcDbEntity
  8
Sichtbar (ISO)
100
AcDbLine
 10
29.46621770287505
 20
58.49789809490371
 30
0.0
 11
29.46621770287506
 21
55.4978980949037
 31
0.0
  0
SPLINE
  5
1C3
330
70
100
AcDbEntity
  8
Sichtbar (ISO)
100
AcDbSpline
210
0.0
220
0.0
230
1.0
 70
     8
 71
     3
 72
    10
 73
     6
 74
     0
 42
0.000000001
 43
0.0000000001
 40
0.0
 40
0.0
 40
0.0
 40
0.0
 40
0.119518596692265
 40
0.119518596692265
 40
0.2390371940018628
 40
0.2390371940018628
 40
0.2390371940018628
 40
0.2390371940018628
 10
29.11151732724877
 20
178.7120579631498
 30
0.0
 10
29.17082322557103
 20
178.7120579631498
 30
0.0
 10
29.22956150884262
 20
178.6344571417191
 30
0.0
 10
29.34817352067743
 20
178.3329359811834
 30
0.0
 10
29.40691180424663
 20
178.1119475484285
 30
0.0
 10
29.46621770287519
 20
177.8333783067094
 30
0.0
  0
LINE
  5
1C4
330
70
100
AcDbEntity
  8
Sichtbar (ISO)
100
AcDbLine
 10
117.4662177028786
 20
175.7120579631499
 30
0.0
 11
117.4662177028784
 21
177.8333783067096
 31
0.0
  0
SPLINE
  5
1C5
330
70
100
AcDbEntity
  8
Sichtbar (ISO)
100
AcDbSpline
210
0.0
220
0.0
230
1.0
 70
     8
 71
     3
 72
    10
 73
     6
 74
     0
 42
0.000000001
 43
0.0000000001
 40
0.0
 40
0.0
 40
0.0
 40
0.0
 40
0.1195185966923107
 40
0.1195185966923107
 40
0.2390371940019577
 40
0.2390371940019577
 40
0.2390371940019577
 40
0.2390371940019577
 10
117.4662177028786
 20
177.8333783067096
 30
0.0
 10
117.5255236012006
 20
178.1119475469901
 30
0.0
 10
117.5842618844723
 20
178.3329359789149
 30
0.0
 10
117.7028738963072
 20
178.6344571409176
 30
0.0
 10
117.7616121798761
 20
178.7120579631499
 30
0.0
 10
117.8209180785048
 20
178.7120579631499
 30
0.0
  0
LINE
  5
1C6
330
70
100
AcDbEntity
  8
Sichtbar (ISO)
100
AcDbLine
 10
29.46621770287518
 20
177.8333783067094
 30
0.0
 11
29.46621770287518
 21
175.7120579631498
 31
0.0
  0
LINE
  5
1C7
330
70
100
AcDbEntity
  8
Sichtbar (ISO)
100
AcDbLine
 10
64.96621770287504
 20
41.49789809490371
 30
0.0
 11
81.96621770287505
 21
41.49789809490371
 31
0.0
  0
LINE
  5
1C8
330
70
100
AcDbEntity
  8
Sichtbar (ISO)
100
AcDbLine
 10
64.96621770287504
 20
66.49789809490371
 30
0.0
 11
81.96621770287505
 21
66.49789809490371
 31
0.0
  0
LINE
  5
1C9
330
70
100
AcDbEntity
  8
Sichtbar (ISO)
100
AcDbLine
 10
63.96621770287503
 20
65.49789809490372
 30
0.0
 11
82.96621770287503
 21
65.49789809490372
 31
0.0
  0
LINE
  5
1CA
330
70
100
AcDbEntity
  8
Sichtbar (ISO)
100
AcDbLine
 10
63.96621770287503
 20
42.49789809490372
 30
0.0
 11
82.96621770287503
 21
42.49789809490372
 31
0.0
  0
LINE
  5
1CB
330
70
100
AcDbEntity
  8
Sichtbar (ISO)
100
AcDbLine
 10
81.96621770287505
 20
66.49789809490371
 30
0.0
 11
82.96621770287504
 21
65.49789809490372
 31
0.0
  0
LINE
  5
1CC
330
70
100
AcDbEntity
  8
Sichtbar (ISO)
100
AcDbLine
 10
64.96621770287504
 20
66.49789809490371
 30
0.0
 11
63.96621770287503
 21
65.49789809490372
 31
0.0
  0
LINE
  5
1CD
330
70
100
AcDbEntity
  8
Sichtbar (ISO)
100
AcDbLine
 10
82.96621770287504
 20
65.49789809490372
 30
0.0
 11
82.96621770287504
 21
55.49789809490371
 31
0.0
  0
LINE
  5
1CE
330
70
100
AcDbEntity
  8
Sichtbar (ISO)
100
AcDbLine
 10
82.96621770287504
 20
52.49789809490372
 30
0.0
 11
82.96621770287504
 21
42.49789809490372
 31
0.0
  0
LINE
  5
1CF
330
70
100
AcDbEntity
  8
Sichtbar (ISO)
100
AcDbLine
 10
63.96621770287503
 20
65.49789809490372
 30
0.0
 11
63.96621770287503
 21
55.49789809490371
 31
0.0
  0
LINE
  5
1D0
330
70
100
AcDbEntity
  8
Sichtbar (ISO)
100
AcDbLine
 10
63.96621770287503
 20
52.49789809490372
 30
0.0
 11
63.96621770287503
 21
42.49789809490372
 31
0.0
  0
LINE
  5
1D1
330
70
100
AcDbEntity
  8
Sichtbar (ISO)
100
AcDbLine
 10
64.96621770287504
 20
41.49789809490371
 30
0.0
 11
63.96621770287503
 21
42.49789809490372
 31
0.0
  0
LINE
  5
1D2
330
70
100
AcDbEntity
  8
Sichtbar (ISO)
100
AcDbLine
 10
81.96621770287505
 20
41.49789809490371
 30
0.0
 11
82.96621770287504
 21
42.49789809490372
 31
0.0
  0
SPLINE
  5
1D3
330
70
100
AcDbEntity
  8
Sichtbar (ISO)
100
AcDbSpline
210
0.0
220
0.0
230
1.0
 70
     8
 71
     3
 72
    12
 73
     8
 74
     0
 42
0.000000001
 43
0.0000000001
 40
0.0
 40
0.0
 40
0.0
 40
0.0
 40
0.030617878778097
 40
0.030617878778097
 40
0.0664620993316034
 40
0.0664620993316034
 40
0.0847657824640519
 40
0.0847657824640519
 40
0.0847657824640519
 40
0.0847657824640519
 10
78.70543232805491
 20
49.49789809490372
 30
0.0
 10
78.79056813169047
 20
49.49789809490372
 30
0.0
 10
78.87324774429497
 20
49.51816836582449
 30
0.0
 10
79.04187144611507
 20
49.59915750846654
 30
0.0
 10
79.12350086603948
 20
49.66490774781281
 30
0.0
 10
79.230940584263
 20
49.78617530420969
 30
0.0
 10
79.26440742348344
 20
49.83078844651701
 30
0.0
 10
79.29510616161119
 20
49.87824986869523
 30
0.0
  0
SPLINE
  5
1D4
330
70
100
AcDbEntity
  8
Sichtbar (ISO)
100
AcDbSpline
210
0.0
220
0.0
230
1.0
 70
     8
 71
     3
 72
    14
 73
    10
 74
     0
 42
0.000000001
 43
0.0000000001
 40
0.1186769913153531
 40
0.1186769913153531
 40
0.1186769913153531
 40
0.1186769913153531
 40
0.1325652180912588
 40
0.1325652180912588
 40
0.1755217531684046
 40
0.1755217531684046
 40
0.1956350475143884
 40
0.1956350475143884
 40
0.2151795359558991
 40
0.2151795359558991
 40
0.2151795359558991
 40
0.2151795359558991
 10
67.63733783040946
 20
49.87825112695578
 30
0.0
 10
67.65826879308048
 20
49.84589874357123
 30
0.0
 10
67.68021104046288
 20
49.81528876508272
 30
0.0
 10
67.77393641515984
 20
49.69755178012293
 30
0.0
 10
67.85646845432734
 20
49.62311861797005
 30
0.0
 10
67.99341196448894
 20
49.54781975195023
 30
0.0
 10
68.03908755401062
 20
49.529099623253
 30
0.0
 10
68.13234389811466
 20
49.50424847168992
 30
0.0
 10
68.17938765680375
 20
49.49789809490372
 30
0.0
 10
68.22700307769517
 20
49.49789809490372
 30
0.0
  0
SPLINE
  5
1D5
330
70
100
AcDbEntity
  8
Sichtbar (ISO)
100
AcDbSpline
210
0.0
220
0.0
230
1.0
 70
     8
 71
     3
 72
    16
 73
    12
 74
     0
 42
0.000000001
 43
0.0000000001
 40
0.273794007425635
 40
0.273794007425635
 40
0.273794007425635
 40
0.273794007425635
 40
0.3480399433301433
 40
0.3480399433301433
 40
0.4222858792346517
 40
0.4222858792346517
 40
0.49653181513916
 40
0.49653181513916
 40
0.5707777510436684
 40
0.5707777510436684
 40
0.6450236869481766
 40
0.6450236869481766
 40
0.6450236869481766
 40
0.6450236869481766
 10
79.29508952001599
 20
49.87825900152969
 30
0.0
 10
79.40798483005977
 20
50.0528076339068
 30
0.0
 10
79.52085464361366
 20
50.22737989575147
 30
0.0
 10
79.74655177843212
 20
50.57656500575461
 30
0.0
 10
79.85937908251353
 20
50.75117786364979
 30
0.0
 10
80.08499788397719
 20
51.1004386954737
 30
0.0
 10
80.19778936896914
 20
51.27508667650269
 30
0.0
 10
80.42334188445167
 20
51.62441320762202
 30
0.0
 10
80.5361029059286
 20
51.79909176308584
 30
0.0
 10
80.76159883539036
 20
52.14847564508538
 30
0.0
 10
80.87433373689011
 20
52.32318097601172
 30
0.0
 10
80.98705736053226
 20
52.49789809490367
 30
0.0
  0
SPLINE
  5
1D6
330
70
100
AcDbEntity
  8
Sichtbar (ISO)
100
AcDbSpline
210
0.0
220
0.0
230
1.0
 70
     8
 71
     3
 72
    16
 73
    12
 74
     0
 42
0.000000001
 43
0.0000000001
 40
0.0648675575209759
 40
0.0648675575209759
 40
0.0648675575209759
 40
0.0648675575209759
 40
0.1391134934162821
 40
0.1391134934162821
 40
0.2133594293115883
 40
0.2133594293115883
 40
0.2876053652068946
 40
0.2876053652068946
 40
0.3618513011022007
 40
0.3618513011022007
 40
0.4360972369975071
 40
0.4360972369975071
 40
0.4360972369975071
 40
0.4360972369975071
 10
65.94537804521781
 20
52.49789809490372
 30
0.0
 10
66.05810166884925
 20
52.32318097602834
 30
0.0
 10
66.17083657033686
 20
52.14847564512083
 30
0.0
 10
66.39633249976907
 20
51.79909176316702
 30
0.0
 10
66.50909352122804
 20
51.62441320773102
 30
0.0
 10
66.73464603667446
 20
51.27508667666757
 30
0.0
 10
66.84743752164853
 20
51.10043869566625
 30
0.0
 10
67.0730563231034
 20
50.75117786385589
 30
0.0
 10
67.1858836271946
 20
50.57656500594548
 30
0.0
 10
67.41158076206009
 20
50.22737989586954
 30
0.0
 10
67.52445057565058
 20
50.05280763396823
 30
0.0
 10
67.6373458857341
 20
49.87825900152966
 30
0.0
  0
LINE
  5
1D7
330
70
100
AcDbEntity
  8
Sichtbar (ISO)
100
AcDbLine
 10
78.70543232805491
 20
49.49789809490372
 30
0.0
 11
68.22700307769517
 21
49.49789809490372
 31
0.0
  0
ELLIPSE
  5
1D8
330
70
100
AcDbEntity
  8
Sichtbar (ISO)
100
AcDbEllipse
 10
214.8916752307581
 20
123.9032229731775
 30
0.0
 11
1.375000000000165
 21
2.381569860407115
 31
0.0
210
0.0
220
0.0
230
0.9999999999999998
 40
0.5773502691897113
 41
3.537553217051879
 42
5.887224743716613
  0
ELLIPSE
  5
1D9
330
70
100
AcDbEntity
  8
Sichtbar (ISO)
100
AcDbEllipse
 10
215.9523354025377
 20
123.2908505374817
 30
0.0
 11
1.375000000000445
 21
2.381569860406949
 31
0.0
210
0.0
220
0.0
230
0.9999999999999998
 40
0.5773502691897111
 41
0.0
 42
6.283185307179586
  0
ELLIPSE
  5
1DA
330
70
100
AcDbEntity
  8
Sichtbar (ISO)
100
AcDbEllipse
 10
236.8119854475443
 20
136.5589199775554
 30
0.0
 11
1.375000000000304
 21
2.381569860407029
 31
0.0
210
0.0
220
0.0
230
1.0
 40
0.5773502691897114
 41
4.578006339895235
 42
5.887224743717061
  0
ELLIPSE
  5
1DB
330
70
100
AcDbEntity
  8
Sichtbar (ISO)
100
AcDbEllipse
 10
237.872645619324
 20
135.9465475418595
 30
0.0
 11
1.375000000000306
 21
2.381569860407031
 31
0.0
210
0.0
220
0.0
230
1.0
 40
0.5773502691897113
 41
4.691809953692821
 42
8.123219096109293
  0
LINE
  5
1DC
330
70
100
AcDbEntity
  8
Sichtbar schmal (ISO)
100
AcDbLine
 10
233.9835583227975
 20
112.9213439457674
 30
0.0
 11
234.6959817298036
 21
112.5100260999553
 31
0.0
  0
SPLINE
  5
1DD
330
70
100
AcDbEntity
  8
Sichtbar (ISO)
100
AcDbSpline
210
0.0
220
0.0
230
1.0
 70
     8
 71
     3
 72
     8
 73
     4
 74
     0
 42
0.000000001
 43
0.0000000001
 40
0.9546308109999978
 40
0.9546308109999978
 40
0.9546308109999978
 40
0.9546308109999978
 40
0.984288419856875
 40
0.984288419856875
 40
0.984288419856875
 40
0.984288419856875
 10
234.6959817298036
 20
112.5100260999553
 30
0.0
 10
234.6924865470808
 20
112.5522006368649
 30
0.0
 10
234.688073107549
 20
112.5929122463781
 30
0.0
 10
234.682664895503
 20
112.6309512199224
 30
0.0
  0
ELLIPSE
  5
1DE
330
70
100
AcDbEntity
  8
Sichtbar (ISO)
100
AcDbEllipse
 10
233.9835583227974
 20
112.1048473648396
 30
0.0
 11
0.500000000000118
 21
0.8660254037843865
 31
0.0
210
0.0
220
0.0
230
1.0
 40
0.5773502691897111
 41
5.648355416558942
 42
7.068583470577109
  0
LINE
  5
1DF
330
70
100
AcDbEntity
  8
Sichtbar schmal (ISO)
100
AcDbLine
 10
224.4376167767776
 20
107.409992024506
 30
0.0
 11
225.1500401837838
 21
106.9986741786939
 31
0.0
  0
SPLINE
  5
1E0
330
70
100
AcDbEntity
  8
Sichtbar (ISO)
100
AcDbSpline
210
0.0
220
0.0
230
1.0
 70
     8
 71
     3
 72
     8
 73
     4
 74
     0
 42
0.000000001
 43
0.0000000001
 40
0.9546308109999978
 40
0.9546308109999978
 40
0.9546308109999978
 40
0.9546308109999978
 40
0.984288419856875
 40
0.984288419856875
 40
0.984288419856875
 40
0.984288419856875
 10
225.1500401837838
 20
106.9986741786939
 30
0.0
 10
225.1465450010611
 20
107.0408487156036
 30
0.0
 10
225.1421315615292
 20
107.0815603251167
 30
0.0
 10
225.1367233494832
 20
107.1195992986611
 30
0.0
  0
ELLIPSE
  5
1E1
330
70
100
AcDbEntity
  8
Sichtbar (ISO)
100
AcDbEllipse
 10
224.4376167767776
 20
106.5934954435782
 30
0.0
 11
0.500000000000118
 21
0.8660254037843865
 31
0.0
210
0.0
220
0.0
230
1.0
 40
0.5773502691897111
 41
5.648355416558942
 42
7.068583470577109
  0
SPLINE
  5
1E2
330
70
100
AcDbEntity
  8
Sichtbar (ISO)
100
AcDbSpline
210
0.0
220
0.0
230
1.0
 70
     8
 71
     3
 72
     8
 73
     4
 74
     0
 42
0.000000001
 43
0.0000000001
 40
0.9104876265943863
 40
0.9104876265943863
 40
0.9104876265943863
 40
0.9104876265943863
 40
0.9401452354512633
 40
0.9401452354512633
 40
0.9401452354512633
 40
0.9401452354512633
 10
228.6882576723785
 20
109.1700785960203
 30
0.0
 10
228.6828494603325
 20
109.1257947571147
 30
0.0
 10
228.6820789069943
 20
109.0820901679226
 30
0.0
 10
228.685574089717
 20
109.039915631013
 30
0.0
  0
ELLIPSE
  5
1E3
330
70
100
AcDbEntity
  8
Sichtbar (ISO)
100
AcDbEllipse
 10
229.3873642450841
 20
109.4512334768249
 30
0.0
 11
-0.5000000000000603
 21
-0.8660254037844058
 31
0.0
210
0.0
220
0.0
230
1.0
 40
0.5773502691897114
 41
3.926990816987043
 42
5.347218871005325
  0
SPLINE
  5
1E4
330
70
100
AcDbEntity
  8
Sichtbar (ISO)
100
AcDbSpline
210
0.0
220
0.0
230
1.0
 70
     8
 71
     3
 72
     8
 73
     4
 74
     0
 42
0.000000001
 43
0.0000000001
 40
0.9104876265943856
 40
0.9104876265943856
 40
0.9104876265943856
 40
0.9104876265943856
 40
0.9401452354512624
 40
0.9401452354512624
 40
0.9401452354512624
 40
0.9401452354512624
 10
219.1423161263587
 20
103.658726674759
 30
0.0
 10
219.1369079143127
 20
103.6144428358534
 30
0.0
 10
219.1361373609745
 20
103.5707382466613
 30
0.0
 10
219.1396325436973
 20
103.5285637097516
 30
0.0
  0
ELLIPSE
  5
1E5
330
70
100
AcDbEntity
  8
Sichtbar (ISO)
100
AcDbEllipse
 10
219.8414226990643
 20
103.9398815555635
 30
0.0
 11
-0.5000000000000585
 21
-0.8660254037844024
 31
0.0
210
0.0
220
0.0
230
0.9999999999999998
 40
0.5773502691897114
 41
3.926990816987043
 42
5.347218871005325
  0
LINE
  5
1E6
330
70
100
AcDbEntity
  8
Sichtbar (ISO)
100
AcDbLine
 10
229.3873642450841
 20
110.2677300577526
 30
0.0
 11
233.9835583227974
 21
112.9213439457673
 31
0.0
  0
LINE
  5
1E7
330
70
100
AcDbEntity
  8
Sichtbar (ISO)
100
AcDbLine
 10
219.8414226990644
 20
104.7563781364913
 30
0.0
 11
224.4376167767776
 21
107.409992024506
 31
0.0
  0
ELLIPSE
  5
1E8
330
70
100
AcDbEntity
  8
Sichtbar (ISO)
100
AcDbEllipse
 10
226.2698893972601
 20
99.12613419263017
 30
0.0
 11
0.999999999999993
 21
0.0
 31
0.0
210
0.0
220
0.0
230
1.0
 40
0.577350269189626
 41
3.926990816987075
 42
5.947584004206328
  0
ELLIPSE
  5
1E9
330
70
100
AcDbEntity
  8
Sichtbar (ISO)
100
AcDbEllipse
 10
220.1949760896574
 20
103.041735316543
 30
0.0
 11
-0.7499999999997607
 21
1.299038105676808
 31
0.0
210
0.0
220
0.0
230
1.0
 40
0.5773502691895401
 41
0.8855655845593206
 42
2.356194490192658
  0
LINE
  5
1EA
330
70
100
AcDbEntity
  8
Sichtbar (ISO)
100
AcDbLine
 10
225.5627826160734
 20
98.71788590216638
 30
0.0
 11
220.1949760896574
 21
101.8169904451514
 31
0.0
  0
ELLIPSE
  5
1EB
330
70
100
AcDbEntity
  8
Sichtbar (ISO)
100
AcDbEllipse
 10
229.4378545851718
 20
102.6043364146364
 30
0.0
 11
0.9999999999999875
 21
0.0
 31
0.0
210
0.0
220
0.0
230
1.0
 40
0.5773502691896261
 41
5.650554575367131
 42
7.06858347057689
  0
LINE
  5
1EC
330
70
100
AcDbEntity
  8
Sichtbar schmal (ISO)
100
AcDbLine
 10
230.1449613663585
 20
102.1840825809833
 30
0.0
 11
230.1449613663585
 21
103.0125847051002
 31
0.0
  0
ELLIPSE
  5
1ED
330
70
100
AcDbEntity
  8
Sichtbar (ISO)
100
AcDbEllipse
 10
247.9867757250014
 20
94.752849834623
 30
0.0
 11
-22.00000000000024
 21
-0.0000000000000011
 31
0.0
210
0.0
220
0.0
230
1.0
 40
0.5773502691896261
 41
5.650554575367138
 42
5.947584004206343
  0
ELLIPSE
  5
1EE
330
70
100
AcDbEntity
  8
Sichtbar (ISO)
100
AcDbEllipse
 10
226.2053837297439
 20
106.5118457854853
 30
0.0
 11
-1.499999999999517
 21
2.598076211353609
 31
0.0
210
0.0
220
0.0
230
1.0
 40
0.5773502691895401
 41
0.9837547568145943
 42
2.356194490192658
  0
LINE
  5
1EF
330
70
100
AcDbEntity
  8
Sichtbar (ISO)
100
AcDbLine
 10
229.8612900594787
 20
101.9516175390971
 30
0.0
 11
226.2053837297439
 21
104.0623560427021
 31
0.0
  0
LINE
  5
1F0
330
70
100
AcDbEntity
  8
Sichtbar (ISO)
100
AcDbLine
 10
226.2053837297439
 20
105.2871009140937
 30
0.0
 11
230.1449613663585
 21
103.0125847051002
 31
0.0
  0
ELLIPSE
  5
1F1
330
70
100
AcDbEntity
  8
Sichtbar (ISO)
100
AcDbEllipse
 10
226.2053837297439
 20
106.5118457854853
 30
0.0
 11
0.7499999999999121
 21
-1.299038105676713
 31
0.0
210
0.0
220
0.0
230
1.0
 40
0.57735026918954
 41
4.027158238148693
 42
5.497787143782005
  0
ELLIPSE
  5
1F2
330
70
100
AcDbEntity
  8
Sichtbar (ISO)
100
AcDbEllipse
 10
234.3876020534783
 20
105.462074447883
 30
0.0
 11
-0.9999999999999886
 21
0.0000000000000598
 31
0.0
210
0.0
220
0.0
230
1.0
 40
0.577350269189626
 41
0.7853981633974767
 42
2.203427058607211
  0
ELLIPSE
  5
1F3
330
70
100
AcDbEntity
  8
Sichtbar (ISO)
100
AcDbEllipse
 10
229.7409176356772
 20
108.5530872378043
 30
0.0
 11
-0.7499999999997633
 21
1.299038105676813
 31
0.0
210
0.0
220
0.0
230
1.0
 40
0.5773502691895401
 41
0.8855655845593215
 42
2.356194490192658
  0
LINE
  5
1F4
330
70
100
AcDbEntity
  8
Sichtbar (ISO)
100
AcDbLine
 10
233.6804952722917
 20
105.0538261574192
 30
0.0
 11
229.7409176356771
 21
107.3283423664127
 31
0.0
  0
ELLIPSE
  5
1F5
330
70
100
AcDbEntity
  8
Sichtbar (ISO)
100
AcDbEllipse
 10
240.4120250209931
 20
107.2911000019062
 30
0.0
 11
1.000000000000014
 21
0.0000000000000001
 31
0.0
210
0.0
220
0.0
230
1.0
 40
0.5773502691896261
 41
5.047990283357643
 42
7.06858347057689
  0
LINE
  5
1F6
330
70
100
AcDbEntity
  8
Sichtbar schmal (ISO)
100
AcDbLine
 10
241.1191318021798
 20
106.8828517114424
 30
0.0
 11
241.1191318021798
 21
107.69934829237
 31
0.0
  0
ELLIPSE
  5
1F7
330
70
100
AcDbEntity
  8
Sichtbar (ISO)
100
AcDbEllipse
 10
247.9867757250013
 20
94.752849834623
 30
0.0
 11
-22.00000000000017
 21
0.0000000000000044
 31
0.0
210
0.0
220
0.0
230
1.0
 40
0.577350269189626
 41
5.047990283357632
 42
5.345019712196839
  0
ELLIPSE
  5
1F8
330
70
100
AcDbEntity
  8
Sichtbar (ISO)
100
AcDbEllipse
 10
235.7513252757637
 20
112.0231977067467
 30
0.0
 11
-1.499999999999517
 21
2.598076211353609
 31
0.0
210
0.0
220
0.0
230
1.0
 40
0.5773502691895401
 41
0.9837547568145943
 42
2.356194490192658
  0
LINE
  5
1F9
330
70
100
AcDbEntity
  8
Sichtbar (ISO)
100
AcDbLine
 10
240.6730749458744
 20
106.7321344670402
 30
0.0
 11
235.7513252757637
 21
109.5737079639635
 31
0.0
  0
LINE
  5
1FA
330
70
100
AcDbEntity
  8
Sichtbar (ISO)
100
AcDbLine
 10
235.7513252757637
 20
110.798452835355
 30
0.0
 11
241.1191318021798
 21
107.69934829237
 31
0.0
  0
ELLIPSE
  5
1FB
330
70
100
AcDbEntity
  8
Sichtbar (ISO)
100
AcDbEllipse
 10
235.7513252757637
 20
112.0231977067467
 30
0.0
 11
0.7499999999999215
 21
-1.299038105676729
 31
0.0
210
0.0
220
0.0
230
1.0
 40
0.5773502691895401
 41
4.027158238148693
 42
5.497787143781972
  0
LINE
  5
1FC
330
70
100
AcDbEntity
  8
Sichtbar schmal (ISO)
100
AcDbLine
 10
228.6882576723785
 20
109.1700785960203
 30
0.0
 11
225.1367233494832
 21
107.1195992986611
 31
0.0
  0
LINE
  5
1FD
330
70
100
AcDbEntity
  8
Sichtbar schmal (ISO)
100
AcDbLine
 10
234.682664895503
 20
112.6309512199224
 30
0.0
 11
242.4688396970385
 21
117.1263013375451
 31
0.0
  0
LINE
  5
1FE
330
70
100
AcDbEntity
  8
Sichtbar schmal (ISO)
100
AcDbLine
 10
219.1423161263587
 20
103.658726674759
 30
0.0
 11
211.3561413248245
 21
99.16337655713707
 31
0.0
  0
LINE
  5
1FF
330
70
100
AcDbEntity
  8
Sichtbar schmal (ISO)
100
AcDbLine
 10
243.5294998688181
 20
115.2891840304576
 30
0.0
 11
235.7513252757637
 21
110.798452835355
 31
0.0
  0
ELLIPSE
  5
200
330
70
100
AcDbEntity
  8
Sichtbar (ISO)
100
AcDbEllipse
 10
243.5294998688181
 20
116.5139289018492
 30
0.0
 11
-0.7499999999997618
 21
1.29903810567681
 31
0.0
210
0.0
220
0.0
230
1.0
 40
0.5773502691895401
 41
0.7853981633977743
 42
2.356194490192658
  0
LINE
  5
201
330
70
100
AcDbEntity
  8
Sichtbar schmal (ISO)
100
AcDbLine
 10
229.7409176356771
 20
107.3283423664127
 30
0.0
 11
226.2053837297439
 21
105.2871009140937
 31
0.0
  0
ELLIPSE
  5
202
330
70
100
AcDbEntity
  8
Sichtbar (ISO)
100
AcDbEllipse
 10
212.4168014966042
 20
98.55100412144119
 30
0.0
 11
0.7499999999999209
 21
-1.299038105676718
 31
0.0
210
0.0
220
0.0
230
1.0
 40
0.5773502691895417
 41
3.926990816987069
 42
5.49778714378197
  0
LINE
  5
203
330
70
100
AcDbEntity
  8
Sichtbar schmal (ISO)
100
AcDbLine
 10
220.1949760896574
 20
101.8169904451514
 30
0.0
 11
212.4168014966042
 21
97.3262592500496
 31
0.0
  0
ELLIPSE
  5
204
330
70
100
AcDbEntity
  8
Sichtbar (ISO)
100
AcDbEllipse
 10
212.4168014966042
 20
98.55100412144119
 30
0.0
 11
-1.49999999999952
 21
2.598076211353598
 31
0.0
210
0.0
220
0.0
230
0.9999999999999998
 40
0.5773502691895422
 41
0.7853981633977743
 42
2.356194490192656
  0
LINE
  5
205
330
70
100
AcDbEntity
  8
Sichtbar schmal (ISO)
100
AcDbLine
 10
210.2954811530449
 20
99.77574899283297
 30
0.0
 11
211.3561413248245
 21
99.16337655713707
 31
0.0
  0
LINE
  5
206
330
70
100
AcDbEntity
  8
Sichtbar schmal (ISO)
100
AcDbLine
 10
212.4168014966042
 20
97.3262592500496
 30
0.0
 11
212.4168014966042
 21
96.10151437865802
 31
0.0
  0
LINE
  5
207
330
70
100
AcDbEntity
  8
Sichtbar (ISO)
100
AcDbLine
 10
242.4688396970385
 20
156.9026732411862
 30
0.0
 11
242.4688396970385
 21
134.4317115537569
 31
0.0
  0
LINE
  5
208
330
70
100
AcDbEntity
  8
Sichtbar (ISO)
100
AcDbLine
 10
242.4688396970385
 20
130.9770315228753
 30
0.0
 11
242.4688396970385
 21
117.1263013375451
 31
0.0
  0
LINE
  5
209
330
70
100
AcDbEntity
  8
Sichtbar (ISO)
100
AcDbLine
 10
211.3561413248245
 20
99.16337655713707
 30
0.0
 11
211.3561413248246
 21
147.0158569415065
 31
0.0
  0
ELLIPSE
  5
20A
330
70
100
AcDbEntity
  8
Sichtbar (ISO)
100
AcDbEllipse
 10
215.9523354025377
 20
109.9819562683597
 30
0.0
 11
-1.375000000000469
 21
-2.381569860407313
 31
0.0
210
0.0
220
0.0
230
0.9999999999999998
 40
0.5773502691897115
 41
3.926990816987297
 42
7.06858347057709
  0
LINE
  5
20B
330
70
100
AcDbEntity
  8
Sichtbar (ISO)
100
AcDbLine
 10
215.9523354025377
 20
112.227321865911
 30
0.0
 11
237.872645619324
 21
124.8830188702888
 31
0.0
  0
ELLIPSE
  5
20C
330
70
100
AcDbEntity
  8
Sichtbar (ISO)
100
AcDbEllipse
 10
237.872645619324
 20
122.6376532727376
 30
0.0
 11
1.375000000000469
 21
2.381569860407314
 31
0.0
210
0.0
220
0.0
230
1.0
 40
0.5773502691897113
 41
3.926990816987297
 42
7.06858347057709
  0
LINE
  5
20D
330
70
100
AcDbEntity
  8
Sichtbar (ISO)
100
AcDbLine
 10
237.872645619324
 20
120.3922876751863
 30
0.0
 11
215.9523354025377
 21
107.7365906708085
 31
0.0
  0
ELLIPSE
  5
20E
330
70
100
AcDbEntity
  8
Sichtbar (ISO)
100
AcDbEllipse
 10
215.9523354025377
 20
135.2933502771192
 30
0.0
 11
-1.37500000000048
 21
-2.381569860407333
 31
0.0
210
0.0
220
0.0
230
0.9999999999999998
 40
0.5773502691897114
 41
3.926990816987315
 42
7.068583470577108
  0
LINE
  5
20F
330
70
100
AcDbEntity
  8
Sichtbar (ISO)
100
AcDbLine
 10
215.9523354025377
 20
137.5387158746708
 30
0.0
 11
221.6986746074768
 21
140.8563663614962
 31
0.0
  0
LINE
  5
210
330
70
100
AcDbEntity
  8
Sichtbar (ISO)
100
AcDbLine
 10
227.1126760186998
 20
143.9821415336578
 30
0.0
 11
237.872645619324
 21
150.1944128790484
 31
0.0
  0
ELLIPSE
  5
211
330
70
100
AcDbEntity
  8
Sichtbar (ISO)
100
AcDbEllipse
 10
237.872645619324
 20
147.9490472814971
 30
0.0
 11
1.37500000000048
 21
2.381569860407333
 31
0.0
210
0.0
220
0.0
230
0.9999999999999998
 40
0.5773502691897113
 41
3.926990816987315
 42
7.068583470577108
  0
LINE
  5
212
330
70
100
AcDbEntity
  8
Sichtbar (ISO)
100
AcDbLine
 10
237.872645619324
 20
145.7036816839459
 30
0.0
 11
229.1105203434781
 21
140.6448662972644
 31
0.0
  0
LINE
  5
213
330
70
100
AcDbEntity
  8
Sichtbar (ISO)
100
AcDbLine
 10
225.1811915462763
 20
138.376267258466
 30
0.0
 11
215.9523354025377
 21
133.0479846795677
 31
0.0
  0
ELLIPSE
  5
214
330
70
100
AcDbEntity
  8
Sichtbar (ISO)
100
AcDbEllipse
 10
247.9867757250012
 20
93.52810496323147
 30
0.0
 11
22.00000000000071
 21
0.0000000000013101
 31
0.0
210
0.0
220
0.0
230
1.0
 40
0.5773502691896261
 41
3.926990816986851
 42
6.283185307179207
  0
LINE
  5
215
330
70
100
AcDbEntity
  8
Sichtbar (ISO)
100
AcDbLine
 10
212.4168014966042
 20
96.10151437865802
 30
0.0
 11
232.4304265388949
 21
84.54664257302781
 31
0.0
  0
LINE
  5
216
330
70
100
AcDbEntity
  8
Sichtbar (ISO)
100
AcDbLine
 10
210.2954811530449
 20
147.6282293772024
 30
0.0
 11
210.2954811530449
 21
99.77574899283297
 31
0.0
  0
LINE
  5
217
330
70
100
AcDbEntity
  8
Sichtbar schmal (ISO)
100
AcDbLine
 10
232.4304265388949
 20
84.54664257302781
 30
0.0
 11
232.4304265388949
 21
85.7713874444194
 31
0.0
  0
LINE
  5
218
330
70
100
AcDbEntity
  8
Sichtbar (ISO)
100
AcDbLine
 10
232.4304265388949
 20
85.7713874444194
 30
0.0
 11
212.4168014966042
 21
97.3262592500496
 31
0.0
  0
ELLIPSE
  5
219
330
70
100
AcDbEntity
  8
Sichtbar (ISO)
100
AcDbEllipse
 10
247.9867757250012
 20
94.75284983462305
 30
0.0
 11
22.00000000000071
 21
0.0000000000000022
 31
0.0
210
0.0
220
0.0
230
1.0
 40
0.5773502691896261
 41
3.926990816987093
 42
7.068583470576886
  0
LINE
  5
21A
330
70
100
AcDbEntity
  8
Sichtbar (ISO)
100
AcDbLine
 10
243.5294998688181
 20
115.2891840304576
 30
0.0
 11
263.5431249111088
 21
103.7343122248274
 31
0.0
  0
ELLIPSE
  5
21B
330
70
100
AcDbEntity
  8
Sichtbar (ISO)
100
AcDbEllipse
 10
247.9867757250012
 20
94.75284983462305
 30
0.0
 11
4.800000000000005
 21
-0.0000000000000003
 31
0.0
210
0.0
220
0.0
230
1.0
 40
0.577350269189626
 41
2.99712949869606
 42
6.427648462073318
  0
ELLIPSE
  5
21C
330
70
100
AcDbEntity
  8
Sichtbar (ISO)
100
AcDbEllipse
 10
214.8916752307581
 20
135.9057227128149
 30
0.0
 11
1.375000000000205
 21
2.381569860407184
 31
0.0
210
0.0
220
0.0
230
0.9999999999999998
 40
0.5773502691897114
 41
3.537553217051812
 42
3.926990816986996
  0
LINE
  5
21D
330
70
100
AcDbEntity
  8
Sichtbar (ISO)
100
AcDbLine
 10
214.8916752307581
 20
133.6603571152636
 30
0.0
 11
224.2314141993312
 21
139.0526579229286
 31
0.0
  0
LINE
  5
21E
330
70
100
AcDbEntity
  8
Sichtbar (ISO)
100
AcDbLine
 10
228.4319220039273
 20
141.4778222346447
 30
0.0
 11
236.8119854475443
 21
146.3160541196417
 31
0.0
  0
ELLIPSE
  5
21F
330
70
100
AcDbEntity
  8
Sichtbar (ISO)
100
AcDbEllipse
 10
236.8119854475443
 20
148.561419717193
 30
0.0
 11
1.375000000000334
 21
2.381569860407407
 31
0.0
210
0.0
220
0.0
230
1.0
 40
0.5773502691897114
 41
3.926990816987069
 42
5.887224743716794
  0
ELLIPSE
  5
220
330
70
100
AcDbEntity
  8
Sichtbar (ISO)
100
AcDbEllipse
 10
214.8916752307581
 20
110.5943287040556
 30
0.0
 11
1.375000000000324
 21
2.381569860407392
 31
0.0
210
0.0
220
0.0
230
1.0
 40
0.5773502691897114
 41
3.537553217051828
 42
3.926990816986977
  0
LINE
  5
221
330
70
100
AcDbEntity
  8
Sichtbar (ISO)
100
AcDbLine
 10
214.8916752307581
 20
108.3489631065044
 30
0.0
 11
236.8119854475443
 21
121.0046601108822
 31
0.0
  0
ELLIPSE
  5
222
330
70
100
AcDbEntity
  8
Sichtbar (ISO)
100
AcDbEllipse
 10
236.8119854475443
 20
123.2500257084335
 30
0.0
 11
1.375000000000329
 21
2.381569860407398
 31
0.0
210
0.0
220
0.0
230
0.9999999999999998
 40
0.5773502691897115
 41
3.926990816987087
 42
5.887224743716773
  0
LINE
  5
223
330
70
100
AcDbEntity
  8
Sichtbar schmal (ISO)
100
AcDbLine
 10
236.8119854475443
 20
121.0046601108822
 30
0.0
 11
237.872645619324
 21
120.3922876751863
 31
0.0
  0
LINE
  5
224
330
70
100
AcDbEntity
  8
Sichtbar schmal (ISO)
100
AcDbLine
 10
214.8916752307581
 20
108.3489631065044
 30
0.0
 11
215.9523354025377
 21
107.7365906708085
 31
0.0
  0
LINE
  5
225
330
70
100
AcDbEntity
  8
Sichtbar schmal (ISO)
100
AcDbLine
 10
236.8119854475443
 20
146.3160541196417
 30
0.0
 11
237.872645619324
 21
145.7036816839459
 31
0.0
  0
LINE
  5
226
330
70
100
AcDbEntity
  8
Sichtbar schmal (ISO)
100
AcDbLine
 10
214.8916752307581
 20
133.6603571152636
 30
0.0
 11
215.9523354025377
 21
133.0479846795677
 31
0.0
  0
ELLIPSE
  5
227
330
70
100
AcDbEntity
  8
Sichtbar (ISO)
100
AcDbEllipse
 10
247.9867757250012
 20
145.0548199617757
 30
0.0
 11
21.25
 21
0.0000000000000413
 31
0.0
210
0.0
220
0.0
230
1.0
 40
0.5773502691896267
 41
0.0499341684137018
 42
3.091658485176102
  0
ELLIPSE
  5
228
330
70
100
AcDbEntity
  8
Sichtbar (ISO)
100
AcDbEllipse
 10
247.9867757250012
 20
146.2795648331673
 30
0.0
 11
-21.25
 21
-0.0000000000000389
 31
0.0
210
0.0
220
0.0
230
1.0
 40
0.5773502691896267
 41
0.0
 42
6.283185307179586
  0
LINE
  5
229
330
70
100
AcDbEntity
  8
Sichtbar (ISO)
100
AcDbLine
 10
212.2913959761568
 20
147.555826466214
 30
0.0
 11
228.5668896438426
 21
135.9651183789434
 31
0.0
  0
LINE
  5
22A
330
70
100
AcDbEntity
  8
Sichtbar schmal (ISO)
100
AcDbLine
 10
228.5668896438426
 20
137.1898632503349
 30
0.0
 11
228.5668896438426
 21
135.9651183789434
 31
0.0
  0
LINE
  5
22B
330
70
100
AcDbEntity
  8
Sichtbar (ISO)
100
AcDbLine
 10
228.5668896438426
 20
137.1898632503349
 30
0.0
 11
212.2913959761568
 21
148.7805713376056
 31
0.0
  0
ELLIPSE
  5
22C
330
70
100
AcDbEntity
  8
Sichtbar (ISO)
100
AcDbEllipse
 10
247.9867757250012
 20
145.0548199617757
 30
0.0
 11
25.00000000000002
 21
0.0000000000015221
 31
0.0
210
0.0
220
0.0
230
1.0
 40
0.5773502691896267
 41
3.822827849429367
 42
6.283185307179179
  0
ELLIPSE
  5
22D
330
70
100
AcDbEntity
  8
Sichtbar (ISO)
100
AcDbEllipse
 10
247.9867757250012
 20
146.2795648331673
 30
0.0
 11
25.00000000000002
 21
0.0000000000000422
 31
0.0
210
0.0
220
0.0
230
1.0
 40
0.5773502691896266
 41
3.822827849429665
 42
7.172746438134177
  0
LINE
  5
22E
330
70
100
AcDbEntity
  8
Sichtbar (ISO)
100
AcDbLine
 10
243.6549053892655
 20
166.88830193999
 30
0.0
 11
263.7306006921143
 21
157.4916412897521
 31
0.0
  0
LINE
  5
22F
330
70
100
AcDbEntity
  8
Sichtbar (ISO)
100
AcDbLine
 10
269.9867757250019
 20
93.52810496323147
 30
0.0
 11
269.9867757250019
 21
94.75284983462305
 31
0.0
  0
LINE
  5
230
330
70
100
AcDbEntity
  8
Sichtbar (ISO)
100
AcDbLine
 10
272.9867757250013
 20
146.2795648331674
 30
0.0
 11
272.9867757250013
 21
145.0548199617758
 31
0.0
  0
LINE
  5
231
330
70
100
AcDbEntity
  8
Sichtbar schmal (ISO)
100
AcDbLine
 10
212.2913959761568
 20
147.5558264662139
 30
0.0
 11
211.3561413248246
 21
147.0158569415065
 31
0.0
  0
SPLINE
  5
232
330
70
100
AcDbEntity
  8
Sichtbar (ISO)
100
AcDbSpline
210
0.0
220
0.0
230
1.0
 70
     8
 71
     3
 72
    12
 73
     8
 74
     0
 42
0.000000001
 43
0.0000000001
 40
0.0
 40
0.0
 40
0.0
 40
0.0
 40
0.1175959408169122
 40
0.1175959408169122
 40
0.2954519400796332
 40
0.2954519400796332
 40
0.4733079543566105
 40
0.4733079543566105
 40
0.4733079543566105
 40
0.4733079543566105
 10
210.9168014966044
 20
149.001560717164
 30
0.0
 10
211.0041196331515
 20
149.0519738668047
 30
0.0
 10
211.100778295927
 20
149.0857267566895
 30
0.0
 10
211.3631339643018
 20
149.1271747578115
 30
0.0
 10
211.5373919129464
 20
149.1124267421344
 30
0.0
 10
211.9058903848373
 20
149.0037069383444
 30
0.0
 10
212.0981143161024
 20
148.9103287814655
 30
0.0
 10
212.2913959761567
 20
148.7805713376057
 30
0.0
  0
LINE
  5
233
330
70
100
AcDbEntity
  8
Sichtbar (ISO)
100
AcDbLine
 10
211.6668014966043
 20
147.7025226114873
 30
0.0
 11
210.9168014966044
 21
149.0015607171641
 31
0.0
  0
SPLINE
  5
234
330
70
100
AcDbEntity
  8
Sichtbar (ISO)
100
AcDbSpline
210
0.0
220
0.0
230
1.0
 70
     8
 71
     3
 72
    10
 73
     6
 74
     0
 42
0.000000001
 43
0.0000000001
 40
0.0
 40
0.0
 40
0.0
 40
0.0
 40
0.119518596692265
 40
0.119518596692265
 40
0.2390371940018628
 40
0.2390371940018628
 40
0.2390371940018628
 40
0.2390371940018628
 10
212.2913959761568
 20
147.555826466214
 30
0.0
 10
212.1730791574506
 20
147.6483482449482
 30
0.0
 10
212.0559160271668
 20
147.7082918107994
 30
0.0
 10
211.8404872964718
 20
147.7579972991901
 30
0.0
 10
211.7443227949868
 20
147.7472795539764
 30
0.0
 10
211.6668014966043
 20
147.7025226114873
 30
0.0
  0
LINE
  5
235
330
70
100
AcDbEntity
  8
Sichtbar (ISO)
100
AcDbLine
 10
212.2913959761568
 20
148.0947112996106
 30
0.0
 11
212.2913959761568
 21
147.555826466214
 31
0.0
  0
LINE
  5
236
330
70
100
AcDbEntity
  8
Sichtbar (ISO)
100
AcDbLine
 10
212.2913959761568
 20
148.7805713376056
 30
0.0
 11
212.2913959761568
 21
148.0947112996106
 31
0.0
  0
SPLINE
  5
237
330
70
100
AcDbEntity
  8
Sichtbar (ISO)
100
AcDbSpline
210
0.0
220
0.0
230
1.0
 70
     8
 71
     3
 72
    12
 73
     8
 74
     0
 42
0.000000001
 43
0.0000000001
 40
0.0
 40
0.0
 40
0.0
 40
0.0
 40
0.1175959408169126
 40
0.1175959408169126
 40
0.2954519400795788
 40
0.2954519400795788
 40
0.4733079543565051
 40
0.4733079543565051
 40
0.4733079543565051
 40
0.4733079543565051
 10
243.6549053892654
 20
166.8883019399901
 30
0.0
 10
243.5063061163908
 20
166.9620845127908
 30
0.0
 10
243.3580616794089
 20
167.0200969271656
 30
0.0
 10
242.9913155760923
 20
167.1238622687055
 30
0.0
 10
242.7777428156653
 20
167.1475318500045
 30
0.0
 10
242.3775052456342
 20
167.1149612287024
 30
0.0
 10
242.1930275497016
 20
167.05889824815
 30
0.0
 10
242.0294998688184
 20
166.9644854975722
 30
0.0
  0
ELLIPSE
  5
238
330
70
100
AcDbEntity
  8
Sichtbar (ISO)
100
AcDbEllipse
 10
212.4168014966042
 20
146.4034845058106
 30
0.0
 11
-1.499999999999667
 21
2.598076211353506
 31
0.0
210
0.0
220
0.0
230
1.0
 40
0.5773502691895392
 41
0.0
 42
0.7853981633975194
  0
LINE
  5
239
330
70
100
AcDbEntity
  8
Sichtbar schmal (ISO)
100
AcDbLine
 10
211.3561413248246
 20
147.0158569415065
 30
0.0
 11
210.2954811530449
 21
147.6282293772024
 31
0.0
  0
ELLIPSE
  5
23A
330
70
100
AcDbEntity
  8
Sichtbar (ISO)
100
AcDbEllipse
 10
212.4168014966042
 20
146.4034845058107
 30
0.0
 11
-0.749999999999853
 21
1.299038105676689
 31
0.0
210
0.0
220
0.0
230
1.0
 40
0.5773502691895397
 41
0.0
 42
0.785398163397348
  0
LINE
  5
23B
330
70
100
AcDbEntity
  8
Sichtbar schmal (ISO)
100
AcDbLine
 10
243.6549053892655
 20
166.88830193999
 30
0.0
 11
212.2913959761568
 21
148.7805713376056
 31
0.0
  0
LINE
  5
23C
330
70
100
AcDbEntity
  8
Sichtbar (ISO)
100
AcDbLine
 10
210.9168014966045
 20
149.0015607171642
 30
0.0
 11
242.0294998688184
 21
166.9644854975722
 31
0.0
  0
ELLIPSE
  5
23D
330
70
100
AcDbEntity
  8
Sichtbar (ISO)
100
AcDbEllipse
 10
247.9867757250012
 20
98.75368308116893
 30
0.0
 11
-2.86125
 21
-0.0000000000000001
 31
0.0
210
0.0
220
0.0
230
1.0
 40
0.577350269189626
 41
2.456212782990256
 42
6.968565177779122
  0
ELLIPSE
  5
23E
330
70
100
AcDbEntity
  8
Sichtbar (ISO)
100
AcDbEllipse
 10
247.9867757250012
 20
99.24358102972556
 30
0.0
 11
3.461249999999999
 21
0.0000000000002065
 31
0.0
210
0.0
220
0.0
230
1.0
 40
0.577350269189626
 41
0.0
 42
6.283185307179586
  0
ELLIPSE
  5
23F
330
70
100
AcDbEntity
  8
Sichtbar (ISO)
100
AcDbEllipse
 10
247.9867757250012
 20
99.24358102972556
 30
0.0
 11
4.25
 21
0.0
 31
0.0
210
0.0
220
0.0
230
1.0
 40
0.577350269189626
 41
0.0
 42
6.283185307179586
  0
ELLIPSE
  5
240
330
70
100
AcDbEntity
  8
Sichtbar (ISO)
100
AcDbEllipse
 10
247.9867757250012
 20
98.8353327392617
 30
0.0
 11
4.749999999999999
 21
0.0
 31
0.0
210
0.0
220
0.0
230
1.0
 40
0.577350269189626
 41
2.356194490192347
 42
7.068583470576889
  0
LINE
  5
241
330
70
100
AcDbEntity
  8
Sichtbar (ISO)
100
AcDbLine
 10
250.9919795450441
 20
100.978636264197
 30
0.0
 11
251.3455329356373
 21
100.774512118965
 31
0.0
  0
LINE
  5
242
330
70
100
AcDbEntity
  8
Sichtbar (ISO)
100
AcDbLine
 10
244.9815719049584
 20
100.978636264197
 30
0.0
 11
244.6280185143651
 21
100.774512118965
 31
0.0
  0
LINE
  5
243
330
70
100
AcDbEntity
  8
Sichtbar (ISO)
100
AcDbLine
 10
252.7367757250012
 20
98.8353327392617
 30
0.0
 11
252.7367757250012
 21
94.35389286117022
 31
0.0
  0
LINE
  5
244
330
70
100
AcDbEntity
  8
Sichtbar (ISO)
100
AcDbLine
 10
243.2367757250012
 20
98.8353327392617
 30
0.0
 11
243.2367757250012
 21
94.35389286117022
 31
0.0
  0
INSERT
  5
265
330
70
100
AcDbEntity
  8
Schnittlinie (ISO)
100
AcDbBlockReference
  2
2DTransSchnitt0
 10
0.0
 20
0.0
 30
0.0
  0
LINE
  5
266
330
70
100
AcDbEntity
  8
Sichtbar (ISO)
100
AcDbLine
 10
268.6236772732963
 20
178.7120579631499
 30
0.0
 11
268.6236772732962
 21
181.7120579631499
 31
0.0
  0
LINE
  5
267
330
70
100
AcDbEntity
  8
Sichtbar (ISO)
100
AcDbLine
 10
268.6236772732962
 20
181.7120579631499
 30
0.0
 11
261.1236772732962
 21
181.7120579631499
 31
0.0
  0
LINE
  5
268
330
70
100
AcDbEntity
  8
Sichtbar (ISO)
100
AcDbLine
 10
261.1236772732962
 20
181.7120579631499
 30
0.0
 11
261.1236772732962
 21
178.7120579631499
 31
0.0
  0
LINE
  5
269
330
70
100
AcDbEntity
  8
Sichtbar (ISO)
100
AcDbLine
 10
261.1236772732962
 20
178.7120579631499
 30
0.0
 11
268.6236772732963
 21
178.7120579631499
 31
0.0
  0
LINE
  5
26A
330
70
100
AcDbEntity
  8
Sichtbar (ISO)
100
AcDbLine
 10
176.1236772732962
 20
178.7120579631499
 30
0.0
 11
176.1236772732962
 21
181.7120579631499
 31
0.0
  0
LINE
  5
26B
330
70
100
AcDbEntity
  8
Sichtbar (ISO)
100
AcDbLine
 10
176.1236772732962
 20
181.7120579631499
 30
0.0
 11
162.0165973391733
 21
181.7120579631499
 31
0.0
  0
ARC
  5
26C
330
70
100
AcDbEntity
  8
Sichtbar (ISO)
100
AcDbCircle
 10
162.0165973391733
 20
175.7120579631499
 30
0.0
 40
6.000000000000014
100
AcDbArc
 50
90.0
 51
180.0
  0
LINE
  5
26D
330
70
100
AcDbEntity
  8
Sichtbar (ISO)
100
AcDbLine
 10
156.0165973391733
 20
175.7120579631499
 30
0.0
 11
156.0165973391733
 21
145.9978981290271
 31
0.0
  0
LINE
  5
26E
330
70
100
AcDbEntity
  8
Sichtbar (ISO)
100
AcDbLine
 10
156.0165973391733
 20
145.9978981290271
 30
0.0
 11
159.0165973391733
 21
145.9978981290271
 31
0.0
  0
LINE
  5
26F
330
70
100
AcDbEntity
  8
Sichtbar (ISO)
100
AcDbLine
 10
159.0165973391733
 20
145.9978981290271
 30
0.0
 11
159.0165973391733
 21
175.7120579631499
 31
0.0
  0
ARC
  5
270
330
70
100
AcDbEntity
  8
Sichtbar (ISO)
100
AcDbCircle
 10
162.0165973391733
 20
175.7120579631498
 30
0.0
 40
3.000000000000024
100
AcDbArc
 50
90.00000000000067
 51
180.0
  0
LINE
  5
271
330
70
100
AcDbEntity
  8
Sichtbar (ISO)
100
AcDbLine
 10
162.0165973391733
 20
178.7120579631499
 30
0.0
 11
176.1236772732962
 21
178.7120579631499
 31
0.0
  0
LINE
  5
272
330
70
100
AcDbEntity
  8
Sichtbar (ISO)
100
AcDbLine
 10
156.0165973391733
 20
134.9978981290264
 30
0.0
 11
156.0165973391733
 21
83.99789812902675
 31
0.0
  0
LINE
  5
273
330
70
100
AcDbEntity
  8
Sichtbar (ISO)
100
AcDbLine
 10
156.0165973391733
 20
83.99789812902675
 30
0.0
 11
159.0165973391733
 21
83.99789812902675
 31
0.0
  0
LINE
  5
274
330
70
100
AcDbEntity
  8
Sichtbar (ISO)
100
AcDbLine
 10
159.0165973391733
 20
83.99789812902675
 30
0.0
 11
159.0165973391733
 21
134.9978981290264
 31
0.0
  0
LINE
  5
275
330
70
100
AcDbEntity
  8
Sichtbar (ISO)
100
AcDbLine
 10
159.0165973391733
 20
134.9978981290264
 30
0.0
 11
156.0165973391733
 21
134.9978981290264
 31
0.0
  0
LINE
  5
276
330
70
100
AcDbEntity
  8
Sichtbar (ISO)
100
AcDbLine
 10
262.6236772732978
 20
55.49789809490373
 30
0.0
 11
228.2236772732963
 21
55.49789809490373
 31
0.0
  0
LINE
  5
277
330
70
100
AcDbEntity
  8
Sichtbar (ISO)
100
AcDbLine
 10
228.2236772732963
 20
55.49789809490373
 30
0.0
 11
228.2236772732963
 21
52.49789809490373
 31
0.0
  0
LINE
  5
278
330
70
100
AcDbEntity
  8
Sichtbar (ISO)
100
AcDbLine
 10
228.2236772732963
 20
52.49789809490373
 30
0.0
 11
262.6236772732978
 21
52.49789809490373
 31
0.0
  0
LINE
  5
279
330
70
100
AcDbEntity
  8
Sichtbar (ISO)
100
AcDbLine
 10
262.6236772732978
 20
52.49789809490373
 30
0.0
 11
262.6236772732978
 21
55.49789809490373
 31
0.0
  0
LINE
  5
27A
330
70
100
AcDbEntity
  8
Sichtbar (ISO)
100
AcDbLine
 10
162.0165973391733
 20
52.49789809490373
 30
0.0
 11
209.0236772732963
 21
52.49789809490373
 31
0.0
  0
LINE
  5
27B
330
70
100
AcDbEntity
  8
Sichtbar (ISO)
100
AcDbLine
 10
209.0236772732963
 20
52.49789809490373
 30
0.0
 11
209.0236772732963
 21
55.49789809490373
 31
0.0
  0
LINE
  5
27C
330
70
100
AcDbEntity
  8
Sichtbar (ISO)
100
AcDbLine
 10
209.0236772732963
 20
55.49789809490373
 30
0.0
 11
162.0165973391733
 21
55.49789809490373
 31
0.0
  0
ARC
  5
27D
330
70
100
AcDbEntity
  8
Sichtbar (ISO)
100
AcDbCircle
 10
162.0165973391733
 20
58.49789809490374
 30
0.0
 40
3.000000000000004
100
AcDbArc
 50
180.0
 51
270.0
  0
LINE
  5
27E
330
70
100
AcDbEntity
  8
Sichtbar (ISO)
100
AcDbLine
 10
159.0165973391733
 20
58.49789809490373
 30
0.0
 11
159.0165973391733
 21
72.9978981290268
 31
0.0
  0
LINE
  5
27F
330
70
100
AcDbEntity
  8
Sichtbar (ISO)
100
AcDbLine
 10
159.0165973391733
 20
72.9978981290268
 30
0.0
 11
156.0165973391733
 21
72.9978981290268
 31
0.0
  0
LINE
  5
280
330
70
100
AcDbEntity
  8
Sichtbar (ISO)
100
AcDbLine
 10
156.0165973391733
 20
72.9978981290268
 30
0.0
 11
156.0165973391733
 21
58.49789809490373
 31
0.0
  0
ARC
  5
281
330
70
100
AcDbEntity
  8
Sichtbar (ISO)
100
AcDbCircle
 10
162.0165973391733
 20
58.49789809490373
 30
0.0
 40
5.999999999999996
100
AcDbArc
 50
180.0
 51
270.0000000000003
  0
LINE
  5
282
330
70
100
AcDbEntity
  8
Sichtbar (ISO)
100
AcDbLine
 10
209.0236772732963
 20
55.49789809490373
 30
0.0
 11
209.1236772732963
 21
55.49789809490373
 31
0.0
  0
LINE
  5
283
330
70
100
AcDbEntity
  8
Sichtbar (ISO)
100
AcDbLine
 10
228.1236772732963
 20
55.49789809490373
 30
0.0
 11
228.2236772732963
 21
55.49789809490373
 31
0.0
  0
LINE
  5
284
330
70
100
AcDbEntity
  8
Sichtbar (ISO)
100
AcDbLine
 10
176.1236772732962
 20
181.7120579631499
 30
0.0
 11
261.1236772732962
 21
181.7120579631499
 31
0.0
  0
LINE
  5
285
330
70
100
AcDbEntity
  8
Sichtbar (ISO)
100
AcDbLine
 10
261.1236772732962
 20
178.7120579631499
 30
0.0
 11
176.1236772732962
 21
178.7120579631498
 31
0.0
  0
LINE
  5
286
330
70
100
AcDbEntity
  8
Sichtbar (ISO)
100
AcDbLine
 10
159.0165973391733
 20
145.9978981290275
 30
0.0
 11
159.0165973391733
 21
134.9978981290261
 31
0.0
  0
LINE
  5
287
330
70
100
AcDbEntity
  8
Sichtbar (ISO)
100
AcDbLine
 10
159.0165973391733
 20
83.99789812902742
 30
0.0
 11
159.0165973391733
 21
72.99789812902611
 31
0.0
  0
LINE
  5
288
330
70
100
AcDbEntity
  8
Sichtbar (ISO)
100
AcDbLine
 10
156.0165973391733
 20
72.99789812902611
 30
0.0
 11
156.0165973391733
 21
83.99789812902742
 31
0.0
  0
LINE
  5
289
330
70
100
AcDbEntity
  8
Sichtbar (ISO)
100
AcDbLine
 10
156.0165973391733
 20
134.9978981290261
 30
0.0
 11
156.0165973391733
 21
145.9978981290275
 31
0.0
  0
LINE
  5
28A
330
70
100
AcDbEntity
  8
Sichtbar (ISO)
100
AcDbLine
 10
224.3461772732963
 20
42.69789809490373
 30
0.0
 11
225.5461772732963
 21
41.49789809490373
 31
0.0
  0
LINE
  5
28B
330
70
100
AcDbEntity
  8
Sichtbar (ISO)
100
AcDbLine
 10
225.5461772732963
 20
41.49789809490373
 30
0.0
 11
227.1236772732963
 21
41.49789809490373
 31
0.0
  0
LINE
  5
28C
330
70
100
AcDbEntity
  8
Sichtbar (ISO)
100
AcDbLine
 10
227.1236772732963
 20
41.49789809490373
 30
0.0
 11
228.1236772732963
 21
42.49789809490373
 31
0.0
  0
LINE
  5
28D
330
70
100
AcDbEntity
  8
Sichtbar (ISO)
100
AcDbLine
 10
228.1236772732963
 20
42.49789809490373
 30
0.0
 11
228.1236772732963
 21
65.49789809490374
 31
0.0
  0
LINE
  5
28E
330
70
100
AcDbEntity
  8
Sichtbar (ISO)
100
AcDbLine
 10
228.1236772732963
 20
65.49789809490374
 30
0.0
 11
227.1236772732963
 21
66.49789809490373
 31
0.0
  0
LINE
  5
28F
330
70
100
AcDbEntity
  8
Sichtbar (ISO)
100
AcDbLine
 10
227.1236772732963
 20
66.49789809490373
 30
0.0
 11
225.5461772732963
 21
66.49789809490373
 31
0.0
  0
LINE
  5
290
330
70
100
AcDbEntity
  8
Sichtbar (ISO)
100
AcDbLine
 10
225.5461772732963
 20
66.49789809490373
 30
0.0
 11
224.3461772732963
 21
65.29789809490373
 31
0.0
  0
LINE
  5
291
330
70
100
AcDbEntity
  8
Sichtbar (ISO)
100
AcDbLine
 10
224.3461772732963
 20
65.29789809490373
 30
0.0
 11
224.3461772732963
 21
42.69789809490373
 31
0.0
  0
LINE
  5
292
330
70
100
AcDbEntity
  8
Sichtbar (ISO)
100
AcDbLine
 10
211.7011772732963
 20
41.49789809490373
 30
0.0
 11
212.9011772732963
 21
42.69789809490373
 31
0.0
  0
LINE
  5
293
330
70
100
AcDbEntity
  8
Sichtbar (ISO)
100
AcDbLine
 10
212.9011772732963
 20
42.69789809490373
 30
0.0
 11
212.9011772732963
 21
65.29789809490373
 31
0.0
  0
LINE
  5
294
330
70
100
AcDbEntity
  8
Sichtbar (ISO)
100
AcDbLine
 10
212.9011772732963
 20
65.29789809490373
 30
0.0
 11
211.7011772732963
 21
66.49789809490373
 31
0.0
  0
LINE
  5
295
330
70
100
AcDbEntity
  8
Sichtbar (ISO)
100
AcDbLine
 10
211.7011772732963
 20
66.49789809490373
 30
0.0
 11
210.1236772732963
 21
66.49789809490373
 31
0.0
  0
LINE
  5
296
330
70
100
AcDbEntity
  8
Sichtbar (ISO)
100
AcDbLine
 10
210.1236772732963
 20
66.49789809490373
 30
0.0
 11
209.1236772732964
 21
65.49789809490374
 31
0.0
  0
LINE
  5
297
330
70
100
AcDbEntity
  8
Sichtbar (ISO)
100
AcDbLine
 10
209.1236772732964
 20
65.49789809490374
 30
0.0
 11
209.1236772732964
 21
42.49789809490373
 31
0.0
  0
LINE
  5
298
330
70
100
AcDbEntity
  8
Sichtbar (ISO)
100
AcDbLine
 10
209.1236772732964
 20
42.49789809490373
 30
0.0
 11
210.1236772732963
 21
41.49789809490373
 31
0.0
  0
LINE
  5
299
330
70
100
AcDbEntity
  8
Sichtbar (ISO)
100
AcDbLine
 10
210.1236772732963
 20
41.49789809490373
 30
0.0
 11
211.7011772732963
 21
41.49789809490373
 31
0.0
  0
LINE
  5
29A
330
70
100
AcDbEntity
  8
Sichtbar (ISO)
100
AcDbLine
 10
225.5461772732963
 20
66.49789809490373
 30
0.0
 11
211.7011772732963
 21
66.49789809490373
 31
0.0
  0
LINE
  5
29B
330
70
100
AcDbEntity
  8
Sichtbar (ISO)
100
AcDbLine
 10
212.9011772732963
 20
65.29789809490373
 30
0.0
 11
224.3461772732963
 21
65.29789809490373
 31
0.0
  0
LINE
  5
29C
330
70
100
AcDbEntity
  8
Sichtbar (ISO)
100
AcDbLine
 10
224.3461772732963
 20
42.69789809490373
 30
0.0
 11
212.9011772732963
 21
42.69789809490373
 31
0.0
  0
LINE
  5
29D
330
70
100
AcDbEntity
  8
Sichtbar (ISO)
100
AcDbLine
 10
211.7011772732963
 20
41.49789809490373
 30
0.0
 11
225.5461772732963
 21
41.49789809490373
 31
0.0
  0
LINE
  5
29E
330
70
100
AcDbEntity
  8
Sichtbar schmal (ISO)
100
AcDbLine
 10
212.0451772732963
 20
66.15389809490372
 30
0.0
 11
212.0451772732963
 21
41.84189809490373
 31
0.0
  0
LINE
  5
29F
330
70
100
AcDbEntity
  8
Sichtbar schmal (ISO)
100
AcDbLine
 10
225.2021772732963
 20
41.84189809490373
 30
0.0
 11
225.2021772732963
 21
66.15389809490372
 31
0.0
  0
LINE
  5
2A0
330
70
100
AcDbEntity
  8
Sichtbar (ISO)
100
AcDbLine
 10
209.1236772732964
 20
49.49789809490373
 30
0.0
 11
209.1236772732964
 21
52.49789809490373
 31
0.0
  0
LINE
  5
2A1
330
70
100
AcDbEntity
  8
Sichtbar (ISO)
100
AcDbLine
 10
209.1236772732964
 20
52.49789809490373
 30
0.0
 11
206.1236772732963
 21
52.49789809490373
 31
0.0
  0
LINE
  5
2A2
330
70
100
AcDbEntity
  8
Sichtbar (ISO)
100
AcDbLine
 10
206.1236772732963
 20
52.49789809490373
 30
0.0
 11
209.1236772732964
 21
49.49789809490373
 31
0.0
  0
LINE
  5
2A3
330
70
100
AcDbEntity
  8
Sichtbar (ISO)
100
AcDbLine
 10
231.1236772732963
 20
52.49789809490373
 30
0.0
 11
228.1236772732963
 21
52.49789809490373
 31
0.0
  0
LINE
  5
2A4
330
70
100
AcDbEntity
  8
Sichtbar (ISO)
100
AcDbLine
 10
228.1236772732963
 20
52.49789809490373
 30
0.0
 11
228.1236772732963
 21
49.49789809490373
 31
0.0
  0
LINE
  5
2A5
330
70
100
AcDbEntity
  8
Sichtbar (ISO)
100
AcDbLine
 10
228.1236772732963
 20
49.49789809490373
 30
0.0
 11
231.1236772732963
 21
52.49789809490373
 31
0.0
  0
MTEXT
  5
2A6
330
70
100
AcDbEntity
  8
Symbol (ISO)
100
AcDbMText
 10
171.1511801313489
 20
166.0420050904932
 30
0.0
 40
5.24999976158142
 41
0.0
 46
0.0
 71
     7
 72
     1
  1
A-A
  7
Bezeichnungstext (DIN)
 73
     1
 44
1.0
  0
MTEXT
  5
2A7
330
70
100
AcDbEntity
  8
Symbol (ISO)
100
AcDbMText
 10
166.1396917375634
 20
156.2354798302832
 30
0.0
 40
5.24999976158142
 41
0.0
 46
0.0
 71
     7
 72
     1
  1
( 1 : 1 )
  7
Bezeichnungstext (DIN)
 73
     1
 44
1.0
  0
HATCH
  5
2C6
330
70
100
AcDbEntity
  8
Schraffur (ISO)
100
AcDbHatch
 10
0.0
 20
0.0
 30
0.0
210
0.0
220
0.0
230
1.0
  2
ANSI31
 70
     0
 71
     0
 91
        5
 92
        1
 93
        9
 72
     1
 10
162.0165973391733
 20
52.49789809490373
 11
206.1236772732963
 21
52.49789809490373
 72
     1
 10
206.1236772732963
 20
52.49789809490373
 11
209.0236772732963
 21
52.49789809490373
 72
     1
 10
209.0236772732963
 20
52.49789809490373
 11
209.0236772732963
 21
55.49789809490373
 72
     1
 10
209.0236772732963
 20
55.49789809490373
 11
162.0165973391733
 21
55.49789809490373
 72
     3
 10
162.0165973391733
 20
58.49789809490374
 11
0.0000000000000178
 21
-3.000000000000004
 40
1.0
 50
-0.0000000000001527
 51
90.00000000000019
 73
     0
 72
     1
 10
159.0165973391733
 20
58.49789809490373
 11
159.0165973391733
 21
72.9978981290268
 72
     1
 10
159.0165973391733
 20
72.9978981290268
 11
156.0165973391733
 21
72.9978981290268
 72
     1
 10
156.0165973391733
 20
72.9978981290268
 11
156.0165973391733
 21
58.49789809490373
 72
     3
 10
162.0165973391733
 20
58.49789809490373
 11
-5.999999999999996
 21
0.0
 40
1.0
 50
0.0
 51
90.00000000000019
 73
     1
 97
        0
 92
        1
 93
        5
 72
     1
 10
262.6236772732978
 20
55.49789809490373
 11
228.2236772732963
 21
55.49789809490373
 72
     1
 10
228.2236772732963
 20
55.49789809490373
 11
228.2236772732963
 21
52.49789809490373
 72
     1
 10
228.2236772732963
 20
52.49789809490373
 11
231.1236772732963
 21
52.49789809490373
 72
     1
 10
231.1236772732963
 20
52.49789809490373
 11
262.6236772732978
 21
52.49789809490373
 72
     1
 10
262.6236772732978
 20
52.49789809490373
 11
262.6236772732978
 21
55.49789809490373
 97
        0
 92
        1
 93
        4
 72
     1
 10
156.0165973391733
 20
134.9978981290264
 11
156.0165973391733
 21
83.99789812902675
 72
     1
 10
156.0165973391733
 20
83.99789812902675
 11
159.0165973391733
 21
83.99789812902673
 72
     1
 10
159.0165973391733
 20
83.99789812902675
 11
159.0165973391733
 21
134.9978981290264
 72
     1
 10
159.0165973391733
 20
134.9978981290263
 11
156.0165973391733
 21
134.9978981290264
 97
        0
 92
        1
 93
        8
 72
     1
 10
176.1236772732962
 20
178.7120579631499
 11
176.1236772732962
 21
181.7120579631499
 72
     1
 10
176.1236772732962
 20
181.7120579631499
 11
162.0165973391733
 21
181.7120579631499
 72
     3
 10
162.0165973391733
 20
175.7120579631499
 11
0.0
 21
6.000000000000014
 40
1.0
 50
0.0
 51
90.0
 73
     1
 72
     1
 10
156.0165973391733
 20
175.7120579631499
 11
156.0165973391733
 21
145.9978981290271
 72
     1
 10
156.0165973391733
 20
145.9978981290271
 11
159.0165973391733
 21
145.9978981290271
 72
     1
 10
159.0165973391733
 20
145.9978981290271
 11
159.0165973391733
 21
175.7120579631499
 72
     3
 10
162.0165973391733
 20
175.7120579631498
 11
-3.000000000000024
 21
0.0000000000000178
 40
1.0
 50
0.0
 51
90.0
 73
     0
 72
     1
 10
162.0165973391733
 20
178.7120579631499
 11
176.1236772732962
 21
178.7120579631499
 97
        0
 92
        1
 93
        4
 72
     1
 10
268.6236772732963
 20
178.7120579631499
 11
268.6236772732962
 21
181.7120579631499
 72
     1
 10
268.6236772732962
 20
181.7120579631499
 11
261.1236772732961
 21
181.7120579631499
 72
     1
 10
261.1236772732962
 20
181.7120579631499
 11
261.1236772732963
 21
178.7120579631499
 72
     1
 10
261.1236772732962
 20
178.7120579631499
 11
268.6236772732963
 21
178.7120579631499
 97
        0
 75
     0
 76
     1
 52
0.0
 41
25.4
 77
     0
 78
     1
 53
45.0
 43
0.0
 44
0.0
 45
-2.245064030267288
 46
2.245064030267288
 79
     0
 98
        1
 10
212.3193162662186
 20
111.6049809466633
  0
HATCH
  5
2DB
330
70
100
AcDbEntity
  8
Schraffur (ISO)
100
AcDbHatch
 10
0.0
 20
0.0
 30
0.0
210
0.0
220
0.0
230
1.0
  2
ANSI31
 70
     0
 71
     0
 91
        2
 92
        1
 93
       10
 72
     1
 10
211.7011772732963
 20
41.49789809490373
 11
212.9011772732963
 21
42.69789809490373
 72
     1
 10
212.9011772732963
 20
42.69789809490373
 11
212.9011772732963
 21
65.29789809490373
 72
     1
 10
212.9011772732963
 20
65.29789809490373
 11
211.7011772732963
 21
66.49789809490373
 72
     1
 10
211.7011772732963
 20
66.49789809490373
 11
210.1236772732963
 21
66.49789809490373
 72
     1
 10
210.1236772732963
 20
66.49789809490373
 11
209.1236772732963
 21
65.49789809490373
 72
     1
 10
209.1236772732963
 20
65.49789809490374
 11
209.1236772732963
 21
52.49789809490374
 72
     1
 10
209.1236772732963
 20
52.49789809490373
 11
209.1236772732963
 21
49.49789809490373
 72
     1
 10
209.1236772732963
 20
49.49789809490373
 11
209.1236772732963
 21
42.49789809490373
 72
     1
 10
209.1236772732963
 20
42.49789809490373
 11
210.1236772732963
 21
41.49789809490373
 72
     1
 10
210.1236772732963
 20
41.49789809490373
 11
211.7011772732964
 21
41.49789809490373
 97
        0
 92
        1
 93
       10
 72
     1
 10
224.3461772732963
 20
42.69789809490373
 11
225.5461772732963
 21
41.49789809490373
 72
     1
 10
225.5461772732963
 20
41.49789809490373
 11
227.1236772732963
 21
41.49789809490373
 72
     1
 10
227.1236772732963
 20
41.49789809490373
 11
228.1236772732963
 21
42.49789809490373
 72
     1
 10
228.1236772732963
 20
42.49789809490373
 11
228.1236772732963
 21
49.49789809490372
 72
     1
 10
228.1236772732963
 20
49.49789809490372
 11
228.1236772732963
 21
52.49789809490373
 72
     1
 10
228.1236772732963
 20
52.49789809490373
 11
228.1236772732963
 21
65.49789809490374
 72
     1
 10
228.1236772732963
 20
65.49789809490374
 11
227.1236772732963
 21
66.49789809490375
 72
     1
 10
227.1236772732963
 20
66.49789809490373
 11
225.5461772732963
 21
66.49789809490373
 72
     1
 10
225.5461772732963
 20
66.49789809490373
 11
224.3461772732963
 21
65.29789809490373
 72
     1
 10
224.3461772732963
 20
65.29789809490373
 11
224.3461772732963
 21
42.69789809490373
 97
        0
 75
     0
 76
     1
 52
90.00021045915
 41
25.4
 77
     0
 78
     1
 53
135.0002104591499
 43
0.0
 44
0.0
 45
-2.245055783671478
 46
-2.245072276832806
 79
     0
 98
        1
 10
212.3193162662186
 20
111.6049809466633
  0
HATCH
  5
2E4
330
70
100
AcDbEntity
  8
Schraffur (ISO)
100
AcDbHatch
 10
0.0
 20
0.0
 30
0.0
210
0.0
220
0.0
230
1.0
  2
ANSI31
 70
     0
 71
     0
 91
        2
 92
        1
 93
        4
 72
     1
 10
231.1236772732963
 20
52.49789809490373
 11
228.2236772732963
 21
52.49789809490373
 72
     1
 10
228.2236772732963
 20
52.49789809490373
 11
228.1236772732963
 21
52.49789809490373
 72
     1
 10
228.1236772732963
 20
52.49789809490373
 11
228.1236772732963
 21
49.49789809490373
 72
     1
 10
228.1236772732963
 20
49.49789809490373
 11
231.1236772732963
 21
52.49789809490373
 97
        0
 92
        1
 93
        4
 72
     1
 10
209.1236772732963
 20
49.49789809490373
 11
209.1236772732963
 21
52.49789809490373
 72
     1
 10
209.1236772732963
 20
52.49789809490373
 11
209.0236772732963
 21
52.49789809490373
 72
     1
 10
209.0236772732963
 20
52.49789809490373
 11
206.1236772732963
 21
52.49789809490373
 72
     1
 10
206.1236772732963
 20
52.49789809490373
 11
209.1236772732963
 21
49.49789809490373
 97
        0
 75
     0
 76
     1
 52
14.99997778074499
 41
25.4
 77
     0
 78
     1
 53
59.999977780745
 43
0.0
 44
0.0
 45
-2.749630041384223
 46
1.587501066304331
 79
     0
 98
        1
 10
212.3193162662186
 20
111.6049809466633
  0
DIMENSION
  5
2E5
330
70
100
AcDbEntity
  8
Bemaßung (ISO)
100
AcDbDimension
280
     0
  2
*D6
 10
123.4662177028752
 20
193.9533526845766
 30
0.0
 11
73.46621770287521
 21
193.9533526845766
 31
0.0
 70
   160
  1
<>
 42
100.0000000000001
 73
     0
 74
     0
 75
     0
  3
Standard (DIN)
100
AcDbAlignedDimension
 13
23.46621770287517
 23
181.7120579631498
 33
0.0
 14
123.4662177028752
 24
181.71205796315
 34
0.0
 50
180.0
100
AcDbRotatedDimension
1001
ACAD
1000
DSTYLE
1002
{
1070
   172
1070
     0
1070
   289
1070
     1
1070
   271
1070
     2
1070
   147
1040
0.4
1070
    72
1070
     0
1070
    71
1070
     0
1070
   272
1070
     2
1070
    48
1040
0.0
1070
    47
1040
0.0
1002
}
  0
DIMENSION
  5
3C5
330
70
100
AcDbEntity
  8
Bemaßung (ISO)
100
AcDbDimension
280
     0
  2
*D7
 10
104.466217702875
 20
157.4978981290267
 30
0.0
 11
66.8945468683833
 21
157.4978981290267
 31
0.0
 70
   160
  1
<>
 42
62.00000000000001
 73
     0
 74
     0
 75
     0
  3
Standard (DIN)
100
AcDbAlignedDimension
 13
42.46621770287505
 23
140.4978981290267
 33
0.0
 14
104.466217702875
 24
140.4978981290267
 34
0.0
 50
180.0
100
AcDbRotatedDimension
1001
ACAD
1000
DSTYLE
1002
{
1070
   172
1070
     0
1070
   289
1070
     1
1070
   271
1070
     2
1070
   147
1040
0.4
1070
    72
1070
     0
1070
    71
1070
     0
1070
   272
1070
     2
1070
    48
1040
0.0
1070
    47
1040
0.0
1002
}
  0
DIMENSION
  5
4A4
330
70
100
AcDbEntity
  8
Bemaßung (ISO)
100
AcDbDimension
280
     0
  2
*D8
 10
91.27667187228224
 20
145.9978981290269
 30
0.0
 11
91.27667187228226
 21
129.0957788132207
 31
0.0
 70
   160
  1
<>
 42
11.00000000000031
 73
     0
 74
     0
 75
     0
  3
Standard (DIN)
100
AcDbAlignedDimension
 13
90.71156129831329
 23
134.9978981290266
 33
0.0
 14
90.71156129831335
 24
145.9978981290269
 34
0.0
 50
90.0
100
AcDbRotatedDimension
1001
ACAD
1000
DSTYLE
1002
{
1070
   172
1070
     0
1070
   289
1070
     2
1070
   271
1070
     2
1070
    76
1070
     1
1070
    75
1070
     1
1070
   147
1040
0.4
1070
    72
1070
     0
1070
    71
1070
     0
1070
   272
1070
     2
1070
    48
1040
0.0
1070
    47
1040
0.0
1002
}
  0
DIMENSION
  5
595
330
70
100
AcDbEntity
  8
Bemaßung (ISO)
100
AcDbDimension
280
     0
  2
*D9
 10
109.966217702875
 20
121.0978981290267
 30
0.0
 11
104.466217702875
 21
121.0978981290267
 31
0.0
 70
   160
  1
\fArial|b0|i0;\H2.4873;Ø<>
 42
11.0
 73
     0
 74
     0
 75
     0
  3
Standard (DIN)
100
AcDbAlignedDimension
 13
98.96621770287508
 23
111.0978981290267
 33
0.0
 14
109.966217702875
 24
111.0978981290267
 34
0.0
 50
180.0
100
AcDbRotatedDimension
1001
ACAD
1000
DSTYLE
1002
{
1070
   172
1070
     0
1070
   289
1070
     1
1070
   271
1070
     2
1070
   147
1040
0.4
1070
    72
1070
     0
1070
    71
1070
     0
1070
   272
1070
     2
1070
    48
1040
0.0
1070
    47
1040
0.0
1002
}
  0
DIMENSION
  5
682
330
70
100
AcDbEntity
  8
Bemaßung (ISO)
100
AcDbDimension
280
     0
  2
*D10
 10
104.466217702875
 20
101.0978981290267
 30
0.0
 11
67.08230844592439
 21
101.0978981290267
 31
0.0
 70
   160
  1
<>
 42
62.00000000000001
 73
     0
 74
     0
 75
     0
  3
Standard (DIN)
100
AcDbAlignedDimension
 13
42.46621770287505
 23
111.0978981290267
 33
0.0
 14
104.466217702875
 24
111.0978981290267
 34
0.0
 50
180.0
100
AcDbRotatedDimension
1001
ACAD
1000
DSTYLE
1002
{
1070
   172
1070
     0
1070
   289
1070
     1
1070
   271
1070
     2
1070
   147
1040
0.4
1070
    72
1070
     0
1070
    71
1070
     0
1070
   272
1070
     2
1070
    48
1040
0.0
1070
    47
1040
0.0
1002
}
  0
DIMENSION
  5
761
330
70
100
AcDbEntity
  8
Bemaßung (ISO)
100
AcDbDimension
280
     0
  2
*D11
 10
127.4662177028764
 20
52.49789809490374
 30
0.0
 11
127.4662177028764
 21
81.79789811196522
 31
0.0
 70
   160
  1
<>
 42
58.60000003412304
 73
     0
 74
     0
 75
     0
  3
Standard (DIN)
100
AcDbAlignedDimension
 13
104.466217702875
 23
111.0978981290267
 33
0.0
 14
117.4662177028764
 24
52.49789809490372
 34
0.0
 50
270.0
100
AcDbRotatedDimension
1001
ACAD
1000
DSTYLE
1002
{
1070
   172
1070
     0
1070
   289
1070
     1
1070
   271
1070
     2
1070
   147
1040
0.4
1070
    72
1070
     0
1070
    71
1070
     0
1070
   272
1070
     2
1070
    48
1040
0.0
1070
    47
1040
0.0
1002
}
  0
DIMENSION
  5
847
330
70
100
AcDbEntity
  8
Bemaßung (ISO)
100
AcDbDimension
280
     0
  2
*D12
 10
19.46621770287361
 20
78.49789812902679
 30
0.0
 11
19.46621770287363
 21
65.49789811196524
 31
0.0
 70
   160
  1
<>
 42
26.00000003412306
 73
     0
 74
     0
 75
     0
  3
Standard (DIN)
100
AcDbAlignedDimension
 13
29.46621770287361
 23
52.49789809490372
 33
0.0
 14
42.46621770287504
 24
78.49789812902677
 34
0.0
 50
270.0
100
AcDbRotatedDimension
1001
ACAD
1000
DSTYLE
1002
{
1070
   172
1070
     0
1070
   289
1070
     1
1070
   271
1070
     2
1070
   147
1040
0.4
1070
    72
1070
     0
1070
    71
1070
     0
1070
   272
1070
     2
1070
    48
1040
0.0
1070
    47
1040
0.0
1002
}
  0
DIMENSION
  5
934
330
70
100
AcDbEntity
  8
Bemaßung (ISO)
100
AcDbDimension
280
     0
  2
*D13
 10
19.46621770287361
 20
140.4978981290268
 30
0.0
 11
19.46621770287365
 21
109.4978981290267
 31
0.0
 70
   160
  1
<>
 42
62.00000000000001
 73
     0
 74
     0
 75
     0
  3
Standard (DIN)
100
AcDbAlignedDimension
 13
42.46621770287504
 23
78.49789812902677
 33
0.0
 14
42.46621770287505
 24
140.4978981290267
 34
0.0
 50
90.0
100
AcDbRotatedDimension
1001
ACAD
1000
DSTYLE
1002
{
1070
   172
1070
     0
1070
   289
1070
     1
1070
   271
1070
     2
1070
   147
1040
0.4
1070
    72
1070
     0
1070
    71
1070
     0
1070
   272
1070
     2
1070
    48
1040
0.0
1070
    47
1040
0.0
1002
}
  0
DIMENSION
  5
A13
330
70
100
AcDbEntity
  8
Bemaßung (ISO)
100
AcDbDimension
280
     0
  2
*D14
 10
144.4054931087188
 20
181.7120579631499
 30
0.0
 11
144.4054931087188
 21
117.1049780290268
 31
0.0
 70
   160
  1
<>
 42
129.2141598682462
 73
     0
 74
     0
 75
     0
  3
Standard (DIN)
100
AcDbAlignedDimension
 13
162.0165973391733
 23
52.49789809490373
 33
0.0
 14
162.0165973391733
 24
181.7120579631499
 34
0.0
 50
270.0
100
AcDbRotatedDimension
1001
ACAD
1000
DSTYLE
1002
{
1070
   172
1070
     0
1070
   289
1070
     1
1070
   271
1070
     1
1070
   147
1040
0.4
1070
    72
1070
     0
1070
    71
1070
     0
1070
   272
1070
     2
1070
    48
1040
0.0
1070
    47
1040
0.0
1002
}
  0
DIMENSION
  5
AF2
330
70
100
AcDbEntity
  8
Bemaßung (ISO)
100
AcDbDimension
280
     0
  2
*D15
 10
159.0165973391733
 20
185.3833003578662
 30
0.0
 11
165.2351512320689
 21
185.3833003578662
 31
0.0
 70
   160
  1
<>
 42
3.0
 73
     0
 74
     0
 75
     0
  3
Standard (DIN)
100
AcDbAlignedDimension
 13
156.0165973391733
 23
175.7120579631499
 33
0.0
 14
159.0165973391733
 24
175.7120579631499
 34
0.0
 50
180.0
100
AcDbRotatedDimension
1001
ACAD
1000
DSTYLE
1002
{
1070
   172
1070
     1
1070
   289
1070
     1
1070
   271
1070
     2
1070
   147
1040
0.4
1070
    72
1070
     0
1070
    71
1070
     0
1070
   272
1070
     2
1070
    48
1040
0.0
1070
    47
1040
0.0
1002
}
  0
DIMENSION
  5
BFB
330
70
100
AcDbEntity
  8
Bemaßung (ISO)
100
AcDbDimension
280
     0
  2
*D16
 10
268.6236772732963
 20
191.6690518072971
 30
0.0
 11
212.3201373062348
 21
191.6690518072971
 31
0.0
 70
   160
  1
<>
 42
112.6070799341229
 73
     0
 74
     0
 75
     0
  3
Standard (DIN)
100
AcDbAlignedDimension
 13
156.0165973391733
 23
175.7120579631499
 33
0.0
 14
268.6236772732963
 24
181.7120579631499
 34
0.0
 50
180.0
100
AcDbRotatedDimension
1001
ACAD
1000
DSTYLE
1002
{
1070
   172
1070
     0
1070
   289
1070
     1
1070
   271
1070
     1
1070
   147
1040
0.4
1070
    72
1070
     0
1070
    71
1070
     0
1070
   272
1070
     2
1070
    48
1040
0.0
1070
    47
1040
0.0
1002
}
  0
DIMENSION
  5
CDA
330
70
100
AcDbEntity
  8
Bemaßung (ISO)
100
AcDbDimension
280
     0
  2
*D17
 10
225.2021772732963
 20
76.15389809490372
 30
0.0
 11
218.6236772732963
 21
76.15389809490372
 31
0.0
 70
   160
  1
 \fArial|b0|i0;\H2.4873;G1/4
 42
13.15699999999998
 73
     0
 74
     0
 75
     0
  3
Standard (DIN)
100
AcDbAlignedDimension
 13
212.0451772732963
 23
66.15389809490372
 33
0.0
 14
225.2021772732963
 24
66.15389809490372
 34
0.0
 50
180.0
100
AcDbRotatedDimension
1001
ACAD
1000
DSTYLE
1002
{
1070
   172
1070
     0
1070
   289
1070
     1
1070
   271
1070
     2
1070
   147
1040
0.4
1070
    72
1070
     0
1070
    71
1070
     0
1070
   272
1070
     2
1070
    48
1040
0.0
1070
    47
1040
0.0
1002
}
  0
DIMENSION
  5
DC7
330
70
100
AcDbEntity
  8
Bemaßung (ISO)
100
AcDbDimension
280
     0
  2
*D18
 10
218.6236772732963
 20
37.34490663376538
 30
0.0
 11
187.3201373062348
 21
37.34490663376538
 31
0.0
 70
   160
  1
<>
 42
62.60707993412299
 73
     0
 74
     0
 75
     0
  3
Standard (DIN)
100
AcDbAlignedDimension
 13
156.0165973391733
 23
58.49789809490373
 33
0.0
 14
218.6236772732963
 24
42.69789809490373
 34
0.0
 50
180.0
100
AcDbRotatedDimension
1001
ACAD
1000
DSTYLE
1002
{
1070
   172
1070
     0
1070
   289
1070
     1
1070
   271
1070
     2
1070
   147
1040
0.4
1070
    72
1070
     0
1070
    71
1070
     0
1070
   272
1070
     2
1070
    48
1040
0.0
1070
    47
1040
0.0
1002
}
  0
DIMENSION
  5
EAD
330
70
100
AcDbEntity
  8
Bemaßung (ISO)
100
AcDbDimension
280
     0
  2
*D19
 10
262.6236772732978
 20
31.09364020968753
 30
0.0
 11
209.3201373062355
 21
31.09364020968753
 31
0.0
 70
   160
  1
<>
 42
106.6070799341244
 73
     0
 74
     0
 75
     0
  3
Standard (DIN)
100
AcDbAlignedDimension
 13
156.0165973391733
 23
58.49789809490373
 33
0.0
 14
262.6236772732978
 24
52.49789809490373
 34
0.0
 50
180.0
100
AcDbRotatedDimension
1001
ACAD
1000
DSTYLE
1002
{
1070
   172
1070
     0
1070
   289
1070
     1
1070
   271
1070
     1
1070
   147
1040
0.4
1070
    72
1070
     0
1070
    71
1070
     0
1070
   272
1070
     2
1070
    48
1040
0.0
1070
    47
1040
0.0
1002
}
  0
LINE
  5
F8C
330
70
100
AcDbEntity
  8
Mittelpunktmarkierung (ISO)
  6
CHAIN
 48
23.99096870422363
100
AcDbLine
 10
50.46621770287505
 20
111.0978981290267
 30
0.0
 11
34.46621770287507
 21
111.0978981290267
 31
0.0
  0
LINE
  5
F8D
330
70
100
AcDbEntity
  8
Mittelpunktmarkierung (ISO)
  6
CHAIN
 48
23.99096870422363
100
AcDbLine
 10
42.46621770287505
 20
119.0978981290267
 30
0.0
 11
42.46621770287505
 21
103.0978981290267
 31
0.0
  0
LINE
  5
F8E
330
70
100
AcDbEntity
  8
Mittelpunktmarkierung (ISO)
  6
CHAIN
 48
23.99096870422363
100
AcDbLine
 10
112.4662177028751
 20
111.0978981290267
 30
0.0
 11
96.46621770287508
 21
111.0978981290267
 31
0.0
  0
LINE
  5
F8F
330
70
100
AcDbEntity
  8
Mittelpunktmarkierung (ISO)
  6
CHAIN
 48
23.99096870422363
100
AcDbLine
 10
104.466217702875
 20
119.0978981290267
 30
0.0
 11
104.466217702875
 21
103.0978981290267
 31
0.0
  0
LINE
  5
F90
330
70
100
AcDbEntity
  8
Mittellinie (ISO)
  6
CHAIN
 48
23.99096870422363
100
AcDbLine
 10
39.96621770287507
 20
140.4978981290267
 30
0.0
 11
106.966217702875
 21
140.4978981290267
 31
0.0
  0
LINE
  5
F91
330
70
100
AcDbEntity
  8
Mittellinie (ISO)
  6
CHAIN
 48
23.99096870422363
100
AcDbLine
 10
39.96621770287504
 20
78.49789812902679
 30
0.0
 11
112.2685629618266
 21
78.49789812902674
 31
0.0
  0
LINE
  5
F92
330
70
100
AcDbEntity
  8
Mittellinie (ISO)
  6
CHAIN
 48
23.99096870422363
100
AcDbLine
 10
73.46621770287682
 20
55.99789809490371
 30
0.0
 11
73.4662177028769
 21
178.2120579631498
 31
0.0
  0
LINE
  5
F93
330
70
100
AcDbEntity
  8
Mittellinie (ISO)
  6
CHAIN
 48
23.99096870422363
100
AcDbLine
 10
218.6236772732963
 20
40.19789809490373
 30
0.0
 11
218.6236772732963
 21
67.79789809490373
 31
0.0
  0
LINE
  5
F94
330
70
100
AcDbEntity
  8
Mittellinie (ISO)
  6
CHAIN
 48
8.889559745788574
100
AcDbLine
 10
161.5165973391733
 20
78.49789812902677
 30
0.0
 11
153.5165973391733
 21
78.49789812902677
 31
0.0
  0
LINE
  5
F95
330
70
100
AcDbEntity
  8
Mittellinie (ISO)
  6
CHAIN
 48
8.889559745788574
100
AcDbLine
 10
153.5165973391733
 20
140.4978981290268
 30
0.0
 11
161.5165973391733
 21
140.4978981290267
 31
0.0
  0
LINE
  5
F96
330
70
100
AcDbEntity
  8
Mittellinie (ISO)
  6
CHAIN
 48
8.889559745788574
100
AcDbLine
 10
218.6236772732963
 20
176.2120579631499
 30
0.0
 11
218.6236772732962
 21
184.2120579631499
 31
0.0
  0
LINE
  5
F97
330
70
100
AcDbEntity
  8
Mittelpunktmarkierung (ISO)
  6
CHAIN
 48
11.66757774353027
100
AcDbLine
 10
112.4662177028757
 20
140.4978981290267
 30
0.0
 11
101.966217702875
 21
140.4978981290267
 31
0.0
  0
LINE
  5
F98
330
70
100
AcDbEntity
  8
Mittelpunktmarkierung (ISO)
  6
CHAIN
 48
23.99096870422363
100
AcDbLine
 10
104.466217702875
 20
148.4978981290274
 30
0.0
 11
104.466217702875
 21
132.4978981290261
 31
0.0
  0
LINE
  5
F99
330
70
100
AcDbEntity
  8
Mittelpunktmarkierung (ISO)
  6
CHAIN
 48
11.66757774353027
100
AcDbLine
 10
44.96621770287505
 20
140.4978981290267
 30
0.0
 11
34.46621770287435
 21
140.4978981290267
 31
0.0
  0
LINE
  5
F9A
330
70
100
AcDbEntity
  8
Mittelpunktmarkierung (ISO)
  6
CHAIN
 48
23.99096870422363
100
AcDbLine
 10
42.46621770287505
 20
148.4978981290274
 30
0.0
 11
42.46621770287505
 21
132.4978981290261
 31
0.0
  0
LINE
  5
F9B
330
70
100
AcDbEntity
  8
Mittelpunktmarkierung (ISO)
  6
CHAIN
 48
11.66757774353027
100
AcDbLine
 10
112.4662177028757
 20
78.49789812902674
 30
0.0
 11
101.966217702875
 21
78.49789812902674
 31
0.0
  0
LINE
  5
F9C
330
70
100
AcDbEntity
  8
Mittelpunktmarkierung (ISO)
  6
CHAIN
 48
23.99096870422363
100
AcDbLine
 10
104.466217702875
 20
86.49789812902739
 30
0.0
 11
104.466217702875
 21
70.49789812902608
 31
0.0
  0
LINE
  5
F9D
330
70
100
AcDbEntity
  8
Mittelpunktmarkierung (ISO)
  6
CHAIN
 48
11.66757774353027
100
AcDbLine
 10
44.96621770287504
 20
78.49789812902677
 30
0.0
 11
34.46621770287439
 21
78.49789812902677
 31
0.0
  0
LINE
  5
F9E
330
70
100
AcDbEntity
  8
Mittelpunktmarkierung (ISO)
  6
CHAIN
 48
23.99096870422363
100
AcDbLine
 10
42.46621770287504
 20
86.49789812902742
 30
0.0
 11
42.46621770287504
 21
70.49789812902613
 31
0.0
  0
DIMENSION
  5
F9F
330
70
100
AcDbEntity
  8
Bemaßung (ISO)
100
AcDbDimension
280
     0
  2
*D20
 10
270.5461772732964
 20
66.49789809490376
 30
0.0
 11
270.5461772732963
 21
53.99789809490373
 31
0.0
 70
   160
  1
<>
 42
25.0
 73
     0
 74
     0
 75
     0
  3
Standard (DIN)
100
AcDbAlignedDimension
 13
225.5461772732963
 23
41.49789809490373
 33
0.0
 14
225.5461772732963
 24
66.49789809490373
 34
0.0
 50
90.0
100
AcDbRotatedDimension
1001
ACAD
1000
DSTYLE
1002
{
1070
   172
1070
     0
1070
   289
1070
     1
1070
   271
1070
     2
1070
   147
1040
0.4
1070
    72
1070
     0
1070
    71
1070
     0
1070
   272
1070
     2
1070
    48
1040
0.0
1070
    47
1040
0.0
1002
}
  0
DIMENSION
  5
108C
330
70
100
AcDbEntity
  8
Bemaßung (ISO)
100
AcDbDimension
280
     0
  2
*D21
 10
278.6236772732962
 20
181.71205796315
 30
0.0
 11
278.6236772732962
 21
180.2120579631498
 31
0.0
 70
   160
  1
<>
 42
3.0
 73
     0
 74
     0
 75
     0
  3
Standard (DIN)
100
AcDbAlignedDimension
 13
268.6236772732963
 23
178.7120579631499
 33
0.0
 14
268.6236772732962
 24
181.7120579631499
 34
0.0
 50
90.0
100
AcDbRotatedDimension
1001
ACAD
1000
DSTYLE
1002
{
1070
   172
1070
     1
1070
   289
1070
     1
1070
   271
1070
     2
1070
   147
1040
0.4
1070
    72
1070
     0
1070
    71
1070
     0
1070
   272
1070
     2
1070
    48
1040
0.0
1070
    47
1040
0.0
1002
}
  0
ENDSEC
  0
SECTION
  2
OBJECTS
  0
DICTIONARY
  5
C
330
0
100
AcDbDictionary
281
     1
  3
ACAD_CIP_PREVIOUS_PRODUCT_INFO
350
1197
  3
ACAD_COLOR
350
63
  3
ACAD_DETAILVIEWSTYLE
350
6A
  3
ACAD_GROUP
350
D
  3
ACAD_LAYOUT
350
62
  3
ACAD_MATERIAL
350
10
  3
ACAD_MLEADERSTYLE
350
66
  3
ACAD_MLINESTYLE
350
5F
  3
ACAD_PLOTSETTINGS
350
61
  3
ACAD_PLOTSTYLENAME
350
E
  3
ACAD_SCALELIST
350
42
  3
ACAD_SECTIONVIEWSTYLE
350
68
  3
ACAD_TABLESTYLE
350
64
  3
ACAD_VISUALSTYLE
350
29
  3
ACDB_RECOMPOSE_DATA
350
11CA
  3
AcDbVariableDictionary
350
1198
  0
DICTIONARY
  5
11A4
330
18F
100
AcDbDictionary
280
     1
281
     1
  3
ACAD_MTEXT_2008_RT
360
11A5
  0
DICTIONARY
  5
11A6
330
191
100
AcDbDictionary
280
     1
281
     1
  3
ACAD_MLATT
360
11A8
  3
ACAD_XREC_ROUNDTRIP
360
11A7
  0
DICTIONARY
  5
11A9
330
195
100
AcDbDictionary
280
     1
281
     1
  3
ACAD_MLATT
360
11AB
  3
ACAD_XREC_ROUNDTRIP
360
11AA
  0
DICTIONARY
  5
11AC
330
198
100
AcDbDictionary
280
     1
281
     1
  3
ACAD_MLATT
360
11AE
  3
ACAD_XREC_ROUNDTRIP
360
11AD
  0
DICTIONARY
  5
11AF
330
199
100
AcDbDictionary
280
     1
281
     1
  3
ACAD_MLATT
360
11B1
  3
ACAD_XREC_ROUNDTRIP
360
11B0
  0
DICTIONARY
  5
11B2
330
19A
100
AcDbDictionary
280
     1
281
     1
  3
ACAD_MLATT
360
11B4
  3
ACAD_XREC_ROUNDTRIP
360
11B3
  0
DICTIONARY
  5
11B5
330
19C
100
AcDbDictionary
280
     1
281
     1
  3
ACAD_MLATT
360
11B7
  3
ACAD_XREC_ROUNDTRIP
360
11B6
  0
DICTIONARY
  5
11B8
330
19F
100
AcDbDictionary
280
     1
281
     1
  3
ACAD_MLATT
360
11BA
  3
ACAD_XREC_ROUNDTRIP
360
11B9
  0
DICTIONARY
  5
11BB
330
1A0
100
AcDbDictionary
280
     1
281
     1
  3
ACAD_MLATT
360
11BD
  3
ACAD_XREC_ROUNDTRIP
360
11BC
  0
DICTIONARY
  5
11BE
330
1A1
100
AcDbDictionary
280
     1
281
     1
  3
ACAD_MLATT
360
11C0
  3
ACAD_XREC_ROUNDTRIP
360
11BF
  0
DICTIONARY
  5
11C1
330
1A2
100
AcDbDictionary
280
     1
281
     1
  3
ACAD_MLATT
360
11C3
  3
ACAD_XREC_ROUNDTRIP
360
11C2
  0
DICTIONARY
  5
11C4
330
1A3
100
AcDbDictionary
280
     1
281
     1
  3
ACAD_MLATT
360
11C6
  3
ACAD_XREC_ROUNDTRIP
360
11C5
  0
DICTIONARY
  5
11C7
330
1A4
100
AcDbDictionary
280
     1
281
     1
  3
ACAD_MLATT
360
11C9
  3
ACAD_XREC_ROUNDTRIP
360
11C8
  0
XRECORD
  5
1197
102
{ACAD_REACTORS
330
C
102
}
330
C
100
AcDbXrecord
280
     1
300
INVNTOR
300
2017
300

  0
DICTIONARY
  5
63
102
{ACAD_REACTORS
330
C
102
}
330
C
100
AcDbDictionary
281
     1
  0
DICTIONARY
  5
6A
102
{ACAD_REACTORS
330
C
102
}
330
C
100
AcDbDictionary
281
     1
  3
Imperial24
350
6B
  0
DICTIONARY
  5
D
102
{ACAD_REACTORS
330
C
102
}
330
C
100
AcDbDictionary
281
     1
  0
DICTIONARY
  5
62
102
{ACAD_REACTORS
330
C
102
}
330
C
100
AcDbDictionary
281
     1
  3
Layout1
350
6F
  3
Layout2
350
77
  3
Model
350
73
  0
DICTIONARY
  5
10
102
{ACAD_REACTORS
330
C
102
}
330
C
100
AcDbDictionary
281
     1
  3
ByBlock
350
19
  3
ByLayer
350
11
  3
Global
350
21
  0
DICTIONARY
  5
66
102
{ACAD_REACTORS
330
C
102
}
330
C
100
AcDbDictionary
281
     1
  3
Standard
350
67
  0
DICTIONARY
  5
5F
102
{ACAD_REACTORS
330
C
102
}
330
C
100
AcDbDictionary
281
     1
  3
Standard
350
60
  0
DICTIONARY
  5
61
102
{ACAD_REACTORS
330
C
102
}
330
C
100
AcDbDictionary
281
     1
  0
ACDBDICTIONARYWDFLT
  5
E
102
{ACAD_REACTORS
330
C
102
}
330
C
100
AcDbDictionary
281
     1
  3
Normal
350
F
100
AcDbDictionaryWithDefault
340
F
  0
DICTIONARY
  5
42
102
{ACAD_REACTORS
330
C
102
}
330
C
100
AcDbDictionary
281
     1
  3
A0
350
43
  3
A1
350
44
  3
A2
350
45
  3
A3
350
46
  3
A4
350
47
  3
A5
350
48
  3
A6
350
49
  3
A7
350
4A
  3
A8
350
4B
  3
A9
350
4C
  3
B0
350
4D
  3
B1
350
4E
  3
B2
350
4F
  3
B3
350
50
  3
B4
350
51
  3
B5
350
52
  3
B6
350
53
  0
DICTIONARY
  5
68
102
{ACAD_REACTORS
330
C
102
}
330
C
100
AcDbDictionary
281
     1
  3
Imperial24
350
69
  0
DICTIONARY
  5
64
102
{ACAD_REACTORS
330
C
102
}
330
C
100
AcDbDictionary
281
     1
  3
Standard
350
65
  0
DICTIONARY
  5
29
102
{ACAD_REACTORS
330
C
102
}
330
C
100
AcDbDictionary
281
     1
  3
2dWireframe
350
2F
  3
Basic
350
2E
  3
Brighten
350
35
  3
ColorChange
350
39
  3
Conceptual
350
32
  3
Dim
350
34
  3
EdgeColorOff
350
41
  3
Facepattern
350
38
  3
Flat
350
2A
  3
FlatWithEdges
350
2B
  3
Gouraud
350
2C
  3
GouraudWithEdges
350
2D
  3
Hidden
350
31
  3
JitterOff
350
3F
  3
Linepattern
350
37
  3
OverhangOff
350
40
  3
Realistic
350
33
  3
Shaded
350
3E
  3
Shaded with edges
350
3D
  3
Shades of Gray
350
3A
  3
Sketchy
350
3B
  3
Thicken
350
36
  3
Wireframe
350
30
  3
X-Ray
350
3C
  0
XRECORD
  5
11CA
102
{ACAD_REACTORS
330
C
102
}
330
C
100
AcDbXrecord
280
     1
 90
        1
330
65
330
69
330
6B
330
18F
330
191
330
195
330
198
330
199
330
19A
330
19C
330
19F
330
1A0
330
1A1
330
1A2
330
1A3
330
1A4
330
4A4
  0
DICTIONARY
  5
1198
102
{ACAD_REACTORS
330
C
102
}
330
C
100
AcDbDictionary
281
     1
  3
CANNOSCALE
350
119D
  3
CMLEADERSTYLE
350
119A
  3
CTABLESTYLE
350
1199
  3
CVIEWDETAILSTYLE
350
119B
  3
CVIEWSECTIONSTYLE
350
119C
  0
XRECORD
  5
11A5
102
{ACAD_REACTORS
330
11A4
102
}
330
11A4
100
AcDbXrecord
280
     1
 40
1337195.0
  1
\pxsm0.94;\fArial|b1|i0;\H1.0000;perma-tec \fArial|b0|i0;\H0.7000;GmbH & Co. KG\P\fArial|b0|i0;\H1.0000;Hammelburger Str.21                       Tel. : +49 9704 609-0\P97717 EUERDORF / GERMANY     Fax : +49 9704 609-50
  0
XRECORD
  5
11A8
102
{ACAD_REACTORS
330
11A6
102
}
330
11A6
100
AcDbXrecord
280
     1
 70
     4
 70
     0
 70
     0
 40
1.0
  2
Maßstab
  1
Embedded Object
 10
145.0127883584022
 20
117.4731139823299
 30
0.0
 40
2.5
 41
13.99999999999998
 46
0.0
 71
     5
 72
     5
  1
1:1 (1:2)
  7
Textstil54
 73
     1
 44
1.0
  0
XRECORD
  5
11A7
102
{ACAD_REACTORS
330
11A6
102
}
330
11A6
100
AcDbXrecord
280
     1
102
ACAD_MATT_HEIGHT
140
2.5
  0
XRECORD
  5
11AB
102
{ACAD_REACTORS
330
11A9
102
}
330
11A9
100
AcDbXrecord
280
     1
 70
     4
 70
     0
 70
     0
 40
1.0
  2
Datum
  1
Embedded Object
 10
164.5127883584021
 20
117.4731139823299
 30
0.0
 40
2.5
 41
21.99999999999992
 46
0.0
 71
     5
 72
     5
  1
06.06.2016
  7
Textstil54
 73
     1
 44
1.0
  0
XRECORD
  5
11AA
102
{ACAD_REACTORS
330
11A9
102
}
330
11A9
100
AcDbXrecord
280
     1
102
ACAD_MATT_HEIGHT
140
2.5
  0
XRECORD
  5
11AE
102
{ACAD_REACTORS
330
11AC
102
}
330
11AC
100
AcDbXrecord
280
     1
 70
     4
 70
     0
 70
     0
 40
1.0
  2
Blattgröße
  1
Embedded Object
 10
145.0127883584022
 20
108.7231139823298
 30
0.0
 40
2.5
 41
13.99999999999998
 46
0.0
 71
     5
 72
     5
  1
A4
  7
Textstil54
 73
     1
 44
1.0
  0
XRECORD
  5
11AD
102
{ACAD_REACTORS
330
11AC
102
}
330
11AC
100
AcDbXrecord
280
     1
102
ACAD_MATT_HEIGHT
140
2.5
  0
XRECORD
  5
11B1
102
{ACAD_REACTORS
330
11AF
102
}
330
11AF
100
AcDbXrecord
280
     1
 70
     4
 70
     0
 70
     0
 40
1.0
  2
Material
  1
Embedded Object
 10
178.5127883584022
 20
117.4731139823299
 30
0.0
 40
2.5
 41
25.0
 46
0.0
 71
     4
 72
     5
  1
stainless steel
  7
Textstil54
 73
     1
 44
1.0
  0
XRECORD
  5
11B0
102
{ACAD_REACTORS
330
11AF
102
}
330
11AF
100
AcDbXrecord
280
     1
102
ACAD_MATT_HEIGHT
140
2.5
  0
XRECORD
  5
11B4
102
{ACAD_REACTORS
330
11B2
102
}
330
11B2
100
AcDbXrecord
280
     1
 70
     4
 70
     0
 70
     0
 40
1.0
  2
Artikelnummer
  1
Embedded Object
 10
178.5127883584022
 20
109.993121529321
 30
0.0
 40
2.5
 41
25.0
 46
0.0
 71
     1
 72
     5
  1
109664
  7
Textstil54
 73
     1
 44
1.0
  0
XRECORD
  5
11B3
102
{ACAD_REACTORS
330
11B2
102
}
330
11B2
100
AcDbXrecord
280
     1
102
ACAD_MATT_HEIGHT
140
2.5
  0
XRECORD
  5
11B7
102
{ACAD_REACTORS
330
11B5
102
}
330
11B5
100
AcDbXrecord
280
     1
 70
     4
 70
     0
 70
     0
 40
1.0
  2
Revision/Gezeichnet
  1
Embedded Object
 10
165.0127883584022
 20
110.0140818751853
 30
0.0
 40
2.5
 41
23.00000000000001
 46
0.0
 71
     2
 72
     5
  1
D / cst
  7
Textstil54
 73
     1
 44
1.0
  0
XRECORD
  5
11B6
102
{ACAD_REACTORS
330
11B5
102
}
330
11B5
100
AcDbXrecord
280
     1
102
ACAD_MATT_HEIGHT
140
2.5
  0
XRECORD
  5
11BA
102
{ACAD_REACTORS
330
11B8
102
}
330
11B8
100
AcDbXrecord
280
     1
 70
     2
 70
     0
 70
     0
 40
1.0
  2
Maßstab
  1
Embedded Object
 10
104.5
 20
21.62499999999998
 30
0.0
 40
2.5
 41
13.99999999999998
 46
0.0
 71
     5
 72
     5
  1
1:1 (1:2)
  7
Textstil54
 73
     1
 44
1.0
  0
XRECORD
  5
11B9
102
{ACAD_REACTORS
330
11B8
102
}
330
11B8
100
AcDbXrecord
280
     1
102
ACAD_MATT_HEIGHT
140
2.5
  0
XRECORD
  5
11BD
102
{ACAD_REACTORS
330
11BB
102
}
330
11BB
100
AcDbXrecord
280
     1
 70
     2
 70
     0
 70
     0
 40
1.0
  2
Datum
  1
Embedded Object
 10
123.9999999999999
 20
21.62499999999998
 30
0.0
 40
2.5
 41
21.99999999999992
 46
0.0
 71
     5
 72
     5
  1
06.06.2016
  7
Textstil54
 73
     1
 44
1.0
  0
XRECORD
  5
11BC
102
{ACAD_REACTORS
330
11BB
102
}
330
11BB
100
AcDbXrecord
280
     1
102
ACAD_MATT_HEIGHT
140
2.5
  0
XRECORD
  5
11C0
102
{ACAD_REACTORS
330
11BE
102
}
330
11BE
100
AcDbXrecord
280
     1
 70
     2
 70
     0
 70
     0
 40
1.0
  2
Blattgröße
  1
Embedded Object
 10
104.5
 20
12.87499999999994
 30
0.0
 40
2.5
 41
13.99999999999998
 46
0.0
 71
     5
 72
     5
  1
A4
  7
Textstil54
 73
     1
 44
1.0
  0
XRECORD
  5
11BF
102
{ACAD_REACTORS
330
11BE
102
}
330
11BE
100
AcDbXrecord
280
     1
102
ACAD_MATT_HEIGHT
140
2.5
  0
XRECORD
  5
11C3
102
{ACAD_REACTORS
330
11C1
102
}
330
11C1
100
AcDbXrecord
280
     1
 70
     2
 70
     0
 70
     0
 40
1.0
  2
Material
  1
Embedded Object
 10
138.0
 20
21.625
 30
0.0
 40
2.5
 41
25.0
 46
0.0
 71
     4
 72
     5
  1
stainless steel
  7
Textstil54
 73
     1
 44
1.0
  0
XRECORD
  5
11C2
102
{ACAD_REACTORS
330
11C1
102
}
330
11C1
100
AcDbXrecord
280
     1
102
ACAD_MATT_HEIGHT
140
2.5
  0
XRECORD
  5
11C6
102
{ACAD_REACTORS
330
11C4
102
}
330
11C4
100
AcDbXrecord
280
     1
 70
     2
 70
     0
 70
     0
 40
1.0
  2
Artikelnummer
  1
Embedded Object
 10
138.0
 20
14.14500754699107
 30
0.0
 40
2.5
 41
25.0
 46
0.0
 71
     1
 72
     5
  1
109664
  7
Textstil54
 73
     1
 44
1.0
  0
XRECORD
  5
11C5
102
{ACAD_REACTORS
330
11C4
102
}
330
11C4
100
AcDbXrecord
280
     1
102
ACAD_MATT_HEIGHT
140
2.5
  0
XRECORD
  5
11C9
102
{ACAD_REACTORS
330
11C7
102
}
330
11C7
100
AcDbXrecord
280
     1
 70
     2
 70
     0
 70
     0
 40
1.0
  2
Revision/Gezeichnet
  1
Embedded Object
 10
124.4999999999999
 20
14.16596789285538
 30
0.0
 40
2.5
 41
23.00000000000001
 46
0.0
 71
     2
 72
     5
  1
D / cst
  7
Textstil54
 73
     1
 44
1.0
  0
XRECORD
  5
11C8
102
{ACAD_REACTORS
330
11C7
102
}
330
11C7
100
AcDbXrecord
280
     1
102
ACAD_MATT_HEIGHT
140
2.5
  0
ACDBDETAILVIEWSTYLE
  5
6B
102
{ACAD_XDICTIONARY
360
11A2
102
}
102
{ACAD_REACTORS
330
6A
102
}
330
6A
100
AcDbModelDocViewStyle
 70
     0
  3
Imperial24
290
     0
100
AcDbDetailViewStyle
 70
     0
 71
     0
 90
        3
 71
     1
340
55
 62
   256
 40
0.24
340
0
 62
   256
 40
0.24
300

 40
0.36
280
     3
 71
     2
340
5D
 90
       25
 62
   256
 71
     3
340
55
 62
   256
 40
0.24
 90
        1
 40
0.75
 90
        1
300
%<\AcVar ViewType \f "%tc1">% %<\AcVar ViewDetailId>%\PVARIA %<\AcVar ViewScale \f "%sn">%
 71
     4
340
5D
 90
       25
 62
   256
340
5D
 90
       25
 62
   256
280
     0
  0
LAYOUT
  5
6F
102
{ACAD_REACTORS
330
62
102
}
330
62
100
AcDbPlotSettings
  1

  2

  4

  6

 40
0.0
 41
0.0
 42
0.0
 43
0.0
 44
0.0
 45
0.0
 46
0.0
 47
0.0
 48
0.0
 49
0.0
140
0.0
141
0.0
142
1.0
143
1.0
 70
   688
 72
     0
 73
     0
 74
     5
  7

 75
    16
147
1.0
 76
     0
 77
     2
 78
   300
148
0.0
149
0.0
100
AcDbLayout
  1
Layout1
 70
     1
 71
     1
 10
0.0
 20
0.0
 11
12.0
 21
9.0
 12
0.0
 22
0.0
 32
0.0
 14
0.0
 24
0.0
 34
0.0
 15
0.0
 25
0.0
 35
0.0
146
0.0
 13
0.0
 23
0.0
 33
0.0
 16
1.0
 26
0.0
 36
0.0
 17
0.0
 27
1.0
 37
0.0
 76
     0
330
6C
  0
LAYOUT
  5
77
102
{ACAD_REACTORS
330
62
102
}
330
62
100
AcDbPlotSettings
  1

  2

  4

  6

 40
0.0
 41
0.0
 42
0.0
 43
0.0
 44
0.0
 45
0.0
 46
0.0
 47
0.0
 48
0.0
 49
0.0
140
0.0
141
0.0
142
1.0
143
1.0
 70
   688
 72
     0
 73
     0
 74
     5
  7

 75
    16
147
1.0
 76
     0
 77
     2
 78
   300
148
0.0
149
0.0
100
AcDbLayout
  1
Layout2
 70
     1
 71
     2
 10
0.0
 20
0.0
 11
12.0
 21
9.0
 12
0.0
 22
0.0
 32
0.0
 14
0.0
 24
0.0
 34
0.0
 15
0.0
 25
0.0
 35
0.0
146
0.0
 13
0.0
 23
0.0
 33
0.0
 16
1.0
 26
0.0
 36
0.0
 17
0.0
 27
1.0
 37
0.0
 76
     0
330
74
  0
LAYOUT
  5
73
102
{ACAD_REACTORS
330
62
102
}
330
62
100
AcDbPlotSettings
  1

  2

  4

  6

 40
0.0
 41
0.0
 42
0.0
 43
0.0
 44
0.0
 45
0.0
 46
0.0
 47
0.0
 48
0.0
 49
0.0
140
0.0
141
0.0
142
1.0
143
1.0
 70
  1712
 72
     0
 73
     0
 74
     0
  7

 75
     0
147
1.0
 76
     0
 77
     2
 78
   300
148
0.0
149
0.0
100
AcDbLayout
  1
Model
 70
     1
 71
     0
 10
0.0
 20
0.0
 11
12.0
 21
9.0
 12
0.0
 22
0.0
 32
0.0
 14
0.0
 24
0.0
 34
0.0
 15
0.0
 25
0.0
 35
0.0
146
0.0
 13
0.0
 23
0.0
 33
0.0
 16
1.0
 26
0.0
 36
0.0
 17
0.0
 27
1.0
 37
0.0
 76
     0
330
70
  0
MATERIAL
  5
19
102
{ACAD_XDICTIONARY
360
1A
102
}
102
{ACAD_REACTORS
330
10
102
}
330
10
100
AcDbMaterial
  1
ByBlock
 72
     0
 43
0.0208333333333333
 43
0.0
 43
0.0
 43
0.0
 43
0.0
 43
0.0208333333333333
 43
0.0
 43
0.0
 43
0.0
 43
0.0
 43
1.0
 43
0.0
 43
0.0
 43
0.0
 43
0.0
 43
1.0
 77
     0
 47
0.0208333333333333
 47
0.0
 47
0.0
 47
0.0
 47
0.0
 47
0.0208333333333333
 47
0.0
 47
0.0
 47
0.0
 47
0.0
 47
1.0
 47
0.0
 47
0.0
 47
0.0
 47
0.0
 47
1.0
171
     0
 49
0.0208333333333333
 49
0.0
 49
0.0
 49
0.0
 49
0.0
 49
0.0208333333333333
 49
0.0
 49
0.0
 49
0.0
 49
0.0
 49
1.0
 49
0.0
 49
0.0
 49
0.0
 49
0.0
 49
1.0
175
     0
142
0.0208333333333333
142
0.0
142
0.0
142
0.0
142
0.0
142
0.0208333333333333
142
0.0
142
0.0
142
0.0
142
0.0
142
1.0
142
0.0
142
0.0
142
0.0
142
0.0
142
1.0
179
     0
144
0.0208333333333333
144
0.0
144
0.0
144
0.0
144
0.0
144
0.0208333333333333
144
0.0
144
0.0
144
0.0
144
0.0
144
1.0
144
0.0
144
0.0
144
0.0
144
0.0
144
1.0
147
0.0208333333333333
147
0.0
147
0.0
147
0.0
147
0.0
147
0.0208333333333333
147
0.0
147
0.0
147
0.0
147
0.0
147
1.0
147
0.0
147
0.0
147
0.0
147
0.0
147
1.0
  0
MATERIAL
  5
11
102
{ACAD_XDICTIONARY
360
12
102
}
102
{ACAD_REACTORS
330
10
102
}
330
10
100
AcDbMaterial
  1
ByLayer
 72
     0
 43
0.0208333333333333
 43
0.0
 43
0.0
 43
0.0
 43
0.0
 43
0.0208333333333333
 43
0.0
 43
0.0
 43
0.0
 43
0.0
 43
1.0
 43
0.0
 43
0.0
 43
0.0
 43
0.0
 43
1.0
 77
     0
 47
0.0208333333333333
 47
0.0
 47
0.0
 47
0.0
 47
0.0
 47
0.0208333333333333
 47
0.0
 47
0.0
 47
0.0
 47
0.0
 47
1.0
 47
0.0
 47
0.0
 47
0.0
 47
0.0
 47
1.0
171
     0
 49
0.0208333333333333
 49
0.0
 49
0.0
 49
0.0
 49
0.0
 49
0.0208333333333333
 49
0.0
 49
0.0
 49
0.0
 49
0.0
 49
1.0
 49
0.0
 49
0.0
 49
0.0
 49
0.0
 49
1.0
175
     0
142
0.0208333333333333
142
0.0
142
0.0
142
0.0
142
0.0
142
0.0208333333333333
142
0.0
142
0.0
142
0.0
142
0.0
142
1.0
142
0.0
142
0.0
142
0.0
142
0.0
142
1.0
179
     0
144
0.0208333333333333
144
0.0
144
0.0
144
0.0
144
0.0
144
0.0208333333333333
144
0.0
144
0.0
144
0.0
144
0.0
144
1.0
144
0.0
144
0.0
144
0.0
144
0.0
144
1.0
147
0.0208333333333333
147
0.0
147
0.0
147
0.0
147
0.0
147
0.0208333333333333
147
0.0
147
0.0
147
0.0
147
0.0
147
1.0
147
0.0
147
0.0
147
0.0
147
0.0
147
1.0
  0
MATERIAL
  5
21
102
{ACAD_XDICTIONARY
360
22
102
}
102
{ACAD_REACTORS
330
10
102
}
330
10
100
AcDbMaterial
  1
Global
 72
     0
 43
0.0208333333333333
 43
0.0
 43
0.0
 43
0.0
 43
0.0
 43
0.0208333333333333
 43
0.0
 43
0.0
 43
0.0
 43
0.0
 43
1.0
 43
0.0
 43
0.0
 43
0.0
 43
0.0
 43
1.0
 77
     0
 47
0.0208333333333333
 47
0.0
 47
0.0
 47
0.0
 47
0.0
 47
0.0208333333333333
 47
0.0
 47
0.0
 47
0.0
 47
0.0
 47
1.0
 47
0.0
 47
0.0
 47
0.0
 47
0.0
 47
1.0
171
     0
 49
0.0208333333333333
 49
0.0
 49
0.0
 49
0.0
 49
0.0
 49
0.0208333333333333
 49
0.0
 49
0.0
 49
0.0
 49
0.0
 49
1.0
 49
0.0
 49
0.0
 49
0.0
 49
0.0
 49
1.0
175
     0
142
0.0208333333333333
142
0.0
142
0.0
142
0.0
142
0.0
142
0.0208333333333333
142
0.0
142
0.0
142
0.0
142
0.0
142
1.0
142
0.0
142
0.0
142
0.0
142
0.0
142
1.0
179
     0
144
0.0208333333333333
144
0.0
144
0.0
144
0.0
144
0.0
144
0.0208333333333333
144
0.0
144
0.0
144
0.0
144
0.0
144
1.0
144
0.0
144
0.0
144
0.0
144
0.0
144
1.0
147
0.0208333333333333
147
0.0
147
0.0
147
0.0
147
0.0
147
0.0208333333333333
147
0.0
147
0.0
147
0.0
147
0.0
147
1.0
147
0.0
147
0.0
147
0.0
147
0.0
147
1.0
  0
MLEADERSTYLE
  5
67
102
{ACAD_REACTORS
330
66
102
}
330
66
100
AcDbMLeaderStyle
179
     2
170
     2
171
     1
172
     0
 90
        2
 40
0.0
 41
0.0
173
     1
 91
-1056964608
340
5B
 92
       -2
290
     1
 42
0.09
291
     1
 43
0.36
  3
Standard
 44
0.18
300

342
55
174
     1
178
     6
175
     1
176
     0
 93
-1056964608
 45
0.18
292
     0
297
     0
 46
0.18
 94
-1056964608
 47
1.0
 49
1.0
140
1.0
293
     1
141
0.0
294
     1
177
     0
142
1.0
295
     1
296
     0
143
0.125
271
     0
272
     9
273
     9
298
     1
  0
MLINESTYLE
  5
60
102
{ACAD_REACTORS
330
5F
102
}
330
5F
100
AcDbMlineStyle
  2
STANDARD
 70
     0
  3

 62
   256
 51
90.0
 52
90.0
 71
     2
 49
0.5
 62
   256
  6
BYLAYER
 49
-0.5
 62
   256
  6
BYLAYER
  0
ACDBPLACEHOLDER
  5
F
102
{ACAD_REACTORS
330
E
102
}
330
E
  0
SCALE
  5
43
102
{ACAD_REACTORS
330
42
102
}
330
42
100
AcDbScale
 70
     0
300
1:1
140
1.0
141
1.0
290
     1
  0
SCALE
  5
44
102
{ACAD_REACTORS
330
42
102
}
330
42
100
AcDbScale
 70
     0
300
1/128" = 1'-0"
140
0.0078125
141
12.0
290
     0
  0
SCALE
  5
45
102
{ACAD_REACTORS
330
42
102
}
330
42
100
AcDbScale
 70
     0
300
1/64" = 1'-0"
140
0.015625
141
12.0
290
     0
  0
SCALE
  5
46
102
{ACAD_REACTORS
330
42
102
}
330
42
100
AcDbScale
 70
     0
300
1/32" = 1'-0"
140
0.03125
141
12.0
290
     0
  0
SCALE
  5
47
102
{ACAD_REACTORS
330
42
102
}
330
42
100
AcDbScale
 70
     0
300
1/16" = 1'-0"
140
0.0625
141
12.0
290
     0
  0
SCALE
  5
48
102
{ACAD_REACTORS
330
42
102
}
330
42
100
AcDbScale
 70
     0
300
3/32" = 1'-0"
140
0.09375
141
12.0
290
     0
  0
SCALE
  5
49
102
{ACAD_REACTORS
330
42
102
}
330
42
100
AcDbScale
 70
     0
300
1/8" = 1'-0"
140
0.125
141
12.0
290
     0
  0
SCALE
  5
4A
102
{ACAD_REACTORS
330
42
102
}
330
42
100
AcDbScale
 70
     0
300
3/16" = 1'-0"
140
0.1875
141
12.0
290
     0
  0
SCALE
  5
4B
102
{ACAD_REACTORS
330
42
102
}
330
42
100
AcDbScale
 70
     0
300
1/4" = 1'-0"
140
0.25
141
12.0
290
     0
  0
SCALE
  5
4C
102
{ACAD_REACTORS
330
42
102
}
330
42
100
AcDbScale
 70
     0
300
3/8" = 1'-0"
140
0.375
141
12.0
290
     0
  0
SCALE
  5
4D
102
{ACAD_REACTORS
330
42
102
}
330
42
100
AcDbScale
 70
     0
300
1/2" = 1'-0"
140
0.5
141
12.0
290
     0
  0
SCALE
  5
4E
102
{ACAD_REACTORS
330
42
102
}
330
42
100
AcDbScale
 70
     0
300
3/4" = 1'-0"
140
0.75
141
12.0
290
     0
  0
SCALE
  5
4F
102
{ACAD_REACTORS
330
42
102
}
330
42
100
AcDbScale
 70
     0
300
1" = 1'-0"
140
1.0
141
12.0
290
     0
  0
SCALE
  5
50
102
{ACAD_REACTORS
330
42
102
}
330
42
100
AcDbScale
 70
     0
300
1-1/2" = 1'-0"
140
1.5
141
12.0
290
     0
  0
SCALE
  5
51
102
{ACAD_REACTORS
330
42
102
}
330
42
100
AcDbScale
 70
     0
300
3" = 1'-0"
140
3.0
141
12.0
290
     0
  0
SCALE
  5
52
102
{ACAD_REACTORS
330
42
102
}
330
42
100
AcDbScale
 70
     0
300
6" = 1'-0"
140
6.0
141
12.0
290
     0
  0
SCALE
  5
53
102
{ACAD_REACTORS
330
42
102
}
330
42
100
AcDbScale
 70
     0
300
1'-0" = 1'-0"
140
12.0
141
12.0
290
     0
  0
ACDBSECTIONVIEWSTYLE
  5
69
102
{ACAD_XDICTIONARY
360
11A0
102
}
102
{ACAD_REACTORS
330
68
102
}
330
68
100
AcDbModelDocViewStyle
 70
     0
  3
Imperial24
290
     0
100
AcDbSectionViewStyle
 70
     0
 71
     0
 90
       78
 71
     1
340
55
 62
   256
 40
0.24
340
0
340
0
 62
   256
 40
0.24
300
I, O, Q, S, X, Z
 40
0.48
 90
        3
 40
0.18
 90
        1
 71
     2
340
5D
 90
       25
 62
   256
340
5D
 90
       50
 62
   256
 40
0.24
 40
0.0
 40
0.24
 71
     3
340
55
 62
   256
 40
0.24
 90
        1
 40
0.75
 90
        1
300
%<\AcVar ViewType \f "%tc1">% %<\AcVar ViewSectionStartId>%-%<\AcVar ViewSectionEndId>%\PVARIA %<\AcVar ViewScale \f "%sn">%
 71
     4
 62
   256
 62
   257
300
ANSI31
 40
1.0
 90
        0
290
     0
290
     0
 90
        6
 40
0.0
 40
1.570796326794896
 40
0.2617993877991494
 40
1.308996938995747
 40
-0.2617993877991494
 40
1.832595714594046
  0
TABLESTYLE
  5
65
102
{ACAD_XDICTIONARY
360
119E
102
}
102
{ACAD_REACTORS
330
64
102
}
330
64
100
AcDbTableStyle
280
     0
  3
Standard
 70
     0
 71
     0
 40
0.06
 41
0.06
280
     0
281
     0
  7
Standard
140
0.18
170
     2
 62
     0
 63
     7
283
     0
 90
      512
 91
        0
  1

274
    -2
284
     1
 64
     0
275
    -2
285
     1
 65
     0
276
    -2
286
     1
 66
     0
277
    -2
287
     1
 67
     0
278
    -2
288
     1
 68
     0
279
    -2
289
     1
 69
     0
  7
Standard
140
0.25
170
     5
 62
     0
 63
     7
283
     0
 90
      512
 91
        0
  1

274
    -2
284
     1
 64
     0
275
    -2
285
     1
 65
     0
276
    -2
286
     1
 66
     0
277
    -2
287
     1
 67
     0
278
    -2
288
     1
 68
     0
279
    -2
289
     1
 69
     0
  7
Standard
140
0.18
170
     5
 62
     0
 63
     7
283
     0
 90
      512
 91
        0
  1

274
    -2
284
     1
 64
     0
275
    -2
285
     1
 65
     0
276
    -2
286
     1
 66
     0
277
    -2
287
     1
 67
     0
278
    -2
288
     1
 68
     0
279
    -2
289
     1
 69
     0
  0
VISUALSTYLE
  5
2F
102
{ACAD_REACTORS
330
29
102
}
330
29
100
AcDbVisualStyle
  2
2dWireframe
 70
     4
177
     3
291
     0
 70
    58
 90
        0
176
     1
 90
        2
176
     1
 90
        0
176
     1
 90
        0
176
     1
 40
0.6
176
     1
 40
30.0
176
     1
 62
     7
420
 16777215
176
     1
 90
        1
176
     1
 90
        4
176
     1
 62
     7
176
     1
 62
   257
176
     1
 90
        1
176
     1
 90
        1
176
     1
 40
1.0
176
     1
 90
        0
176
     1
 62
   257
176
     1
 40
1.0
176
     1
 90
        1
176
     1
 90
        6
176
     1
 90
        2
176
     1
 62
     7
176
     1
 90
        5
176
     1
 90
        0
176
     1
 90
        0
176
     1
290
     0
176
     1
 90
        1
176
     1
 40
0.0
176
     1
 90
        0
176
     1
290
     1
176
     1
290
     1
176
     1
290
     0
176
     1
290
     0
176
     1
290
     0
176
     1
290
     0
176
     1
290
     0
176
     1
290
     0
176
     1
290
     0
176
     1
 90
       50
176
     1
 40
0.0
176
     1
 40
1.0
176
     1
 90
        0
176
     1
 62
    18
420
        0
176
     1
 90
       50
176
     1
 90
        3
176
     1
 62
     5
420
      255
176
     1
290
     0
176
     1
 90
       50
176
     1
 90
       50
176
     1
 90
       50
176
     1
290
     0
176
     1
 90
       50
176
     1
 62
   256
176
     0
 40
1.0
176
     0
 90
        2
176
     1
  1
strokes_ogs.tif
176
     1
290
     0
176
     1
 40
1.0
176
     1
 40
1.0
176
     1
  0
VISUALSTYLE
  5
2E
102
{ACAD_REACTORS
330
29
102
}
330
29
100
AcDbVisualStyle
  2
Basic
 70
     7
177
     3
291
     1
 70
    58
 90
        1
176
     1
 90
        0
176
     1
 90
        1
176
     1
 90
        0
176
     1
 40
0.6
176
     1
 40
30.0
176
     1
 62
     7
420
 16777215
176
     1
 90
        0
176
     1
 90
        4
176
     1
 62
     7
176
     1
 62
   257
176
     1
 90
        1
176
     1
 90
        1
176
     1
 40
1.0
176
     1
 90
        8
176
     1
 62
     7
176
     1
 40
1.0
176
     1
 90
        1
176
     1
 90
        6
176
     1
 90
        2
176
     1
 62
     7
176
     1
 90
        5
176
     1
 90
        0
176
     1
 90
        0
176
     1
290
     0
176
     1
 90
        1
176
     1
 40
0.0
176
     1
 90
        0
176
     1
290
     0
176
     1
290
     1
176
     1
290
     1
176
     1
290
     0
176
     1
290
     0
176
     1
290
     0
176
     1
290
     0
176
     1
290
     0
176
     1
290
     0
176
     1
 90
       50
176
     1
 40
0.0
176
     1
 40
1.0
176
     1
 90
        0
176
     1
 62
    18
420
        0
176
     1
 90
       50
176
     1
 90
        3
176
     1
 62
     5
420
      255
176
     1
290
     0
176
     1
 90
       50
176
     1
 90
       50
176
     1
 90
       50
176
     1
290
     0
176
     1
 90
       50
176
     1
 62
   256
176
     0
 40
1.0
176
     0
 90
        2
176
     1
  1
strokes_ogs.tif
176
     1
290
     0
176
     1
 40
1.0
176
     1
 40
1.0
176
     1
  0
VISUALSTYLE
  5
35
102
{ACAD_REACTORS
330
29
102
}
330
29
100
AcDbVisualStyle
  2
Brighten
 70
    12
177
     3
291
     1
 70
    58
 90
        2
176
     1
 90
        2
176
     1
 90
        0
176
     1
 90
        0
176
     1
 40
0.6
176
     1
 40
30.0
176
     1
 62
     7
420
 16777215
176
     1
 90
        1
176
     1
 90
        4
176
     1
 62
     7
176
     1
 62
   257
176
     1
 90
        1
176
     1
 90
        1
176
     1
 40
1.0
176
     1
 90
        8
176
     1
 62
     7
176
     1
 40
1.0
176
     1
 90
        1
176
     1
 90
        6
176
     1
 90
        2
176
     1
 62
     7
176
     1
 90
        5
176
     1
 90
        0
176
     1
 90
        0
176
     1
290
     0
176
     1
 90
        1
176
     1
 40
50.0
176
     1
 90
        0
176
     1
290
     0
176
     1
290
     1
176
     1
290
     1
176
     1
290
     0
176
     1
290
     0
176
     1
290
     0
176
     1
290
     0
176
     1
290
     0
176
     1
290
     0
176
     1
 90
       50
176
     1
 40
0.0
176
     1
 40
1.0
176
     1
 90
        0
176
     1
 62
    18
420
        0
176
     1
 90
       50
176
     1
 90
        3
176
     1
 62
     5
420
      255
176
     1
290
     0
176
     1
 90
       50
176
     1
 90
       50
176
     1
 90
       50
176
     1
290
     0
176
     1
 90
       50
176
     1
 62
   256
176
     0
 40
1.0
176
     0
 90
        2
176
     1
  1
strokes_ogs.tif
176
     1
290
     0
176
     1
 40
1.0
176
     1
 40
1.0
176
     1
  0
VISUALSTYLE
  5
39
102
{ACAD_REACTORS
330
29
102
}
330
29
100
AcDbVisualStyle
  2
ColorChange
 70
    16
177
     3
291
     1
 70
    58
 90
        2
176
     1
 90
        2
176
     1
 90
        3
176
     1
 90
        0
176
     1
 40
0.6
176
     1
 40
30.0
176
     1
 62
     8
420
  8421504
176
     1
 90
        1
176
     1
 90
        4
176
     1
 62
     7
176
     1
 62
   257
176
     1
 90
        1
176
     1
 90
        1
176
     1
 40
1.0
176
     1
 90
        8
176
     1
 62
     8
420
  8421504
176
     1
 40
1.0
176
     1
 90
        1
176
     1
 90
        6
176
     1
 90
        2
176
     1
 62
     7
176
     1
 90
        5
176
     1
 90
        0
176
     1
 90
        0
176
     1
290
     0
176
     1
 90
        1
176
     1
 40
0.0
176
     1
 90
        0
176
     1
290
     0
176
     1
290
     1
176
     1
290
     1
176
     1
290
     0
176
     1
290
     0
176
     1
290
     0
176
     1
290
     0
176
     1
290
     0
176
     1
290
     0
176
     1
 90
       50
176
     1
 40
0.0
176
     1
 40
1.0
176
     1
 90
        0
176
     1
 62
    18
420
        0
176
     1
 90
       50
176
     1
 90
        3
176
     1
 62
     5
420
      255
176
     1
290
     0
176
     1
 90
       50
176
     1
 90
       50
176
     1
 90
       50
176
     1
290
     0
176
     1
 90
       50
176
     1
 62
   256
176
     0
 40
1.0
176
     0
 90
        2
176
     1
  1
strokes_ogs.tif
176
     1
290
     0
176
     1
 40
1.0
176
     1
 40
1.0
176
     1
  0
VISUALSTYLE
  5
32
102
{ACAD_REACTORS
330
29
102
}
330
29
100
AcDbVisualStyle
  2
Conceptual
 70
     9
177
     3
291
     0
 70
    58
 90
        3
176
     1
 90
        2
176
     1
 90
        0
176
     1
 90
        0
176
     1
 40
0.6
176
     1
 40
30.0
176
     1
 62
     7
420
 16777215
176
     1
 90
        2
176
     1
 90
        2
176
     1
 62
     7
176
     1
 62
   257
176
     1
 90
        1
176
     1
 90
        1
176
     1
 40
179.0
176
     1
 90
        8
176
     1
 62
     7
176
     1
 40
1.0
176
     1
 90
        1
176
     1
 90
        6
176
     1
 90
        2
176
     1
 62
     7
176
     1
 90
        3
176
     1
 90
        0
176
     1
 90
        0
176
     1
290
     0
176
     1
 90
        1
176
     1
 40
0.0
176
     1
 90
        0
176
     1
290
     0
176
     1
290
     1
176
     1
290
     1
176
     1
290
     0
176
     1
290
     0
176
     1
290
     0
176
     1
290
     0
176
     1
290
     0
176
     1
290
     0
176
     1
 90
       50
176
     1
 40
0.0
176
     1
 40
1.0
176
     1
 90
        0
176
     1
 62
    18
420
        0
176
     1
 90
       50
176
     1
 90
        3
176
     1
 62
     5
420
      255
176
     1
290
     0
176
     1
 90
       50
176
     1
 90
       50
176
     1
 90
       50
176
     1
290
     0
176
     1
 90
       50
176
     1
 62
   256
176
     0
 40
1.0
176
     0
 90
        2
176
     1
  1
strokes_ogs.tif
176
     1
290
     0
176
     1
 40
1.0
176
     1
 40
1.0
176
     1
  0
VISUALSTYLE
  5
34
102
{ACAD_REACTORS
330
29
102
}
330
29
100
AcDbVisualStyle
  2
Dim
 70
    11
177
     3
291
     1
 70
    58
 90
        2
176
     1
 90
        2
176
     1
 90
        0
176
     1
 90
        0
176
     1
 40
0.6
176
     1
 40
30.0
176
     1
 62
     7
420
 16777215
176
     1
 90
        1
176
     1
 90
        4
176
     1
 62
     7
176
     1
 62
   257
176
     1
 90
        1
176
     1
 90
        1
176
     1
 40
1.0
176
     1
 90
        8
176
     1
 62
     7
176
     1
 40
1.0
176
     1
 90
        1
176
     1
 90
        6
176
     1
 90
        2
176
     1
 62
     7
176
     1
 90
        5
176
     1
 90
        0
176
     1
 90
        0
176
     1
290
     0
176
     1
 90
        1
176
     1
 40
-50.0
176
     1
 90
        0
176
     1
290
     0
176
     1
290
     1
176
     1
290
     1
176
     1
290
     0
176
     1
290
     0
176
     1
290
     0
176
     1
290
     0
176
     1
290
     0
176
     1
290
     0
176
     1
 90
       50
176
     1
 40
0.0
176
     1
 40
1.0
176
     1
 90
        0
176
     1
 62
    18
420
        0
176
     1
 90
       50
176
     1
 90
        3
176
     1
 62
     5
420
      255
176
     1
290
     0
176
     1
 90
       50
176
     1
 90
       50
176
     1
 90
       50
176
     1
290
     0
176
     1
 90
       50
176
     1
 62
   256
176
     0
 40
1.0
176
     0
 90
        2
176
     1
  1
strokes_ogs.tif
176
     1
290
     0
176
     1
 40
1.0
176
     1
 40
1.0
176
     1
  0
VISUALSTYLE
  5
41
102
{ACAD_REACTORS
330
29
102
}
330
29
100
AcDbVisualStyle
  2
EdgeColorOff
 70
    22
177
     3
291
     1
 70
    58
 90
        2
176
     0
 90
        2
176
     0
 90
        0
176
     0
 90
        0
176
     0
 40
0.6
176
     0
 40
30.0
176
     0
 62
     7
420
 16777215
176
     0
 90
        1
176
     0
 90
        4
176
     0
 62
     7
176
     0
 62
   257
176
     0
 90
        1
176
     0
 90
        1
176
     0
 40
1.0
176
     0
 90
        8
176
     2
 62
     7
176
     0
 40
1.0
176
     0
 90
        1
176
     0
 90
        6
176
     0
 90
        2
176
     0
 62
     7
176
     0
 90
        5
176
     0
 90
        0
176
     0
 90
        0
176
     0
290
     0
176
     0
 90
        1
176
     0
 40
0.0
176
     0
 90
        0
176
     0
290
     0
176
     0
290
     1
176
     0
290
     1
176
     0
290
     0
176
     0
290
     0
176
     0
290
     0
176
     0
290
     0
176
     0
290
     0
176
     0
290
     0
176
     0
 90
       50
176
     0
 40
0.0
176
     0
 40
1.0
176
     0
 90
        0
176
     0
 62
    18
420
        0
176
     0
 90
       50
176
     0
 90
        3
176
     0
 62
     5
420
      255
176
     0
290
     0
176
     0
 90
       50
176
     0
 90
       50
176
     0
 90
       50
176
     0
290
     0
176
     0
 90
       50
176
     0
 62
   256
176
     0
 40
1.0
176
     0
 90
        2
176
     0
  1
strokes_ogs.tif
176
     0
290
     0
176
     0
 40
1.0
176
     0
 40
1.0
176
     0
  0
VISUALSTYLE
  5
38
102
{ACAD_REACTORS
330
29
102
}
330
29
100
AcDbVisualStyle
  2
Facepattern
 70
    15
177
     3
291
     1
 70
    58
 90
        2
176
     1
 90
        2
176
     1
 90
        0
176
     1
 90
        0
176
     1
 40
0.6
176
     1
 40
30.0
176
     1
 62
     7
420
 16777215
176
     1
 90
        1
176
     1
 90
        4
176
     1
 62
     7
176
     1
 62
   257
176
     1
 90
        1
176
     1
 90
        1
176
     1
 40
1.0
176
     1
 90
        8
176
     1
 62
     7
176
     1
 40
1.0
176
     1
 90
        1
176
     1
 90
        6
176
     1
 90
        2
176
     1
 62
     7
176
     1
 90
        5
176
     1
 90
        0
176
     1
 90
        0
176
     1
290
     0
176
     1
 90
        1
176
     1
 40
0.0
176
     1
 90
        0
176
     1
290
     0
176
     1
290
     1
176
     1
290
     1
176
     1
290
     0
176
     1
290
     0
176
     1
290
     0
176
     1
290
     0
176
     1
290
     0
176
     1
290
     0
176
     1
 90
       50
176
     1
 40
0.0
176
     1
 40
1.0
176
     1
 90
        0
176
     1
 62
    18
420
        0
176
     1
 90
       50
176
     1
 90
        3
176
     1
 62
     5
420
      255
176
     1
290
     0
176
     1
 90
       50
176
     1
 90
       50
176
     1
 90
       50
176
     1
290
     0
176
     1
 90
       50
176
     1
 62
   256
176
     0
 40
1.0
176
     0
 90
        2
176
     1
  1
strokes_ogs.tif
176
     1
290
     0
176
     1
 40
1.0
176
     1
 40
1.0
176
     1
  0
VISUALSTYLE
  5
2A
102
{ACAD_REACTORS
330
29
102
}
330
29
100
AcDbVisualStyle
  2
Flat
 70
     0
177
     3
291
     1
 70
    58
 90
        2
176
     1
 90
        1
176
     1
 90
        1
176
     1
 90
        2
176
     1
 40
0.6
176
     1
 40
30.0
176
     1
 62
     7
420
 16777215
176
     1
 90
        0
176
     1
 90
        0
176
     1
 62
     7
176
     1
 62
   257
176
     1
 90
        1
176
     1
 90
        1
176
     1
 40
1.0
176
     1
 90
        8
176
     1
 62
     7
176
     1
 40
1.0
176
     1
 90
        1
176
     1
 90
        6
176
     1
 90
        2
176
     1
 62
     7
176
     1
 90
        5
176
     1
 90
        0
176
     1
 90
        0
176
     1
290
     0
176
     1
 90
       13
176
     1
 40
0.0
176
     1
 90
        0
176
     1
290
     0
176
     1
290
     1
176
     1
290
     1
176
     1
290
     0
176
     1
290
     0
176
     1
290
     0
176
     1
290
     0
176
     1
290
     0
176
     1
290
     0
176
     1
 90
       50
176
     1
 40
0.0
176
     1
 40
1.0
176
     1
 90
        0
176
     1
 62
    18
420
        0
176
     1
 90
       50
176
     1
 90
        3
176
     1
 62
     5
420
      255
176
     1
290
     0
176
     1
 90
       50
176
     1
 90
       50
176
     1
 90
       50
176
     1
290
     0
176
     1
 90
       50
176
     1
 62
   256
176
     0
 40
1.0
176
     0
 90
        2
176
     1
  1
strokes_ogs.tif
176
     1
290
     0
176
     1
 40
1.0
176
     1
 40
1.0
176
     1
  0
VISUALSTYLE
  5
2B
102
{ACAD_REACTORS
330
29
102
}
330
29
100
AcDbVisualStyle
  2
FlatWithEdges
 70
     1
177
     3
291
     1
 70
    58
 90
        2
176
     1
 90
        1
176
     1
 90
        1
176
     1
 90
        2
176
     1
 40
0.6
176
     1
 40
30.0
176
     1
 62
     7
420
 16777215
176
     1
 90
        1
176
     1
 90
        0
176
     1
 62
     7
176
     1
 62
   257
176
     1
 90
        1
176
     1
 90
        1
176
     1
 40
1.0
176
     1
 90
        0
176
     1
 62
   257
176
     1
 40
1.0
176
     1
 90
        1
176
     1
 90
        6
176
     1
 90
        2
176
     1
 62
     7
176
     1
 90
        5
176
     1
 90
        0
176
     1
 90
        0
176
     1
290
     0
176
     1
 90
       13
176
     1
 40
0.0
176
     1
 90
        0
176
     1
290
     0
176
     1
290
     1
176
     1
290
     1
176
     1
290
     0
176
     1
290
     0
176
     1
290
     0
176
     1
290
     0
176
     1
290
     0
176
     1
290
     0
176
     1
 90
       50
176
     1
 40
0.0
176
     1
 40
1.0
176
     1
 90
        0
176
     1
 62
    18
420
        0
176
     1
 90
       50
176
     1
 90
        3
176
     1
 62
     5
420
      255
176
     1
290
     0
176
     1
 90
       50
176
     1
 90
       50
176
     1
 90
       50
176
     1
290
     0
176
     1
 90
       50
176
     1
 62
   256
176
     0
 40
1.0
176
     0
 90
        2
176
     1
  1
strokes_ogs.tif
176
     1
290
     0
176
     1
 40
1.0
176
     1
 40
1.0
176
     1
  0
VISUALSTYLE
  5
2C
102
{ACAD_REACTORS
330
29
102
}
330
29
100
AcDbVisualStyle
  2
Gouraud
 70
     2
177
     3
291
     1
 70
    58
 90
        2
176
     1
 90
        2
176
     1
 90
        1
176
     1
 90
        2
176
     1
 40
0.6
176
     1
 40
30.0
176
     1
 62
     7
420
 16777215
176
     1
 90
        0
176
     1
 90
        0
176
     1
 62
     7
176
     1
 62
   257
176
     1
 90
        1
176
     1
 90
        1
176
     1
 40
1.0
176
     1
 90
        0
176
     1
 62
     7
176
     1
 40
1.0
176
     1
 90
        1
176
     1
 90
        6
176
     1
 90
        2
176
     1
 62
     7
176
     1
 90
        5
176
     1
 90
        0
176
     1
 90
        0
176
     1
290
     0
176
     1
 90
       13
176
     1
 40
0.0
176
     1
 90
        0
176
     1
290
     0
176
     1
290
     1
176
     1
290
     1
176
     1
290
     0
176
     1
290
     0
176
     1
290
     0
176
     1
290
     0
176
     1
290
     0
176
     1
290
     0
176
     1
 90
       50
176
     1
 40
0.0
176
     1
 40
1.0
176
     1
 90
        0
176
     1
 62
    18
420
        0
176
     1
 90
       50
176
     1
 90
        3
176
     1
 62
     5
420
      255
176
     1
290
     0
176
     1
 90
       50
176
     1
 90
       50
176
     1
 90
       50
176
     1
290
     0
176
     1
 90
       50
176
     1
 62
   256
176
     0
 40
1.0
176
     0
 90
        2
176
     1
  1
strokes_ogs.tif
176
     1
290
     0
176
     1
 40
1.0
176
     1
 40
1.0
176
     1
  0
VISUALSTYLE
  5
2D
102
{ACAD_REACTORS
330
29
102
}
330
29
100
AcDbVisualStyle
  2
GouraudWithEdges
 70
     3
177
     3
291
     1
 70
    58
 90
        2
176
     1
 90
        2
176
     1
 90
        1
176
     1
 90
        2
176
     1
 40
0.6
176
     1
 40
30.0
176
     1
 62
     7
420
 16777215
176
     1
 90
        1
176
     1
 90
        0
176
     1
 62
     7
176
     1
 62
   257
176
     1
 90
        1
176
     1
 90
        1
176
     1
 40
1.0
176
     1
 90
        0
176
     1
 62
   257
176
     1
 40
1.0
176
     1
 90
        1
176
     1
 90
        6
176
     1
 90
        2
176
     1
 62
     7
176
     1
 90
        5
176
     1
 90
        0
176
     1
 90
        0
176
     1
290
     0
176
     1
 90
       13
176
     1
 40
0.0
176
     1
 90
        0
176
     1
290
     0
176
     1
290
     1
176
     1
290
     1
176
     1
290
     0
176
     1
290
     0
176
     1
290
     0
176
     1
290
     0
176
     1
290
     0
176
     1
290
     0
176
     1
 90
       50
176
     1
 40
0.0
176
     1
 40
1.0
176
     1
 90
        0
176
     1
 62
    18
420
        0
176
     1
 90
       50
176
     1
 90
        3
176
     1
 62
     5
420
      255
176
     1
290
     0
176
     1
 90
       50
176
     1
 90
       50
176
     1
 90
       50
176
     1
290
     0
176
     1
 90
       50
176
     1
 62
   256
176
     0
 40
1.0
176
     0
 90
        2
176
     1
  1
strokes_ogs.tif
176
     1
290
     0
176
     1
 40
1.0
176
     1
 40
1.0
176
     1
  0
VISUALSTYLE
  5
31
102
{ACAD_REACTORS
330
29
102
}
330
29
100
AcDbVisualStyle
  2
Hidden
 70
     6
177
     3
291
     0
 70
    58
 90
        1
176
     1
 90
        2
176
     1
 90
        2
176
     1
 90
        0
176
     1
 40
0.6
176
     1
 40
30.0
176
     1
 62
     7
420
 16777215
176
     1
 90
        2
176
     1
 90
        2
176
     1
 62
     7
176
     1
 62
   257
176
     1
 90
        2
176
     1
 90
        1
176
     1
 40
40.0
176
     1
 90
        0
176
     1
 62
   257
176
     1
 40
1.0
176
     1
 90
        1
176
     1
 90
        6
176
     1
 90
        2
176
     1
 62
     7
176
     1
 90
        3
176
     1
 90
        0
176
     1
 90
        0
176
     1
290
     0
176
     1
 90
        1
176
     1
 40
0.0
176
     1
 90
        0
176
     1
290
     0
176
     1
290
     1
176
     1
290
     1
176
     1
290
     0
176
     1
290
     0
176
     1
290
     0
176
     1
290
     0
176
     1
290
     0
176
     1
290
     0
176
     1
 90
       50
176
     1
 40
0.0
176
     1
 40
1.0
176
     1
 90
        0
176
     1
 62
    18
420
        0
176
     1
 90
       50
176
     1
 90
        3
176
     1
 62
     5
420
      255
176
     1
290
     0
176
     1
 90
       50
176
     1
 90
       50
176
     1
 90
       50
176
     1
290
     0
176
     1
 90
       50
176
     1
 62
   256
176
     0
 40
1.0
176
     0
 90
        2
176
     1
  1
strokes_ogs.tif
176
     1
290
     0
176
     1
 40
1.0
176
     1
 40
1.0
176
     1
  0
VISUALSTYLE
  5
3F
102
{ACAD_REACTORS
330
29
102
}
330
29
100
AcDbVisualStyle
  2
JitterOff
 70
    20
177
     3
291
     1
 70
    58
 90
        2
176
     0
 90
        2
176
     0
 90
        0
176
     0
 90
        0
176
     0
 40
0.6
176
     0
 40
30.0
176
     0
 62
     7
420
 16777215
176
     0
 90
        1
176
     0
 90
        4
176
     0
 62
     7
176
     0
 62
   257
176
     0
 90
        1
176
     0
 90
        1
176
     0
 40
1.0
176
     0
 90
       10
176
     2
 62
     7
176
     0
 40
1.0
176
     0
 90
        1
176
     0
 90
        6
176
     0
 90
        2
176
     0
 62
     7
176
     0
 90
        5
176
     0
 90
        0
176
     0
 90
        0
176
     0
290
     0
176
     0
 90
        1
176
     0
 40
0.0
176
     0
 90
        0
176
     0
290
     0
176
     0
290
     1
176
     0
290
     1
176
     0
290
     0
176
     0
290
     0
176
     0
290
     0
176
     0
290
     0
176
     0
290
     0
176
     0
290
     0
176
     0
 90
       50
176
     0
 40
0.0
176
     0
 40
1.0
176
     0
 90
        0
176
     0
 62
    18
420
        0
176
     0
 90
       50
176
     0
 90
        3
176
     0
 62
     5
420
      255
176
     0
290
     0
176
     0
 90
       50
176
     0
 90
       50
176
     0
 90
       50
176
     0
290
     0
176
     0
 90
       50
176
     0
 62
   256
176
     0
 40
1.0
176
     0
 90
        2
176
     0
  1
strokes_ogs.tif
176
     0
290
     0
176
     0
 40
1.0
176
     0
 40
1.0
176
     0
  0
VISUALSTYLE
  5
37
102
{ACAD_REACTORS
330
29
102
}
330
29
100
AcDbVisualStyle
  2
Linepattern
 70
    14
177
     3
291
     1
 70
    58
 90
        2
176
     1
 90
        2
176
     1
 90
        0
176
     1
 90
        0
176
     1
 40
0.6
176
     1
 40
30.0
176
     1
 62
     7
420
 16777215
176
     1
 90
        1
176
     1
 90
        4
176
     1
 62
     7
176
     1
 62
   257
176
     1
 90
        7
176
     1
 90
        7
176
     1
 40
1.0
176
     1
 90
        8
176
     1
 62
     7
176
     1
 40
1.0
176
     1
 90
        1
176
     1
 90
        6
176
     1
 90
        2
176
     1
 62
     7
176
     1
 90
        5
176
     1
 90
        0
176
     1
 90
        0
176
     1
290
     0
176
     1
 90
        1
176
     1
 40
0.0
176
     1
 90
        0
176
     1
290
     0
176
     1
290
     1
176
     1
290
     1
176
     1
290
     0
176
     1
290
     0
176
     1
290
     0
176
     1
290
     0
176
     1
290
     0
176
     1
290
     0
176
     1
 90
       50
176
     1
 40
0.0
176
     1
 40
1.0
176
     1
 90
        0
176
     1
 62
    18
420
        0
176
     1
 90
       50
176
     1
 90
        3
176
     1
 62
     5
420
      255
176
     1
290
     0
176
     1
 90
       50
176
     1
 90
       50
176
     1
 90
       50
176
     1
290
     0
176
     1
 90
       50
176
     1
 62
   256
176
     0
 40
1.0
176
     0
 90
        2
176
     1
  1
strokes_ogs.tif
176
     1
290
     0
176
     1
 40
1.0
176
     1
 40
1.0
176
     1
  0
VISUALSTYLE
  5
40
102
{ACAD_REACTORS
330
29
102
}
330
29
100
AcDbVisualStyle
  2
OverhangOff
 70
    21
177
     3
291
     1
 70
    58
 90
        2
176
     0
 90
        2
176
     0
 90
        0
176
     0
 90
        0
176
     0
 40
0.6
176
     0
 40
30.0
176
     0
 62
     7
420
 16777215
176
     0
 90
        1
176
     0
 90
        4
176
     0
 62
     7
176
     0
 62
   257
176
     0
 90
        1
176
     0
 90
        1
176
     0
 40
1.0
176
     0
 90
        9
176
     2
 62
     7
176
     0
 40
1.0
176
     0
 90
        1
176
     0
 90
        6
176
     0
 90
        2
176
     0
 62
     7
176
     0
 90
        5
176
     0
 90
        0
176
     0
 90
        0
176
     0
290
     0
176
     0
 90
        1
176
     0
 40
0.0
176
     0
 90
        0
176
     0
290
     0
176
     0
290
     1
176
     0
290
     1
176
     0
290
     0
176
     0
290
     0
176
     0
290
     0
176
     0
290
     0
176
     0
290
     0
176
     0
290
     0
176
     0
 90
       50
176
     0
 40
0.0
176
     0
 40
1.0
176
     0
 90
        0
176
     0
 62
    18
420
        0
176
     0
 90
       50
176
     0
 90
        3
176
     0
 62
     5
420
      255
176
     0
290
     0
176
     0
 90
       50
176
     0
 90
       50
176
     0
 90
       50
176
     0
290
     0
176
     0
 90
       50
176
     0
 62
   256
176
     0
 40
1.0
176
     0
 90
        2
176
     0
  1
strokes_ogs.tif
176
     0
290
     0
176
     0
 40
1.0
176
     0
 40
1.0
176
     0
  0
VISUALSTYLE
  5
33
102
{ACAD_REACTORS
330
29
102
}
330
29
100
AcDbVisualStyle
  2
Realistic
 70
     8
177
     3
291
     0
 70
    58
 90
        2
176
     1
 90
        3
176
     1
 90
        0
176
     1
 90
        2
176
     1
 40
0.6
176
     1
 40
30.0
176
     1
 62
     7
420
 16777215
176
     1
 90
        0
176
     1
 90
        0
176
     1
 62
     7
176
     1
 62
   257
176
     1
 90
        1
176
     1
 90
        1
176
     1
 40
1.0
176
     1
 90
        8
176
     1
 62
   257
176
     1
 40
1.0
176
     1
 90
        1
176
     1
 90
        6
176
     1
 90
        2
176
     1
 62
     7
176
     1
 90
        3
176
     1
 90
        0
176
     1
 90
        0
176
     1
290
     0
176
     1
 90
       13
176
     1
 40
0.0
176
     1
 90
        0
176
     1
290
     0
176
     1
290
     1
176
     1
290
     1
176
     1
290
     0
176
     1
290
     0
176
     1
290
     0
176
     1
290
     0
176
     1
290
     0
176
     1
290
     0
176
     1
 90
       50
176
     1
 40
0.0
176
     1
 40
1.0
176
     1
 90
        0
176
     1
 62
    18
420
        0
176
     1
 90
       50
176
     1
 90
        3
176
     1
 62
     5
420
      255
176
     1
290
     0
176
     1
 90
       50
176
     1
 90
       50
176
     1
 90
       50
176
     1
290
     0
176
     1
 90
       50
176
     1
 62
   256
176
     0
 40
1.0
176
     0
 90
        2
176
     1
  1
strokes_ogs.tif
176
     1
290
     0
176
     1
 40
1.0
176
     1
 40
1.0
176
     1
  0
VISUALSTYLE
  5
3E
102
{ACAD_REACTORS
330
29
102
}
330
29
100
AcDbVisualStyle
  2
Shaded
 70
    27
177
     3
291
     0
 70
    58
 90
        2
176
     1
 90
        2
176
     1
 90
        1
176
     1
 90
        2
176
     1
 40
0.6
176
     1
 40
30.0
176
     1
 62
     7
420
 16777215
176
     1
 90
        0
176
     1
 90
        4
176
     1
 62
     7
176
     1
 62
   257
176
     1
 90
        1
176
     1
 90
        1
176
     1
 40
1.0
176
     1
 90
        8
176
     1
 62
   257
176
     1
 40
1.0
176
     1
 90
        1
176
     1
 90
        6
176
     1
 90
        2
176
     1
 62
     8
420
  7895160
176
     1
 90
        3
176
     1
 90
        0
176
     1
 90
        0
176
     1
290
     0
176
     1
 90
        5
176
     1
 40
0.0
176
     1
 90
        0
176
     1
290
     0
176
     1
290
     1
176
     1
290
     1
176
     1
290
     0
176
     1
290
     0
176
     1
290
     0
176
     1
290
     0
176
     1
290
     0
176
     1
290
     0
176
     1
 90
       50
176
     1
 40
0.0
176
     1
 40
1.0
176
     1
 90
        0
176
     1
 62
    18
420
        0
176
     1
 90
       50
176
     1
 90
        3
176
     1
 62
     5
420
      255
176
     1
290
     0
176
     1
 90
       50
176
     1
 90
       50
176
     1
 90
       50
176
     1
290
     0
176
     1
 90
       50
176
     1
 62
   256
176
     0
 40
1.0
176
     0
 90
        2
176
     1
  1
strokes_ogs.tif
176
     1
290
     0
176
     1
 40
1.0
176
     1
 40
1.0
176
     1
  0
VISUALSTYLE
  5
3D
102
{ACAD_REACTORS
330
29
102
}
330
29
100
AcDbVisualStyle
  2
Shaded with edges
 70
    26
177
     3
291
     0
 70
    58
 90
        2
176
     1
 90
        2
176
     1
 90
        1
176
     1
 90
        2
176
     1
 40
0.6
176
     1
 40
30.0
176
     1
 62
     7
420
 16777215
176
     1
 90
        1
176
     1
 90
        2
176
     1
 62
     7
176
     1
 62
   257
176
     1
 90
        2
176
     1
 90
        1
176
     1
 40
1.0
176
     1
 90
        8
176
     1
 62
   257
176
     1
 40
1.0
176
     1
 90
        1
176
     1
 90
        6
176
     1
 90
        2
176
     1
 62
     7
176
     1
 90
        3
176
     1
 90
        0
176
     1
 90
        0
176
     1
290
     0
176
     1
 90
        5
176
     1
 40
0.0
176
     1
 90
        0
176
     1
290
     0
176
     1
290
     1
176
     1
290
     1
176
     1
290
     0
176
     1
290
     0
176
     1
290
     0
176
     1
290
     0
176
     1
290
     0
176
     1
290
     0
176
     1
 90
       50
176
     1
 40
0.0
176
     1
 40
1.0
176
     1
 90
        0
176
     1
 62
    18
420
        0
176
     1
 90
       50
176
     1
 90
        3
176
     1
 62
     5
420
      255
176
     1
290
     0
176
     1
 90
       50
176
     1
 90
       50
176
     1
 90
       50
176
     1
290
     0
176
     1
 90
       50
176
     1
 62
   256
176
     0
 40
1.0
176
     0
 90
        2
176
     1
  1
strokes_ogs.tif
176
     1
290
     0
176
     1
 40
1.0
176
     1
 40
1.0
176
     1
  0
VISUALSTYLE
  5
3A
102
{ACAD_REACTORS
330
29
102
}
330
29
100
AcDbVisualStyle
  2
Shades of Gray
 70
    23
177
     3
291
     0
 70
    58
 90
        2
176
     1
 90
        2
176
     1
 90
        3
176
     1
 90
        0
176
     1
 40
0.6
176
     1
 40
30.0
176
     1
 62
     7
420
 16777215
176
     1
 90
        2
176
     1
 90
        2
176
     1
 62
     7
176
     1
 62
     7
176
     1
 90
        1
176
     1
 90
        1
176
     1
 40
40.0
176
     1
 90
        8
176
     1
 62
     7
176
     1
 40
1.0
176
     1
 90
        1
176
     1
 90
        6
176
     1
 90
        2
176
     1
 62
     7
176
     1
 90
        3
176
     1
 90
        0
176
     1
 90
        0
176
     1
290
     0
176
     1
 90
        1
176
     1
 40
0.0
176
     1
 90
        0
176
     1
290
     0
176
     1
290
     1
176
     1
290
     1
176
     1
290
     0
176
     1
290
     0
176
     1
290
     0
176
     1
290
     0
176
     1
290
     0
176
     1
290
     0
176
     1
 90
       50
176
     1
 40
0.0
176
     1
 40
1.0
176
     1
 90
        0
176
     1
 62
    18
420
        0
176
     1
 90
       50
176
     1
 90
        3
176
     1
 62
     5
420
      255
176
     1
290
     0
176
     1
 90
       50
176
     1
 90
       50
176
     1
 90
       50
176
     1
290
     0
176
     1
 90
       50
176
     1
 62
   256
176
     0
 40
1.0
176
     0
 90
        2
176
     1
  1
strokes_ogs.tif
176
     1
290
     0
176
     1
 40
1.0
176
     1
 40
1.0
176
     1
  0
VISUALSTYLE
  5
3B
102
{ACAD_REACTORS
330
29
102
}
330
29
100
AcDbVisualStyle
  2
Sketchy
 70
    24
177
     3
291
     0
 70
    58
 90
        1
176
     1
 90
        2
176
     1
 90
        2
176
     1
 90
        0
176
     1
 40
0.6
176
     1
 40
30.0
176
     1
 62
     7
420
 16777215
176
     1
 90
        2
176
     1
 90
        2
176
     1
 62
     7
176
     1
 62
     7
176
     1
 90
        1
176
     1
 90
        1
176
     1
 40
40.0
176
     1
 90
       11
176
     1
 62
     7
176
     1
 40
1.0
176
     1
 90
        1
176
     1
 90
        6
176
     1
 90
        2
176
     1
 62
     7
176
     1
 90
        6
176
     1
 90
        0
176
     1
 90
        0
176
     1
290
     0
176
     1
 90
        1
176
     1
 40
0.0
176
     1
 90
        0
176
     1
290
     0
176
     1
290
     1
176
     1
290
     1
176
     1
290
     0
176
     1
290
     0
176
     1
290
     0
176
     1
290
     0
176
     1
290
     0
176
     1
290
     0
176
     1
 90
       50
176
     1
 40
0.0
176
     1
 40
1.0
176
     1
 90
        0
176
     1
 62
    18
420
        0
176
     1
 90
       50
176
     1
 90
        3
176
     1
 62
     5
420
      255
176
     1
290
     0
176
     1
 90
       50
176
     1
 90
       50
176
     1
 90
       50
176
     1
290
     0
176
     1
 90
       50
176
     1
 62
   256
176
     0
 40
1.0
176
     0
 90
        2
176
     1
  1
strokes_ogs.tif
176
     1
290
     0
176
     1
 40
1.0
176
     1
 40
1.0
176
     1
  0
VISUALSTYLE
  5
36
102
{ACAD_REACTORS
330
29
102
}
330
29
100
AcDbVisualStyle
  2
Thicken
 70
    13
177
     3
291
     1
 70
    58
 90
        2
176
     1
 90
        2
176
     1
 90
        0
176
     1
 90
        0
176
     1
 40
0.6
176
     1
 40
30.0
176
     1
 62
     7
420
 16777215
176
     1
 90
        1
176
     1
 90
        4
176
     1
 62
     7
176
     1
 62
   257
176
     1
 90
        1
176
     1
 90
        1
176
     1
 40
1.0
176
     1
 90
       12
176
     1
 62
     7
176
     1
 40
1.0
176
     1
 90
        1
176
     1
 90
        6
176
     1
 90
        2
176
     1
 62
     7
176
     1
 90
        5
176
     1
 90
        0
176
     1
 90
        0
176
     1
290
     0
176
     1
 90
        1
176
     1
 40
0.0
176
     1
 90
        0
176
     1
290
     0
176
     1
290
     1
176
     1
290
     1
176
     1
290
     0
176
     1
290
     0
176
     1
290
     0
176
     1
290
     0
176
     1
290
     0
176
     1
290
     0
176
     1
 90
       50
176
     1
 40
0.0
176
     1
 40
1.0
176
     1
 90
        0
176
     1
 62
    18
420
        0
176
     1
 90
       50
176
     1
 90
        3
176
     1
 62
     5
420
      255
176
     1
290
     0
176
     1
 90
       50
176
     1
 90
       50
176
     1
 90
       50
176
     1
290
     0
176
     1
 90
       50
176
     1
 62
   256
176
     0
 40
1.0
176
     0
 90
        2
176
     1
  1
strokes_ogs.tif
176
     1
290
     0
176
     1
 40
1.0
176
     1
 40
1.0
176
     1
  0
VISUALSTYLE
  5
30
102
{ACAD_REACTORS
330
29
102
}
330
29
100
AcDbVisualStyle
  2
Wireframe
 70
     5
177
     3
291
     0
 70
    58
 90
        0
176
     1
 90
        2
176
     1
 90
        0
176
     1
 90
        0
176
     1
 40
0.6
176
     1
 40
30.0
176
     1
 62
     7
420
 16777215
176
     1
 90
        1
176
     1
 90
        4
176
     1
 62
     7
176
     1
 62
   257
176
     1
 90
        1
176
     1
 90
        1
176
     1
 40
1.0
176
     1
 90
        0
176
     1
 62
   257
176
     1
 40
1.0
176
     1
 90
        1
176
     1
 90
        6
176
     1
 90
        2
176
     1
 62
     7
176
     1
 90
        3
176
     1
 90
        0
176
     1
 90
        0
176
     1
290
     0
176
     1
 90
        1
176
     1
 40
0.0
176
     1
 90
        0
176
     1
290
     0
176
     1
290
     1
176
     1
290
     1
176
     1
290
     0
176
     1
290
     0
176
     1
290
     0
176
     1
290
     0
176
     1
290
     0
176
     1
290
     0
176
     1
 90
       50
176
     1
 40
0.0
176
     1
 40
1.0
176
     1
 90
        0
176
     1
 62
    18
420
        0
176
     1
 90
       50
176
     1
 90
        3
176
     1
 62
     5
420
      255
176
     1
290
     0
176
     1
 90
       50
176
     1
 90
       50
176
     1
 90
       50
176
     1
290
     0
176
     1
 90
       50
176
     1
 62
   256
176
     0
 40
1.0
176
     0
 90
        2
176
     1
  1
strokes_ogs.tif
176
     1
290
     0
176
     1
 40
1.0
176
     1
 40
1.0
176
     1
  0
VISUALSTYLE
  5
3C
102
{ACAD_REACTORS
330
29
102
}
330
29
100
AcDbVisualStyle
  2
X-Ray
 70
    25
177
     3
291
     0
 70
    58
 90
        2
176
     1
 90
        2
176
     1
 90
        1
176
     1
 90
        1
176
     1
 40
0.5
176
     1
 40
30.0
176
     1
 62
     7
420
 16777215
176
     1
 90
        1
176
     1
 90
        0
176
     1
 62
     7
176
     1
 62
   257
176
     1
 90
        1
176
     1
 90
        1
176
     1
 40
1.0
176
     1
 90
        8
176
     1
 62
     7
176
     1
 40
1.0
176
     1
 90
        1
176
     1
 90
        6
176
     1
 90
        2
176
     1
 62
     7
176
     1
 90
        3
176
     1
 90
        0
176
     1
 90
        0
176
     1
290
     0
176
     1
 90
       13
176
     1
 40
0.0
176
     1
 90
        0
176
     1
290
     0
176
     1
290
     1
176
     1
290
     1
176
     1
290
     0
176
     1
290
     0
176
     1
290
     0
176
     1
290
     0
176
     1
290
     0
176
     1
290
     0
176
     1
 90
       50
176
     1
 40
0.0
176
     1
 40
1.0
176
     1
 90
        0
176
     1
 62
    18
420
        0
176
     1
 90
       50
176
     1
 90
        3
176
     1
 62
     5
420
      255
176
     1
290
     0
176
     1
 90
       50
176
     1
 90
       50
176
     1
 90
       50
176
     1
290
     0
176
     1
 90
       50
176
     1
 62
   256
176
     0
 40
1.0
176
     0
 90
        2
176
     1
  1
strokes_ogs.tif
176
     1
290
     0
176
     1
 40
1.0
176
     1
 40
1.0
176
     1
  0
DICTIONARYVAR
  5
119D
102
{ACAD_REACTORS
330
1198
102
}
330
1198
100
DictionaryVariables
280
     0
  1
1:1
  0
DICTIONARYVAR
  5
119A
102
{ACAD_REACTORS
330
1198
102
}
330
1198
100
DictionaryVariables
280
     0
  1
STANDARD
  0
DICTIONARYVAR
  5
1199
102
{ACAD_REACTORS
330
1198
102
}
330
1198
100
DictionaryVariables
280
     0
  1
STANDARD
  0
DICTIONARYVAR
  5
119B
102
{ACAD_REACTORS
330
1198
102
}
330
1198
100
DictionaryVariables
280
     0
  1
Imperial24
  0
DICTIONARYVAR
  5
119C
102
{ACAD_REACTORS
330
1198
102
}
330
1198
100
DictionaryVariables
280
     0
  1
Imperial24
  0
DICTIONARY
  5
11A2
330
6B
100
AcDbDictionary
280
     1
281
     1
  3
ACAD_XREC_ROUNDTRIP
360
11A3
  0
DICTIONARY
  5
1A
330
19
100
AcDbDictionary
280
     1
281
     1
  3
BUMPTILE
360
1C
  3
DIFFUSETILE
360
1B
  3
OPACITYTILE
360
1F
  3
REFLECTIONTILE
360
1E
  3
REFRACTIONTILE
360
20
  3
SPECULARTILE
360
1D
  0
DICTIONARY
  5
12
330
11
100
AcDbDictionary
280
     1
281
     1
  3
BUMPTILE
360
14
  3
DIFFUSETILE
360
13
  3
FBXASSET
360
DF
  3
OPACITYTILE
360
17
  3
REFLECTIONTILE
360
16
  3
REFRACTIONTILE
360
18
  3
SPECULARTILE
360
15
  0
DICTIONARY
  5
22
330
21
100
AcDbDictionary
280
     1
281
     1
  3
BUMPTILE
360
24
  3
DIFFUSETILE
360
23
  3
OPACITYTILE
360
27
  3
REFLECTIONTILE
360
26
  3
REFRACTIONTILE
360
28
  3
SPECULARTILE
360
25
  0
DICTIONARY
  5
11A0
330
69
100
AcDbDictionary
280
     1
281
     1
  3
ACAD_XREC_ROUNDTRIP
360
11A1
  0
DICTIONARY
  5
119E
330
65
100
AcDbDictionary
280
     1
281
     1
  3
ACAD_ROUNDTRIP_2008_TABLESTYLE_CELLSTYLEMAP
360
119F
  0
XRECORD
  5
11A3
102
{ACAD_REACTORS
330
11A2
102
}
330
11A2
100
AcDbXrecord
280
     1
102
DISPLAYNAME
  1
Imperial24
102
FLAGS
 90
        0
  0
XRECORD
  5
1C
102
{ACAD_REACTORS
330
1A
102
}
330
1A
100
AcDbXrecord
280
     1
270
     1
271
     1
  0
XRECORD
  5
1B
102
{ACAD_REACTORS
330
1A
102
}
330
1A
100
AcDbXrecord
280
     1
270
     1
271
     1
  0
XRECORD
  5
1F
102
{ACAD_REACTORS
330
1A
102
}
330
1A
100
AcDbXrecord
280
     1
270
     1
271
     1
  0
XRECORD
  5
1E
102
{ACAD_REACTORS
330
1A
102
}
330
1A
100
AcDbXrecord
280
     1
270
     1
271
     1
  0
XRECORD
  5
20
102
{ACAD_REACTORS
330
1A
102
}
330
1A
100
AcDbXrecord
280
     1
270
     1
271
     1
  0
XRECORD
  5
1D
102
{ACAD_REACTORS
330
1A
102
}
330
1A
100
AcDbXrecord
280
     1
270
     1
271
     1
  0
XRECORD
  5
14
102
{ACAD_REACTORS
330
12
102
}
330
12
100
AcDbXrecord
280
     1
270
     1
271
     1
  0
XRECORD
  5
13
102
{ACAD_REACTORS
330
12
102
}
330
12
100
AcDbXrecord
280
     1
270
     1
271
     1
  0
XRECORD
  5
DF
102
{ACAD_REACTORS
330
12
102
}
330
12
100
AcDbXrecord
280
     1
 70
     1
 90
1959938040
 71
     1
  1
825B1331-52C0-4222-B9D6-2E40B57DC678
311
504B03041400060808004558EB4881DDC94E3A010000A80100004F00000034383845413832422D393135412D343534352D414541312D3132453737354238353232422F4173736574446174612F446566696E6974696F6E4974657261746F7250726F706572746965732E62696E55503D4FC33010352C88818181BD8A588D3F
311
12274E9506D975C4020B30B12037316DA4C4A9E244A81B23FF1A6CB50C587AE7D3DDBB7BCFFE0600FC9C8E4FC199C7978F57FE7E30D68C6DFD52EF4CAFC185AFC8C3A33E98F136A44AA452F1042A21254C042750C498C35CE51CAFB9123827E79E17C694F9D07337859D4FADAB4DD7696B86D95DFBC24964D1EBC98BE9EE2E
311
0C5D8210BF3C00F86BB8B0697BB4145C7E7AE866BFBCD7CE99698512CE2BC1A984396102262C615054824042AB2C6392334A257A366E98C7DA38C42993248E0964748D61422985325729A4558225CBD43ACD389A76E16B6EBCD2DC6FAC6E3B84D1C9C2FBDE6E07DB1DA2121768330C5D594C6D6F1656F76615CDFBC6BFA789
311
4A8A490A71060979256489E992E0B702056659CCAD9D62FA6FC2452529D0B15116C80E8DE7A1ED38FC02504B03041400060808004558EB48879FC9FA22010000300200004500000034383845413832422D393135412D343534352D414541312D3132453737354238353232422F4173736574446174612F496E7374616E6365
311
50726F706572746965732E62696E6D51CD4E8340105E7F122FD6F4110CE9A11E366597054A82800BE803F4EA05974DDBC42E0DA931DE387AF379BCFA0C3E808FC0C5B31D2882062699FD66BEF9BED964F71521F4D30494E808B2807304782795CCD762215672934C8098539313C320D8A4A18E19A5147327B2308D99CE4D3B
311
0A2D7B7ED6192B8B41581453D3C126630666162598DFF20813DBD0432B0C9D9BD801597D2FBABA7FFBF89E7EFA80C7C01590BF7D8DD04394FE418DD03840E39AAA8F49D0D58315180FD1168332205B4179025D01D958BF1A3C07AA1FD53B769376494F98BE073DEE1FD1B756ABA77F34A57F0A5DF55B17908BE764275698E7
311
894A655A4D009578D13CE2CE1EB2ECD173672A4B6507CB3C7BDA7A6E0D972AD9C86B4D644A49B15BABA506BA01412AB7720F504B03041400060808004558EB4888E57597CD3F0000904100006B00000034383845413832422D393135412D343534352D414541312D3132453737354238353232422F5265736F75726365732F
311
38323542313333312D353243302D343232322D423944362D3245343042353744433637382F7468756D626E61696C2F302F67656E657269635F706E67355B773CD4FF1FBF73E71C0E67EF7576C9DEF3EC995D46C6A1EC5046649CBDF79E192942562825CE965D8A868C2842C8DE9FDFD1F7E7F138F7078FCF6B3F5FCFD7EBFD
311
FEC41B196891913091804020321D6D7513FC77D8C5070EC3FFEE51B21F068154CC75D455CC028A3EA68992803810109FDDE5D5CEC5521B28A1B422BF80741695D5B529DA1C2D058AD2388BDA9F476F7C2CADC939304173DBF48A452BF8A700C0C70C3D121C1AA15A5270C22E2B9E28763651F7DA0D12CE11077B2ECD0D560B
311
5E3DE2368B1E65C5E1C87384A4CC5F2D9FB8BE39E9B77C753783A37998F5CEF1B4FEE553463245C9712270880DF339E0B882A6BA713D865F6F384C842D440934EF264F4A304F8DE4EEFA1E2BF5E2D91F5ADD9613D6E31DDB33ED31DB1D7916CAF091286EA3D31B9CFECB78BB0060245B943C4C040119FF780A74DD308BA9D0
311
28678674EB5504ECF284EE814DAED07440BAF649BE4B55DA2890F4D73E2D489A59EE54FDB0A85B59F2F52C4858A02705C4815A792B0C4A996A2023ECB195073E115E3E3647F64243A8338F2000BCB58DA5692C7E7C3D413F963FEDF3CF00FBB0F831A9D51360FECA43819F527B89FA260EB63C5DA676830AA3626A3693B23F
311
1A17A0DFFCE3EE164E31B5365EDF0C89EF64D8E38AB0BA9A1117D7C3A0EC44F44F4023095E80BA610DE336D0F99593A88BFC5306E72DF98F7FD132ED95878DF2964EA7E43071359FD83B2BDF9C6B5BDF768F0F3C0FC351199526F53D9460A34511F75D1B63E488178569472C91A94497807A3FD4A390C6558F26D416365C36
311
56DE6E769DA9D8FC73774E1709812842DD8EF96AED1960F79D21B395CDDFE6F92CB4EB962A4668C76990E2EF29798C8941D67DA50F4A5F947872460F1F6FDB794E8A29FD7AC0C0D6E0714339CE258FB17AE8535221E3464A10F29A0BE5EEECEFC5675926A89F49EB14E5711894F6586DB5754EB4D5DA9C6437EBA57DB97A24
311
F8B8A8DB295FFD73266CF57E82694DF5166DDF93573AFE9C9C5EB05F8FEF8E89E0A8917B0B3724DB7BEBB53252581EFC3E38166BA131A3A5B42FE2AD00A769BBFA4458D2DE7822F8C4F63D0B8E21B285AE13325F3410A435C648C9D91FDEB109E73CEDA7BC796961AF79175E1A3CE4C5E8B0D009B0C9E29EFD98BC8E97554E
311
3D8D838424E270F7685226E5AC268E021EDE3522D583E8F20C0BDE2959EF5BBFEEDAB32FE9A3ED0E39F211A86AA9DEBFC68182EDED132AB8BB794442D2D7EA9F4D8BFF52BC4D55BB165124EE90A42D101E67BBBB292FFB4F66DE5BF2300E44546757DA7CEF8932BFC9F92A0707953491A55C5A5ACEDABD9FA1AEA01BAC3DC5
311
A24E22E7C47213493996EFBC369D086ED9397C9BA6C7F9855C7BD5E15BFC8C53DB3D2A4C5901A57ACD2FBDF4D1676E95338B2C2BCE65FDA4C64F5FEFDC7D9CA5AA1FCF11E193F2FDABF0F4916BF13FB916A224380E6462A9815F2300DC49CC4DF8D055CEF76462F4B7A7ACA7365C2707891370BC1D0AA6203C44CCAB47084F
311
EC057F27FFCD57F89B8B9852459798A675C66BD7CE572CAF71FF7E6D7ECF7BF62CAB7B3F1107DCD04DC55A3F9961700286141C94A4F771FEB2BCDA2DDEE0CB0BAE402FF1DB0100F8E475DFFFC074DDB4498AB7D186A7654DDB1CB680D703D47CEB4E72F8CB13D86A4AA68116E26387B93FD6738779B34FEDB8E517EDF2BAF2
311
8D9BE93A1D3A164320E07D42E514725C29515FF361754213EDE06B079A2E99EB1CA82A02019EADEEB87B9AF005BD04BBCECB14AACD6B24EFBE482194A97DD32400685FF1FEF1544D1B14EFB1E7F08E6D2CD2AF52DE757F35F5E62332EE88EA26417AD5C3E0E319D68F25414E6D672BD4522B278C57D18F0113921C71D96527
311
E091F00CEB15AE23D24667369BD3CEFA10C7549D930890BA4366F4EBC55F01F746109F98ABCDD5A3EE06619C6AD78AB33E48E4C9BD21BF7478B385EC05C4F8987E2C1BFA0A60EBEDAA0AE0B015C2720ECE180FB6F2DEFBEB822D96338C9B63822183BBF52FB664A7AE57003AABCE512BF77E7E31BDA2E739AC4C131657DDFE
311
5225E900FB56CC01CDE808FA4A9C9DA16AC679656BB64796283D89812B8F91136AE18EE5EBBAF47A73BE3C153EB5D4CD491B4BFB4FE690A4CF9ABA08C0D8AA64220C438C96EA6CA80B58FE5761E697B3A292EB9FBDA502FA863E49FE694ADDFFF9D62C520BDD1A22014147A0903A05B9B729F54272EF83931FEEC057BFF8C8
311
055C279EAC5C0011804828734024F6CFA319C9CC6867C727184465CD9BB7ED386AFFD96B294A85E3802FAE47244602D8273615952B98C4F23F7EAE4463D9D638EEE374A20959E0FE519C4CFB0FBFE5DD80C2AA3F9DB961D1BDE57E67C9BB47B77FDD74EE3094F5DBBE3EBC1FBDB7393F5116263009E2EFE1AF9A221B2AE234
311
C902BF70E9F280ED23E73908361565964333A3F01D0B006AF32FB21AA1316744B489D5A198E85299241735BE559675130955C902A8ED761FC0DBE337A9F91919AF5CE32AF902ADF9AB2615E00E8A94586BA1A90839B61832FF1BFB76D2EFADE6DB1BA04CCAD3DA649E7E2A0219F592E22F2AD54847EEA8E42271011E9074F8
311
F3DD9FBA6CDF88FFC9FC7E811AD1CA8F4557CE4AFC7BBEDCF0114A48689F20A584520C74DA8127124B767E2FB91A6B186246727BE63C9445BAE02088D58B8EFDC0F1072407CD9B89A13F6303B4A928F593AD489B58E6869325790ADC406036C591729FE14021F94B7796BB11848D463536A092A26F077F94639F7CEEE2A724
311
C66EC885F4A24F8B8A0AC321F8FD149BA529460FAA34E4663C02D41FDF80BCA222D42F0ABFF8490F4FA74C673807C2051D8E467B47B616072860069A9A303ABA9B319D58404461401B0A0F9BE5E1E151C14BC33B32ABE03DDE91708DFAEB15E7C0D593C86BB7D7EC17BE56E57975F077BFD5525F3A1A361D584A75E08CF29F
311
C7B44B2B3085014F3A5A14517377C3F6B8F37E59514C3B12F8AACDEDDA4DFC49BE5710101534CD6FB6DE15B50F11A09472AABA727F0C49D9CB906B158030065F48EB3625E010CEC1D511D0053474B11E6A4F01C0D6EF1BED3A944FDEC70E0DDCDC756C86545910E0DAE3BE3AA9A404574C2995CD5CAF9549226BC94B4F4F0F
311
5F9086F418F6B32346464610D8BC7391D3C3A3CCF04CFC1FB2A3A3170E369511868F14EEA4E5E438CC73DB1F3248AA94B6B2FF33B222FF3D1E7BF146CAD229770158063BCE4F5391964DF62F7E52A7BE0EEA829C9E13C4C147D6F93FE59E111DAB5E4594D6F3CD1AD375EE039930EFE5AF2BB2D41C83C7DABD8C659BAFBE8F
311
AB392CA634F3D15C1D945DB4588D2B0824A4EC928AAC565557CA2F0DAA588CA5BE30B3A8004F7BF005E96CBF891D7F18112A3619FDF530DC8AA64954258E1811789B5189B49B4EB53F5F89F7D37523894F3EB57B373763C91E502F52CC99EB7BDDF933FC324C4FFC2561DFFA7339FAFDD0A4BFBE6D3A8FF9ED1FC498981398
311
64602458968913181918F719CCF5A68B2EE9C1FF050E34E63107003B8120FA982C21B30A874E4F5E4B38D5A8290C4B8D9BE48A0BE31EA995BDC37AC6DE90BA17D259DEF53605D55922FEB1855D915B659FBEB350EE0DFB2F9F766E1C84CC8964B75D08667445EAB966015F63A18A9E0A325C1B3DC628C0D3CB60F767FA93CC
311
65F25458BD23C3B312716E5F40E5858AC06EBA9AB14F95DB99147B832069201541D09A0D856E12C629CF32683760EE855537D1901988D5EBC156676C7DD51D7207CF3267AF1D76C2AD867315E44618015313A98B19941C696FED3461CAA9B5415F918556D7802EDACEFD6B2E45853A9735DFC9DBF7E440F9319F8B6805A973
311
BCCDC76C069A9144E51F187EDCC12FC31B5DEAAF0A76137199B106EC84ADA6B6EE697D4E6A96E007417F4E880E8B1E89B4BCE9D81EF611E2ED8F0C1A6C25F620FAFAAB656A7C42D464880E8AFAB0E0FC8EA38CA9A8AEEAEE3E4648BA4680270A89743CDD3E6C6CBF34B7B640EFA285ABC7EA0A1E28F3CC963D114A80123EE6
311
6D0AF7D5380EB41909B605AB4765B709B808590458157E69BA1378FEC4B48CAF6A730E3BE3C5EF2DD1A5EAF94B1DDE50CEB55DDFD7EE9A16747FA4B223359FB1FCC69E1194892BABB93A1D5C4E807AC0EA2E30180811E77A2291F6E7F7FAA5E0F60215BC6024E48DE436C511F0628B8CA189982D4D83CCA17D305A7E923C37
311
941CFDFDCD93ACAF735EF5F0E61BBD3E6C41A59B242790D3A3BAC7064DCD89AA2E37214EC839820949D5CAA31E240D2948E48F690298974A96BA9A8432BC90F5071D6537C9666EA4564796B7AFFFA548077BEEA75F63083435074BA182F3699557397F71548383FDA8CA34D99B981E72835ECDA5DDDC151315173D05A21F65
311
1AAF8524E88209E2E7A737ED1045800CE3390050BCFB8BE588DF111617874C62575039CA588EEFDEFEFE319B739DE2EDC147092A262611E159650E787917885EF08F1F51B8F2D8A71D60B58B190FEF9541A1BE94BC19FEA50784DA1419FE4B0FB51B8D36B5FF8E1286FD8AF42B91E59A5F1CC4D60174E764045FD8C57B1820
311
9B217F89A62252BD20BE0E63E12B8E8F029FE19E0E8D0870F58721A557082250D5424F7909369376E41666C0EE77CD87CB283F661D5FB6D0DA023CB67320A20DC7BE661E9E1BFE5463085C557DA1FF9BE835733766C3D139F2CF9E2208873AD0EB4814DE9E6BF2CAF81614D4D43906ED1C05A3265CABBFE192770FC2F64F94
311
0CB6B17B5F166F133C9AEEAD2641807C3E69515171DD74C4A85311513D6EC9530B3B601B6BA3EBFF3B5C3D2F7D69765141E345F75433953D013ADDF8F6AA7DC3F4A7563FE5C7D367937E2900D7EAD0F9FC9A4A1A9B5BDF1FEF08532660C01C5D6DE22199AA774383E306DAB87E301ABB7D213887F9869D4942D0D71E94B27E
311
DF216A318BD488D45DF84529EF575AF3C3938C0AAA0215B01994153E2054A0B894DA5C784980633AAD48576957CF4AEAEAFADC7C587368551C73DBE1E57C58AC713303A8BFC258BD04B51724459FF9E24C03A81E0E0679CEB9B348C0DC998FEB9C6D6EFA77D247CC8F92D3848599ED89A23218D0636465AD1CEEB7DC140D74
311
26F83491C4E8E8281C2FB35240918FFECE880CA2A42D70E8B20B34DF5221C7DB0CF90ECCB9C745B37A47E9B716FF7A97B7A252C1F3814DC7B1E1A7F72B8751D524EF7CAE45B0C73B3BE7D08ED39781B380DDFC9AA4A4749C9493DB5BAD07A6EA6C092FBD0E85DB004DF06B8C9D3089C5320187E4CE1846158C7EA7DDAE8AD9
311
AFFF21AA3A1026BB06A259845E8232DEE62811A4DA9CEAB3A4887320B76E2AE5615EAB7BDF738CBDD01F1E64064BC13D9EC53576751CA8CACD58B3CEB0E6CA585BD089B2A59B9FC101403387AADBDBE70586B93D64BF3AD4453EF9C3B6A93817E8346991798601344F79A83C51F3D50F7BF2683A3605F51A72449489E0EE61
311
69C749C60B1035651103AEE24D24E51A759C840DD3FC6504DA6FE107510E447B43461C79D22970B75DE5E1BD3007D1AFC619A4A4A69B5626AF5E9B8374E20677F77E2F8E73DF868E8BEC7EBA7B6A75EEF7205E1AB9486CB642741D6E03FF13FCCEDB1C4AC129886268B01CDF4B124AF797CF784F3C6DEC97A17D4B558070A0
311
F1C04DA4FF9BDBF34159AEFE958479824B3F58EBD1E19088A2AFDE501B6F2052368A3FD0E650A179EFAB1561E1D27527077136E652676C3670F42DCB3352F48F6BC86D2C3B0051727E41A0A4DC6CE2BE9D47F5CAA2935A3C0539AF080665997194ABECD723B08129CC5B6B21D2E7D54CD4D12610E7E9FB8306771A89576C7A
311
982002775ED44F3F744CF21EEBB27A631671D921938AAEE3EB0D19CD1E083727F607823E817BF599DCED5394E37EEBC2E88782E638920CA641EF74D4CDFCDEF06F4278ECB18E31E7E9876F2D783C8BF429C75395F57E98C2B495A3DA077EB3AC3C158608B6B57FE3EA48484D9A480096FCEE0DE880950E7E5A5714131C5C41
311
AAA29FD19AE81AC145FA1B9E85C7169A5AB837B213493DF7E9AA4B5FBF9CDEB36EBD21EF1181B7CF7366AB2A951D01E37AF4EB835D1BE8C117CFBE7625D2EBCDB0B20C5A4B45CED0BCDE3EE8DA9DA78C2E21DEAAFFD1197E463C33CC6A80FB785669B856EFF7A8CCCA2841B5A5369173320B1170C368B2748D81062EA0296E
311
5E2D95D7667A4A46D98A6FF475C76AAB0A8C8D45E226FAFC9FE0133EA9F60111F99CA81ACE03A1D14C89E8B0D69079C91464FA1D99E651D0EAF606F345C42A8A1AA9BA391031582B96D5B4176A77AADB01F12FD298A75DEEBB2C82F0B8650E880722F8DDD90C56A7A058E5FDEF1AC93545BA27367C76F5D8F9690CB6F8DAE1
311
41EDD7971F0FB548A2AE435F224D6E5954CA155512F7332029D5A1230854B79F258EC5FFDB09F5F6343A8EB193229B7F7E79B3E48F8E183860B38C8269D1B53738FF1E0BACF6AADA6D4869E9DE708E79B5DADCC09B1BC76F649731CFAF59A83FD8BAE4C749D66FA87A3810D4D62FFE826FA400C0F325D2BC0F3CA35F5847B8
311
2A2ACC7961745C823E4D863D54460AF792CE6F79B5C7A33B25C3AEA6CDE15A919B6367D781E9D44F61BF828672594A3E1D9EDD6DF179A81F27EAC05B936575D73E05C209DDD2115CFB705DF9BBF3C911589B3640735E9E618FC9C36A7326C82B2205E244C55D56FDB9D5DC93CE958D4BF8174D2B3DA54CB3C09F2C2A6DFF73
311
D23B2197355761AD421EC581284A7EF8DE2CE3497C0C804D49B41DFD6A7360844E5BEFFB495CFCDB97A4595911CDBA623274CE852B5E278AF0BEB1770E9D37CD977B2766A7DED0E94B840E1E95E8C77DE5CB6354AF7871427C28ADBEEF7BA0A28E19DE9ACD75F379FE373EAE6DDDAE3834692F9C2B03B4FCA8FCA9ABE8EEEB
311
EBB725B88A7C90941E850682CA04061A7DF0CE82ED49BFAFFD42C309818FAE14755CAAE78B0F73243ECCCAD7DF58FCB9CDFAE7A4D3E6671A613639130D056C8383C8F4FCF4808C331E544DD26E4755D09EA05253B3049A1E32587CC25D72E073E2CD96D04A71BBCB0038FEC3F53D254199C3CDC67CD6664026943186022539
311
2B2CB3ECD0B4498AAE78BA1994246AE1EE78F2EDFB79F6C6CB6B5E279C4D373FBC21CB2698C9ACBBEB6A4BB6B39E16AB0E421CCBFC7654D81ED86022F9BB522146F9F4772E2D0E4FA70120C95A85A417BF5078B232F4754363EB1750B2AC2148EB46B1EA72AD9B4D23ADCBC589D70106C3EC2ABEEED84DFE28E718C6C83502
311
C28E9FDD3B09DA0A6F6F7B72B706A31C9E2A331EE70DA56A083D2177BFD63C55B11D8D949FAFCF90B23A1E24B9B5018B9A17E99F2890EC302F330FE7936E2C23F0D237EC8916F5166AB84B62A21BB0B950146962D754F92CC2C8877BED8FC7B7B25726DD19545392570B3A2C66B58F027BEF412E552D12A588C4A3CC5C3193
311
FCB3485EFFF700D0B9EEC077754A33DC1FB9E25AF814628F91DDFECB667D3F7690803F38D13F8AE39353523BB08FC6760144AFA2CE28236F65EDBB3D5F59A57D612B99E3D7E5F8A851666BF9B5A6658EFC96EEB37A378ABB0EB3FDDF1303AF32C41BD1C8560745D7BD81066B0D6313359CF488563D3BA3F8E2185D1FAA3EBA
311
1397C9D0E3DD232180A4DCADB6AF25DB3AC3CC26589C8239E66E81547BC7E2F328F9884764CA37EB5DBE390DFC03A5246B456A7C3684C4377D0EEF9A350680FA9A077E8B2957B489E09AB1AD41316944C2254B5984830F691C93CAA767EECF976FA5647538830B5E63236A6F0365C1E0F3E327F24FE35EDDBD7360B0F73748
311
37409F7A6311BECC12B7026D4FA1AE204FA3F5FE904B1F420C7A9044AE58E403E7C4848E7DA25DC9EDAC79DD756FAA26B9EA83ACE8A214A2612A22AFA19DAE7DBAC5F8CDE1292A485F98DAC731A29FE01A3966E96BCB9FB5A4C8830E1B9AF0C54B87FBE221A097036E5D28D1F869F810C06A9BB0AC0612F69AEBAF893C6E7A
311
D59460208BAB3A6B09CA4F6BDDAB8CF0D1F84B72487498395A70DCD754796E271099A567A55CF242BBED64696378BB6CF25EF0FCDB589F3A82F1116D010A9AB9FA4358809EE0C973A2B4229BAA876A70B03AB49CBA7FBE71DB1832FFD32F9BF2C8E98075CACAFB36921235D0F552B6A67E94E094097A5D7DF681B40623DA53
311
5ADA7A9AD8E9A62407D7C9A5AE51D62A17A83A23728DE86BB56115804D3F2675F2C6B87541A0FC497BF0CA86420F558C9859EBE9FAD62747E323E3AADC03FDCDDFE7407B09DA90B44E3185723C5381EAEF589765E2F7A099BA46695BAD60CEF3491B8A171F5F56444F7CE9455312C3498C74173AEA0214EC029833B34B650C
311
BB5A5508D5091665309642791708ECF27CF11DB3D797D6CFE474453BD4BFADB768094B2147814D81C7CBAF8228DCAF5564B5891F5EF6A860EB2E323CB82AB868D8EA048880D63B0DE5341F1B3D53297B928A11E15F25E5148990F710747C3509ED14909C552EBE3973246FCE55D00564D8310BC3EBC5085D08D806799B77D6
311
C57FDF5E55837F9E934F09C03C729271B64F12D0A9F9E938107CAF7BF1EC8CF1BB9B42363D33070F4CACB425E605DDB0A34A12BB936DE286B9887A4E2E558F0886498BFF49C311D96C277CF6A9FC0D75AD0ECC5226D7E0E3572012E56D7FDE4410CEC7A6D0F997F225A2055B8B92E3956E875AE4993CB3D4C9063AF98FD45E
311
1BAB165640A43439A2C9181A7C355B297C0A0CCFFAE19B6FA3C2BA238A885FBC98B8F6DAF4B94B97304878DF4D8BFF6A4AEDF79E90ED4E68F00CD7299F4E0D83E35601AF0CBEF18C1E870E74758FA91F5131075004DB3CFCF09AE1DABC11957FD9808C92E8A678CE9DBE40DDA0E0D1D505AAFBCBA208232BFB6FB3704E8985
311
E61ADE53DE74152F5C7DE74B1DEDCD37DC3E8FB30D7EBA8B9EFFC3606BF90B8D438279CB7709FC7C00D327F41817EEA71CD9E49FE9C8C9A81C70915D9F0F15958EC5AA4C3BBFAF46986B90F188BDB24B89DE3C6F29EC3E6F66D84856EE96A35E657CA41B41EFD8DBFA16AD6E91439EA92B40B21C053249F51AE50EB0B24C77
311
0FFAF40DF12C8436366819C48E36547D4E7B72FE2BBF10828583057814A668BDF183F6B2E58DFB151103E56303E63D00F39C27C4661605DB644D19175D02E3F0241E8FC3458D17AAAADB117CE9EEA690D0DB01E634878C04C2C9310B69FCAB831151E3AD293BEF6E46B0ABCECB50F5939B39C613D41E81FAE8D34CAE3C4566
311
B761D37185FE864AC32FCB71AEF39DAA5BAB88609BB980CD2F07A8F941653B529567726E2B2A58D079DD57E1E5E31426CF184A04D7B03B985F276D47406AF276FE32E3328BA866EB1FD39BEF57863A317634AA5FE467409B3873F5069EF0D71AF00AD189D17BA1974ECDB2D623E9E14086386A6AAB5807825C37B015BFE892
311
AFD154920EC437EB945D958E18622E1E0FE2FA06557CE4BB9BBD05A2D40E774DA2B65473791E314B7D6C886820B2FCFE4AA272B3B8B15E7344A145E8AF919B5454D89D36D413E87211186BF6F645E5EC94DCCE8E1C799022E4EC9BC86D7A0F2AFB1FC4B2CE48F84B3F49ECE65BAD24CADCC07EFF39AB06BE9E6B27A059938E
311
A7208838455383DDBCFCD967DDE4650EF92A14FF933C975DB20BD7FEEBC4487576485963D757D16340D9599FEB362F775F38CA4185A86F74B629C81B133644A3B18FD056E997E0734F9BE26D11C0AAFC669E2AC9FC41D281F8B2E1C35AE27BCE05F3DA295488096688719D974DF1B5D182DB7792288697F8763CFB43562C1C
311
DEE11C4AABD5C22B6E33F6F389CFC3477C5919DC0D533F8A7A1846B7ADB60ABDC26C43D0CFC8910B7C15EE22675BD02702ED39DB77A87A192CA7A543E6205B979B9F5A6B512A3CA799E198B2D5797C0AF8D1D872CA455D4D431A7879D4DD76110B5FF7F4176B54477A9EB5E4A5D11214FDA585F0382751D8E2582BA5D20750
311
53298FEB8F1537304E32CB22C2E2B693DC0A760B1DFCA751BDC445AFDCBB12820ED85F6D5298933C7EF1211E9E057684056CDA3FEF3BB6052355E162DF27C59E965A8DDB7F9437EB72CDDA3A090DE65A5B2F50326247B7EC67B73ACC7047FC9B353D6EE990F772207C6EC52B39DC2F3C0754821DAB559F7C1809C7D0DD5B04
311
99D0442E0A6E391B3D5DB46D11E731E6794EC77523FBDAA242ED67F9FA1FB684255671F63C9BCFE6E7E896D51001A6113EF2298BA494E0B0980D1FA5B9D60796554C02256B1E0345FB7C6186B6A19D2DCA270416262845FA4F42DB5D9B0A0B6F07FCA2E56C242522E001E0CEB734AF310FC8BFB57E38E03AACE93B3326A219
311
7891E68452B26A6307FDABFEE0223D3C03C3C73D2D5BC054C8311F12004CAE488E5C29287F8156A2CAA4AD0D7BE6B97264E4139F437CE73ADF52E5134C52B819777C18B323A5924E4F67AFD13B1CDC3A61793A79FAF5C0CEB718E441071E797C6DCCB9EFCF7E4A1E9F3DF3C2F9C9E8294E9586868788C972857FB0556D7A26
311
941A7EEB9B580AD78EC40B85DC906B4120A563CA3B87797ED612D3B035962BB75F6515A393F4CB057F564CDF54F2E5A024514E6A1F901DB80C7E70B1FC05E356A7E72FABF4775B3E3FB8F70A2A8E7B6A94542BB304157978CCC999E707A29CC795E67A59CC546A5D47B368954CA7B6E75EC9E1F6FC73CE3B4F71F8CB1A6B15
311
923D61EAAEB14626AAA9D04A26EB9C66CD1BE86CA31A5D8703DE04CD1EBCE4F5CCB62F93909AD11E55799A781A956ED27D3E738F4538CB04ADABC7DAEF20BC35BA6A90BCC1DC61BA05F20D8832FFB9BC9B15E2DB838A0AFBB7E0C82A562127E0446894F427794C3037186F622BF24DE1B00AA10A23BFA47B2A180D6DA5AD6F
311
7326FEB8C100C2D7142EB2A0B2A9D1008A09BA343D70E054AB69E2A7EDB783CBD92537FAF4A44D1296AC2792729104B3276C276C951D0CF3CF3F1E6B017720A7B8505A5FF9589365979678C36F1BAF759EAF57C60F1FF5FE9DCF5F8E764FF25A2D06CF25117A8FED51884C13B2B750DB0E4F5E3D64124FCF11F0AD8F1CC3B3
311
DA4B38ED22BF1CB2585EE6BFEBBA63FBFD44F9537B9B37BDD6B358720F98A8125AED4349CCFEB0E135F19E208A04CA7E2B10711185D72E381F448036EF57C9F874E54A971CA37A639E986AC0226DC5AA00D5B14FEA9192234B3DE617814FC221C92F33F1D392F297731B567FD98FD91D989379AF567A65B8ADF177591DB90F
311
BEA99BF4ED11B16E50A0AB1DBF1156D034BBE04D69D08F939D8E92BF525A1DDAFF80ECBC95D8F45D3FDD289FD23F7D8B452F8EBB34EC082DEEE68E18EDDF072060FAD2AB1504DD4879BF67099FC58F6E9DEFBF645D16334A3E9A127C6F1AF6132CF287E433B43A0EE93812B4AA0B194E03EE3FF91EF9C6ED0074A2F6EB18A9
311
6A7C9890B1FCDA1F2095E944DB911ED54C60DF16FB74C8CE9BDC7C54C4F14078CF73C2FFF1F1BBCCD7CF64F71407EA1683DBC410D226627F66E509060D5C0AFD611DE681D509DB8DD12FB1265B03C6F5C55FF4C30BD94187FF692B4F152982502F193098A789526A038AB529A52BC0DC4FB6285CBAC10A8B8DB75DCD9BDABB
311
B221E27D1F8DA9F5EE5926A1C8AA9BA9BC09239C6A7F12914EA3B59EFF7AAEC3FFCCE56F1C5C2980AD072793527565E774F4631DB178CEEC691B1F367BEA0CF2907E1D6B854D527065979DDEF002D8B2ACEA7CE21AE297737EDE1D45B31233B73FEA35BCFDD0B09721FDBAF6432681F2FD10C3E9EFB246FD6E854B344ACC9D
311
8A0EEF876A7314B49B6A499FC650B099D650DBFEC7638ADFD245E2B7839DA5AC5F7D5623FC0ECEEC8653FC9B2BDD1AD4D00A566FBA7186DD3C9CD26512551637498CADB950FEC71ADB9A5524285DE328B8EC7EC75D2345AEC6A27C42AF6D9B92155315C80DBFCABBB7DA0FAE425C4FB896B15C9BFAC4FE67DF5A23D30C93DA
311
4D8F36FB15D100050DA6062E22AEC5F4DAC4F6FEEF97AE05DE63C6D38F9E068A20BC5E3B6BCD75320C5090924E7F93640A7735B1A43451C2D91EE62C6238B797349E59890AF3A520DF4A87095F3ABEC2E61F0593416CE46CDCBE0E00E2523FCCD04408588B5B6C9DB6459C786CE378770B54F51DA3A5E1DF2A3349BEAAC234
311
A6CF8993B598B3B25B4B113E353A4D750FA7534749430F3EBF2512E7EA3FD43C6AB9A1F765A58463B306721A15D224FAFE8C6F5E3432D57EE697DA0DD5A9D4866A8BCCAAA9DFF1F06047851408FEC060471D0E3EB86BFAF46E4B5E60311DC3E3CEA147C75CF971BE74689507154FF2D2E92F15CDB2B9182B11459FD8ACAC5A
311
85F174BC94A7F4EE4C4F5CAFA7C02E37BF0BC77B7DCD0C047BC316F562A01A441AFA7931CC84A28CB9F4AA367EB515778F29BFE61195FA671F4352E5E46E3A64773F1F76EE5EB36D7BCE9BCEAD837A4D77F8DB8C92AEEF6711920D7C7D0F76B0FD0EB7AB83724CD35BCA7D36DDDF5FBB7FF6F04A91F3E2BB3B8F1A43CD6596
311
39507FF6331C5F697BCC782AE57D757A27D97F1AB9E0AEDB43F92F1B2AACDF5FEC8ADBAF9F814E2027003BA2F9E144B1938A7A04050AE5D953B82C45619165C813A10E76DD6906B3C16438064D14CDA713AEC420034613E1AC7241904A49FBF87409AFB1FCB9B72FE7933A87D8FBEDACECE4EDCF6A4FE9FB94D5DEB74FAB7C
311
FEAE17EE965DF980DCCA2D04134994F9A2E94D2265DA4FE6AA7B7AC15FACAC2B5ABBCD7DFF542C5314FDAB2E1B9D8B65220B8E2B638BE008E8DCA22678C820C5053664D15E89F2D735B51A84955E81A443545E9FF787BE0FA700A76D136C27DA179A7C6E8939E01BE756E19CB292798063D8B97F44E8A27BCF3A614FEB8BE9
311
74A718E86F7EC99B53CA35FA24F61F2B07266684623A3D4CF073E511F3A10A8FDAFAF0078C577F4DF9D339FE7862E5FA47CF4344209E5BF76D783B1B48E152AD281B15FCB934DCDA49CEC5706B1EE8B460F435324A5CAD154725E21AB8044B75A557A79F6C807B9340AA3D92503E866F4274412926C8C504E4D5EF8C0E68DD
311
0B028781A6B4054F11CF18941F101C57CCC796773ABC8DED9CD91FE5788806C05E548895354AEAC96546D55B0E94A59F148D061F42AA398D822CDECA4CDE79E13469BDCC44FDC990F366BA5978C15F97ED80CBFD73B0CD9B8B83A4F6845BDFBFAF034019473FB9A63BD55D3A4A7284757071574029A4D016DCCBE95DD679EF
311
3C4880BF169422F8C89B68A988D2B13793CAED4F74DE7486C72DC94DF46B8E93D8E02EFCB1FF9B3BA10C8AE7F653DF94F4AF466CDDCEF5776687F7C4C14B63E4EED1719DC2EC482D7DBCC7AE518CDE3D5FF86D39000EC3673C0044E1D308BF05F74D1B5F033A7D1BE7F74BC55BBE3E4A20F920946CA0271EB17BD2B80E5660
311
ACB8A29A79F5E4BBA49D4D945B6EEF4A7EFEAA65E5555BBB57A7E15D2F83C69F30BBB978D2B39F1F26FC097424D39BB33CA3D87ABF64E307938B685BAD44F71556A30B7E712CA4FE600613C3E554B69ADE949A7CFE214DF1FFF05CB82151EC6FC31950239F94CF7AD39DC473F6EA356E5EC2C4EFA04383CEFE985A12748436
311
6FBEE3C0EC4FEA363E4F6632AE781392FD45D67B63FB8DF70E82734F431FD3443172A0E30A83D60982D55FA6A2CF86DBA8382502ACC6CDEF3B907982EED1160E14863FA242F9757347E1544275CCDCF71ECD5F8621CBEA326B8BA884AD7F825781923E66971F04010D574C541D8427A438A37EEF8AF88240EED7362C953F5A
311
81DE2D56109CDE2524EA0F5D2F87308C0C47BD97AD605878AB8589E17CA83930CB5E0DCCD75853D68B1AB136594926DE426C367428E9334AFAFF90ECE221BB5DC9E5BB53D2CDEF954EAA9CD814F0E5725F1965DD458E5F8487683AD86B9D0076BE3EE91EB1CECC5331A67A3F79D8B27587C12EC2A6A70474749F27B4C0BBAF
311
B94B34189E88DC18964BE4121B9137FD516C7755356E50D6714E31ACD222621EBBCD1CFF81D87479056A9DA0E0B8EA19D24CF937DA89F78E8650CCBDC110AAB6C4E46DCBFD0446BA9E2060E81F314AC2031E88135E5476AC0160EF5C0DD2EEF1B8B5CB2D198BE9A554A9093B5F7D7E4B5407DDFCA1D9C152FD97F55BFFFDFE
311
802954DFEC8995B983E28AC92F1971E28F531DC407A1280EB125F64A72E617EFB27DFBCEDCDA2D6F2BDADA36873EE46B9BE1782998C63DA7182BC383FB6FD15DA472B175D7E8B4FC88F38D6E07FEAA3FA3CBB8F6B449ECF14D2175E5C5CCA3A42ABF24CA6C9395AF74535F4DDB38CB84F56614B0FD32D7E19CA5CF988DB444
311
9C40E23DF2B16772594554579094450F56F253CD25EA7F77366FB1CFE79696C428BB64D5A41E986189427E5E4D7E2DAE3D5BB4972B3DC44EAABDDDD63A2264ECFA5C786EB0EE1FDC5BE34FA0F08376869FD1E61EA06CAE15191135445EE8F0394161C3266A596AA035572BB0C8876180D8B9C77D307DF9DCDF7365ABDA6F3A
311
2366436457A4DFC1F259666569A9E4A79C817BDD5610E5200FCE894A358EC72858D50EF67545DA81C6FACE3D457BAF70367E1E6BDD9A952FB4F56247F58F523B97E640246051A72F79BE42FFA0B3187F63097F91C48B868586F714B0EBD5A00A8412C1236E1298F60C72BE6C96B82B404CADAA304AE9F303176B14BA53FBC2
311
D5E86377E35542019E24D97B96A49B2C0E5006E7795954DEAF5DA58958839043C6C70BD3B1B33B6DC5C31316D8A6923F142E26F6711A2258AF977DDF1F970ECC4F1F2B434B96D81BEB6E89BF3BBB3C7C8CC80505070723D6D7D7D3C8CA27CA164A26024FED94B12A86031867241DA53D929636DA600F050BC40CE48B8BA03D
311
69224720DEE2ED2127390BDF5E6EA64527BBD4C4C63FA76BB801FEEC0E61218EC98A8A86CD8313781617877E66692839B9468CF4DB8E50A73986E558E309C0D6F676F921BE02F1185454DC75B111572FF9D27D85EA14C05AD7271225B391C4275659CA4A43759D0BA44639BE4C30A84DB7F67A41399FB95CBF923B1B1672AB
311
C807C1590557FB18D811983FA97F5E609516D62281D38B1281F68FC75528C35E4CD7DF0F7DBB5E5DD69C414EBEA2F4A5B241B996BA77AE6C772E367408C633EA3E438B68563EA8BE7667F3A4C4FDEEA52ABD78A2820F443B7914A15F180018D231E64519C56A12F6CA7C8DAE18F06F6B769DBF92329EF6A5D18FBCE600F36B
311
D8E8198DE5CDAA96181F3A756EBA5501CEE58F497EA4F418A2B82565B9BCC611713C0B708CCA1F398B78C5F7D03B3437CC18F13061F55C7BEDADD5ACB1DB0E36D3CE47FF6EA1A563A57E9649EA5D14D1A50EAA457463381C073777EF1600607BAF6428A7DDC079D47A204EF1E1F1F0589FB054D45E02CE623B3823C317C601
311
E589E22B1E88B448524B86A82828E32345EC18AE17214B42F8C41C6D428016D9BA31DDCB47572561E5A402E5BA4FCE55F78AF7268524AA04130F3A20BA5D1E9F9948EA48FC8F5314FDB35E21898198060034ACE5E3E2BBCA34092518F275190AF65F45867FF0900AA4B81F25427414C372BF51DC29AA855C5428EE1EEDD6B8
311
49AD60F6E73475C2D2523F8A2772C840A478DED18A8C5C91B085F255DC4F54EA7AA8947354FD17ECF8FB3B4A0DE7B483CAF3A1165EE05BBA413E5C1FEF3DE1D6B8F2F3F3251C17D9FCAB48A9AAF63AC773A0E413BBC46A9ADF84A566FC920E4D8C52C9769EE3301CADEEEDD92B312E02E2A7E35B7F1E7D203FE5A7D75578B0
311
6E99D0E46FFADB8FDA17ED8880390DA29094202D6F645F76F6F96409CDA05495A96E84B04A00D1A6C6C81D7F3DE9376E828CCF144EE50E364ACCE7237EA0BFB5607ED1AC3CFE73794E5B61739D14DF1743441B1AC98F00ECEDE9E7301FA29755FBEFA68C91EF2B314CF510537EF1ABFC9A762496280B546F5EDAAF8A5B387D
311
469FC9A878A92828C88608453ACEC6094DCA54111E7AD5B2663DFE2DD151B7F123B9F4FEF8EE36AB125FD7AD52A59B1B765B3E3F73E3F73DEA93875004D2AFFE3CDE9493B87A9904DD052028949041A91DC0E1BA47BA714343FD5B25E0A6A09503AFC17C790058A836A324FE31D7893512E28230332F153181C1E018E1124E
311
BE1BA262AA428A518237D1EA7275E48C5C561BD19ED6912EDD8367DA0F31E40EEAE9683DA9257525AEA7B632B97119E17145A90231768A4F3B9120FF32E8319B015E3CBE26F1A754177D8185345817C096B0CE443A955D13AC15E1FB5DEEA0239EC32A3C92241A237B0B02FFCB4F93CF2B02570C8D192E2F2A68CEEB42F12E
311
6F8CEEFF46C251E22B4341C56FB08CCE550E7A9D6F4D6564B9EA52A83D5BF2C6E03FA19D2775E15A8A7ACF30A13C259EE7F5EF2AC3BA354F1500E1A07FC63FB4686E2F12EC69719F9ECF5FE3F35598DF2CE944008CE78F0911BA5BE5D0A34E0098FF038669C26030BA9B300303039852A8F6F496341737CA7E0D2E3AAA36DE
311
0A70AA7D9CA0D54D9AD84B18A44C9E625475E1C97B93BEBB38DCE7D227E67A2D00F531436136355F243D1FC0D712C5765754FA22FCFFAE97919161F46D6E61ACB37D83777B385889770B50765B127768443A5C4D3A4E35A3151111F146B7CA116F918A049F1C272F2CD7976C69A0068773451659A97E0F4A08FE604C3FF6CE
311
7385DB19F4D3ABC8A0D80DA8A42096AC377DB49382B36E270B6FA7570188B4B7D1DDDDA82ACA487CCA5D38BD3BD039ADBAFA4ACFF27809239B722081E2EB9F145320553D183F28471C388BC8814E5045676767AB58A8E72D1CED2CA731379515D2E533E4CF0B39DFC625F97AC4836831A4DE330E87A8126FA17EBE583D614E
311
71E22A8DBF2825599743E0640037303E8E1B1E8EA4E1ABFA4F62907B5E4E0E5DCFDAB417C36C6848A2B8D15F1E505434C0707E16B1CFC2A1C36A42BBF55734F8F4301DDC2A5110CEE8C0747F69519265012A2174BF4E955ECD4FDE095A3ABC70536B7AD0B9D7892F81287D667C108703C9B66A221E9A0929D030008F77FF6F
311
5D2108EF5706FC87A3069B976F7C9FC3239D13D283CDEA83597461079FEEE049B0F392889898B7D87D31F8D60ED7B56B91823A8E4EDDB36C6172ECEE42BD42B12CD67994FA0F0DFAE9389356F4CD4425A4B8AA55CBF7ECD585C6A2C2316791E43D5C06841ADBB226A87FD61515FFBB0167B74E56BD7F3E90A57A97FEDCBDF4
311
83A0D6699A8C0849CAEB4947FAA90D8E332D9DEBD9F4738C37DA0CAF9CF3DAA68BCB67C420459C7A64498D6E848E5CADE92BB6901F607AA331104A67F7CD650EE169B1DAE94D2C31C2F993632259B6957E246EFE4C5481107B07118607700040E5812A2A2A38DA0076875258C753F60E0F2662C748EDD5F3F3686B8FC3BD6F
311
E631ECCAA1E8B1C1E565AD117E54893E79F4672E32F9E46B2A183DFDCF3EECB4D4D077DBEA0DA254D256045109670050129E9B9B1A9E4A11344D61497A992778095151510C4BB7EF2009B63AA4360635312E4CF668B7E0D3D85A8688E2BD83B569439892ADB63461930D428E0DE42E4AC57CE48DA5CC1449530D8BD3D6A0F0
311
8DF20C8E8F570F2CFFFCEA286E30969B4654D498A58D9DA782E19FE3F002181838925592C4A1EF0B332D88B61A92C644547BED490D3A42CFFAB70E36D961F694F6307F72FF15A1C79D5B1B5CEFD353D9E2B52566DEC8F8F09CB3E8359C0F68EBBB7898243E34E12A015B2685AB303C04D3A9E00671FF3DFF0A184E4A2ABEB2
311
B666AF5B3A209C73D8EF29DCDB069C9F391EEE9DD0F74C7BCDE16F8F02E3B8816122BBEB50665775B600549D8BB33A54A6BF940C028118BC6878C79958D6784F9DEAA6E26748386FFAF8D0D0101E2847B6563F5D8DC1D78F787BE00E2C941AE12148D4A81599FE8F68D4DA5CDED75530ADE138240300EE13B0FC13A1687FED
311
6774662C05A2B7DFB186732F0D7A93545D8B0A6390AE5054D9CB582DA846D7A061B3358B45E2B52DDE63E114397EDB7E09233A579155D795BE76102CF277F4DF8B188C4F2879BEAE3C08347124BF9ED23B128259FE107D31E34A652F090B30B39E0D9AF917B76A2806135621A8A60681F16AF216514BBD02711585B5B1AE82
311
3F4B2D0369EA5B6BCB863072727FFC871CA6C9AB79A814D989057E9470A3D238BC87CBB4A0EA49AFE2B86F22E499793CAA9047080450166BDC357524561E258C77CB697F1ABB32562CF87C3B7AA12F911EF19FB3E5C02222E887D08202A60A17151F5E053A86B437771088B4FEE14D652C43E8D939995D34545E12E2FF93D4
311
E366EAD25F10CB7DED141563C3D0C447AF06078A91135FD4B9611583CB4BF3BD167F2399CEAB0E0100F8FFC305F00F1711717173138B4B48C83022295DE657EFEDD97F238ECA80F528AFB4F8D67AD4E2594B9A3AA86D7487EFC313BA95745C186F0CDD84CC12DC9CB0424B42203D351FD9C0A3AF10CC7F388E032927908738
311
6421F194F4A29464C1DEF7EF8BE515E4A199DCD5B909342598D8FE6A231F71336248D5CEC5454455C7BE383B3BC7B260FED27F703FDC39A170F3827239102F59D4DEE7FEF82EAA1A5E4BA94DCC4CC44E7E2EDE20F24244E4454369D2E87C3F823F193FD4FD27E1C23984B01898D15ABC20711A8A558054951A6AE280096BA3
311
6CBA439603B7B0B4C45F248C14B2383B4B5CD8ECECE4FF859AD4A6CA2326D020EF090F4041D28DB66E5256B56232CC52829DE8060BAE6BBF37D4B7469B822454FE93210A3E8D15E69FFCF01123222611C51C4FD0A041A0CFA2471CF6BE38D2B20FA4C3525B5B8B586759475CF80ADFE67A284AC24651E52B8E683D24C26226
311
42F27E7C3C22783BCF63648BC398BD6CD0D9C97E7E7E3EACB6126DB7A6C1FD9F1031302EE67ED96F22B77C7CA0239BB324207559B105E4693EB26EC46182A92C9C0DBD24F29B31C5C5AC1F84300E0E17CEEAC15F5736FA4A98971E2F1423BFCD68D4BBD5F86E74B40A369F39507C88FCDB35D2DD8DEBEA4AF999E23CF2816D
311
204200DF6E611781B9884C1AC8888B4DE397320472959434323A5A36B22A8E1F721A270DF3BD65E4A31C11FF048AFB0D8B7B6881423793963A23CFCE935FC189ED36FAE35C46DA3574C979E4394BE52084F3081837BE033396D2EBD80F1F691B273F660D2B32FA27A33B1DE4ADA5F0FA4651511102DFA410DDA86E065272CA
311
314D5249DF91B06BB92807B28EFD54F08F7B525252782CD276DD02E6B0319B13DF87B1F6361AD6B28FC0D711CF445429B9E5A433CD493051C49A9E03DDB1B147D880253514A5DED88009018620EE229101C041950E2D8AA8E1F5F5438E0C0C0C60EEDEE9E3E0C051948C69F84BB7B2A48A1F3C8EB9E6864687F4F4F6F6E2FA
311
87608ADAF9C5E117B7C1A737E710769DA1D15ECE6A84502AA855398712D5FB51BE92E4EF824969CE18278798AC303C2C7980DD2500ADF8FB1E6D6C2FAAFF9987178923334A244758BAA01A9A1B70FA5097D01E1CC2A58DAD0EC94CE6430AA9B0C10D75E3C6BAC670EFBADEE1607739CE0FC18A2587E3EC3058562014C64219
311
C69BC269082D5C2F4A659278D585755912176D78A1B641719C2A394CED495A1AC5D583FD2F5EDD93308EA7EAE8A6DD396598BDBD3D4CFED62D18A5BDFDE0DD5C80D1A89BA62697B131AE7CE9A6594138582F1B37D68F1749AC7CB67A70695D48A4A056AC1FBD4E82358CEAE38F54B95A9016F9000F9879C0D9D131768635CA
311
798895F27D6F1614F11F2838A83611AA51C9A3DDB539D42979C29F10465655C17BEC3E2760B80DCBF609198C7B171A531905F3EC218D696025975E986C6B4C666666787271F202805577DD5A3EF0CAFAF91B62DC4B2DB4217A7606282F31D8DDBC290593BAA93EA6353AFA9939B877978481E15CFC9F2755CDC00C538F63A4
311
BA3E80AE009B73CA0185687D339A507D165B74290D6EE46D5C58148F020C3668ABE9EF2F7549170DC80DB41FFC1D678FF19AEB10C7133832B104B80F691B3138F97A92D26E551F1F110400D45AC71A9B9AC41A1A1B1DAEED0B0810638EFFB511D46B121C6FEA0F38CD00E03CFFEB9713FE1F9C263E4DDEC160D0497FA9A132
311
BA608584057FB15380825DE6C7FC3C667EE947D488A09898D8E939C4953BF4EC9836344D2CC6B2971B2A21A572B06096F4982D2CC7232D46E8EA69DC83722E267754D777F97F96D5DA74E1E75178084D0E70F12AD33E5F71EF2AFA599B2BEBF60A5BE475F444F240CBFE8143C334E7ED9150FEEFEF7EB020C4DBED388DD1D6
311
A167A76F3CBF119B578AE8CFA7736ACAFA4440A1C47185638A0D2F3EB5BDDEFDA958FB13CE4AA4923D5BF840392D45544329525749734866684BF7F8D9D54D892E19BCA9F829A0F8BFCBEEA6CFDFC61D74EA1A645ED7A1FF241739F15694BD835B66FEC5677E40FE69BD3F91AE402F036537218A401CB0828604AD189E5750
311
15C6F3F6BBC8AC79CF6C70653847254B31551EFCBEB5978B9DB85D58D0FA41A9DFE9C624834AA04949D24B5AE6D299E072D152D12097920F14AA92C31C3B97E28B6C2E6E9C23D63043ECBBC0A60FDF5BD0C33C127EA8A3308B8B6AFFEB28B4455BF6E7AF4FC6222728357EB8E46E85053E6A8843AB23295BF838ABDA94658F
311
EF3F832F147046B4ACD6F7D48E8FCC9618582961C898D1C7A253C91BFECBDA6BA18A1FCF70755DCCEE2222F41B76D23CA98D0CB3D95F0CF66D57FFF65E2A90F5DF40FC3187621E981BD0BC1D992787212688976B94A8F0C6EF646624B570B78E068826F87CE27041A95C9A4871FF65CC17FCB1639629AD6A9517000D63AC23
311
1F3D741CB8430777E7ECF80CE7A3F73C0F162F7E56AA71F4DA80A33CD6ACEE78E2C11FAC03DAFCE929B106F8F6B3ED2DC71FF994BD9CEF4E9A94896EF1B6E2B7B4978168BCF0847A3D2A4F1B0500B926E634B174548E9FBAD27153FB5FC36799B1E6C7C38A94E1F9E996796D7B485E635D5287A2AE76FBD11A341DB3F8F810
311
385BB7296391973DC6C37C452A9305AEBBE0CDB6C566DB59FE60C8E94B1FD090354BF51439FFD1B48D725228FFA88C84F686F547107A7A235665A4593B7C34D748C1AC8D56DD5DA861EEFBADDECBBD65117E65851F90351AEB65F0EFCFF4BCFEF24CB7A5879699FAC437A7AF9099186CF006BB923A59E37D7A36A29FD8D2CB
311
B914A5E9D0A8FD212FBF796AE9A67958FF1D5D8B85F78F96219D4714EB919929241B6C018AAE0C02069F8D919961EC5DDFBFB7573E3AC8E08BFB7C8534BE6DE045B3CD63DBD71F7638BA2309CAE398EA3A7D8F98BBBC7AEB367EFA5CFA27A9F8F2F52FE878058E6209C026453F8E7E8A237DFC389E9590F6059B397CFD6518
311
3BBF936E86896612A5B5FEE49DAC8455D026218AFEBEC12B3523A45B57B82C9C97E02ACFA1184DB18E48CF615DBF39C3CC6F0B4AE6BBEEA2E39D944E290302FA3DE33FA7E40296E2EF7BF1CD855BBECFAD0FD622BEE9746FC4FDFDE545AE6E3BC234CADF83A0FB76DFB145BF3828AE3436368AC24989454F8FF70A177672C7
311
11CAA1A76107218CF948CA01F873520E7A2B118EBB161ABAD432932029628B6761590C98AB590C8C8C79798CE9F715BA696E839E9131A4BB68BE923F1747FBFF165331FFDD4D05997ACD168F12CA75348DAC04C7F509FE83898A8B421181AF492861CE81E4A2DD0A30850CFA95E05F097FF70F9E777310D584A75BA7018922
311
E271DAB1D785671157685B7D383D3E074DDB4F1E44EF04B07BAAC75A062077C54B9752C738C9D804D402E02851F3F89605AF189738C18C021D2139EAF72513824E10DDD3047BACC8521ED7E98B257D1166903B1B08FA6F918FD7E162913FEC7D0EF4787E29C35FBA8C6E2C9C20E9AB30AE42CA2A01A090E7D010C1B5BF9CEE
311
2A304BF3A987FB40D836979B79E18D70F257DA61E808472DD85B82761825779D6B90CAEB0F23360C6F80A7D7D77545E95B3DFF0CF96A827F9B5BCECD2C9698718417EF80FEEDEE938AFF55859D0D540B7FE09435583A6F04874A0C7E8CF234DF4879722000167F5872CEC6BF3EF7E5A8CC8121E6A359227C8A29C95212F9F7
311
35BC72A887D56B8F309FC525BFB4FD767AAEC4AEFF249CFBBD2DE1AB9969A6155C7D8DABC307E47324C1F916C7BCFF40ABA5644E9FFB9238D19ADADA49D9610F01ABBA57E4DFCBDCCBB2B93C8953206C91DE01B0E2651A6D6C31721915B31F7B7CBCE55466F6D70402788FA91D73BE4ADCBA99A35F17D6B83383704917D683
311
3F0FA3CD45C926ADB8BC17999A4A0AFBCE2541F7B8CF4C2F5FBA611B3E626D64407CB32C122DFF4EF8674D6EDBB86C8F7C6A16D50FA685E2CCA34F8F7D1D8265BB0042E9D7F1F666F7BE5FAA5184DF58E12122A42EF02F461B3F369AC746F96528AD208512AB56844CF75B97F352DF7995024FB02855385854F3798670D01C
311
AC771AC3E1889EC25F61A20C1F8CAB46898817F9C47E2CDA1F286BF2F358298709FE567C91133E2638C8B53975E753EA8BFD3578B5F7186B7BF084EBA3F77BAC3132A5779902EC22AF2D2E79F42D324E083386DAEE9810D1B44A5DAA54513C7A71E52A4AB9257D975B621308FE4D2141CC3DCFE946C154A3C1DFCCA7629EC6
311
9ACFA831634ADDA93C0388D2A9A2DDAFCF957C6995BCE7FBB6DC4EBAE79E63EB08E9A25F52F67076F7093CA545CA3053B5BF576DEAD4E0017143C5F759F32B2D6F145B52B67B48909B7C7FCA6586EE385A2189C16932CB6DDFD9152AE317C430492A578ED27B72D85D40C7C93C097939E1B50F4D67F05334FE9DC362C30B7F
311
F561B95259138ECFD9274C8D695C31B14D4EAA9F3D7FA8DDF652F8C5DEFA23284C799B7D94416DEE81E05A866302DC70192A5368EA65E1CED8BF107A1E2D3119A71E85DC1A7B0C1E93274CE04DD0F2ABC8AC7C987FDB002B6F81757B43502EF7A0D92E416494FAEEA4C9C090CD9557AA4D532F4996A272B94355C5A0E4974E
311
EA9627476F30809B94D8D8D860062E02204643BEC7D0438AF800FC7E2B26955D595421E83C69E1A07E0E3122285835F014AD538188CF9737CE76D464A353FA55A001AB2526B84E985083693BC76FE211CA1D000679C889E3C009832C87E1AC2EDD05C302557422DF0800E316FCAC86978A371F025A6C7DAA9F333E7BD16040
311
3A1A06EA75AA9888FF01504B03041400060808004558EB4828BB58AF800100009E0500003D00000034383845413832422D393135412D343534352D414541312D3132453737354238353232422F536368656D61732F436F6D6D6F6E536368656D612E786D6CBD544D4FC23018BEFB2B96DE15493C78601010A34B880709DEDF
311
B52FD0D8B54BD70DF6EFED3AC0B12E6442E2716BFB3CEFF3D18E26FB440405EA8C2B1992E1C323095052C5B8DC842437EBFB673219DF8DA659866649B798C078B48AE6410122242F2A4994AC7F93815DF85C049C8564CA0A901499DD886B2EB9B1E02448F358701A9235880C49A0119892A20C89D1B9FD768815CAD268CB5E
311
0355B40B1E47F3E37A2020464BED06AA57CE8FCC20C3C3446D46761A2632A8C1283D07031EFF2AE7CCB1BFEEE916E406DFAC8E36FFD99A9D60A6944090EEDC3B670C7DC13DE86B6B2C5C240D6E503BB85ACD579D513F1B9F9A69DC9CC22AFA80C426D40AF0B21EA168559156B6276F0F726A6BFF04DCD513A87A62CAD41FB2
311
4FCB2858B3952E3D852084DA25B9303C15687973CC8E8AAE11DF2836C38C6A9E765E8C1BA1BFB1DC29CDFE518C8B5A7655A4ED7E77291ABEB80DBD82EC866ADE1B8D05AF9E35CF09D7A061F38A986D9EC412B8F0F65E5D81534D9B231D1E5A8FE577A241F3A5FD01504B03041400060808004558EB48E336299B9F04000034
311
1300003E00000034383845413832422D393135412D343534352D414541312D3132453737354238353232422F536368656D61732F47656E65726963536368656D612E786D6CD5585B6FE238147EDF5F61E5BD1498E9A895A02398AA5D1E2A5665BAAF96710C78D6B9C87168D95FBFE7F81242134A968E469A4855437C72AEDF
311
B965F4F53551642B7421B3741C0D7AFD88889467B14CD7E3A834AB8BEBE8EBED1FA3495108B3E01B91B0DBD1F3EC8E6C991A470F22155A72F73CBABC1D4D5921DCD1934863A11F990102A6F61466977B8AC49FB13C174CB3940BE4504A22E3713489B7F82406516225536940BD88E4E552493E8E564C1522225AB0384BD56E
311
1C195DC26FAB13882C2EBD62E1FF9E5B0FCC453132C99548446A1872B62267078F1EF14C3DB1DD1952DDBBB384AD456779F387C51992E0ADCE12FED2622BC5CB1952FC9BDF3295E9206E961AB116DA7ACE45F76F07A26EFC3FD762FD7362FC3C0BAA4DB34C09E682CA5167BADCD16CF94370E331E2F1A3D852008AAD5D64BA
311
2373478338AEB1583B905396D158182655E1B938D07926CF007CC7E85E6709999B0D3827C0BF406BEF55C68CF5579DA32C8C85BE03EFE788787E8FEC95DC85C3E31A615658D81F9A34499612004CE69CAB12531B15A887ACA642C110F8C1A8C1974A85853F407794695C905C688E69B116550ACA946B9B4785FC179E0E2292
311
40B62665328E86D5BD2C800CF5D80289F35AC25E3DD51508F4BF9A74A0F5A557BB3D284BC6FF59312E282F956A75C5D453906F48D11A876599E49425602400842995BDF02C4D012E226658F78A710416AC552831FDDEF0E6F0BABEBEA9DC36718CCEF4DAC5A0DF871AECBDD8F448F015F8DA113A473609D1751672B723874B
311
2CAB21ECD6E284E51DCC7D1A47A00F60EC21DC4CC3CDC406DC03760A4E6C772F2F4D561A9AE58C4B03F5B4838701472139EDCB36819A66C472B52AB1139C648956F43E0DAEC067B56B0818F5961D3D446B8F1E1E78C0EAD7EE02AF2895D813E88AC5014A7B436DBB20F778D40A1D9737EFE45B47D49CC8360F9966B15AABAC
311
802C1005548A93EE469F5D55317CD8BF0AA86CABADB2A009D4D6F60CFE53AE370AFE8C45415B15D362A5A038E766E34B00F8C2E3E7098E2093B1C96349FDAEA158903B4BDAEA665F473FECE72186E3BDDCACCADA31839CD6D4FA7D47DF5469006ED340EBE71DF960DDEE88A3E17557039B58C278A1795BA8079419DA8FC5BA
311
1BAA1A66238BF69C7B2BE4E6274839122B7D00BE8B7D52CF61B2D63216046008C8B330FC10F8907787DEF061F47965BBA02FD8F53BA12F9827614979F53563D0BB1AD67A03DC0E00E2FB2CF3EFB457E70E65A3D7C78E7D700DBB45132AE9BBA5E468CD861408961AD8B00A55C2FCC677F4456039FD9F1907A5B3E2D0EE845F
311
DBA2DAFA88C64195671AD6D282DA2E45B1F50A0D632B0D0B6718757DCC7C84A70A3656F222CDA6DBF07E204AB358961D1BE31E53A82C2C0D56DBF61A5608B5A252A932A1DC6E32462430853353EA30417C8199A662E946A4EF352268B8CDB9A9C6762515ACE8E09BBC031C608A02C4BA89C9DDC074E46E0E26A17BCBD4ED43
311
270D03E3645ADB81F6D62CC07A3243EB81C07E01681DDF2DB4730631E6DDA6CBBD048BE9F06AEB3CF06B31DD6C9575E37E9FF17161342C4C76D95519672A6509E0F5C4E71B4B1916440059F57D0921F496237E473A83E3E4E06353BD9D27593594D7B6707C08D22FEBDFBFFE03504B03041400060808004558EB488DFFFC99
311
640100009B0300004500000034383845413832422D393135412D343534352D414541312D3132453737354238353232422F536368656D61732F52656E6465724D6174657269616C536368656D612E786D6CA5535D6BC230147DDFAF08799F5FDB600FADA20EA430D968A7AF12D36B1B481349529DFF7EF9A85A718860DFDA73
311
EFB987734EA3D16FC5D10E946652C4B8DFE9610482CA9C8922C6B5D93CBFE3D1F0291A6B0D26A3255464182D920FB4233CC629881CD49C18508CF000E3EE309A100D61622AAB4A8A33B2483F11CB639C545B0E1508438C3D3C0361192846DB7ACD198DF186700D182920B914FC1063A36AFBEE8FBA03FFD3CC1D1F4FC9E151
311
A2AF59F628C5B7821D83FDFD3489305080F2EE04BF962195FB285E9D2DD352320A9E827AE357594914E42B1F5FE35F83688F60C4C91A6C946ED0668E8F244BC2EB0BA6E3BCCFC0B6A4B507F9F9F8D51EB315D9BA9E08D308E89F96931666E577837E2B4172199C68C4FE306156D47DF51C698C7B9D97FE5BEFE2190C3C38BB
311
054E6E8163FB039CB4B993C80BF18D969203116D6BBD26238B821F9BB909AD6D9C71B85BCD8C33D66FEA3D31B4BC0AD45BEA46BBEDDFEC0F504B03041400060808004558EB48C43D3B6A51000000570000004700000034383845413832422D393135412D343534352D414541312D3132453737354238353232422F41737365
311
74446174612F41737365745461626C654F66436F6E74656E74732E62696E53616060B030327532343636D435357236D035313232D275B27431D33572353170323577713633B71002AACB4D2C492DCA4CCC492C28484D2C4ACC4B4E050A82012F90744FCD03CA26072767A4E6260200504B03041400060808004558EB48F865
311
834058000000680000004500000034383845413832422D393135412D343534352D414541312D3132453737354238353232422F4173736574446174612F53747265616D56657273696F6E5461626C652E696E66558CBD0A80300C06F73E4B117FB66E451741D041DC5BF98480A492E4FDD18EAEC7DD4555D89EF28DF51A0B1B
311
D8340C4DE7DD848B988C0ACF0649566493F2408C508DDEBB99D5129FF8F1AF8CF5B9503E20FAE5A16B5AF702504B03041400060808004558EB489BEC2F2C36010000A20400003600000034383845413832422D393135412D343534352D414541312D3132453737354238353232422F4173736574446174612F636E782E786D
311
6CCD94314FC3301085FF4A6489318EDD0150E5B842B07402898A81EDEA5C5AAB8E1DD91704FF1EBBCD002A62EAD0F5F4DDDDF393DFA9D5E7E0AA0F8CC906DF32C905ABD09BD059BF6BD9447D7DCFAA95563104FA81B1CAC3802D2B65A6D52E86699C4B1DF630B95275D61FE6E2434A481BD83A7CEE1F8327F49458651CA4D4
311
B264F6380087894287E9C03B20E092474C618A06F324B203CE934C4420EC985E08795B8BBB5ACA8D944BB1584AF1AE9A426AB50DC1CDBCCDCB62186F16C29CF6322D545300ADA66867AABC86E9BF54F2ADF5AAC9A45689627665EEA0AF3177C0383A6B80B2794D30845467086150CD09D6AA292EFCF2E2097BEB6D69596769
311
4021BE648118C9E2157AF29FDACB7BB3F689C01BBC6647CE355EDE87D7E32F7A3BC5F2989BEB4BCBB9466E7D7F81AC34C77392A353AE8BFE06504B03041400060808004558EB4829EEBBA5E5000000600100006700000034383845413832422D393135412D343534352D414541312D3132453737354238353232422F526573
311
6F75726365732F38323542313333312D353243302D343232322D423944362D3245343042353744433637382F7468756D626E61696C2F302F636E782E786D6C4D90C16EC4200C447F25B2D46302ECA1AD5684FD893DF55251E24DD1128CC054EDDF175A0E7B1A6BFC6479465FBE8F307D612E9EE20A6A91306174B4F9B8AF50
311
F936BFC274313A13F1030653B407AED06D307ACF54D3B036BCD91ABA1B7CBC0F73C788D9BBF71477985CB0A5AC50DC271E76B19569C3725F36CB76514BC642353B6C07D81F380EB88C9671037392EA79962FB35257A5CEF27456F24D8B4E1AFD411406EF2363A6F474928EDA18DB3F528B0E185DB31F540F01E6E1392DDAD2
311
E8C2B9E51F10FFA406D9948277965B4D821C23CF0D427B68F10F1B2D7ADE267F6534EDDD985F504B03041400060808004558EB48A233C2345D000000800000006500000034383845413832422D393135412D343534352D414541312D3132453737354238353232422F5265736F75726365732F38323542313333312D353243
311
302D343232322D423944362D3245343042353744433637382F7468756D626E61696C2F636E782E786D6C4D8B490E80201004BF42E6EE76F3C0F216234B883063108CCF170C074F95AE5473F5C4C06E932E4F28601967600677D21E9D8092EDB002539227A2FCCB80E1168D80A6417297A89C5D6963B7129A0D1E8F2EE73AA7
311
B62BBEB8B27DE50B504B03041400060808004558EB48BE89762363000000880000005B00000034383845413832422D393135412D343534352D414541312D3132453737354238353232422F5265736F75726365732F38323542313333312D353243302D343232322D423944362D3245343042353744433637382F636E782E78
311
6D6C4DCC3B0E80201004D0AB90EDFD75167CCE820A4A845D83603CBE602CAC26799919AEEEE0D965E2E908050C6D0FCCE04C8BC355404EB6198129C92351FAD580A10E464065907C8D948F8F166375F655BDC3FDC3B4E530A176BE7057BDC43B2A593FE403504B03041400060808004558EB48F89C07967E000000A3000000
311
3600000034383845413832422D393135412D343534352D414541312D3132453737354238353232422F5265736F75726365732F636E782E786D6C4D8CD10A832018465F45FE7B37B52C076A60ED416259C84AC3E5D8E34F4717BBFAE0F09D23BBCFB6A2B78D2F17BC027A2180AC7F84C9F945413A662C00755AC6108EBF1B20
311
3F6E5641C1A0E51243DA4F34D9794C6BA1ABF3CF130AC60DAD2A8A39EB09AE1963D8DC8606B37B4D0C6F87BE694536AE45C9F3EBE52D79FD05504B03041400060808004558EB486A82588C0A010000550300003400000034383845413832422D393135412D343534352D414541312D3132453737354238353232422F536368
311
656D61732F636E782E786D6CCD933B4F03311084FFCAC912E5F97105A0C8E7141454344045677C9BC48AED3DF981E0DF630717894407453A7BF4693533F6CAEDA777C307C46431CC44504E060806171BF633297937DE9361AB6444CC67181982F63093261325F711CBDAA50576BAB8A63A1B8E5D7C40EF31BC9803784D06E3
311
744A3349A72BD525E302E948179D35153442C2120DD409D97AE8134C049D61216AE2E276E477A310AF426CF8B411FC4DB2462AF98EE83A6F438688EBCDC40DD663A886B8640D50B244DBA99682A87377B4F6215925944C39D6163A99BFD64AEA7575D6E85CCB6227F0875192B5B017911F2140B4E65A335FD8FBB7D0CF1016
311
884FF5A5A2D5EE5AB3FFE6F26F15B0D306D46FD016427D03504B03041400060808004558EB48E3603EBE7A000000C20000002C00000034383845413832422D393135412D343534352D414541312D3132453737354238353232422F636E782E786D6C6DCD410EC2201085E1AB90D9DBEACE05D09878023D01A1D34A8419C380
311
F1F82DA68B9AB8FDFEC93C3D7C52546FCC12980C9CBA232824CF63A0D9402DD3E10C6AB03A3397DD192872090D3406ABE7CCF5B5D18893ABB1690CF4DCF02282E5EA8A5BB96FFE536F285CB347F95BEFFE81C9ED5AFF9D5B1FB575BB00504B03041400060808004558EB48FF82D6057C000000A300000007000000636E782E
311
786D6C4D8C410AC3201405AF227F6F5B45890535287890D09820351A6C2C3D7EB564D1D583E1CDC8F1B345F4F6E5157252402E37403E3DF21CD2AAA01E0B1680462D4BCEC7DF0D509A36AFA063D0722DB9EE279AFD32D5D8690CE97942268433825A7C27DC60C619C7C619820975C3C0ADE094DA665CBBD2E6D76BDBF3FA0B
311
504B03041400060808004558EB48CA1DF9C9A900000073010000130000005B436F6E74656E745F54797065735D2E786D6CA590410EC2300C04BF12E5DEBA70400835E500FC800F84E0B411AD13252E2ABF27A55740421CEDDDD9B55CEFA7A117778CC979527255565220197F75D42A39B22DB652EC9BFAFC089844F65252B2
311
630E3B80643A1C742A7D40CA8AF571D09CC7D842D0E6A65B8475556DC07862242E78CE904D7D44ABC79EC569CAEBA537E3521C16DF5CA5A40EA17746733E0B6615DE7217475F386F18B9481C510F1F021CD9FF027EA0E1F5C4E609504B03041400060808004558EB483DEE336E64000000790000001B0000006175746F6465
311
736B2D64657369676E2D7061636B6167652E786D6C35CBC10E83200C00D05F21DCA56CA76D41FC96062B120735B69A7DBE268BB7777961F8D5AF396893C2ADB70FE7ADA196782C2DF776D7A97B5933C430F15651E5469C55D70F80A4992A3ADC954792C525AE70A1E4D6AD9816CC044FEFDF01FE3FDE907802504B03041400
311
060808004558EB48078B1DF7F6000000960100003700000034383845413832422D393135412D343534352D414541312D3132453737354238353232422F4173736574446174612F636F72652E786D6C8550CB6E833010FC15B477034B229A44C6510AF40B7AEACDB21D6225D8C88FAA9F5F3B50A93DF5B4ABD999D9DDA1E7AF
311
F9517C2AE7B5351D605943A18CB0529BA98318AEE400C59951676DF84583C2F059759061607472362E1B24AC09CA64D458A936907BAF0214E2919A0EBCB8A999973C86C4F0F772E1E2CE275562B9F2188D51CB4DAA6572D357AD1CB0A6EE8F47C41DC17640B2C7B12587717C25F5CB7EE82F4DD3BFE1815659CC68D0F3CF76
311
E1140F4A663DB6894C10DF114F7573C2FA835699C9A80F2EFDBC2DCDDF01BBE4AB071E38ADD6E91FD7B8C8FF5DA33661D76CAEABC203C374E473C06895534AE51961AA3951F60D504B03041400060808004558EB480E02D71CF10000008E0100006800000034383845413832422D393135412D343534352D414541312D3132
311
453737354238353232422F5265736F75726365732F38323542313333312D353243302D343232322D423944362D3245343042353744433637382F7468756D626E61696C2F302F636F72652E786D6C8550CB6EC32010FC156BEFD8AC13B94984895AC7FD829E7A43405C94182C1E553FBF10BB527BEA6957B333B3BBC3CE5FF3
311
BDFAD43E18677BC09A42A5AD74CAD8A98714AFE400D59933EF5CFC4583CA8A59F75060E06CF22E2D1B249D8DDA16D43AA5375084A02354F29E9B1E82FCD0B3A8458A99116EF522E44D4CBAC67AE5719692519BD4A8EC66AE467BE02D1D8E47C41DC1EE82648F63470EE3F842E8D3FE323CB7EDF08A07D6143167D1CC3FDBA5
311
D7226A55F4D86532417C433CD1F684F49D3585C959883EFFBC2D2DDF01A7AC59D13F6E6951FFBB2563E3AEDDDC5645008EF9B8C780B3A6A493CB23BA5C4B92FC1B504B03041400060808004558EB4867452CF5F7000000960100006600000034383845413832422D393135412D343534352D414541312D3132453737354238
311
353232422F5265736F75726365732F38323542313333312D353243302D343232322D423944362D3245343042353744433637382F7468756D626E61696C2F636F72652E786D6C8550CB6E833010FC15B477034B229A44C6514BE817F4D49B6B3BC40AD8C88FAA9F5F3B50A93DF5B4ABD999D9DDA1E7AF792A3E95F3DA9A0EB0
311
ACA1504658A9CDD8410C577280E2CCA8B336FCA24161F8AC3AC830303A3A1B970D12D60465326AAC541BC8BD57010A31A5A6032F6E6AE6258F2131FCBD5CB8B8F3519558AE3C4663D472936A99DCF4552B07ACA9FBE3117147B0BD20D9E3D092C330BC90FA697FE99F9BA67FC503ADB298D1A0E79FEDC2291E94CC7A6C1399
311
20BE219EEAE684F53BAD3293511F5CFA795B9ABF03166E71FE305C4FB45AA77F5CE322FF778DDA845DB3B9AE0A0F0CD3918F01A3554E29954784A9E644D937504B03041400060808004558EB48EC8A547F0A010000B10100005C00000034383845413832422D393135412D343534352D414541312D31324537373542383532
311
32422F5265736F75726365732F38323542313333312D353243302D343232322D423944362D3245343042353744433637382F636F72652E786D6C8590CB6EC32014447FC5628FCDC58F381126AA1FFD82AEBA4336715162B00C54FDFC42EC4AEDAAAB8B86190E77D8F56B79249F72B3CAE806414A5022F56826A5E7067977C3
311
354AAE9C6DC6B85F369468B1C806451971366FC6AF87341AEDA48EAA36933C4461AD7428191FE1D0203B7EC845A4C2BBE0B0F77415E35DCC328574F771E6BD9A8EA89AC26BEAA6E4863825DDF90C9063A87AC0050C15AE87A1C5E454F4DD0BA5DD2BD42C8B61CE9C5A7EE8E326859353CC4315CC18E00DE042E805C83BCBA2
311
9333EBB6B0F3018DDB215ED3B2853C075CD28EE082528ADB735F613A14A42D4F7D579D026E0FFE01FA75FA1FE89576393D807BC2220EE1FFCF0BCEB2586018CF76C38C65F36F504B03041400060808004558EB4893D77AAAF7000000960100003700000034383845413832422D393135412D343534352D414541312D313245
311
3737354238353232422F5265736F75726365732F636F72652E786D6C8550CB6E833010FC15E4BB812511259171D412FA01554FBD59F686580936F2A3EAE7D70E546A4F3DED6A76667677D8E96BBE179FE8BCB6A62750D6A44023ADD266EA490C17DA91E2C499B336FCA291C288197B9261C2D9E46C5C36485A13D064D45885
311
1B28BCC7400A794F4D4FBCBCE22C4A114362F85BB9087913139650AE3CCE62D46A936A95DCF445A323BCA987C3016047A13D03DDC3D8D26E1C5F68FDB43F0FCF4D33BC42C7AA2CE62CE8F967BB742802AAAC87369129C03BC0B16E8E507FB02A3339F3C1A59FB7A5F93BC2DFD0DBE8247A56ADD33FAE7151FFBB466DC2AED9
311
5C5785271CD2918F0167554E29954784A9E644F937504B03041400060808004558EB489229D568F5000000940100003500000034383845413832422D393135412D343534352D414541312D3132453737354238353232422F536368656D61732F636F72652E786D6C8550CB6E833010FC15B477034B229A44C6514BE80FB4A7
311
DE2CDB2156828DFCA8FAF9B5814AEDA9A75DCDCECCEE0E3D7F4D8FE25339AFADE900CB1A0A658495DA8C1DC470250728CE8C3A6BC32F1A14864FAA830C03A3A3B371DE20614D5026A3C64AB581DC7B15A0108FD474E0C54D4DBCE4312486BF973317773EAA12CB95C7688C5A6E522D939BBE6AE58035757F3C22EE08B61724
311
7B1C5A72188617523FED2FFD73D3F4AF78A05516331AF4F4B35D38C58392598F6D2213C477C453DD9CB0FEA0556632EA834B3F6F4BF377C0DE963B3DADD6D91FCF38CBFF3DA33661D76C9EABC203C374E23260B4CA19A5B204986ACE937D03504B03041400060808004558EB48F8EB4A7AFF000000D80100002D0000003438
311
3845413832422D393135412D343534352D414541312D3132453737354238353232422F636F72652E786D6C9591DD6E842010855F85708F0AD56A37C84613DFA057BDA332EB925DC1F0D3F4F10BD526DBBBF60A7238DF0C67869F3FD73BFA00E7B5353DA645851198D92A6D961EC770211D4667C19DB5E1C18691912BF438CB
311
58F0C5D9B81DD26C4D00935563151CA2F41E0246F33D5D7AECE72BACB290312487BF159B9C6F72818216BB4FF0A0D71F74762003282C58459F49D5124A5F293D55EC44AB375E66A7E0519BF0C48E66B0BE8342760B2952C2282FF7E7648B5A1D26ADD227F54583C3A2EEBA69E8D8485E683390BAA91B324C0325944D6DDB8C
311
5DC3D8988A2458701F5C1ACD51240FE1AFF80EFE8A1637F5CF683BE1B1780855E6390B5E7E2F219D7927E20B504B03041400060808004558EB48316F2DAD05010000B201000008000000636F72652E786D6C8D50CB6E833010FC156BEF8097449444C6514BE817F4D49B8B1D62056C84EDA8FDFBDA814AEDADA7B5E6B1335E
311
76FA9C4672578BD3D634803905A24C6FA5364303C15FB21AC889B3C55AFF4B06C48849359060E06C586C9837A8B7C62B935063A5DA40E19CF240FA313E1A70FD554D2217C14785BBE5B3E86F625039E6AB8E33AFA71F6BBF28E195045E52AC32FA9421BE211E697944FACE8AA4E42C042DB7282D63BABE68B5244B7B3820EE
311
32ACCE98EDB1ABB2BAEB5EE296FDB97D2ECBF6156B56243367CE2FF1CFDB92D8D31327EE2997152BC5D987B5E32688A524B166FC024E5991883FA5C32CFF515A1BBF2BB785ABC301C758E841C4E074C1381EE78D335D9B7F03504B010214001400060808004558EB4881DDC94E3A010000A80100004F000000000000000000
311
000000000000000034383845413832422D393135412D343534352D414541312D3132453737354238353232422F4173736574446174612F446566696E6974696F6E4974657261746F7250726F706572746965732E62696E504B010214001400060808004558EB48879FC9FA2201000030020000450000000000000000000000
311
0000A701000034383845413832422D393135412D343534352D414541312D3132453737354238353232422F4173736574446174612F496E7374616E636550726F706572746965732E62696E504B010214001400060808004558EB4888E57597CD3F0000904100006B000000000000000000000000002C030000343838454138
311
32422D393135412D343534352D414541312D3132453737354238353232422F5265736F75726365732F38323542313333312D353243302D343232322D423944362D3245343042353744433637382F7468756D626E61696C2F302F67656E657269635F706E67504B010214001400060808004558EB4828BB58AF800100009E05
311
00003D000000000000000000000000008243000034383845413832422D393135412D343534352D414541312D3132453737354238353232422F536368656D61732F436F6D6D6F6E536368656D612E786D6C504B010214001400060808004558EB48E336299B9F040000341300003E000000000000000000000000005D450000
311
34383845413832422D393135412D343534352D414541312D3132453737354238353232422F536368656D61732F47656E65726963536368656D612E786D6C504B010214001400060808004558EB488DFFFC99640100009B0300004500000000000000000000000000584A000034383845413832422D393135412D343534352D
311
414541312D3132453737354238353232422F536368656D61732F52656E6465724D6174657269616C536368656D612E786D6C504B010214001400060808004558EB48C43D3B6A510000005700000047000000000000000000000000001F4C000034383845413832422D393135412D343534352D414541312D31324537373542
311
38353232422F4173736574446174612F41737365745461626C654F66436F6E74656E74732E62696E504B010214001400060808004558EB48F865834058000000680000004500000000000000000000000000D54C000034383845413832422D393135412D343534352D414541312D3132453737354238353232422F41737365
311
74446174612F53747265616D56657273696F6E5461626C652E696E66504B010214001400060808004558EB489BEC2F2C36010000A20400003600000000000000000000000000904D000034383845413832422D393135412D343534352D414541312D3132453737354238353232422F4173736574446174612F636E782E786D
311
6C504B010214001400060808004558EB4829EEBBA5E50000006001000067000000000000000000000000001A4F000034383845413832422D393135412D343534352D414541312D3132453737354238353232422F5265736F75726365732F38323542313333312D353243302D343232322D423944362D324534304235374443
311
3637382F7468756D626E61696C2F302F636E782E786D6C504B010214001400060808004558EB48A233C2345D0000008000000065000000000000000000000000008450000034383845413832422D393135412D343534352D414541312D3132453737354238353232422F5265736F75726365732F38323542313333312D3532
311
43302D343232322D423944362D3245343042353744433637382F7468756D626E61696C2F636E782E786D6C504B010214001400060808004558EB48BE89762363000000880000005B000000000000000000000000006451000034383845413832422D393135412D343534352D414541312D3132453737354238353232422F52
311
65736F75726365732F38323542313333312D353243302D343232322D423944362D3245343042353744433637382F636E782E786D6C504B010214001400060808004558EB48F89C07967E000000A300000036000000000000000000000000004052000034383845413832422D393135412D343534352D414541312D31324537
311
37354238353232422F5265736F75726365732F636E782E786D6C504B010214001400060808004558EB486A82588C0A0100005503000034000000000000000000000000001253000034383845413832422D393135412D343534352D414541312D3132453737354238353232422F536368656D61732F636E782E786D6C504B01
311
0214001400060808004558EB48E3603EBE7A000000C20000002C000000000000000000000000006E54000034383845413832422D393135412D343534352D414541312D3132453737354238353232422F636E782E786D6C504B010214001400060808004558EB48FF82D6057C000000A3000000070000000000000000000000
311
000032550000636E782E786D6C504B010214001400060808004558EB48CA1DF9C9A9000000730100001300000000000000000000000000D35500005B436F6E74656E745F54797065735D2E786D6C504B010214001400060808004558EB483DEE336E64000000790000001B00000000000000000000000000AD560000617574
311
6F6465736B2D64657369676E2D7061636B6167652E786D6C504B010214001400060808004558EB48078B1DF7F60000009601000037000000000000000000000000004A57000034383845413832422D393135412D343534352D414541312D3132453737354238353232422F4173736574446174612F636F72652E786D6C504B
311
010214001400060808004558EB480E02D71CF10000008E01000068000000000000000000000000009558000034383845413832422D393135412D343534352D414541312D3132453737354238353232422F5265736F75726365732F38323542313333312D353243302D343232322D423944362D324534304235374443363738
311
2F7468756D626E61696C2F302F636F72652E786D6C504B010214001400060808004558EB4867452CF5F70000009601000066000000000000000000000000000C5A000034383845413832422D393135412D343534352D414541312D3132453737354238353232422F5265736F75726365732F38323542313333312D35324330
311
2D343232322D423944362D3245343042353744433637382F7468756D626E61696C2F636F72652E786D6C504B010214001400060808004558EB48EC8A547F0A010000B10100005C00000000000000000000000000875B000034383845413832422D393135412D343534352D414541312D3132453737354238353232422F5265
311
736F75726365732F38323542313333312D353243302D343232322D423944362D3245343042353744433637382F636F72652E786D6C504B010214001400060808004558EB4893D77AAAF70000009601000037000000000000000000000000000B5D000034383845413832422D393135412D343534352D414541312D31324537
311
37354238353232422F5265736F75726365732F636F72652E786D6C504B010214001400060808004558EB489229D568F5000000940100003500000000000000000000000000575E000034383845413832422D393135412D343534352D414541312D3132453737354238353232422F536368656D61732F636F72652E786D6C50
311
4B010214001400060808004558EB48F8EB4A7AFF000000D80100002D000000000000000000000000009F5F000034383845413832422D393135412D343534352D414541312D3132453737354238353232422F636F72652E786D6C504B010214001400060808004558EB48316F2DAD05010000B2010000080000000000000000
311
0000000000E9600000636F72652E786D6C504B0506000000001A001A00210B0000146200000000
310
504B03041400060808004558EB48000000000000000000000000370000006662782F41303633383332362D353536352D343142462D393732332D3534424130464437374441412F617474726962757465732E62696E504B03041400060808004558EB48000000000000000000000000350000006662782F4130363338333236
310
2D353536352D343142462D393732332D3534424130464437374441412F76657274696365732E62696E504B03041400060808004558EB48F270F1330600000004000000360000006662782F41303633383332362D353536352D343142462D393732332D3534424130464437374441412F747269616E676C65732E62696E6366
310
60600000504B03041400060808004558EB4888E57597CD3F000090410000420000006662782F41303633383332362D353536352D343142462D393732332D3534424130464437374441412F7265736F75726365732F322F305F67656E657269632E706E67355B773CD4FF1FBF73E71C0E67EF7576C9DEF3EC995D46C6A1EC50
310
46649CBDF79E192942562825CE965D8A868C2842C8DE9FDFD1F7E7F138F7078FCF6B3F5FCFD7EBFDFEC41B196891913091804020321D6D7513FC77D8C5070EC3FFEE51B21F068154CC75D455CC028A3EA68992803810109FDDE5D5CEC5521B28A1B422BF80741695D5B529DA1C2D058AD2388BDA9F476F7C2CADC939304173
310
DBF48A452BF8A700C0C70C3D121C1AA15A5270C22E2B9E28763651F7DA0D12CE11077B2ECD0D560B5E3DE2368B1E65C5E1C87384A4CC5F2D9FB8BE39E9B77C753783A37998F5CEF1B4FEE553463245C9712270880DF339E0B882A6BA713D865F6F384C842D440934EF264F4A304F8DE4EEFA1E2BF5E2D91F5ADD9613D6E31D
310
DB33ED31DB1D7916CAF091286EA3D31B9CFECB78BB0060245B943C4C040119FF780A74DD308BA9D028678674EB5504ECF284EE814DAED07440BAF649BE4B55DA2890F4D73E2D489A59EE54FDB0A85B59F2F52C4858A02705C4815A792B0C4A996A2023ECB195073E115E3E3647F64243A8338F2000BCB58DA5692C7E7C3D41
310
3F963FEDF3CF00FBB0F831A9D51360FECA43819F527B89FA260EB63C5DA676830AA3626A3693B23F1A17A0DFFCE3EE164E31B5365EDF0C89EF64D8E38AB0BA9A1117D7C3A0EC44F44F4023095E80BA610DE336D0F99593A88BFC5306E72DF98F7FD132ED95878DF2964EA7E43071359FD83B2BDF9C6B5BDF768F0F3C0FC351
310
199526F53D9460A34511F75D1B63E488178569472C91A94497807A3FD4A390C6558F26D416365C3656DE6E769DA9D8FC73774E1709812842DD8EF96AED1960F79D21B395CDDFE6F92CB4EB962A4668C76990E2EF29798C8941D67DA50F4A5F947872460F1F6FDB794E8A29FD7AC0C0D6E0714339CE258FB17AE8535221E346
310
4A10F29A0BE5EEECEFC5675926A89F49EB14E5711894F6586DB5754EB4D5DA9C6437EBA57DB97A24F8B8A8DB295FFD73266CF57E82694DF5166DDF93573AFE9C9C5EB05F8FEF8E89E0A8917B0B3724DB7BEBB53252581EFC3E38166BA131A3A5B42FE2AD00A769BBFA4458D2DE7822F8C4F63D0B8E21B285AE13325F3410A4
310
35C648C9D91FDEB109E73CEDA7BC796961AF79175E1A3CE4C5E8B0D009B0C9E29EFD98BC8E97554E3D8D838424E270F7685226E5AC268E021EDE3522D583E8F20C0BDE2959EF5BBFEEDAB32FE9A3ED0E39F211A86AA9DEBFC68182EDED132AB8BB794442D2D7EA9F4D8BFF52BC4D55BB165124EE90A42D101E67BBBB292FFB
310
4F66DE5BF2300E44546757DA7CEF8932BFC9F92A0707953491A55C5A5ACEDABD9FA1AEA01BAC3DC5A24E22E7C47213493996EFBC369D086ED9397C9BA6C7F9855C7BD5E15BFC8C53DB3D2A4C5901A57ACD2FBDF4D1676E95338B2C2BCE65FDA4C64F5FEFDC7D9CA5AA1FCF11E193F2FDABF0F4916BF13FB916A224380E6462
310
A9815F2300DC49CC4DF8D055CEF76462F4B7A7ACA7365C2707891370BC1D0AA6203C44CCAB47084FEC057F27FFCD57F89B8B9852459798A675C66BD7CE572CAF71FF7E6D7ECF7BF62CAB7B3F1107DCD04DC55A3F9961700286141C94A4F771FEB2BCDA2DDEE0CB0BAE402FF1DB0100F8E475DFFFC074DDB4498AB7D186A765
310
4DDB1CB680D703D47CEB4E72F8CB13D86A4AA68116E26387B93FD6738779B34FEDB8E517EDF2BAF28D9BE93A1D3A164320E07D42E514725C29515FF361754213EDE06B079A2E99EB1CA82A02019EADEEB87B9AF005BD04BBCECB14AACD6B24EFBE482194A97DD32400685FF1FEF1544D1B14EFB1E7F08E6D2CD2AF52DE757F
310
35F5E62332EE88EA26417AD5C3E0E319D68F25414E6D672BD4522B278C57D18F0113921C71D96527E091F00CEB15AE23D24667369BD3CEFA10C7549D930890BA4366F4EBC55F01F746109F98ABCDD5A3EE06619C6AD78AB33E48E4C9BD21BF7478B385EC05C4F8987E2C1BFA0A60EBEDAA0AE0B015C2720ECE180FB6F2DEFB
310
EB822D96338C9B63822183BBF52FB664A7AE57003AABCE512BF77E7E31BDA2E739AC4C131657DDFE5225E900FB56CC01CDE808FA4A9C9DA16AC679656BB64796283D89812B8F91136AE18EE5EBBAF47A73BE3C153EB5D4CD491B4BFB4FE690A4CF9ABA08C0D8AA64220C438C96EA6CA80B58FE5761E697B3A292EB9FBDA502
310
FA863E49FE694ADDFFF9D62C520BDD1A22014147A0903A05B9B729F54272EF83931FEEC057BFF8C8055C279EAC5C0011804828734024F6CFA319C9CC6867C727184465CD9BB7ED386AFFD96B294A85E3802FAE47244602D8273615952B98C4F23F7EAE4463D9D638EEE374A20959E0FE519C4CFB0FBFE5DD80C2AA3F9DB961
310
D1BDE57E67C9BB47B77FDD74EE3094F5DBBE3EBC1FBDB7393F5116263009E2EFE1AF9A221B2AE234C902BF70E9F280ED23E73908361565964333A3F01D0B006AF32FB21AA1316744B489D5A198E85299241735BE559675130955C902A8ED761FC0DBE337A9F91919AF5CE32AF902ADF9AB2615E00E8A94586BA1A90839B618
310
32FF1BFB76D2EFADE6DB1BA04CCAD3DA649E7E2A0219F592E22F2AD54847EEA8E42271011E9074F8F3DD9FBA6CDF88FFC9FC7E811AD1CA8F4557CE4AFC7BBEDCF0114A48689F20A584520C74DA8127124B767E2FB91A6B186246727BE63C9445BAE02088D58B8EFDC0F1072407CD9B89A13F6303B4A928F593AD489B58E686
310
9325790ADC406036C591729FE14021F94B7796BB11848D463536A092A26F077F94639F7CEEE2A724C66EC885F4A24F8B8A0AC321F8FD149BA529460FAA34E4663C02D41FDF80BCA222D42F0ABFF8490F4FA74C673807C2051D8E467B47B616072860069A9A303ABA9B319D58404461401B0A0F9BE5E1E151C14BC33B32ABE0
310
3DDE91708DFAEB15E7C0D593C86BB7D7EC17BE56E57975F077BFD5525F3A1A361D584A75E08CF29FC7B44B2B3085014F3A5A14517377C3F6B8F37E59514C3B12F8AACDEDDA4DFC49BE5710101534CD6FB6DE15B50F11A09472AABA727F0C49D9CB906B158030065F48EB3625E010CEC1D511D0053474B11E6A4F01C0D6EF1B
310
ED3A944FDEC70E0DDCDC756C86545910E0DAE3BE3AA9A404574C2995CD5CAF9549226BC94B4F4F0F5F9086F418F6B32346464610D8BC7391D3C3A3CCF04CFC1FB2A3A3170E369511868F14EEA4E5E438CC73DB1F3248AA94B6B2FF33B222FF3D1E7BF146CAD229770158063BCE4F5391964DF62F7E52A7BE0EEA829C9E13C4
310
C147D6F93FE59E111DAB5E4594D6F3CD1AD375EE039930EFE5AF2BB2D41C83C7DABD8C659BAFBE8FAB392CA634F3D15C1D945DB4588D2B0824A4EC928AAC565557CA2F0DAA588CA5BE30B3A8004F7BF005E96CBF891D7F18112A3619FDF530DC8AA64954258E1811789B5189B49B4EB53F5F89F7D37523894F3EB57B373763
310
C91E502F52CC99EB7BDDF933FC324C4FFC2561DFFA7339FAFDD0A4BFBE6D3A8FF9ED1FC49898139864602458968913181918F719CCF5A68B2EE9C1FF050E34E63107003B8120FA982C21B30A874E4F5E4B38D5A8290C4B8D9BE48A0BE31EA995BDC37AC6DE90BA17D259DEF53605D55922FEB1855D915B659FBEB350EE0DFB
310
2F9F766E1C84CC8964B75D08667445EAB966015F63A18A9E0A325C1B3DC628C0D3CB60F767FA93CC65F25458BD23C3B312716E5F40E5858AC06EBA9AB14F95DB99147B832069201541D09A0D856E12C629CF32683760EE855537D1901988D5EBC156676C7DD51D7207CF3267AF1D76C2AD867315E44618015313A98B19941C
310
696FED3461CAA9B5415F918556D7802EDACEFD6B2E45853A9735DFC9DBF7E440F9319F8B6805A973BCCDC76C069A9144E51F187EDCC12FC31B5DEAAF0A76137199B106EC84ADA6B6EE697D4E6A96E007417F4E880E8B1E89B4BCE9D81EF611E2ED8F0C1A6C25F620FAFAAB656A7C42D464880E8AFAB0E0FC8EA38CA9A8AEEA
310
EE3E4648BA4680270A89743CDD3E6C6CBF34B7B640EFA285ABC7EA0A1E28F3CC963D114A80123EE66D0AF7D5380EB41909B605AB4765B709B808590458157E69BA1378FEC4B48CAF6A730E3BE3C5EF2DD1A5EAF94B1DDE50CEB55DDFD7EE9A16747FA4B223359FB1FCC69E1194892BABB93A1D5C4E807AC0EA2E30180811E7
310
7A2291F6E7F7FAA5E0F60215BC6024E48DE436C511F0628B8CA189982D4D83CCA17D305A7E923C37941CFDFDCD93ACAF735EF5F0E61BBD3E6C41A59B242790D3A3BAC7064DCD89AA2E37214EC839820949D5CAA31E240D2948E48F690298974A96BA9A8432BC90F5071D6537C9666EA4564796B7AFFFA548077BEEA75F6308
310
3435074BA182F3699557397F71548383FDA8CA34D99B981E72835ECDA5DDDC151315173D05A21F651AAF8524E88209E2E7A737ED1045800CE3390050BCFB8BE588DF111617874C62575039CA588EEFDEFEFE319B739DE2EDC147092A262611E159650E787917885EF08F1F51B8F2D8A71D60B58B190FEF9541A1BE94BC19FE
310
A50784DA1419FE4B0FB51B8D36B5FF8E1286FD8AF42B91E59A5F1CC4D60174E764045FD8C57B18209B217F89A62252BD20BE0E63E12B8E8F029FE19E0E8D0870F58721A557082250D5424F7909369376E41666C0EE77CD87CB283F661D5FB6D0DA023CB67320A20DC7BE661E9E1BFE5463085C557DA1FF9BE835733766C3D1
310
39F2CF9E2208873AD0EB4814DE9E6BF2CAF81614D4D43906ED1C05A3265CABBFE192770FC2F64F940CB6B17B5F166F133C9AEEAD2641807C3E69515171DD74C4A85311513D6EC9530B3B601B6BA3EBFF3B5C3D2F7D69765141E345F75433953D013ADDF8F6AA7DC3F4A7563FE5C7D367937E2900D7EAD0F9FC9A4A1A9B5BDF
310
1FEF08532660C01C5D6DE22199AA774383E306DAB87E301ABB7D213887F9869D4942D0D71E94B27EDF216A318BD488D45DF84529EF575AF3C3938C0AAA0215B01994153E2054A0B894DA5C784980633AAD48576957CF4AEAEAFADC7C587368551C73DBE1E57C58AC713303A8BFC258BD04B51724459FF9E24C03A81E0E0679
310
CEB9B348C0DC998FEB9C6D6EFA77D247CC8F92D3848599ED89A23218D0636465AD1CEEB7DC140D7426F83491C4E8E8281C2FB35240918FFECE880CA2A42D70E8B20B34DF5221C7DB0CF90ECCB9C745B37A47E9B716FF7A97B7A252C1F3814DC7B1E1A7F72B8751D524EF7CAE45B0C73B3BE7D08ED39781B380DDFC9AA4A474
310
9C9493DB5BAD07A6EA6C092FBD0E85DB004DF06B8C9D3089C5320187E4CE1846158C7EA7DDAE8AD9AFFF21AA3A1026BB06A259845E8232DEE62811A4DA9CEAB3A4887320B76E2AE5615EAB7BDF738CBDD01F1E64064BC13D9EC53576751CA8CACD58B3CEB0E6CA585BD089B2A59B9FC101403387AADBDBE70586B93D64BF3A
310
D4453EF9C3B6A93817E8346991798601344F79A83C51F3D50F7BF2683A3605F51A72449489E0EE6169C749C60B1035651103AEE24D24E51A759C840DD3FC6504DA6FE107510E447B43461C79D22970B75DE5E1BD3007D1AFC619A4A4A69B5626AF5E9B8374E20677F77E2F8E73DF868E8BEC7EBA7B6A75EEF7205E1AB9486C
310
B642741D6E03FF13FCCEDB1C4AC129886268B01CDF4B124AF797CF784F3C6DEC97A17D4B558070A0F1C04DA4FF9BDBF34159AEFE958479824B3F58EBD1E19088A2AFDE501B6F2052368A3FD0E650A179EFAB1561E1D27527077136E652676C3670F42DCB3352F48F6BC86D2C3B0051727E41A0A4DC6CE2BE9D47F5CAA2935A
310
3C0539AF080665997194ABECD723B08129CC5B6B21D2E7D54CD4D12610E7E9FB8306771A89576C7A982002775ED44F3F744CF21EEBB27A631671D921938AAEE3EB0D19CD1E083727F607823E817BF599DCED5394E37EEBC2E88782E638920CA641EF74D4CDFCDEF06F4278ECB18E31E7E9876F2D783C8BF429C75395F57E98
310
C2B495A3DA077EB3AC3C158608B6B57FE3EA48484D9A480096FCEE0DE880950E7E5A5714131C5C41AAA29FD19AE81AC145FA1B9E85C7169A5AB837B213493DF7E9AA4B5FBF9CDEB36EBD21EF1181B7CF7366AB2A951D01E37AF4EB835D1BE8C117CFBE7625D2EBCDB0B20C5A4B45CED0BCDE3EE8DA9DA78C2E21DEAAFFD119
310
7E463C33CC6A80FB785669B856EFF7A8CCCA2841B5A5369173320B1170C368B2748D81062EA0296E5E2D95D7667A4A46D98A6FF475C76AAB0A8C8D45E226FAFC9FE0133EA9F60111F99CA81ACE03A1D14C89E8B0D69079C91464FA1D99E651D0EAF606F345C42A8A1AA9BA391031582B96D5B4176A77AADB01F12FD298A75D
310
EEBB2C82F0B8650E880722F8DDD90C56A7A058E5FDEF1AC93545BA27367C76F5D8F9690CB6F8DAE141EDD7971F0FB548A2AE435F224D6E5954CA155512F7332029D5A1230854B79F258EC5FFDB09F5F6343A8EB193229B7F7E79B3E48F8E183860B38C8269D1B53738FF1E0BACF6AADA6D4869E9DE708E79B5DADCC09B1BC7
310
6F649731CFAF59A83FD8BAE4C749D66FA87A3810D4D62FFE826FA400C0F325D2BC0F3CA35F5847B82A2ACC7961745C823E4D863D54460AF792CE6F79B5C7A33B25C3AEA6CDE15A919B6367D781E9D44F61BF828672594A3E1D9EDD6DF179A81F27EAC05B936575D73E05C209DDD2115CFB705DF9BBF3C911589B3640735E9E
310
618FC9C36A7326C82B2205E244C55D56FDB9D5DC93CE958D4BF8174D2B3DA54CB3C09F2C2A6DFF73D23B2197355761AD421EC581284A7EF8DE2CE3497C0C804D49B41DFD6A7360844E5BEFFB495CFCDB97A4595911CDBA623274CE852B5E278AF0BEB1770E9D37CD977B2766A7DED0E94B840E1E95E8C77DE5CB6354AF7871
310
427C28ADBEEF7BA0A28E19DE9ACD75F379FE373EAE6DDDAE3834692F9C2B03B4FCA8FCA9ABE8EEEBEBB725B88A7C90941E850682CA04061A7DF0CE82ED49BFAFFD42C309818FAE14755CAAE78B0F73243ECCCAD7DF58FCB9CDFAE7A4D3E6671A613639130D056C8383C8F4FCF4808C331E544DD26E4755D09EA05253B3049A
310
1E32587CC25D72E073E2CD96D04A71BBCB0038FEC3F53D254199C3CDC67CD66640269431860225392B2CB3ECD0B4498AAE78BA1994246AE1EE78F2EDFB79F6C6CB6B5E279C4D373FBC21CB2698C9ACBBEB6A4BB6B39E16AB0E421CCBFC7654D81ED86022F9BB522146F9F4772E2D0E4FA70120C95A85A417BF5078B232F475
310
4363EB1750B2AC2148EB46B1EA72AD9B4D23ADCBC589D70106C3EC2ABEEED84DFE28E718C6C83502C28E9FDD3B09DA0A6F6F7B72B706A31C9E2A331EE70DA56A083D2177BFD63C55B11D8D949FAFCF90B23A1E24B9B5018B9A17E99F2890EC302F330FE7936E2C23F0D237EC8916F5166AB84B62A21BB0B950146962D754F9
310
2CC2C8877BED8FC7B7B25726DD19545392570B3A2C66B58F027BEF412E552D12A588C4A3CC5C3193FCB3485EFFF700D0B9EEC077754A33DC1FB9E25AF814628F91DDFECB667D3F7690803F38D13F8AE39353523BB08FC6760144AFA2CE28236F65EDBB3D5F59A57D612B99E3D7E5F8A851666BF9B5A6658EFC96EEB37A378A
310
BB0EB3FDDF1303AF32C41BD1C8560745D7BD81066B0D6313359CF488563D3BA3F8E2185D1FAA3EBA1397C9D0E3DD232180A4DCADB6AF25DB3AC3CC26589C8239E66E81547BC7E2F328F9884764CA37EB5DBE390DFC03A5246B456A7C3684C4377D0EEF9A350680FA9A077E8B2957B489E09AB1AD41316944C2254B5984830F
310
691C93CAA767EECF976FA5647538830B5E63236A6F0365C1E0F3E327F24FE35EDDBD7360B0F7374837409F7A6311BECC12B7026D4FA1AE204FA3F5FE904B1F420C7A9044AE58E403E7C4848E7DA25DC9EDAC79DD756FAA26B9EA83ACE8A214A2612A22AFA19DAE7DBAC5F8CDE1292A485F98DAC731A29FE01A3966E96BCB9F
310
B5A4C8830E1B9AF0C54B87FBE221A097036E5D28D1F869F810C06A9BB0AC0612F69AEBAF893C6E7AD59460208BAB3A6B09CA4F6BDDAB8CF0D1F84B72487498395A70DCD754796E271099A567A55CF242BBED64696378BB6CF25EF0FCDB589F3A82F1116D010A9AB9FA4358809EE0C973A2B4229BAA876A70B03AB49CBA7FBE
310
71DB1832FFD32F9BF2C8E98075CACAFB36921235D0F552B6A67E94E094097A5D7DF681B40623DA535ADA7A9AD8E9A62407D7C9A5AE51D62A17A83A23728DE86BB56115804D3F2675F2C6B87541A0FC497BF0CA86420F558C9859EBE9FAD62747E323E3AADC03FDCDDFE7407B09DA90B44E3185723C5381EAEF589765E2F7A0
310
99BA46695BAD60CEF3491B8A171F5F56444F7CE9455312C3498C74173AEA0214EC029833B34B650CBB5A5508D5091665309642791708ECF27CF11DB3D797D6CFE474453BD4BFADB768094B2147814D81C7CBAF8228DCAF5564B5891F5EF6A860EB2E323CB82AB868D8EA048880D63B0DE5341F1B3D53297B928A11E15F25E5
310
148990F710747C3509ED14909C552EBE3973246FCE55D00564D8310BC3EBC5085D08D806799B77D6C57FDF5E55837F9E934F09C03C729271B64F12D0A9F9E938107CAF7BF1EC8CF1BB9B42363D33070F4CACB425E605DDB0A34A12BB936DE286B9887A4E2E558F0886498BFF49C311D96C277CF6A9FC0D75AD0ECC5226D7E0
310
E3572012E56D7FDE4410CEC7A6D0F997F225A2055B8B92E3956E875AE4993CB3D4C9063AF98FD45E1BAB165640A43439A2C9181A7C355B297C0A0CCFFAE19B6FA3C2BA238A885FBC98B8F6DAF4B94B97304878DF4D8BFF6A4AEDF79E90ED4E68F00CD7299F4E0D83E35601AF0CBEF18C1E870E74758FA91F5131075004DB3C
310
FCF09AE1DABC11957FD9808C92E8A678CE9DBE40DDA0E0D1D505AAFBCBA208232BFB6FB3704E8985E61ADE53DE74152F5C7DE74B1DEDCD37DC3E8FB30D7EBA8B9EFFC3606BF90B8D438279CB7709FC7C00D327F41817EEA71CD9E49FE9C8C9A81C70915D9F0F15958EC5AA4C3BBFAF46986B90F188BDB24B89DE3C6F29EC3E
310
6F66D84856EE96A35E657CA41B41EFD8DBFA16AD6E91439EA92B40B21C053249F51AE50EB0B24C770FFAF40DF12C8436366819C48E36547D4E7B72FE2BBF10828583057814A668BDF183F6B2E58DFB151103E56303E63D00F39C27C4661605DB644D19175D02E3F0241E8FC3458D17AAAADB117CE9EEA690D0DB01E634878C
310
04C2C9310B69FCAB831151E3AD293BEF6E46B0ABCECB50F5939B39C613D41E81FAE8D34CAE3C4566B761D37185FE864AC32FCB71AEF39DAA5BAB88609BB980CD2F07A8F941653B529567726E2B2A58D079DD57E1E5E31426CF184A04D7B03B985F276D47406AF276FE32E3328BA866EB1FD39BEF57863A317634AA5FE46740
310
9B3873F5069EF0D71AF00AD189D17BA1974ECDB2D623E9E14086386A6AAB5807825C37B015BFE892AFD154920EC437EB945D958E18622E1E0FE2FA06557CE4BB9BBD05A2D40E774DA2B65473791E314B7D6C886820B2FCFE4AA272B3B8B15E7344A145E8AF919B5454D89D36D413E87211186BF6F645E5EC94DCCE8E1C7990
310
22E4EC9BC86D7A0F2AFB1FC4B2CE48F84B3F49ECE65BAD24CADCC07EFF39AB06BE9E6B27A059938EA7208838455383DDBCFCD967DDE4650EF92A14FF933C975DB20BD7FEEBC4487576485963D757D16340D9599FEB362F775F38CA4185A86F74B629C81B133644A3B18FD056E997E0734F9BE26D11C0AAFC669E2AC9FC41D2
310
81F8B2E1C35AE27BCE05F3DA295488096688719D974DF1B5D182DB7792288697F8763CFB43562C1CDEE11C4AABD5C22B6E33F6F389CFC3477C5919DC0D533F8A7A1846B7ADB60ABDC26C43D0CFC8910B7C15EE22675BD02702ED39DB77A87A192CA7A543E6205B979B9F5A6B512A3CA799E198B2D5797C0AF8D1D872CA455D
310
4D431A7879D4DD76110B5FF7F4176B54477A9EB5E4A5D11214FDA585F0382751D8E2582BA5D2075053298FEB8F1537304E32CB22C2E2B693DC0A760B1DFCA751BDC445AFDCBB12820ED85F6D5298933C7EF1211E9E057684056CDA3FEF3BB6052355E162DF27C59E965A8DDB7F9437EB72CDDA3A090DE65A5B2F50326247B7
310
EC67B73ACC7047FC9B353D6EE990F772207C6EC52B39DC2F3C0754821DAB559F7C1809C7D0DD5B0499D0442E0A6E391B3D5DB46D11E731E6794EC77523FBDAA242ED67F9FA1FB684255671F63C9BCFE6E7E896D51001A6113EF2298BA494E0B0980D1FA5B9D60796554C02256B1E0345FB7C6186B6A19D2DCA270416262845
310
FA4F42DB5D9B0A0B6F07FCA2E56C242522E001E0CEB734AF310FC8BFB57E38E03AACE93B3326A2197891E68452B26A6307FDABFEE0223D3C03C3C73D2D5BC054C8311F12004CAE488E5C29287F8156A2CAA4AD0D7BE6B97264E4139F437CE73ADF52E5134C52B819777C18B323A5924E4F67AFD13B1CDC3A61793A79FAF5C0
310
CEB718E441071E797C6DCCB9EFCF7E4A1E9F3DF3C2F9C9E8294E9586868788C972857FB0556D7A26941A7EEB9B580AD78EC40B85DC906B4120A563CA3B87797ED612D3B035962BB75F6515A393F4CB057F564CDF54F2E5A024514E6A1F901DB80C7E70B1FC05E356A7E72FABF4775B3E3FB8F70A2A8E7B6A94542BB3041579
310
78CCC999E707A29CC795E67A59CC546A5D47B368954CA7B6E75EC9E1F6FC73CE3B4F71F8CB1A6B15923D61EAAEB14626AAA9D04A26EB9C66CD1BE86CA31A5D8703DE04CD1EBCE4F5CCB62F93909AD11E55799A781A956ED27D3E738F4538CB04ADABC7DAEF20BC35BA6A90BCC1DC61BA05F20D8832FFB9BC9B15E2DB838A0A
310
FBB7E0C82A562127E0446894F427794C3037186F622BF24DE1B00AA10A23BFA47B2A180D6DA5AD6F7326FEB8C100C2D7142EB2A0B2A9D1008A09BA343D70E054AB69E2A7EDB783CBD92537FAF4A44D1296AC2792729104B3276C276C951D0CF3CF3F1E6B017720A7B8505A5FF9589365979678C36F1BAF759EAF57C60F1FF5
310
FE9DCF5F8E764FF25A2D06CF25117A8FED51884C13B2B750DB0E4F5E3D64124FCF11F0AD8F1CC3B3DA4B38ED22BF1CB2585EE6BFEBBA63FBFD44F9537B9B37BDD6B358720F98A8125AED4349CCFEB0E135F19E208A04CA7E2B10711185D72E381F448036EF57C9F874E54A971CA37A639E986AC0226DC5AA00D5B14FEA9192
310
234B3DE617814FC221C92F33F1D392F297731B567FD98FD91D989379AF567A65B8ADF177591DB90FBEA99BF4ED11B16E50A0AB1DBF1156D034BBE04D69D08F939D8E92BF525A1DDAFF80ECBC95D8F45D3FDD289FD23F7D8B452F8EBB34EC082DEEE68E18EDDF072060FAD2AB1504DD4879BF67099FC58F6E9DEFBF645D1633
310
4A3E9A127C6F1AF6132CF287E433B43A0EE93812B4AA0B194E03EE3FF91EF9C6ED0074A2F6EB18A96A7C9890B1FCDA1F2095E944DB911ED54C60DF16FB74C8CE9BDC7C54C4F14078CF73C2FFF1F1BBCCD7CF64F71407EA1683DBC410D226627F66E509060D5C0AFD611DE681D509DB8DD12FB1265B03C6F5C55FF4C30BD941
310
87FF692B4F152982502F193098A789526A038AB529A52BC0DC4FB6285CBAC10A8B8DB75DCD9BDABBB221E27D1F8DA9F5EE5926A1C8AA9BA9BC09239C6A7F12914EA3B59EFF7AAEC3FFCCE56F1C5C2980AD072793527565E774F4631DB178CEEC691B1F367BEA0CF2907E1D6B854D527065979DDEF002D8B2ACEA7CE21AE297
310
737EDE1D45B31233B73FEA35BCFDD0B09721FDBAF6432681F2FD10C3E9EFB246FD6E854B344ACC9D8A0EEF876A7314B49B6A499FC650B099D650DBFEC7638ADFD245E2B7839DA5AC5F7D5623FC0ECEEC8653FC9B2BDD1AD4D00A566FBA7186DD3C9CD26512551637498CADB950FEC71ADB9A5524285DE328B8EC7EC75D2345
310
AEC6A27C42AF6D9B92155315C80DBFCABBB7DA0FAE425C4FB896B15C9BFAC4FE67DF5A23D30C93DA4D8F36FB15D100050DA6062E22AEC5F4DAC4F6FEEF97AE05DE63C6D38F9E068A20BC5E3B6BCD75320C5090924E7F93640A7735B1A43451C2D91EE62C6238B797349E59890AF3A520DF4A87095F3ABEC2E61F0593416CE4
310
6CDCBE0E00E2523FCCD04408588B5B6C9DB6459C786CE378770B54F51DA3A5E1DF2A3349BEAAC234A6CF8993B598B3B25B4B113E353A4D750FA7534749430F3EBF2512E7EA3FD43C6AB9A1F765A58463B306721A15D224FAFE8C6F5E3432D57EE697DA0DD5A9D4866A8BCCAAA9DFF1F06047851408FEC060471D0E3EB86BFA
310
F46E4B5E60311DC3E3CEA147C75CF971BE74689507154FF2D2E92F15CDB2B9182B11459FD8ACAC5A85F174BC94A7F4EE4C4F5CAFA7C02E37BF0BC77B7DCD0C047BC316F562A01A441AFA7931CC84A28CB9F4AA367EB515778F29BFE61195FA671F4352E5E46E3A64773F1F76EE5EB36D7BCE9BCEAD837A4D77F8DB8C92AEEF
310
6711920D7C7D0F76B0FD0EB7AB83724CD35BCA7D36DDDF5FBB7FF6F04A91F3E2BB3B8F1A43CD659639507FF6331C5F697BCC782AE57D757A27D97F1AB9E0AEDB43F92F1B2AACDF5FEC8ADBAF9F814E2027003BA2F9E144B1938A7A04050AE5D953B82C45619165C813A10E76DD6906B3C16438064D14CDA713AEC420034613
310
E1AC7241904A49FBF87409AFB1FCB9B72FE7933A87D8FBEDACECE4EDCF6A4FE9FB94D5DEB74FAB7CFEAE17EE965DF980DCCA2D04134994F9A2E94D2265DA4FE6AA7B7AC15FACAC2B5ABBCD7DFF542C5314FDAB2E1B9D8B65220B8E2B638BE008E8DCA22678C820C5053664D15E89F2D735B51A84955E81A443545E9FF787BE
310
0FA700A76D136C27DA179A7C6E8939E01BE756E19CB292798063D8B97F44E8A27BCF3A614FEB8BE974A718E86F7EC99B53CA35FA24F61F2B07266684623A3D4CF073E511F3A10A8FDAFAF0078C577F4DF9D339FE7862E5FA47CF4344209E5BF76D783B1B48E152AD281B15FCB934DCDA49CEC5706B1EE8B460F435324A5CAD
310
154725E21AB8044B75A557A79F6C807B9340AA3D92503E866F4274412926C8C504E4D5EF8C0E68DD0B028781A6B4054F11CF18941F101C57CCC796773ABC8DED9CD91FE5788806C05E548895354AEAC96546D55B0E94A59F148D061F42AA398D822CDECA4CDE79E13469BDCC44FDC990F366BA5978C15F97ED80CBFD73B0CD
310
9B8B83A4F6845BDFBFAF034019473FB9A63BD55D3A4A7284757071574029A4D016DCCBE95DD679EF3C4880BF169422F8C89B68A988D2B13793CAED4F74DE7486C72DC94DF46B8E93D8E02EFCB1FF9B3BA10C8AE7F653DF94F4AF466CDDCEF5776687F7C4C14B63E4EED1719DC2EC482D7DBCC7AE518CDE3D5FF86D39000EC3
310
673C0044E1D308BF05F74D1B5F033A7D1BE7F74BC55BBE3E4A20F920946CA0271EB17BD2B80E5660ACB8A29A79F5E4BBA49D4D945B6EEF4A7EFEAA65E5555BBB57A7E15D2F83C69F30BBB978D2B39F1F26FC097424D39BB33CA3D87ABF64E307938B685BAD44F71556A30B7E712CA4FE600613C3E554B69ADE949A7CFE214D
310
F1FFF05CB82151EC6FC31950239F94CF7AD39DC473F6EA356E5EC2C4EFA04383CEFE985A127484366FBEE3C0EC4FEA363E4F6632AE781392FD45D67B63FB8DF70E82734F431FD3443172A0E30A83D60982D55FA6A2CF86DBA8382502ACC6CDEF3B907982EED1160E14863FA242F9757347E1544275CCDCF71ECD5F8621CBEA
310
326B8BA884AD7F825781923E66971F04010D574C541D8427A438A37EEF8AF88240EED7362C953F5A81DE2D56109CDE2524EA0F5D2F87308C0C47BD97AD605878AB8589E17CA83930CB5E0DCCD75853D68B1AB136594926DE426C367428E9334AFAFF90ECE221BB5DC9E5BB53D2CDEF954EAA9CD814F0E5725F1965DD458E5F
310
8487683AD86B9D0076BE3EE91EB1CECC5331A67A3F79D8B27587C12EC2A6A70474749F27B4C0BBAFB94B34189E88DC18964BE4121B9137FD516C7755356E50D6714E31ACD222621EBBCD1CFF81D87479056A9DA0E0B8EA19D24CF937DA89F78E8650CCBDC110AAB6C4E46DCBFD0446BA9E2060E81F314AC2031E88135E5476
310
AC0160EF5C0DD2EEF1B8B5CB2D198BE9A554A9093B5F7D7E4B5407DDFCA1D9C152FD97F55BFFFDFE802954DFEC8995B983E28AC92F1971E28F531DC407A1280EB125F64A72E617EFB27DFBCEDCDA2D6F2BDADA36873EE46B9BE1782998C63DA7182BC383FB6FD15DA472B175D7E8B4FC88F38D6E07FEAA3FA3CBB8F6B449EC
310
F14D2175E5C5CCA3A42ABF24CA6C9395AF74535F4DDB38CB84F56614B0FD32D7E19CA5CF988DB4449C40E23DF2B16772594554579094450F56F253CD25EA7F77366FB1CFE79696C428BB64D5A41E986189427E5E4D7E2DAE3D5BB4972B3DC44EAABDDDD63A2264ECFA5C786EB0EE1FDC5BE34FA0F08376869FD1E61EA06CAE
310
15191135445EE8F0394161C3266A596AA035572BB0C8876180D8B9C77D307DF9DCDF7365ABDA6F3A2366436457A4DFC1F259666569A9E4A79C817BDD5610E5200FCE894A358EC72858D50EF67545DA81C6FACE3D457BAF70367E1E6BDD9A952FB4F56247F58F523B97E640246051A72F79BE42FFA0B3187F63097F91C48B86
310
8586F714B0EBD5A00A8412C1236E1298F60C72BE6C96B82B404CADAA304AE9F303176B14BA53FBC2D5E86377E35542019E24D97B96A49B2C0E5006E7795954DEAF5DA58958839043C6C70BD3B1B33B6DC5C31316D8A6923F142E26F6711A2258AF977DDF1F970ECC4F1F2B434B96D81BEB6E89BF3BBB3C7C8CC80505070723
310
D6D7D7D3C8CA27CA164A26024FED94B12A86031867241DA53D929636DA600F050BC40CE48B8BA03D69224720DEE2ED2127390BDF5E6EA64527BBD4C4C63FA76BB801FEEC0E61218EC98A8A86CD8313781617877E66692839B9468CF4DB8E50A73986E558E309C0D6F676F921BE02F1185454DC75B111572FF9D27D85EA14C0
310
5AD7271225B391C4275659CA4A43759D0BA44639BE4C30A84DB7F67A41399FB95CBF923B1B1672ABC807C1590557FB18D811983FA97F5E609516D62281D38B1281F68FC75528C35E4CD7DF0F7DBB5E5DD69C414EBEA2F4A5B241B996BA77AE6C772E367408C633EA3E438B68563EA8BE7667F3A4C4FDEEA52ABD78A2820F44
310
3B7914A15F180018D231E64519C56A12F6CA7C8DAE18F06F6B769DBF92329EF6A5D18FBCE600F36BD8E8198DE5CDAA96181F3A756EBA5501CEE58F497EA4F418A2B82565B9BCC611713C0B708CCA1F398B78C5F7D03B3437CC18F13061F55C7BEDADD5ACB1DB0E36D3CE47FF6EA1A563A57E9649EA5D14D1A50EAA45746338
310
1C073777EF1600607BAF6428A7DDC079D47A204EF1E1F1F0589FB054D45E02CE623B3823C317C601E589E22B1E88B448524B86A82828E32345EC18AE17214B42F8C41C6D428016D9BA31DDCB47572561E5A402E5BA4FCE55F78AF7268524AA04130F3A20BA5D1E9F9948EA48FC8F5314FDB35E21898198060034ACE5E3E2BB
310
CA34092518F275190AF65F45867FF0900AA4B81F25427414C372BF51DC29AA855C5428EE1EEDD6B849AD60F6E73475C2D2523F8A2772C840A478DED18A8C5C91B085F255DC4F54EA7AA8947354FD17ECF8FB3B4A0DE7B483CAF3A1165EE05BBA413E5C1FEF3DE1D6B8F2F3F3251C17D9FCAB48A9AAF63AC773A0E413BBC46A
310
9ADF84A566FC920E4D8C52C9769EE3301CADEEEDD92B312E02E2A7E35B7F1E7D203FE5A7D75578B06E99D0E46FFADB8FDA17ED8880390DA29094202D6F645F76F6F96409CDA05495A96E84B04A00D1A6C6C81D7F3DE9376E828CCF144EE50E364ACCE7237EA0BFB5607ED1AC3CFE73794E5B61739D14DF1743441B1AC98F00
310
ECEDE9E7301FA29755FBEFA68C91EF2B314CF510537EF1ABFC9A762496280B546F5EDAAF8A5B387D469FC9A878A92828C88608453ACEC6094DCA54111E7AD5B2663DFE2DD151B7F123B9F4FEF8EE36AB125FD7AD52A59B1B765B3E3F73E3F73DEA93875004D2AFFE3CDE9493B87A9904DD052028949041A91DC0E1BA47BA71
310
4343FD5B25E0A6A09503AFC17C790058A836A324FE31D7893512E28230332F153181C1E018E1124EBE1BA262AA428A518237D1EA7275E48C5C561BD19ED6912EDD8367DA0F31E40EEAE9683DA9257525AEA7B632B97119E17145A90231768A4F3B9120FF32E8319B015E3CBE26F1A754177D8185345817C096B0CE443A955D
310
13AC15E1FB5DEEA0239EC32A3C92241A237B0B02FFCB4F93CF2B02570C8D192E2F2A68CEEB42F12E6F8CEEFF46C251E22B4341C56FB08CCE550E7A9D6F4D6564B9EA52A83D5BF2C6E03FA19D2775E15A8A7ACF30A13C259EE7F5EF2AC3BA354F1500E1A07FC63FB4686E2F12EC69719F9ECF5FE3F35598DF2CE944008CE78F
310
0911BA5BE5D0A34E0098FF038669C26030BA9B300303039852A8F6F496341737CA7E0D2E3AAA36DE0A70AA7D9CA0D54D9AD84B18A44C9E625475E1C97B93BEBB38DCE7D227E67A2D00F531436136355F243D1FC0D712C5765754FA22FCFFAE97919161F46D6E61ACB37D83777B385889770B50765B127768443A5C4D3A4E35
310
A3151111F146B7CA116F918A049F1C272F2CD7976C69A0068773451659A97E0F4A08FE604C3FF6CE7385DB19F4D3ABC8A0D80DA8A42096AC377DB49382B36E270B6FA7570188B4B7D1DDDDA82ACA487CCA5D38BD3BD039ADBAFA4ACFF27809239B722081E2EB9F145320553D183F28471C388BC8814E5045676767AB58A8E7
310
2D1CED2CA731379515D2E533E4CF0B39DFC625F97AC4836831A4DE330E87A8126FA17EBE583D614E71E22A8DBF2825599743E0640037303E8E1B1E8EA4E1ABFA4F62907B5E4E0E5DCFDAB417C36C6848A2B8D15F1E505434C0707E16B1CFC2A1C36A42BBF55734F8F4301DDC2A5110CEE8C0747F69519265012A2174BF4E95
310
5ECD4FDE095A3ABC70536B7AD0B9D7892F81287D667C108703C9B66A221E9A0929D030008F77FF6F5D2108EF5706FC87A3069B976F7C9FC3239D13D283CDEA83597461079FEEE049B0F392889898B7D87D31F8D60ED7B56B91823A8E4EDDB36C6172ECEE42BD42B12CD67994FA0F0DFAE9389356F4CD4425A4B8AA55CBF7EC
310
D585C6A2C2316791E43D5C06841ADBB226A87FD61515FFBB0167B74E56BD7F3E90A57A97FEDCBDF483A0D6699A8C0849CAEB4947FAA90D8E332D9DEBD9F4738C37DA0CAF9CF3DAA68BCB67C420459C7A64498D6E848E5CADE92BB6901F607AA331104A67F7CD650EE169B1DAE94D2C31C2F993632259B6957E246EFE4C5481
310
107B07118607700040E5812A2A2A38DA0076875258C753F60E0F2662C748EDD5F3F3686B8FC3BD6FE631ECCAA1E8B1C1E565AD117E54893E79F4672E32F9E46B2A183DFDCF3EECB4D4D077DBEA0DA254D256045109670050129E9B9B1A9E4A11344D61497A992778095151510C4BB7EF2009B63AA4360635312E4CF668B7E0
310
D3D85A8688E2BD83B569439892ADB63461930D428E0DE42E4AC57CE48DA5CC1449530D8BD3D6A0F08DF20C8E8F570F2CFFFCEA286E30969B4654D498A58D9DA782E19FE3F002181838925592C4A1EF0B332D88B61A92C644547BED490D3A42CFFAB70E36D961F694F6307F72FF15A1C79D5B1B5CEFD353D9E2B52566DEC8F8
310
F09CB3E8359C0F68EBBB7898243E34E12A015B2685AB303C04D3A9E00671FF3DFF0A184E4A2ABEB2B666AF5B3A209C73D8EF29DCDB069C9F391EEE9DD0F74C7BCDE16F8F02E3B8816122BBEB50665775B600549D8BB33A54A6BF940C028118BC6878C79958D6784F9DEAA6E26748386FFAF8D0D0101E2847B6563F5D8DC1D7
310
8F787BE00E2C941AE12148D4A81599FE8F68D4DA5CDED75530ADE138240300EE13B0FC13A1687FED6774662C05A2B7DFB186732F0D7A93545D8B0A6390AE5054D9CB582DA846D7A061B3358B45E2B52DDE63E114397EDB7E09233A579155D795BE76102CF277F4DF8B188C4F2879BEAE3C08347124BF9ED23B128259FE107D
310
31E34A652F090B30B39E0D9AF917B76A2806135621A8A60681F16AF216514BBD02711585B5B1AE823F4B2D0369EA5B6BCB863072727FFC871CA6C9AB79A814D989057E9470A3D238BC87CBB4A0EA49AFE2B86F22E499793CAA9047080450166BDC357524561E258C77CB697F1ABB32562CF87C3B7AA12F911EF19FB3E5C022
310
22E887D08202A60A17151F5E053A86B437771088B4FEE14D652C43E8D939995D34545E12E2FF93D4E366EAD25F10CB7DED141563C3D0C447AF06078A91135FD4B9611583CB4BF3BD167F2399CEAB0E0100F8FFC305F00F1711717173138B4B48C83022295DE657EFEDD97F238ECA80F528AFB4F8D67AD4E2594B9A3AA86D74
310
87EFC313BA95745C186F0CDD84CC12DC9CB0424B42203D351FD9C0A3AF10CC7F388E0329279087386421F194F4A29464C1DEF7EF8BE515E4A199DCD5B909342598D8FE6A231F71336248D5CEC5454455C7BE383B3BC7B260FED27F703FDC39A170F3827239102F59D4DEE7FEF82EAA1A5E4BA94DCC4CC44E7E2EDE20F24244
310
E4454369D2E87C3F823F193FD4FD27E1C23984B01898D15ABC20711A8A558054951A6AE280096BA36CBA439603B7B0B4C45F248C14B2383B4B5CD8ECECE4FF859AD4A6CA2326D020EF090F4041D28DB66E5256B56232CC52829DE8060BAE6BBF37D4B7469B822454FE93210A3E8D15E69FFCF01123222611C51C4FD0A041A0
310
CFA2471CF6BE38D2B20FA4C3525B5B8B586759475CF80ADFE67A284AC24651E52B8E683D24C2622642F27E7C3C22783BCF63648BC398BD6CD0D9C97E7E7E3EACB6126DB7A6C1FD9F1031302EE67ED96F22B77C7CA0239BB324207559B105E4693EB26EC46182A92C9C0DBD24F29B31C5C5AC1F84300E0E17CEEAC15F5736FA
310
4A98971E2F1423BFCD68D4BBD5F86E74B40A369F39507C88FCDB35D2DD8DEBEA4AF999E23CF2816D204200DF6E611781B9884C1AC8888B4DE397320472959434323A5A36B22A8E1F721A270DF3BD65E4A31C11FF048AFB0D8B7B6881423793963A23CFCE935FC189ED36FAE35C46DA3574C979E4394BE52084F3081837BE03
310
3396D2EBD80F1F691B273F660D2B32FA27A33B1DE4ADA5F0FA4651511102DFA410DDA86E065272CA314D5249DF91B06BB92807B28EFD54F08F7B525252782CD276DD02E6B0319B13DF87B1F6361AD6B28FC0D711CF445429B9E5A433CD493051C49A9E03DDB1B147D880253514A5DED88009018620EE229101C041950E2D8A
310
A8E1F5F5438E0C0C0C60EEDEE9E3E0C051948C69F84BB7B2A48A1F3C8EB9E6864687F4F4F6F6E2FA87608ADAF9C5E117B7C1A737E710769DA1D15ECE6A84502AA855398712D5FB51BE92E4EF824969CE18278798AC303C2C7980DD2500ADF8FB1E6D6C2FAAFF9987178923334A244758BAA01A9A1B70FA5097D01E1CC2A58D
310
AD0EC94CE6430AA9B0C10D75E3C6BAC670EFBADEE1607739CE0FC18A2587E3EC3058562014C64219C69BC269082D5C2F4A659278D585755912176D78A1B641719C2A394CED495A1AC5D583FD2F5EDD93308EA7EAE8A6DD396598BDBD3D4CFED62D18A5BDFDE0DD5C80D1A89BA62697B131AE7CE9A6594138582F1B37D68F17
310
49AC7CB67A70695D48A4A056AC1FBD4E82358CEAE38F54B95A9016F9000F9879C0D9D131768635CA798895F27D6F1614F11F2838A83611AA51C9A3DDB539D42979C29F10465655C17BEC3E2760B80DCBF609198C7B171A531905F3EC218D696025975E986C6B4C666666787271F202805577DD5A3EF0CAFAF91B62DC4B2DB4
310
217A7606282F31D8DDBC290593BAA93EA6353AFA9939B877978481E15CFC9F2755CDC00C538F63A4BA3E80AE009B73CA0185687D339A507D165B74290D6EE46D5C58148F020C3668ABE9EF2F7549170DC80DB41FFC1D678FF19AEB10C7133832B104B80F691B3138F97A92D26E551F1F110400D45AC71A9B9AC41A1A1B1DAE
310
ED0B0810638EFFB511D46B121C6FEA0F38CD00E03CFFEB9713FE1F9C263E4DDEC160D0497FA9A132BA608584057FB15380825DE6C7FC3C667EE947D488A09898D8E939C4953BF4EC9836344D2CC6B2971B2A21A572B06096F4982D2CC7232D46E8EA69DC83722E267754D777F97F96D5DA74E1E75178084D0E70F12AD33E5F
310
71EF2AFA599B2BEBF60A5BE475F444F240CBFE8143C334E7ED9150FEEFEF7EB020C4DBED388DD1D6A167A76F3CBF119B578AE8CFA7736ACAFA4440A1C47185638A0D2F3EB5BDDEFDA958FB13CE4AA4923D5BF840392D45544329525749734866684BF7F8D9D54D892E19BCA9F829A0F8BFCBEEA6CFDFC61D74EA1A645ED7A1
310
FF241739F15694BD835B66FEC5677E40FE69BD3F91AE402F036537218A401CB0828604AD189E575015C6F3F6BBC8AC79CF6C70653847254B31551EFCBEB5978B9DB85D58D0FA41A9DFE9C624834AA04949D24B5AE6D299E072D152D12097920F14AA92C31C3B97E28B6C2E6E9C23D63043ECBBC0A60FDF5BD0C33C127EA8A3
310
308B8B6AFFEB28B4455BF6E7AF4FC6222728357EB8E46E85053E6A8843AB23295BF838ABDA94658FEF3F832F147046B4ACD6F7D48E8FCC9618582961C898D1C7A253C91BFECBDA6BA18A1FCF70755DCCEE2222F41B76D23CA98D0CB3D95F0CF66D57FFF65E2A90F5DF40FC3187621E981BD0BC1D992787212688976B94A8F0
310
C6EF646624B570B78E068826F87CE27041A95C9A4871FF65CC17FCB1639629AD6A9517000D63AC231F3D741CB8430777E7ECF80CE7A3F73C0F162F7E56AA71F4DA80A33CD6ACEE78E2C11FAC03DAFCE929B106F8F6B3ED2DC71FF994BD9CEF4E9A94896EF1B6E2B7B4978168BCF0847A3D2A4F1B0500B926E634B174548E9F
310
BAD27153FB5FC36799B1E6C7C38A94E1F9E996796D7B485E635D5287A2AE76FBD11A341DB3F8F810385BB7296391973DC6C37C452A9305AEBBE0CDB6C566DB59FE60C8E94B1FD090354BF51439FFD1B48D725228FFA88C84F686F547107A7A235665A4593B7C34D748C1AC8D56DD5DA861EEFBADDECBBD65117E65851F9035
310
1AEB65F0EFCFF4BCFEF24CB7A5879699FAC437A7AF9099186CF006BB923A59E37D7A36A29FD8D2CBB914A5E9D0A8FD212FBF796AE9A67958FF1D5D8B85F78F96219D4714EB919929241B6C018AAE0C02069F8D919961EC5DDFBFB7573E3AC8E08BFB7C8534BE6DE045B3CD63DBD71F7638BA2309CAE398EA3A7D8F98BBBC7A
310
EB367EFA5CFA27A9F8F2F52FE878058E6209C026453F8E7E8A237DFC389E9590F6059B397CFD65183BBF936E86896612A5B5FEE49DAC8455D026218AFEBEC12B3523A45B57B82C9C97E02ACFA1184DB18E48CF615DBF39C3CC6F0B4AE6BBEEA2E39D944E290302FA3DE33FA7E40296E2EF7BF1CD855BBECFAD0FD622BEE974
310
6FC4FDFDE545AE6E3BC234CADF83A0FB76DFB145BF3828AE3436368AC24989454F8FF70A177672C711CAA1A76107218CF948CA01F873520E7A2B118EBB161ABAD432932029628B6761590C98AB590C8C8C79798CE9F715BA696E839E9131A4BB68BE923F1747FBFF165331FFDD4D05997ACD168F12CA75348DAC04C7F509FE
310
83898A8B421181AF492861CE81E4A2DD0A30850CFA95E05F097FF70F9E777310D584A75BA7018922E271DAB1D785671157685B7D383D3E074DDB4F1E44EF04B07BAAC75A062077C54B9752C738C9D804D402E02851F3F89605AF189738C18C021D2139EAF72513824E10DDD3047BACC8521ED7E98B257D1166903B1B08FA6F
310
918FD7E162913FEC7D0EF4787E29C35FBA8C6E2C9C20E9AB30AE42CA2A01A090E7D010C1B5BF9CEE2A304BF3A987FB40D836979B79E18D70F257DA61E808472DD85B82761825779D6B90CAEB0F23360C6F80A7D7D77545E95B3DFF0CF96A827F9B5BCECD2C9698718417EF80FEEDEE938AFF55859D0D540B7FE09435583A6F
310
04874A0C7E8CF234DF4879722000167F5872CEC6BF3EF7E5A8CC8121E6A359227C8A29C95212F9F735BC72A887D56B8F309FC525BFB4FD767AAEC4AEFF249CFBBD2DE1AB9969A6155C7D8DABC307E47324C1F916C7BCFF40ABA5644E9FFB9238D19ADADA49D9610F01ABBA57E4DFCBDCCBB2B93C8953206C91DE01B0E2651A
310
6D6C31721915B31F7B7CBCE55466F6D70402788FA91D73BE4ADCBA99A35F17D6B83383704917D6833F0FA3CD45C926ADB8BC17999A4A0AFBCE2541F7B8CF4C2F5FBA611B3E626D64407CB32C122DFF4EF8674D6EDBB86C8F7C6A16D50FA685E2CCA34F8F7D1D8265BB0042E9D7F1F666F7BE5FAA5184DF58E12122A42EF02F
310
461B3F369AC746F96528AD208512AB56844CF75B97F352DF7995024FB02855385854F3798670D01CAC771AC3E1889EC25F61A20C1F8CAB46898817F9C47E2CDA1F286BF2F358298709FE567C91133E2638C8B53975E753EA8BFD3578B5F7186B7BF084EBA3F77BAC3132A5779902EC22AF2D2E79F42D324E083386DAEE9810
310
D1B44A5DAA54513C7A71E52A4AB9257D975B621308FE4D2141CC3DCFE946C154A3C1DFCCA7629EC69ACFA831634ADDA93C0388D2A9A2DDAFCF957C6995BCE7FBB6DC4EBAE79E63EB08E9A25F52F67076F7093CA545CA3053B5BF576DEAD4E0017143C5F759F32B2D6F145B52B67B48909B7C7FCA6586EE385A2189C16932CB
310
6DDFD9152AE317C430492A578ED27B72D85D40C7C93C097939E1B50F4D67F05334FE9DC362C30B7FF561B95259138ECFD9274C8D695C31B14D4EAA9F3D7FA8DDF652F8C5DEFA23284C799B7D94416DEE81E05A866302DC70192A5368EA65E1CED8BF107A1E2D3119A71E85DC1A7B0C1E93274CE04DD0F2ABC8AC7C987FDB00
310
2B6F81757B43502EF7A0D92E416494FAEEA4C9C090CD9557AA4D532F4996A272B94355C5A0E4974EEA9627476F30809B94D8D8D860062E02204643BEC7D0438AF800FC7E2B26955D595421E83C69E1A07E0E3122285835F014AD538188CF9737CE76D464A353FA55A001AB2526B84E985083693BC76FE211CA1D000679C889
310
E3C009832C87E1AC2EDD05C302557422DF0800E316FCAC86978A371F025A6C7DAA9F333E7BD160403A1A06EA75AA9888FF01504B03041400060808004558EB4851464CB48900000043010000360000006662782F41303633383332362D353536352D343142462D393732332D3534424130464437374441412F646972656374
310
6F72792E786D6C9D8F310EC2300C45AF127987122606C71DD918B841D4B851A43646695A717C52A85029031293A5A76FBF6FACEF7DA7264E43906840EF0FA03836E242F406C6DCEE4EA06AC22492573150D1F66C60C640E8938CB705396EEDD86DE9B5042FE27813D640EA63BB001C722AF6E55CB61E4863F58284D5D3F53D
310
D715CE1C3985E63FD7F1B7EBDD617E9F1E504B03041400060808004558EB48930AE25D45070000551C0000340000006662782F41303633383332362D353536352D343142462D393732332D3534424130464437374441412F6F626A656374732E786D6CDD59596FDB3810FE2B84F665F741D6E5B3705CC4765318DDB4458D2E
310
F64DA065DAE146172829B1F7D7EF90226551916DA50750AC03C432450D67BEB947D3B78728444F846534896F0CA7671B88C441B2A5F1FEC628F29D3936D0DB199AB224C96BFB0C14E388DC187CD9984DF72C2952B9B4253B5C84CDD5BBF9DF280B484C0C148438CB6E8C2C782011EEE1224FB6247BEC6D718E7BFBDDA1E7F4
310
CA8D3AD93DC3E943E3A8143312E7C02AACC7404572E0E83F41246B36B5F8066D9BD76D9B7B619B2504D719A57196E33878C155E338F70C578DE33CA7BF7CE70E26E6A0DFF7CCFED075CCF9DD7C693A23CF5E0C178BC9EDBB898166D34D9284950252126F418B4763E64C2D7EA7125FA2D0C67790C43109249A6D1BB644D2A5
310
246B62A201EB08D16A0A2965AD2D781D853FB3AD13281A4B1ADA4A38F55DB7DE64F30F809075B15296116EE559CE40D712FBD21FECA955AE6A7AA1198A704E18C5210AE98661060A82ADA5823432DC5B3829C431135A54F4EABC82615FF7A5362E77451872FF3566C2D37CF04792678233FA2F6127EEEBA7014F206D41E37C
310
2C85CD8F2990984C2DB158DEF35C79B30412ED42BC076B0131F926CF6DE0B5E0B160B534661FEE3687358F0FED87A72C4909CBB9E50967967EA73458332D30BE0EA094B8EABA3BA1F205A0FF08C857BCA029688ED143FFD057B2331C67BB8445A01D6423D3867F36E2972FAEA656F5F00C212D569EC314DCF60761AA89A19D
310
5D8374367D02A34F9827855B0738049BBEA731F77330141426B004F17EB73918B31504535884A77008D2C3DFD4E29708BE4A3A106F1A1A6A0BBF1D14A51CA6E967275DBD079B6134A854A5C9780EDFC10FC1F776B9FEB02ED80E07E45E3AF692EC684C7348A6ED0C69A06B2EFF75F55178E4FCF8273ED67D50DB15C039FB84
310
078E16BDACA55E90500CB0C2F370A91AB1724FC1DDC310C7242932B9DE16A882244C98BF39FAA50FB79EF5973282F2306901ADC10CB27BC068CA413166525D5524EC9D70CAC0C4309326B82FD5EA6F8A28F5719414318FB52F6DB1C907041A6E8A4055505396ADDC5691DDD2DDAEC8207AB5925C68404A8756844B13EF4320
310
6BE397911DC3904593D8A79084C15B5A4FD00EA8C0BBCC7346C29D4FC3B088FC1D0D2191F8114ECFD0EF28413D753D92E373C2B6AD0475CB524EA96C88032E815520A97455067DA953469E28AF33454253E940DB210B5163D63F932F78AA68015419A330F3B13B983B9EE7980377619B7DD775CDF9643934DD777D7B3E182D
310
17C3D1B8C9A70A57F58407AAE4758EE67FF943116D624C43B8C1C5C6DBF4CD5B913E6F2C888DD6AD3DF4C69E3B340783E1C0EC3BF33B7332723DA8DEE6B7F6DD72345ADEDE5A8C6449C1029259AE65FBCA24D3787F8E2BC5DDCB200A75CDF56CA7F4D514E6FF1B44DF379382A6C45F358856B1ABA522EC1A44F9A3CD108A83
310
479EA3FC00CABE56F76904D1261F6D71EE9571D9EE79B6F838CEC4B527EE783218740C7BE2A4EF8E746D3204D07A16B99FA438A0797B4A6D20D391E55765979EE70C4A6CD47FD7458057E7D58AA9CB994932E5D308EF89BFC3BCB16809A5D7246ECD7AFB30C9321A934C34862F0AC6064DBB07F5979EA55BCC96667E4472FC
310
2D162B3A8D861740340F7D6861733E44B85A47542E209B96731479C30CA95EC87FF4331CA561D91C5FC3C0711504AA2D6AB350CE343FE209ECD3C7B96F6F8998755CA35EB1AF2A8A56AD35A94FBE99FC19785425F413E15147742FB67A0367C23F630843C381E30D47952AAEA1A50ECB79F31716D0AE0647FF99D0FD43A7E2
310
B49B566A655E5988E72482DE17E705EBE4B1438826CAB694403232345CA276D22B0B4AD1F4A9B60F0E135DDFB992B8760CD4AE3486E15827415E48D16AC442176210C8E75DAFF06C85CD55AADF1D317F7A955D77BF484C8CAEE3001576198265FCD1EAF0D64A5DABA1B2679C07104AD7E2DB9C83476CC9F6D4CC69E4DACA7A
310
55D35EABB8573CA44630E6C53CD2DEF38BF00B065543CB9D59B2D0B3CAF5154F6D3D98689FF8D098D6697D7ABF6E508195CE4F7FE61891E70605B9BAE01DF405525F57A74141838294E8EBEAC2E3BF4417A214589BBDC108394B420A937CB2457B9240FE865145870E8545241379198C570629F51AA1C3D34FE52036C79B50
310
3D1D3C60986687B27F2B0298A442CEBC31E43AFA0D66A77C7C29265ABD4768DD640C3350C1E88D01169B53E8D07A1B98818989A3A0DE98718263E378CF337EF954F5FBF4184707A2D249AE6A4F175CA4649A3341299C8A970B50F7953766D36F175DB183700E979B22AF84392D9CA49120A8B708A570302A7C94F01EA0A4B8
310
2C97D3137B34483A8DF32FDA4149D5CC31DB8B997C0DEFDBE5678B8FD3579F501A167BAECE4B1DB346C9E49D7A589493AB2918861433C5BC8A5CBCB13EB304DE4B45E88E8211A0DF0FE3E11FD62289A2242E97AC5BF9760BAD1FE05DD5D652734268FD6D676489C9817C17E06F70467A789B3DC202A896513E502D21D60CA0
310
8AA63503501AE1BA80C7B4FDAB2592D5516DAA520FBB1C1EF122008123F11740DC6DEA1B6A534BF005E04ADC3C5DA885A9C560723EFB0F504B03041400060808004558EB481DC1395CE0000000550100003C0000006662782F41303633383332362D353536352D343142462D393732332D3534424130464437374441412F72
310
65736F75726365732F322F636E782E786D6C4D90CD4E042110845F8590781C7EE6A066C3B02FB1272F1B845E243BD0137E8CBEBDB062E2A93B555F3AD5A5CE5F71279F904BC0B451C90425902CBA90FC465BBD2DAF949CB5CA88F51F46493211363A64AA95CFD88E2939B899B60F750FE93E4571F59020077B3D92A7C4EEA6
310
948D16FB01D130D32A3A2877E64C354CB20C055BB6D04FD410619EB0194C0547F52AE4F3225E16292F529EC47A92E24DF1416AF58EB84F3EA40A198FA75558EC6BEA8984E203D0AAE530A9F14637FEE2B11E4FF16E6B556AEE1D4CAC7E1F1D0BD178E00FE4D7D58A8F27FB7834D0E72844FF00504B03041400060808004558
310
EB48FF15A4A45D000000800000003A0000006662782F41303633383332362D353536352D343142462D393732332D3534424130464437374441412F7265736F75726365732F636E782E786D6C4D8B3B0E80201005AF42B6F75B59F0390B113044D83508C6E30BC6C26AF226F3B8BA6360974DA7271430F523308B2B198F9B80
310
925DB700539227A2FCCB80A18E5640D320F996A81C9F32D6E9129A0D1EF74FCE750E6D57BC7165FBCA07504B03041400060808004558EB481161AEF74101000056050000300000006662782F41303633383332362D353536352D343142462D393732332D3534424130464437374441412F636E782E786D6CCD944D4EC33010
310
85AF12596219FF7401A8725C8905276081D839CE34982676644F10BD3D76715B10AA6051A9DD59E3CFD27B33CF23571FE350BD4388D6BB8608CA4905CEF8CEBABE2133AEEB7B52AD940CDEE3378C544E8FD0905C264AF6C1CF532975B0D6F390AB83759B52D488C1B63342249519748C0D89E615464DF58CBE83B8A19D464D
310
050D10FD1C0CA4F7684728EF4D008DD011B5E0E2B6E677B5104F422CF96229F88B649954B2F57E28BC7508C14F370B6E7C3ABA24874B960125E7600B953D1075D4465BEB244BF74AC6A4D7F585C3ED94B9691AACD1981AC5BC41C03A41A047C9BE60255976FCC3F7E3C3F351433A753680411FB6176B8338D58683349A12F1
310
BF2EECC0BFCCFBF62D59BEDCDC4F1A2EC2CE66779FDC98A2FB3B09294FDAF5C3357E8083B4F3E73F2D16B4E61A4DEF959DC933DBADC034F8BC11D527504B03041400060808004558EB48BCAB57DC7E000000A30000000B0000006662782F636E782E786D6C4D8CD10A832018465F45FE7B37CBD4066A18D17BC4B290950E97
310
638F3F1D5DECEA83C3778EEC3EFB86DE36BE5CF00AAA0B0164FD3DCCCEAF0AD2B1E01650A7650CE1F8BB01F2D36E15140C5AAE31A4E78966BB4C692B7473FE714243386D69CD31639CE1A6EA477C1335C5ACE90D1907210663B2712D4A9E5F2F6FC9EB2F504B03041400060808004558EB48A6D797065F0000008200000007
310
000000636E782E786D6C4DCB3B0E80201045D1AD90E9FD7516806B51190811670C8A61F982B1B0BAC9C97B72CA7B1037C6D3332918DA1E04D2CAC69353902EDB8C20262D23F3F59B81A079470595414B17391D1F19B4730A5583A7ED43BBE4025D9592775E5ADFFA01504B03041400060808004558EB48ECFD112DA8000000
310
26010000130000005B436F6E74656E745F54797065735D2E786D6C7D4F4B0EC22010BD0A61DF525D18634ABB506FE00510A79458060253536F2FD89D5197F3FED3F68B9BD80362B21E25DFD40D6780DADF2C1AC9671AAA3D677DD75E9E0112CB5A4C928F44E12044D22338956A1F003333F8E814E5331A1194BE2B0362DB34
310
3BA13D122055543278D79E6050F344ECBC6478EDCD76CE8EABAE5449AE4298AC56946789C28AAFBEABC53F3EAF09A84A1441B91F0101CD4780756578C173A578FFDDBD00504B03041400060808004558EB483DEE336E64000000790000001B0000006175746F6465736B2D64657369676E2D7061636B6167652E786D6C35CB
310
C10E83200C00D05F21DCA56CA76D41FC96062B120735B69A7DBE268BB7777961F8D5AF396893C2ADB70FE7ADA196782C2DF776D7A97B5933C430F15651E5469C55D70F80A4992A3ADC954792C525AE70A1E4D6AD9816CC044FEFDF01FE3FDE907802504B03041400060808004558EB487403604BF40000008E0100003D0000
310
006662782F41303633383332362D353536352D343142462D393732332D3534424130464437374441412F7265736F75726365732F322F636F72652E786D6C8550CB6E833010FC15B4778397929044C6514A922FE8A937CB38D44AB0911F553FBF76A0527BEA6957B333B3BBC38E5FD3A3F854CE6B6B3AC09242A18CB4833663
310
0731DCC80E8A2367CEDAF08B06851193EA20C3C0D9E86C9C57485A1394C9A8B1835A41E1BD0A50C8476A3AF0F2434DA214312486BF97B3907731AA12CB85C7598C7A58A57A486EFAA69503DE36D77DBFAF915C4E4849437B4A76BBD7136937D89FDBCDB5395FB6ACCA62CE829E7EB64BA7445003F09AE296D09620BE211E68
310
7D40FACEAACCE4CC07977E5E97E6EF129D550BFAC72DCEC3FF6E519BF052AF6E8BC203C774DC73C05995D349E5195DAA3949FE0D504B03041400060808004558EB48A863BA97F9000000960100003B0000006662782F41303633383332362D353536352D343142462D393732332D3534424130464437374441412F7265736F
310
75726365732F636F72652E786D6C8550CB6E833010FC15B477834D494822E32825C917F4D49B6536D44AB0911F553FBF76A0527BEA6957B333B3BBC38F5FD3A3F844E7B5351DB092428146D9419BB183186E6407C55170676DF84583C2C8093BC830083E3A1BE71552D60434193576C01594DE6380423D52D381571F38C952
310
C69018FE5ECE52DDE588252B179EE031EA6195EA21B9E99B4607A26DAEFB7E5F337239314A1ADA53B2DBBD9E48BB61FDB9DD5C9BF365CBAB2C163CE8E967BB7228030E206ACAB684B684B137C60EB43E30FACEABCC14DC07977E5E97E6EF4038F4363A859E57CBF48F6B9C87FF5DA336E1A55E5D178507C1D291CF81E0554E
310
29956784A9E644C537504B03041400060808004558EB48DE8E3E1FF2000000B1010000310000006662782F41303633383332362D353536352D343142462D393732332D3534424130464437374441412F636F72652E786D6C8D50CB6EC32010FC156BEFD860C7761A61224751BEA0A7DE10101725068B4795CF0FC4AED4DE72
310
5A343BC3CC0E3D3EE67BF1A39CD7D60C404A0C8532C24A6DA60162B8A23D1447469DB5E10F0D0AC36735408681D1C9D9B86C90B02628935163A5DA40EEBD0A50887B7A0CE0C5B79A79C963480C7F2B172E6E7C522529571EA341CFBF52E1140F4A02AB31E910EE11219F841C707D20F88B5699C9688C5A6E565A26777DD5CA
310
011B71D7EC9BBA436DDBB568474E17F4D1D70D6A77A7115FCE7D7F1E475A6531A33EB874F3F649BEEE5DF92AFC97392EF28DCCDA84A6DE0C57850746529ED782D12A1798C6ABDD3473D9EC09504B03041400060808004558EB4847B310A754010000DD0200000C0000006662782F636F72652E786D6C8D52CB6EC32010FC15
310
8B3B36B84E9C449828CDE30B7AEA8D60E2A2D86061B0F2F9053F94FAD0B4B284D1ECEECCCE08B27F3475D40BD349AD0A80630422A1B82EA5AA0AE0EC0D6E40B4A7C4686D7FB48148B1461420C08092CA68D74E10D7CA0A1550A54B3181ACEB840511AFFDA5001DFF120D8B99B3BEA3BBC72DE377568918C7631F25CEC9721A
310
95A5679337290CA07976D91EB72986E7034630434704379BF703CC57F878CA5797EC745E93240C53626533AB7323981525A029C26B887288F107C63B94EE30FA2449E8A4A4B3C67B9E44833B406FD70749467CC1E7DAF26F3E27957D4B27BE71A20314FBF586022549C8C7FF86F096197A619F9F65D77AB670F7502FB8D526
310
F39552BB67A967B5139E1A45C34792B1EA990782DF78D2173CAF397C504C557E3566FDF5EA6C505FEED40A037BFB8894360DAB9FCB8D2B3ECFA7D0C2D23CCE75ADCD7FA667AB7398497898F41B504B03041400060808004558EB4872608CD607010000B201000008000000636F72652E786D6C8D50416EC32010FC0ADA3B36
310
B84EEC449828759217F4D41B35C441B1C1021CB5BF2FC4AED4DE7A5A3433BB330C3B7C8E037A28E7B5350DD08C0052A6B3529BBE81395C710DE8C099B336FC92013262540D241838EB9D9DA715EAAC09CA24D458A9565078AF02A06E888F067C7753A3C8C41CA2C2DFB3497477D1AB8C668B8EB3A0C79FD5CE291194045E10
310
BAC5A4C294BE51BA27C59E927796272567F3ACE56AA56574D757AD1CF0AABCECDA5D41F1F948092E494B705DBF1E71B5A1EDA9DA5CCAD379CBF2B4CC990F2EFE793D127306E4C523F9B27CA138FBB0765805319444D60C5FC009CB13F127F43CC97F84D626BC14EBC165C303A731D09388C6A9C1389EF5C699DAE6DF504B01
310
0214001400060808004558EB480000000000000000000000003700000000000000000000000000000000006662782F41303633383332362D353536352D343142462D393732332D3534424130464437374441412F617474726962757465732E62696E504B010214001400060808004558EB4800000000000000000000000035
310
00000000000000000000000000550000006662782F41303633383332362D353536352D343142462D393732332D3534424130464437374441412F76657274696365732E62696E504B010214001400060808004558EB48F270F13306000000040000003600000000000000000000000000A80000006662782F41303633383332
310
362D353536352D343142462D393732332D3534424130464437374441412F747269616E676C65732E62696E504B010214001400060808004558EB4888E57597CD3F0000904100004200000000000000000000000000020100006662782F41303633383332362D353536352D343142462D393732332D35344241304644373744
310
41412F7265736F75726365732F322F305F67656E657269632E706E67504B010214001400060808004558EB4851464CB4890000004301000036000000000000000000000000002F4100006662782F41303633383332362D353536352D343142462D393732332D3534424130464437374441412F6469726563746F72792E786D
310
6C504B010214001400060808004558EB48930AE25D45070000551C000034000000000000000000000000000C4200006662782F41303633383332362D353536352D343142462D393732332D3534424130464437374441412F6F626A656374732E786D6C504B010214001400060808004558EB481DC1395CE000000055010000
310
3C00000000000000000000000000A34900006662782F41303633383332362D353536352D343142462D393732332D3534424130464437374441412F7265736F75726365732F322F636E782E786D6C504B010214001400060808004558EB48FF15A4A45D000000800000003A00000000000000000000000000DD4A0000666278
310
2F41303633383332362D353536352D343142462D393732332D3534424130464437374441412F7265736F75726365732F636E782E786D6C504B010214001400060808004558EB481161AEF741010000560500003000000000000000000000000000924B00006662782F41303633383332362D353536352D343142462D393732
310
332D3534424130464437374441412F636E782E786D6C504B010214001400060808004558EB48BCAB57DC7E000000A30000000B00000000000000000000000000214D00006662782F636E782E786D6C504B010214001400060808004558EB48A6D797065F000000820000000700000000000000000000000000C84D0000636E
310
782E786D6C504B010214001400060808004558EB48ECFD112DA80000002601000013000000000000000000000000004C4E00005B436F6E74656E745F54797065735D2E786D6C504B010214001400060808004558EB483DEE336E64000000790000001B00000000000000000000000000254F00006175746F6465736B2D6465
310
7369676E2D7061636B6167652E786D6C504B010214001400060808004558EB487403604BF40000008E0100003D00000000000000000000000000C24F00006662782F41303633383332362D353536352D343142462D393732332D3534424130464437374441412F7265736F75726365732F322F636F72652E786D6C504B0102
310
14001400060808004558EB48A863BA97F9000000960100003B00000000000000000000000000115100006662782F41303633383332362D353536352D343142462D393732332D3534424130464437374441412F7265736F75726365732F636F72652E786D6C504B010214001400060808004558EB48DE8E3E1FF2000000B101
310
00003100000000000000000000000000635200006662782F41303633383332362D353536352D343142462D393732332D3534424130464437374441412F636F72652E786D6C504B010214001400060808004558EB4847B310A754010000DD0200000C00000000000000000000000000A45300006662782F636F72652E786D6C
310
504B010214001400060808004558EB4872608CD607010000B2010000080000000000000000000000000022550000636F72652E786D6C504B050600000000120012002D0600004F5600000000
  0
XRECORD
  5
17
102
{ACAD_REACTORS
330
12
102
}
330
12
100
AcDbXrecord
280
     1
270
     1
271
     1
  0
XRECORD
  5
16
102
{ACAD_REACTORS
330
12
102
}
330
12
100
AcDbXrecord
280
     1
270
     1
271
     1
  0
XRECORD
  5
18
102
{ACAD_REACTORS
330
12
102
}
330
12
100
AcDbXrecord
280
     1
270
     1
271
     1
  0
XRECORD
  5
15
102
{ACAD_REACTORS
330
12
102
}
330
12
100
AcDbXrecord
280
     1
270
     1
271
     1
  0
XRECORD
  5
24
102
{ACAD_REACTORS
330
22
102
}
330
22
100
AcDbXrecord
280
     1
270
     1
271
     1
  0
XRECORD
  5
23
102
{ACAD_REACTORS
330
22
102
}
330
22
100
AcDbXrecord
280
     1
270
     1
271
     1
  0
XRECORD
  5
27
102
{ACAD_REACTORS
330
22
102
}
330
22
100
AcDbXrecord
280
     1
270
     1
271
     1
  0
XRECORD
  5
26
102
{ACAD_REACTORS
330
22
102
}
330
22
100
AcDbXrecord
280
     1
270
     1
271
     1
  0
XRECORD
  5
28
102
{ACAD_REACTORS
330
22
102
}
330
22
100
AcDbXrecord
280
     1
270
     1
271
     1
  0
XRECORD
  5
25
102
{ACAD_REACTORS
330
22
102
}
330
22
100
AcDbXrecord
280
     1
270
     1
271
     1
  0
XRECORD
  5
11A1
102
{ACAD_REACTORS
330
11A0
102
}
330
11A0
100
AcDbXrecord
280
     1
102
DISPLAYNAME
  1
Imperial24
102
FLAGS
 90
        0
  0
CELLSTYLEMAP
  5
119F
102
{ACAD_REACTORS
330
119E
102
}
330
119E
100
AcDbCellStyleMap
 90
        3
300
CELLSTYLE
  1
TABLEFORMAT_BEGIN
 90
        5
170
     1
 91
        0
 92
    32768
 62
   257
 93
        1
300
CONTENTFORMAT
  1
CONTENTFORMAT_BEGIN
 90
        0
 91
        0
 92
      512
 93
        0
300

 40
0.0
140
1.0
 94
        5
 62
     0
340
55
144
0.25
309
CONTENTFORMAT_END
171
     0
 94
        0
309
TABLEFORMAT_END
  1
CELLSTYLE_BEGIN
 90
        1
 91
        1
300
_TITLE
309
CELLSTYLE_END
300
CELLSTYLE
  1
TABLEFORMAT_BEGIN
 90
        5
170
     1
 91
        0
 92
        0
 62
   257
 93
        1
300
CONTENTFORMAT
  1
CONTENTFORMAT_BEGIN
 90
        0
 91
        0
 92
      512
 93
        0
300

 40
0.0
140
1.0
 94
        5
 62
     0
340
55
144
0.18
309
CONTENTFORMAT_END
171
     0
 94
        0
309
TABLEFORMAT_END
  1
CELLSTYLE_BEGIN
 90
        2
 91
        1
300
_HEADER
309
CELLSTYLE_END
300
CELLSTYLE
  1
TABLEFORMAT_BEGIN
 90
        5
170
     1
 91
        0
 92
        0
 62
   257
 93
        1
300
CONTENTFORMAT
  1
CONTENTFORMAT_BEGIN
 90
        0
 91
        0
 92
      512
 93
        0
300

 40
0.0
140
1.0
 94
        2
 62
     0
340
55
144
0.18
309
CONTENTFORMAT_END
171
     0
 94
        0
309
TABLEFORMAT_END
  1
CELLSTYLE_BEGIN
 90
        3
 91
        2
300
_DATA
309
CELLSTYLE_END
  0
ENDSEC
  0
EOF
